osu file format v14

[General]
AudioFilename: audio.mp3
AudioLeadIn: 0
PreviewTime: 130723
Countdown: 0
SampleSet: Soft
StackLeniency: 0.6
Mode: 0
LetterboxInBreaks: 0
WidescreenStoryboard: 1

[Editor]
Bookmarks: 28572,30091,55154,61230,70723,73192,78223,80787,83635,104141,109458,158065,168318,173255,185407
DistanceSpacing: 1.4
BeatDivisor: 4
GridSize: 8
TimelineZoom: 2.899999

[Metadata]
Title:i'll die anyway.
TitleUnicode:i'll die anyway.
Artist:girl in red
ArtistUnicode:girl in red
Creator:yousick
Version:hard
Source:
Tags:Marie Ulven Ringheim pop indie english Lylaera sylvantia Renumi hewwo Klee4ko TryFly2 Sightread bedroom alternative
BeatmapID:4140371
BeatmapSetID:1992574

[Difficulty]
HPDrainRate:3.5
CircleSize:3.2
OverallDifficulty:6
ApproachRate:7.5
SliderMultiplier:1.3
SliderTickRate:1

[Events]
//Background and Video events
0,0,"bg.jpg",0,0
//Break Periods
//Storyboard Layer 0 (Background)
//Storyboard Layer 1 (Fail)
//Storyboard Layer 2 (Pass)
//Storyboard Layer 3 (Foreground)
//Storyboard Layer 4 (Overlay)
//Storyboard Sound Samples

[TimingPoints]
91,379.746835443038,4,2,1,50,1,0
91,-142.857142857143,4,2,1,50,0,0
1515,-142.857142857143,4,2,1,5,0,0
1609,-142.857142857143,4,2,1,50,0,0
4553,-142.857142857143,4,2,1,5,0,0
4647,-133.333333333333,4,2,1,50,0,0
4932,-133.333333333333,4,2,1,5,0,0
5027,-133.333333333333,4,2,1,75,0,0
6166,-142.857142857143,4,2,1,50,0,0
7591,-142.857142857143,4,2,1,5,0,0
7685,-142.857142857143,4,2,1,50,0,0
9204,-133.333333333333,4,2,1,55,0,0
10628,-142.857142857143,4,2,1,55,0,0
10723,-125,4,2,1,60,0,0
12242,-111.111111111111,4,2,1,65,0,0
15185,-111.111111111111,4,2,1,5,0,0
15280,-111.111111111111,4,2,1,65,0,0
16799,-100,4,2,1,65,0,0
17084,-100,4,2,1,65,0,0
17179,-100,4,2,1,65,0,0
18318,-111.111111111111,4,2,1,65,0,0
21261,-111.111111111111,4,2,1,5,0,0
21356,-111.111111111111,4,2,1,65,0,0
22875,-100,4,2,1,65,0,0
23160,-100,4,2,1,5,0,0
23255,-100,4,2,1,65,0,0
24394,-117.647058823529,4,2,1,50,0,0
27337,-117.647058823529,4,2,1,5,0,0
27432,-117.647058823529,4,2,1,50,0,0
33413,-117.647058823529,4,2,1,5,0,0
33508,-117.647058823529,4,2,1,50,0,0
39489,-117.647058823529,4,2,1,5,0,0
39584,-117.647058823529,4,2,1,50,0,0
45565,-117.647058823529,4,2,1,5,0,0
45660,-117.647058823529,4,2,1,50,0,0
48698,-100,4,2,1,65,0,0
59331,-90.9090909090909,4,2,1,50,0,0
60850,-100,4,2,1,65,0,0
66926,-90.9090909090909,4,2,1,65,0,0
73002,-86.9565217391304,4,2,1,70,0,1
75945,-86.9565217391304,4,2,1,70,0,1
76040,-86.9565217391304,4,2,1,70,0,1
77559,-83.3333333333333,4,2,1,70,0,1
77844,-83.3333333333333,4,2,1,70,0,1
77939,-83.3333333333333,4,2,1,70,0,1
78413,-83.3333333333333,4,2,1,70,0,1
78508,-83.3333333333333,4,2,1,70,0,1
78698,-86.9565217391304,4,2,1,70,0,1
82021,-86.9565217391304,4,2,1,70,0,1
82116,-86.9565217391304,4,2,1,70,0,1
83635,-83.3333333333333,4,2,1,70,0,1
83920,-83.3333333333333,4,2,1,5,0,1
84015,-83.3333333333333,4,2,1,70,0,1
84489,-83.3333333333333,4,2,1,5,0,1
84584,-83.3333333333333,4,2,1,75,0,1
84774,-86.9565217391304,4,2,1,70,0,1
85154,-117.647058823529,4,2,1,50,0,0
88097,-117.647058823529,4,2,1,5,0,0
88192,-117.647058823529,4,2,1,50,0,0
94173,-117.647058823529,4,2,1,50,0,0
94268,-117.647058823529,4,2,1,50,0,0
100249,-117.647058823529,4,2,1,5,0,0
100344,-117.647058823529,4,2,1,50,0,0
106325,-117.647058823529,4,2,1,50,0,0
106420,-117.647058823529,4,2,1,50,0,0
109363,-117.647058823529,4,2,1,5,0,0
109458,-133.333333333333,4,2,1,30,0,0
121230,-133.333333333333,4,2,1,20,0,0
121609,-117.647058823529,4,2,1,50,0,0
130723,-250,4,2,1,50,0,0
133761,-100,4,2,1,65,0,0
145913,-90.9090909090909,4,2,1,65,0,0
153508,-86.9565217391304,4,2,1,65,0,0
158065,-86.9565217391304,4,2,1,30,0,0
161103,-86.9565217391304,4,2,1,70,0,1
164046,-86.9565217391304,4,2,1,5,0,1
164141,-86.9565217391304,4,2,1,70,0,1
165660,-83.3333333333333,4,2,1,70,0,1
165945,-83.3333333333333,4,2,1,5,0,1
166040,-83.3333333333333,4,2,1,70,0,1
166515,-83.3333333333333,4,2,1,5,0,1
166610,-83.3333333333333,4,2,1,70,0,1
167179,-86.9565217391304,4,2,1,70,0,1
170122,-86.9565217391304,4,2,1,70,0,1
170217,-86.9565217391304,4,2,1,70,0,1
171736,-83.3333333333333,4,2,1,70,0,1
172021,-83.3333333333333,4,2,1,5,0,1
172116,-83.3333333333333,4,2,1,70,0,1
173255,-86.9565217391304,4,2,1,70,0,1
176198,-86.9565217391304,4,2,1,5,0,1
176293,-86.9565217391304,4,2,1,70,0,1
177812,-83.3333333333333,4,2,1,70,0,1
178097,-83.3333333333333,4,2,1,70,0,1
178192,-83.3333333333333,4,2,1,70,0,1
178666,-83.3333333333333,4,2,1,5,0,1
178761,-83.3333333333333,4,2,1,70,0,1
179331,-86.9565217391304,4,2,1,70,0,1
182274,-86.9565217391304,4,2,1,70,0,1
182369,-86.9565217391304,4,2,1,70,0,1
183888,-83.3333333333333,4,2,1,70,0,1
184173,-83.3333333333333,4,2,1,5,0,1
184268,-83.3333333333333,4,2,1,70,0,1
184742,-83.3333333333333,4,2,1,5,0,1
184837,-83.3333333333333,4,2,1,70,0,1
185407,-80,4,2,1,50,0,0
189964,-80,4,2,1,50,0,0

[Colours]
Combo1 : 194,135,135
Combo2 : 255,168,81
Combo3 : 201,197,137
Combo4 : 149,167,227

[HitObjects]
23,340,91,6,0,B|61:340|61:340|134:349,1,90.9999972229005,0|8,0:0|0:0,0:0:0:0:
202,367,660,1,0,0:0:0:0:
202,367,850,2,0,L|247:363,1,45.4999986114502
327,317,1230,2,0,L|406:323,1,68.2499979171754,8|0,0:0|0:0,0:0:0:0:
438,334,1609,6,0,P|462:338|498:333,1,45.4999986114502
467,246,1989,2,0,P|471:222|466:186,1,45.4999986114502,8|0,0:0|0:0,0:0:0:0:
390,161,2369,1,0,0:0:0:0:
390,161,2559,1,0,0:0:0:0:
307,198,2749,2,0,P|305:220|309:243,1,45.4999986114502,8|0,0:0|0:0,0:0:0:0:
238,329,3128,6,0,B|199:329|199:329|147:335,1,90.9999972229005,0|8,0:0|0:0,0:0:0:0:
65,375,3698,1,0,0:0:0:0:
65,375,3888,2,0,P|59:345|63:312,1,45.4999986114502
99,248,4268,2,0,B|99:208|99:208|92:174,1,68.2499979171754,8|0,0:0|0:0,0:0:0:0:
84,131,4647,6,0,P|123:119|163:124,1,73.1250027894975
192,153,5027,1,8,0:0:0:0:
253,67,5217,1,0,0:0:0:0:
253,67,5407,2,0,L|258:11,1,48.750001859665
349,91,5787,1,8,0:0:0:0:
415,11,5977,1,8,0:0:0:0:
477,102,6166,6,0,B|477:141|477:141|471:193,1,90.9999972229005,0|8,3:2|0:0,0:0:0:0:
399,249,6736,1,0,0:0:0:0:
399,249,6926,2,0,L|393:312,1,45.4999986114502,0|0,3:2|0:0,0:0:0:0:
312,352,7306,2,0,B|272:344|272:344|232:345,1,68.2499979171754,8|0,0:0|0:0,0:0:0:0:
202,361,7685,6,0,P|174:362|154:356,1,45.4999986114502,0|0,3:2|0:0,0:0:0:0:
65,364,8065,2,0,P|59:341|61:319,1,45.4999986114502,8|0,0:0|0:0,0:0:0:0:
111,244,8445,1,4,3:2:0:0:
111,244,8635,1,0,0:0:0:0:
201,230,8825,2,0,P|203:253|198:275,1,45.4999986114502,8|0,0:0|0:0,0:0:0:0:
288,335,9204,6,0,P|328:330|406:335,1,97.50000371933,0|8,3:2|0:0,0:0:0:0:
468,281,9774,1,0,0:0:0:0:
468,281,9964,2,0,L|463:233,1,48.750001859665,0|0,3:2|0:0,0:0:0:0:
377,148,10344,2,0,B|337:140|337:140|294:139,1,73.1250027894975,8|0,0:0|0:0,0:0:0:0:
256,107,10723,6,0,B|254:99|254:99|255:81,3,26,0|0|0|0,3:2|0:0|0:0|0:0,0:0:0:0:
252,133,11103,2,0,L|247:188,2,52,8|0|0,0:0|0:0|0:0,0:0:0:0:
264,0,11673,5,8,0:0:0:0:
151,65,11863,1,8,0:0:0:0:
341,97,12242,6,0,L|420:103,1,58.4999982147217,4|0,3:2|0:0,0:0:0:0:
479,161,12622,1,8,0:0:0:0:
398,246,12812,2,0,B|356:252|323:239|323:239|267:244,1,116.999996429443
203,304,13382,2,0,P|199:336|197:367,1,58.4999982147217,8|0,0:0|0:0,0:0:0:0:
93,313,13761,6,0,P|91:283|87:254,1,58.4999982147217,0|0,3:2|0:0,0:0:0:0:
47,168,14141,1,8,0:0:0:0:
47,168,14331,1,0,0:0:0:0:
146,173,14521,2,0,P|175:171|204:167,1,58.4999982147217,4|0,3:2|0:0,0:0:0:0:
313,194,14901,2,0,P|317:149|296:100,1,87.7499973220826,8|0,0:0|0:0,0:0:0:0:
323,64,15280,6,0,P|352:62|381:58,1,58.4999982147217,0|0,3:2|0:0,0:0:0:0:
467,13,15660,1,8,0:0:0:0:
459,128,15850,2,0,B|465:169|452:202|452:202|457:258,1,116.999996429443
389,318,16420,2,0,P|359:314|330:312,1,58.4999982147217,8|0,0:0|0:0,0:0:0:0:
233,244,16799,6,0,P|188:239|139:261,1,97.5,0|0,3:2|0:0,0:0:0:0:
118,293,17179,1,8,0:0:0:0:
224,380,17369,2,0,P|241:314|239:249,1,130,0|0,0:0|3:2,0:0:0:0:
211,161,17939,1,8,0:0:0:0:
282,113,18128,1,8,0:0:0:0:
191,22,18318,6,0,L|119:28,1,58.4999982147217,0|0,3:2|0:0,0:0:0:0:
43,55,18698,1,8,0:0:0:0:
74,168,18888,2,0,B|88:216|88:216|73:256|85:295,1,116.999996429443
170,262,19458,2,0,P|199:258|228:256,1,58.4999982147217,8|0,0:0|0:0,0:0:0:0:
295,335,19837,6,0,P|324:338|353:340,1,58.4999982147217,0|0,3:2|0:0,0:0:0:0:
447,328,20217,1,8,0:0:0:0:
447,328,20407,1,0,0:0:0:0:
396,252,20597,2,0,P|366:249|337:247,1,58.4999982147217,4|0,3:2|0:0,0:0:0:0:
236,246,20977,2,0,P|231:201|253:152,1,87.7499973220826,8|0,0:0|0:0,0:0:0:0:
212,125,21356,6,0,P|182:128|153:130,1,58.4999982147217,0|0,3:2|0:0,0:0:0:0:
73,173,21736,1,8,0:0:0:0:
63,286,21926,2,0,B|109:304|109:304|150:292|188:308,1,116.999996429443
272,320,22496,2,0,P|259:288|253:247,1,58.4999982147217,8|0,0:0|0:0,0:0:0:0:
242,163,22875,6,0,P|287:158|336:180,1,97.5,0|0,3:2|0:0,0:0:0:0:
358,217,23255,1,8,0:0:0:0:
251,299,23445,2,0,P|234:233|236:168,1,130,0|0,0:0|3:2,0:0:0:0:
189,91,24015,1,10,0:0:0:0:
265,45,24204,1,8,0:0:0:0:
336,154,24394,6,0,L|330:208,1,55.2500010538101,0|0,3:2|0:0,0:0:0:0:
420,294,24774,2,0,P|435:242|435:186,1,110.50000210762,10|0,0:0|3:2,0:0:0:0:
370,44,25534,2,0,P|339:36|298:37,1,55.2500010538101,8|0,0:0|0:0,0:0:0:0:
234,58,25913,6,0,L|178:62,1,55.2500010538101,0|0,3:2|0:0,0:0:0:0:
91,30,26293,1,8,0:0:0:0:
47,119,26483,2,0,P|38:147|41:182,2,55.2500010538101,2|4|2,0:0|3:2|0:0,0:0:0:0:
141,164,27053,2,0,B|179:168|179:168|229:164,1,82.8750015807152,8|0,0:0|0:0,0:0:0:0:
255,142,27432,6,0,P|287:140|313:141,1,55.2500010538101,0|0,3:2|0:0,0:0:0:0:
404,74,27812,2,0,P|420:130|415:201,1,110.50000210762,8|0,0:0|3:2,0:0:0:0:
348,316,28572,2,0,L|292:311,1,55.2500010538101,8|0,0:0|0:0,0:0:0:0:
211,310,28951,6,0,L|155:314,1,55.2500010538101,0|0,3:2|0:0,0:0:0:0:
48,290,29331,2,0,B|29:221|81:185|62:119,1,165.75000316143,8|0,0:0|3:2,0:0:0:0:
80,27,30091,1,8,0:0:0:0:
168,103,30280,1,8,0:0:0:0:
241,39,30470,6,0,L|320:45,1,55.2500010538101,2|0,3:2|0:0,0:0:0:0:
381,91,30850,2,0,L|460:85,1,55.2500010538101,10|0,0:0|0:0,0:0:0:0:
480,184,31230,2,0,P|464:240|469:311,1,110.50000210762,2|8,3:2|0:0,0:0:0:0:
321,349,31989,6,0,L|265:344,1,55.2500010538101,2|0,3:2|0:0,0:0:0:0:
171,363,32369,1,10,0:0:0:0:
196,279,32559,2,0,P|205:251|202:216,2,55.2500010538101,0|6|0,0:0|3:2|0:0,0:0:0:0:
89,264,33128,2,0,B|85:226|85:226|89:176,1,82.8750015807152,10|0,0:0|0:0,0:0:0:0:
67,148,33508,6,0,P|69:116|65:85,1,55.2500010538101,0|0,3:2|0:0,0:0:0:0:
150,47,33888,2,0,P|205:46|257:62,1,110.50000210762,8|0,0:0|3:2,0:0:0:0:
388,144,34648,2,0,P|415:146|451:136,1,55.2500010538101,8|0,0:0|0:0,0:0:0:0:
418,237,35027,6,0,L|412:300,1,55.2500010538101,0|0,3:2|0:0,0:0:0:0:
333,351,35407,2,0,B|264:370|228:318|162:337,1,165.75000316143,8|2,0:0|3:2,0:0:0:0:
74,299,36167,1,10,0:0:0:0:
126,225,36356,1,8,0:0:0:0:
122,126,36546,6,0,L|58:131,1,55.2500010538101,0|0,3:2|0:0,0:0:0:0:
138,218,36926,2,0,P|193:207|265:215,1,110.50000210762,10|0,0:0|3:2,0:0:0:0:
377,294,37686,2,0,P|381:264|382:230,1,55.2500010538101,8|0,0:0|0:0,0:0:0:0:
444,184,38065,6,0,L|450:120,1,55.2500010538101,0|0,3:2|0:0,0:0:0:0:
426,38,38445,1,10,0:0:0:0:
344,93,38635,2,0,L|340:148,2,55.2500010538101,0|6|2,0:0|3:2|0:0,0:0:0:0:
260,41,39205,2,0,B|222:37|222:37|172:41,1,82.8750015807152,8|0,0:0|0:0,0:0:0:0:
144,61,39584,6,0,P|112:63|82:61,1,55.2500010538101,0|0,3:2|0:0,0:0:0:0:
38,141,39964,2,0,P|39:196|23:248,1,110.50000210762,8|0,0:0|3:2,0:0:0:0:
140,349,40724,2,0,L|195:344,1,55.2500010538101,8|0,0:0|0:0,0:0:0:0:
244,266,41103,6,0,L|188:261,1,55.2500010538101,0|0,3:2|0:0,0:0:0:0:
232,163,41483,2,0,B|296:152|330:187|397:172,1,165.75000316143,8|0,0:0|3:2,0:0:0:0:
431,77,42242,1,10,0:0:0:0:
502,138,42432,1,8,0:0:0:0:
453,237,42622,6,0,L|448:292,1,55.2500010538101,2|0,3:2|0:0,0:0:0:0:
352,369,43002,2,0,P|367:317|367:261,1,110.50000210762,10|2,0:0|3:2,0:0:0:0:
259,148,43762,2,0,L|252:219,1,55.2500010538101,10|0,0:0|0:0,0:0:0:0:
164,244,44141,6,0,L|169:307,1,55.2500010538101,2|0,3:2|0:0,0:0:0:0:
234,368,44521,1,8,0:0:0:0:
257,269,44711,2,0,L|252:213,2,55.2500010538101,2|4|0,0:0|3:2|0:0,0:0:0:0:
200,364,45280,2,0,B|156:358|156:358|117:359,1,82.8750015807152,10|0,0:0|0:0,0:0:0:0:
78,358,45660,6,0,P|46:360|16:358,1,55.2500010538101,0|0,3:2|0:0,0:0:0:0:
35,244,46040,2,0,P|34:189|50:137,1,110.50000210762,8|0,0:0|3:2,0:0:0:0:
200,174,46800,2,0,L|144:169,1,55.2500010538101,8|0,0:0|0:0,0:0:0:0:
207,97,47179,6,0,L|262:101,1,55.2500010538101,0|0,3:2|0:0,0:0:0:0:
358,34,47559,2,0,B|355:80|355:80|383:129|349:199,1,165.75000316143,8|0,0:0|3:2,0:0:0:0:
426,260,48318,1,10,0:0:0:0:
341,303,48508,1,8,0:0:0:0:
250,223,48698,6,0,B|213:220|170:233|170:233|116:227,2,130,2|2|2,3:2|3:2|3:2,0:0:0:0:
386,352,49837,1,2,3:2:0:0:
386,352,50027,1,2,0:0:0:0:
295,341,50217,5,0,3:2:0:0:
117,347,50597,1,0,3:2:0:0:
117,347,50787,2,0,B|138:271|108:238|85:221|105:151,1,195,2|0,0:0|3:2,0:0:0:0:
253,52,51736,6,0,B|301:46|301:46|344:59|381:56,2,130,2|2|2,3:2|3:2|3:2,0:0:0:0:
100,149,52875,1,0,3:2:0:0:
100,149,53065,1,2,0:0:0:0:
140,53,53255,1,0,3:2:0:0:
288,168,53635,5,0,3:2:0:0:
288,168,53825,2,0,B|260:241|286:276|308:296|282:364,1,195,2|0,0:0|3:2,0:0:0:0:
433,255,54774,5,0,3:2:0:0:
370,89,55154,1,2,3:2:0:0:
370,89,55344,2,0,P|293:85|233:104,1,130,2|2,0:0|0:0,0:0:0:0:
167,150,55913,1,2,3:2:0:0:
340,206,56293,6,0,P|408:213|477:206,2,130,2|0|0,3:2|3:2|3:2,0:0:0:0:
167,150,57432,1,0,3:2:0:0:
340,206,57812,1,0,3:2:0:0:
206,329,58192,1,2,3:2:0:0:
206,329,58382,2,0,P|130:346|68:338,1,130,2|2,0:0|0:0,0:0:0:0:
4,262,58951,1,2,3:2:0:0:
86,79,59331,6,0,P|40:72|-3:83,1,71.5000021820069,2|2,3:2|0:0,0:0:0:0:
55,182,59711,2,0,P|48:227|59:270,1,71.5000021820069,2|0,3:2|0:0,0:0:0:0:
163,221,60091,2,0,P|208:227|251:216,1,71.5000021820069,0|0,3:2|0:0,0:0:0:0:
205,116,60470,2,0,P|211:70|200:28,1,71.5000021820069,0|0,3:2|0:0,0:0:0:0:
297,90,60850,6,0,L|294:123,3,32.5,6|0|0|0,3:2|0:0|0:0|0:0,0:0:0:0:
336,77,61230,2,0,L|333:110,3,32.5,2|0|0|0,3:2|0:0|0:0|0:0,0:0:0:0:
375,65,61609,2,0,L|372:98,3,32.5,2|0|0|0,3:2|0:0|0:0|0:0,0:0:0:0:
391,39,61989,1,2,3:2:0:0:
456,124,62179,6,0,P|463:162|463:203,1,65,2|0,0:0|3:2,0:0:0:0:
383,264,62559,2,0,P|377:225|377:184,1,65,2|0,0:0|3:2,0:0:0:0:
284,278,62939,2,0,B|230:305|192:272|130:317,1,130,2|0,0:0|0:0,0:0:0:0:
67,333,63508,1,0,3:2:0:0:
97,246,63698,1,2,0:0:0:0:
63,126,63888,6,0,L|30:129,3,32.5,2|0|0|0,3:2|0:0|0:0|0:0,0:0:0:0:
76,87,64268,2,0,L|43:90,3,32.5,2|0|0|0,3:2|0:0|0:0|0:0,0:0:0:0:
88,48,64647,2,0,L|55:51,3,32.5,2|0|0|0,3:2|0:0|0:0|0:0,0:0:0:0:
116,38,65027,1,2,3:2:0:0:
213,82,65217,6,0,P|211:49|205:17,1,65,2|0,0:0|3:2,0:0:0:0:
296,0,65597,2,0,P|297:32|303:64,1,65,2|0,0:0|3:2,0:0:0:0:
256,182,65977,2,0,B|309:177|309:177|337:183|337:183|404:178,1,130,2|0,0:0|0:0,0:0:0:0:
470,141,66546,1,0,3:2:0:0:
470,141,66736,1,0,0:0:0:0:
454,236,66926,6,0,B|475:238|475:238|489:234,3,35.7500010910034,0|0|0|0,3:2|0:0|0:0|0:0,0:0:0:0:
446,203,67306,2,0,B|444:182|444:182|447:167,3,35.7500010910034,2|0|2|0,3:2|0:0|0:0|0:0,0:0:0:0:
422,229,67685,2,0,B|402:226|402:226|375:233,3,35.7500010910034,0|0|2|0,3:2|0:0|0:0|0:0,0:0:0:0:
445,258,68065,1,2,3:2:0:0:
410,342,68255,1,8,0:0:0:0:
306,301,68445,6,0,B|303:321|303:321|310:348,3,35.7500010910034,10|0|0|0,0:0|0:0|0:0|0:0,0:0:0:0:
314,268,68825,2,0,B|334:265|334:265|361:272,3,35.7500010910034,2|0|0|0,3:2|0:0|0:0|0:0,0:0:0:0:
282,275,69204,2,0,B|261:277|261:277|234:270,3,35.7500010910034,0|0|0|0,3:2|0:0|0:0|0:0,0:0:0:0:
307,235,69584,1,0,3:2:0:0:
266,159,69774,1,10,0:0:0:0:
153,169,69964,6,0,B|150:148|150:148|157:121,3,35.7500010910034,0|0|0|0,3:2|0:0|0:0|0:0,0:0:0:0:
176,108,70344,1,2,3:2:0:0:
89,55,70534,1,10,0:0:0:0:
34,146,70723,2,0,B|37:160|37:160|35:181,3,35.7500010910034,8|0|2|0,0:0|0:0|0:0|0:0,0:0:0:0:
25,211,71103,1,2,3:2:0:0:
125,177,71293,1,8,0:0:0:0:
197,258,71483,6,0,P|200:279|214:298,3,35.7500010910034,10|0|2|0,0:0|0:0|0:0|0:0,0:0:0:0:
230,311,71863,1,2,3:2:0:0:
275,211,72053,1,8,0:0:0:0:
381,249,72242,2,0,P|416:248|466:221,1,71.5000021820069,0|8,3:2|0:0,0:0:0:0:
421,115,72622,5,8,0:0:0:0:
422,104,72717,1,8,0:0:0:0:
423,93,72812,1,8,0:0:0:0:
424,82,72907,1,8,0:0:0:0:
424,63,73002,6,0,P|383:55|349:57,1,74.7500014257431,4|0,3:2|0:0,0:0:0:0:
271,126,73382,1,8,0:0:0:0:
177,39,73572,2,0,B|111:44|111:44|66:20|23:37,1,149.500002851486,0|0,0:0|3:2,0:0:0:0:
54,136,74142,2,0,P|58:169|57:213,1,74.7500014257431,8|0,0:0|0:0,0:0:0:0:
142,296,74521,6,0,P|137:258|137:221,1,74.7500014257431,0|0,3:2|0:0,0:0:0:0:
181,139,74901,1,8,0:0:0:0:
181,139,75091,1,0,0:0:0:0:
273,188,75281,2,0,P|275:218|287:264,1,74.7500014257431,4|0,3:2|3:2,0:0:0:0:
365,350,75661,2,0,P|379:299|373:239,1,112.125002138615,8|0,0:0|0:0,0:0:0:0:
406,199,76040,6,0,P|409:161|418:125,1,74.7500014257431,0|0,3:2|3:2,0:0:0:0:
489,48,76420,1,8,0:0:0:0:
366,40,76610,2,0,B|322:46|287:32|287:32|212:40,1,149.500002851486
121,80,77180,2,0,P|116:48|119:0,1,74.7500014257431,8|0,0:0|0:0,0:0:0:0:
197,124,77559,6,0,P|202:169|168:232,1,116.999996429443,0|0,3:2|0:0,0:0:0:0:
134,252,77939,1,8,0:0:0:0:
235,216,78128,2,0,P|280:211|343:245,1,116.999996429443,0|0,3:2|0:0,0:0:0:0:
360,281,78508,1,8,0:0:0:0:
446,214,78698,1,8,0:0:0:0:
301,365,79078,6,0,L|226:357,1,74.7500014257431,0|0,3:2|0:0,0:0:0:0:
121,362,79458,1,8,0:0:0:0:
64,246,79648,2,0,B|59:190|59:190|70:141|50:86,1,149.500002851486,0|0,0:0|3:2,0:0:0:0:
123,19,80217,2,0,P|160:23|197:23,1,74.7500014257431,8|0,0:0|0:0,0:0:0:0:
292,68,80597,6,0,P|329:63|366:63,1,74.7500014257431,0|0,3:2|0:0,0:0:0:0:
457,20,80977,1,8,0:0:0:0:
457,20,81167,1,0,0:0:0:0:
467,137,81357,2,0,P|463:169|462:213,1,74.7500014257431,4|0,3:2|0:0,0:0:0:0:
426,325,81736,2,0,P|375:310|315:316,1,112.125002138615,8|0,0:0|0:0,0:0:0:0:
267,333,82115,6,0,P|229:329|193:320,1,74.7500014257431,0|0,3:2|3:2,0:0:0:0:
103,279,82496,1,8,0:0:0:0:
136,154,82685,2,0,B|191:149|191:149|240:160|295:140,1,149.500002851486
385,177,83255,2,0,P|389:139|361:117,1,74.7500014257431,8|0,0:0|0:0,0:0:0:0:
304,223,83635,6,0,P|299:268|333:331,1,116.999996429443,0|0,3:2|0:0,0:0:0:0:
369,348,84015,1,8,0:0:0:0:
269,346,84204,2,0,P|244:293|241:228,1,116.999996429443
247,194,84584,1,8,0:0:0:0:
159,267,84774,1,10,0:0:0:0:
73,137,85154,6,0,P|69:106|69:77,1,55.2500010538101,0|0,3:2|0:0,0:0:0:0:
136,25,85534,2,0,P|188:40|244:40,1,110.50000210762,10|0,0:0|3:2,0:0:0:0:
399,42,86294,2,0,L|392:114,1,55.2500010538101,8|0,0:0|0:0,0:0:0:0:
395,185,86673,6,0,L|399:241,1,55.2500010538101,0|0,3:2|0:0,0:0:0:0:
487,297,87053,1,8,0:0:0:0:
404,361,87243,2,0,P|376:370|341:367,2,55.2500010538101,2|4|2,0:0|3:2|0:0,0:0:0:0:
334,289,87813,2,0,B|291:284|291:284|246:289,1,82.8750015807152,8|0,0:0|0:0,0:0:0:0:
223,261,88192,6,0,P|222:233|224:205,1,55.2500010538101,0|0,3:2|0:0,0:0:0:0:
198,128,88572,2,0,P|142:144|71:139,1,110.50000210762,8|0,0:0|3:2,0:0:0:0:
22,282,89332,2,0,L|17:338,1,55.2500010538101,8|0,0:0|0:0,0:0:0:0:
113,358,89711,6,0,L|109:302,1,55.2500010538101,0|0,3:2|0:0,0:0:0:0:
160,218,90091,2,0,B|229:199|265:251|331:232,1,165.75000316143,8|0,0:0|3:2,0:0:0:0:
386,176,90851,1,10,0:0:0:0:
264,81,91230,6,0,L|185:87,1,55.2500010538101,2|0,3:2|0:0,0:0:0:0:
122,86,91610,2,0,L|43:80,1,55.2500010538101,8|0,0:0|0:0,0:0:0:0:
62,180,91990,2,0,P|46:236|51:307,1,110.50000210762,2|8,3:2|0:0,0:0:0:0:
191,343,92749,6,0,L|247:338,1,55.2500010538101,2|0,3:2|0:0,0:0:0:0:
314,291,93129,1,8,0:0:0:0:
383,356,93319,2,0,P|410:356|436:347,2,55.2500010538101,2|4|2,0:0|3:2|0:0,0:0:0:0:
399,259,93888,2,0,B|403:221|403:221|399:171,1,82.8750015807152,8|0,0:0|0:0,0:0:0:0:
400,137,94268,6,0,P|398:105|402:74,1,55.2500010538101,0|0,3:2|0:0,0:0:0:0:
308,68,94648,2,0,P|255:84|200:83,1,110.50000210762,8|0,0:0|3:2,0:0:0:0:
55,138,95408,2,0,P|50:164|50:193,1,55.2500010538101,8|0,0:0|0:0,0:0:0:0:
119,250,95787,6,0,P|124:276|123:305,1,55.2500010538101,0|0,3:2|0:0,0:0:0:0:
213,286,96167,2,0,B|270:269|306:321|375:302,1,165.75000316143,8|2,0:0|3:2,0:0:0:0:
438,247,96927,1,10,0:0:0:0:
344,124,97306,6,0,L|280:129,1,55.2500010538101,0|0,3:2|0:0,0:0:0:0:
197,98,97686,2,0,P|208:153|200:225,1,110.50000210762,10|0,0:0|3:2,0:0:0:0:
81,292,98446,2,0,L|25:296,1,55.2500010538101,8|0,0:0|0:0,0:0:0:0:
112,367,98825,6,0,L|167:361,1,55.2500010538101,0|0,3:2|0:0,0:0:0:0:
253,337,99205,1,8,0:0:0:0:
341,283,99395,2,0,P|347:309|345:337,2,55.2500010538101,2|4|2,0:0|3:2|0:0,0:0:0:0:
259,241,99965,2,0,B|255:203|255:203|259:153,1,82.8750015807152,8|0,0:0|0:0,0:0:0:0:
282,110,100344,6,0,P|284:78|282:48,1,55.2500010538101,0|0,3:2|0:0,0:0:0:0:
371,98,100724,2,0,P|423:114|478:113,1,110.50000210762,8|0,0:0|3:2,0:0:0:0:
465,267,101484,2,0,L|460:322,1,55.2500010538101,8|0,0:0|0:0,0:0:0:0:
370,348,101863,6,0,L|375:292,1,55.2500010538101,0|0,3:2|0:0,0:0:0:0:
275,321,102243,2,0,B|211:332|177:297|110:312,1,165.75000316143,8|0,0:0|3:2,0:0:0:0:
39,350,103002,1,8,0:0:0:0:
57,196,103382,6,0,L|62:141,1,55.2500010538101,2|0,3:2|0:0,0:0:0:0:
118,73,103762,2,0,P|170:88|226:88,1,110.50000210762,8|0,0:0|3:2,0:0:0:0:
366,21,104522,2,0,P|357:54|359:92,1,55.2500010538101,10|0,0:0|0:0,0:0:0:0:
432,131,104901,6,0,L|437:194,1,55.2500010538101,2|0,3:2|0:0,0:0:0:0:
379,254,105281,1,8,0:0:0:0:
397,349,105471,2,0,P|424:349|451:345,2,55.2500010538101,2|4|0,0:0|3:2|0:0,0:0:0:0:
298,325,106040,2,0,B|254:331|254:331|215:330,1,82.8750015807152,10|0,0:0|0:0,0:0:0:0:
183,307,106420,6,0,P|151:305|121:307,1,55.2500010538101,0|0,3:2|0:0,0:0:0:0:
63,248,106800,2,0,P|64:193|48:141,1,110.50000210762,8|0,0:0|3:2,0:0:0:0:
160,33,107560,2,0,L|216:28,1,55.2500010538101,8|0,0:0|0:0,0:0:0:0:
328,66,107939,6,0,B|359:62|359:62|397:55,1,55.2500010538101,4|0,3:2|0:0,0:0:0:0:
363,164,108318,2,0,B|366:197|366:197|371:224,1,55.2500010538101,4|0,3:2|0:0,0:0:0:0:
263,149,108698,2,0,B|234:143|234:143|202:140,1,55.2500010538101,4|0,3:2|0:0,0:0:0:0:
109,84,109078,2,0,P|117:124|112:165,1,82.8750015807152,6|0,3:2|0:0,0:0:0:0:
91,193,109458,6,0,B|74:216|87:242|87:242|104:251|104:274|104:274|108:313|98:328,2,146.250005578995,2|0|0,0:0|0:0|0:0,0:0:0:0:
192,227,110977,2,0,B|248:215|248:215|297:233|358:233|382:215,1,195.00000743866
412,317,112116,1,0,0:0:0:0:
477,231,112496,6,0,B|492:197|492:197|463:149|440:83|462:26,1,195.00000743866
351,20,113635,1,0,0:0:0:0:
249,55,114015,2,0,P|193:113|123:136,2,146.250005578995
351,20,115534,6,0,B|364:97|354:130|354:130|382:196|369:227,1,195.00000743866
295,285,116673,1,0,0:0:0:0:
342,380,117053,2,0,P|275:312|180:312,1,195.00000743866
239,223,118192,1,0,0:0:0:0:
308,141,118572,6,0,B|331:123|357:136|357:136|366:153|389:153|389:153|428:157|463:139,2,146.250005578995
239,223,120091,2,0,P|130:219|45:167,1,195.00000743866
149,124,121230,1,2,0:0:0:0:
292,68,121609,6,0,P|232:106|142:89,1,165.75000316143,2|2,3:2|0:0,0:0:0:0:
92,28,122369,1,8,0:0:0:0:
40,174,122749,2,0,L|44:229,1,55.2500010538101,2|0,0:0|0:0,0:0:0:0:
90,313,123128,6,0,P|136:308|211:311,1,110.50000210762,2|0,3:2|0:0,0:0:0:0:
355,309,123888,2,0,L|410:304,1,55.2500010538101,8|0,0:0|0:0,0:0:0:0:
470,246,124268,2,0,B|472:202|472:202|466:142,1,82.8750015807152
461,125,124647,6,0,P|396:142|306:88,1,165.75000316143,2|2,3:2|0:0,0:0:0:0:
278,21,125407,1,8,0:0:0:0:
189,148,125787,2,0,L|183:211,1,55.2500010538101,2|0,0:0|0:0,0:0:0:0:
201,296,126166,6,0,P|139:294|73:308,1,110.50000210762,2|0,3:2|0:0,0:0:0:0:
28,160,126926,2,0,P|27:130|32:104,1,55.2500010538101,8|0,0:0|0:0,0:0:0:0:
96,57,127306,2,0,B|132:54|132:54|195:56,1,82.8750015807152
215,68,127685,6,0,P|293:86|363:46,1,165.75000316143,2|2,3:2|0:0,0:0:0:0:
444,20,128445,1,8,0:0:0:0:
469,172,128825,2,0,L|463:235,1,55.2500010538101,2|0,0:0|0:0,0:0:0:0:
399,297,129204,6,0,P|349:290|287:287,1,110.50000210762,2|0,3:2|0:0,0:0:0:0:
134,280,129964,2,0,B|100:278|100:278|78:284,1,55.2500010538101,8|0,0:0|0:0,0:0:0:0:
27,225,130344,2,0,P|49:171|60:106,1,110.50000210762
337,36,132242,5,0,0:0:0:0:
271,83,132622,1,0,0:0:0:0:
222,164,133002,1,0,0:0:0:0:
197,265,133382,1,0,0:0:0:0:
379,270,133761,6,0,B|416:273|459:260|459:260|513:266,2,130,6|2|2,3:2|3:2|3:2,0:0:0:0:
253,145,134901,1,2,3:2:0:0:
253,145,135091,1,2,0:0:0:0:
343,151,135281,5,0,3:2:0:0:
201,263,135660,1,0,3:2:0:0:
201,263,135850,2,0,B|128:235|92:262|73:283|5:257,1,195,2|0,0:0|3:2,0:0:0:0:
78,89,136799,6,0,B|87:53|82:8|82:8|107:1|134:29,2,130,2|2|2,3:2|3:2|3:2,0:0:0:0:
160,257,137938,1,0,3:2:0:0:
160,257,138128,1,2,0:0:0:0:
77,308,138318,1,0,3:2:0:0:
262,330,138698,5,0,3:2:0:0:
262,330,138888,2,0,B|335:302|370:328|390:350|458:324,1,195,2|0,0:0|3:2,0:0:0:0:
490,147,139837,5,0,3:2:0:0:
337,57,140217,1,2,3:2:0:0:
337,57,140407,2,0,P|333:134|352:194,1,130,2|2,0:0|0:0,0:0:0:0:
425,225,140976,1,2,3:2:0:0:
355,282,141166,1,8,0:0:0:0:
355,282,141356,6,0,P|423:275|492:282,2,130,10|0|0,0:0|3:2|3:2,0:0:0:0:
193,362,142495,1,0,3:2:0:0:
193,362,142685,1,8,0:0:0:0:
104,302,142875,5,8,0:0:0:0:
266,216,143255,1,2,3:2:0:0:
266,216,143445,2,0,P|189:220|129:201,1,130,10|2,0:0|0:0,0:0:0:0:
124,125,144014,1,2,3:2:0:0:
206,90,144204,1,8,0:0:0:0:
278,191,144394,6,0,P|309:200|341:200,1,65,10|2,0:0|0:0,0:0:0:0:
465,212,144774,2,0,P|465:179|455:148,1,65,2|8,3:2|0:0,0:0:0:0:
359,186,145154,1,8,0:0:0:0:
384,278,145344,1,8,0:0:0:0:
266,280,145534,1,8,0:0:0:0:
246,282,145628,1,8,0:0:0:0:
230,284,145723,1,8,0:0:0:0:
214,285,145818,1,8,0:0:0:0:
196,288,145913,6,0,L|161:291,3,35.7500010910034,2|0|0|0,3:2|0:0|0:0|0:0,0:0:0:0:
210,246,146293,2,0,L|175:249,3,35.7500010910034,2|0|0|0,3:2|0:0|0:0|0:0,0:0:0:0:
223,204,146672,2,0,L|188:207,3,35.7500010910034,2|0|0|0,3:2|0:0|0:0|0:0,0:0:0:0:
258,203,147052,1,2,3:2:0:0:
325,123,147242,6,0,P|332:84|332:40,1,71.5000021820069,2|0,0:0|3:2,0:0:0:0:
428,16,147622,2,0,P|422:57|422:100,1,71.5000021820069,2|0,0:0|3:2,0:0:0:0:
313,55,148002,2,0,B|252:73|220:31|147:66,1,143.000004364014,2|0,0:0|0:0,0:0:0:0:
80,101,148571,1,0,3:2:0:0:
80,101,148761,1,2,0:0:0:0:
99,188,148951,6,0,L|135:185,3,35.7500010910034,2|0|0|0,3:2|0:0|0:0|0:0,0:0:0:0:
85,230,149331,2,0,L|121:227,3,35.7500010910034,2|0|0|0,3:2|0:0|0:0|0:0,0:0:0:0:
73,272,149710,2,0,L|108:269,3,35.7500010910034,2|0|0|0,3:2|0:0|0:0|0:0,0:0:0:0:
55,291,150090,1,2,3:2:0:0:
149,348,150280,6,0,P|188:338|222:344,1,71.5000021820069,2|0,0:0|3:2,0:0:0:0:
321,266,150660,2,0,P|285:270|251:260,1,71.5000021820069,2|0,0:0|3:2,0:0:0:0:
318,169,151040,2,0,B|327:116|327:116|324:88|324:88|331:57|363:42,1,143.000004364014,2|0,0:0|0:0,0:0:0:0:
440,80,151609,1,0,3:2:0:0:
362,15,151799,1,0,0:0:0:0:
245,53,151989,6,0,B|243:32|243:32|250:5,3,35.7500010910034,0|0|0|0,3:2|0:0|0:0|0:0,0:0:0:0:
253,85,152369,2,0,B|274:87|274:87|301:80,3,35.7500010910034,2|0|2|0,3:2|0:0|0:0|0:0,0:0:0:0:
221,79,152749,2,0,B|201:76|201:76|174:83,3,35.7500010910034,0|0|2|0,3:2|0:0|0:0|0:0,0:0:0:0:
255,122,153128,1,2,3:2:0:0:
197,194,153318,1,8,0:0:0:0:
82,166,153508,6,0,B|62:163|62:163|35:170,3,37.3750007128716,10|0|0|0,0:0|0:0|0:0|0:0,0:0:0:0:
115,174,153888,2,0,B|118:194|118:194|111:221,3,37.3750007128716,0|0|0|0,3:2|0:0|0:0|0:0,0:0:0:0:
108,142,154267,2,0,B|106:121|106:121|113:94,3,37.3750007128716,0|0|0|0,3:2|0:0|0:0|0:0,0:0:0:0:
154,165,154647,1,0,3:2:0:0:
235,220,154837,1,8,0:0:0:0:
119,283,155027,6,0,B|140:280|140:280|168:288,3,37.3750007128716,8|0|0|0,0:0|0:0|0:0|0:0,0:0:0:0:
178,296,155407,1,2,3:2:0:0:
247,207,155597,1,10,0:0:0:0:
317,280,155786,2,0,B|320:295|320:295|318:317,3,37.3750007128716,8|0|2|0,0:0|0:0|0:0|0:0,0:0:0:0:
304,337,156166,1,2,3:2:0:0:
246,238,156356,1,8,0:0:0:0:
303,125,156546,6,0,P|324:128|343:142,3,37.3750007128716,10|0|2|0,0:0|0:0|0:0|0:0,0:0:0:0:
358,152,156926,1,2,3:2:0:0:
419,73,157116,1,8,0:0:0:0:
457,181,157306,2,0,P|446:221|419:263,1,74.7500014257431,0|8,3:2|0:0,0:0:0:0:
320,304,157685,5,8,0:0:0:0:
319,315,157780,1,8,0:0:0:0:
318,326,157875,1,8,0:0:0:0:
317,337,157970,1,8,0:0:0:0:
316,348,158065,1,8,0:0:0:0:
0,310,161103,6,0,P|43:301|78:303,1,74.7500014257431,4|0,3:2|0:0,0:0:0:0:
153,371,161483,1,8,0:0:0:0:
250,281,161673,2,0,B|318:276|318:276|365:301|409:283,1,149.500002851486
381,182,162243,2,0,P|381:144|377:107,1,74.7500014257431,8|0,0:0|0:0,0:0:0:0:
463,24,162622,6,0,P|463:61|468:98,1,74.7500014257431,0|0,3:2|0:0,0:0:0:0:
489,190,163002,1,8,0:0:0:0:
390,186,163192,1,0,0:0:0:0:
347,281,163382,2,0,P|310:290|273:293,1,74.7500014257431,4|0,3:2|0:0,0:0:0:0:
177,354,163762,2,0,P|192:301|186:239,1,112.125002138615,8|0,0:0|0:0,0:0:0:0:
150,207,164141,6,0,P|153:167|163:130,1,74.7500014257431,0|0,3:2|0:0,0:0:0:0:
266,124,164521,1,8,0:0:0:0:
181,30,164711,2,0,B|135:36|99:21|99:21|21:30,1,149.500002851486
62,129,165281,2,0,P|60:166|65:203,1,74.7500014257431,8|0,0:0|0:0,0:0:0:0:
145,277,165660,6,0,B|192:272|192:272|257:307,1,116.999996429443,0|0,3:2|0:0,0:0:0:0:
283,351,166040,1,10,0:0:0:0:
243,249,166230,2,0,B|238:202|238:202|273:137,1,116.999996429443,2|0,0:0|0:0,0:0:0:0:
300,117,166609,1,10,0:0:0:0:
229,55,166799,1,10,0:0:0:0:
385,200,167179,6,0,L|463:209,1,74.7500014257431,0|0,3:2|0:0,0:0:0:0:
491,308,167559,1,10,0:0:0:0:
371,349,167749,2,0,B|313:344|313:344|262:355|205:335,1,149.500002851486
124,377,168318,2,0,P|120:339|120:300,1,74.7500014257431,8|0,0:0|0:0,0:0:0:0:
24,228,168698,6,0,P|29:266|29:304,1,74.7500014257431,0|0,3:2|0:0,0:0:0:0:
107,378,169078,1,8,0:0:0:0:
147,292,169268,1,0,0:0:0:0:
118,191,169458,2,0,P|152:195|197:196,1,74.7500014257431,4|0,3:2|0:0,0:0:0:0:
243,101,169837,2,0,P|296:85|359:91,1,112.125002138615,8|0,0:0|0:0,0:0:0:0:
404,87,170216,6,0,P|443:83|480:73,1,74.7500014257431,0|0,3:2|0:0,0:0:0:0:
485,163,170597,1,8,0:0:0:0:
378,210,170786,2,0,B|323:206|323:206|274:228|216:188,1,149.500002851486
134,122,171356,2,0,P|174:111|210:123,1,74.7500014257431,8|0,0:0|0:0,0:0:0:0:
150,211,171736,6,0,P|155:257|120:323,1,116.999996429443,0|0,3:2|0:0,0:0:0:0:
81,354,172116,1,10,0:0:0:0:
180,310,172305,2,0,P|233:281|345:285,1,155.999995239258,2|2,0:0|0:0,0:0:0:0:
415,343,172875,1,10,0:0:0:0:
422,228,173065,1,8,0:0:0:0:
307,159,173255,6,0,P|264:168|229:166,1,74.7500014257431,0|0,3:2|0:0,0:0:0:0:
160,91,173635,1,10,0:0:0:0:
268,29,173825,2,0,B|297:22|336:34|336:34|383:9|427:27,1,149.500002851486
476,107,174395,2,0,P|480:141|479:187,1,74.7500014257431,8|0,0:0|0:0,0:0:0:0:
407,257,174774,6,0,P|367:252|329:252,1,74.7500014257431,0|0,3:2|0:0,0:0:0:0:
257,326,175154,1,8,0:0:0:0:
215,244,175344,1,0,0:0:0:0:
114,272,175534,2,0,P|119:232|119:194,1,74.7500014257431,4|0,3:2|0:0,0:0:0:0:
55,102,175914,2,0,P|108:117|170:111,1,112.125002138615,8|0,0:0|0:0,0:0:0:0:
207,82,176293,6,0,P|247:85|284:95,1,74.7500014257431,0|0,3:2|0:0,0:0:0:0:
373,44,176673,1,8,0:0:0:0:
357,154,176863,2,0,B|398:177|439:163|439:163|463:143|517:154,1,149.500002851486
457,247,177433,2,0,P|462:280|459:329,1,74.7500014257431,8|0,0:0|0:0,0:0:0:0:
351,307,177812,6,0,B|304:302|304:302|239:337,1,116.999996429443,0|0,3:2|0:0,0:0:0:0:
197,366,178192,1,10,0:0:0:0:
155,264,178382,2,0,B|202:269|202:269|267:234,1,116.999996429443,2|0,0:0|0:0,0:0:0:0:
305,200,178761,1,10,0:0:0:0:
223,146,178951,1,10,0:0:0:0:
403,40,179331,6,0,L|394:118,1,74.7500014257431,0|0,3:2|0:0,0:0:0:0:
460,196,179711,1,10,0:0:0:0:
364,276,179901,2,0,B|325:314|291:280|267:257|197:290,1,149.500002851486
162,194,180470,2,0,P|158:156|158:117,1,74.7500014257431,8|0,0:0|0:0,0:0:0:0:
56,64,180850,6,0,P|61:102|61:141,1,74.7500014257431,0|0,3:2|0:0,0:0:0:0:
55,243,181230,1,8,0:0:0:0:
153,207,181420,1,0,0:0:0:0:
208,295,181610,2,0,P|242:290|287:289,1,74.7500014257431,4|0,3:2|0:0,0:0:0:0:
383,353,181989,2,0,P|367:300|373:238,1,112.125002138615,8|0,0:0|0:0,0:0:0:0:
408,207,182368,6,0,P|404:168|394:131,1,74.7500014257431,0|0,3:2|0:0,0:0:0:0:
440,38,182749,1,8,0:0:0:0:
313,26,182938,2,0,B|272:40|221:29|221:29|164:34,1,149.500002851486
77,92,183508,2,0,P|82:53|82:15,1,74.7500014257431,8|0,0:0|0:0,0:0:0:0:
158,116,183888,6,0,B|163:163|163:163|128:228,1,116.999996429443,0|0,3:2|0:0,0:0:0:0:
99,269,184268,1,12,0:0:0:0:
189,207,184458,2,0,B|236:202|236:202|301:237,1,116.999996429443
332,277,184837,1,8,0:0:0:0:
424,218,185027,1,8,0:0:0:0:
