osu file format v14

[General]
AudioFilename: audio.mp3
AudioLeadIn: 0
PreviewTime: 67109
Countdown: 0
SampleSet: Soft
StackLeniency: 0.7
Mode: 0
LetterboxInBreaks: 0
WidescreenStoryboard: 1

[Editor]
DistanceSpacing: 0.4
BeatDivisor: 4
GridSize: 32
TimelineZoom: 1.4

[Metadata]
Title:Will to live
TitleUnicode:Will to live
Artist:ginkiha, Shiki
ArtistUnicode:ginkiha, Shiki
Creator:Niva
Version:Hard
Source:osu!
Tags:千歳シキ chitose mappers' guild mpg featured artist fa nizi-ringo calm life japanese pop
BeatmapID:2456668
BeatmapSetID:1175287

[Difficulty]
HPDrainRate:5
CircleSize:4
OverallDifficulty:6
ApproachRate:8
SliderMultiplier:1.4
SliderTickRate:1

[Events]
//Background and Video events
0,0,"spkkuianura.jpg",0,0
//Break Periods
//Storyboard Layer 0 (Background)
//Storyboard Layer 1 (Fail)
//Storyboard Layer 2 (Pass)
//Storyboard Layer 3 (Foreground)
//Storyboard Layer 4 (Overlay)
//Storyboard Sound Samples

[TimingPoints]
139,352.941176470588,4,2,77,50,1,0
139,-181.818181818182,4,2,77,50,0,0
5433,-133.333333333333,4,2,77,50,0,0
5697,-133.333333333333,4,2,77,5,0,0
5786,-95.2380952380952,4,2,77,75,0,0
7903,-95.2380952380952,4,2,77,75,0,0
8609,-95.2380952380952,4,2,77,75,0,0
9138,-95.2380952380952,4,2,77,75,0,0
9668,-95.2380952380952,4,2,77,75,0,0
10021,-86.9565217391304,4,2,77,75,0,0
11433,-105.263157894737,4,2,77,65,0,0
21315,-153.846153846154,4,2,77,65,0,0
21403,-153.846153846154,4,2,77,50,0,0
22727,-117.647058823529,4,2,77,60,0,0
31903,-117.647058823529,4,2,77,60,0,0
32256,-125,4,2,77,60,0,0
32609,-125,4,2,77,60,0,0
33668,-111.111111111111,4,2,78,60,0,0
34021,-111.111111111111,4,2,77,70,0,0
49903,-111.111111111111,4,2,77,70,0,0
50256,-111.111111111111,4,2,77,70,0,0
50609,-111.111111111111,4,2,77,70,0,0
50962,-111.111111111111,4,2,77,70,0,0
55197,-111.111111111111,4,2,77,70,0,0
56609,-95.2380952380952,4,2,77,80,0,1
79197,-117.647058823529,4,2,77,80,0,0
79286,-117.647058823529,4,2,77,60,0,0
90491,-111.111111111111,4,2,77,70,0,0
95080,-111.111111111111,4,2,77,70,0,0
95433,-111.111111111111,4,2,77,70,0,0
95786,-111.111111111111,4,2,77,70,0,0
96138,-100,4,2,77,70,0,0
101786,-95.2380952380952,4,2,77,80,0,1
124374,-100,4,2,77,80,0,0
124462,-100,4,2,77,75,0,0
134256,-100,4,2,77,75,0,0
135668,-100,4,2,77,75,0,0
146962,-181.818181818182,4,2,77,75,0,0
147050,-181.818181818182,4,2,77,40,0,0
157903,-133.333333333333,4,2,77,50,0,0
158256,-133.333333333333,4,2,77,60,0,0
162491,-133.333333333333,4,2,77,60,0,0
163197,-133.333333333333,4,2,77,60,0,0
163903,-100,4,2,77,70,0,0
164433,-100,4,2,77,70,0,0
169550,-95.2380952380952,4,2,77,80,0,1
192138,-125,4,2,77,80,0,0
192227,-125,4,2,77,60,0,0
202021,-111.111111111111,4,2,77,65,0,0
202374,-100,4,2,77,70,0,0
202727,-90.9090909090909,4,2,77,75,0,0

[Colours]
Combo1 : 17,254,176
Combo2 : 173,255,95
Combo3 : 255,88,100
Combo4 : 255,94,55

[HitObjects]
412,291,139,6,0,P|465:294|506:250,2,115.50000352478,2|2|2,0:0|0:0|0:0,0:0:0:0:
343,381,1550,5,2,0:0:0:0:
247,295,2080,1,2,0:0:0:0:
118,278,2609,1,2,0:0:0:0:
9,291,2962,6,0,L|-5:173,2,115.50000352478,2|2|2,0:0|0:0|0:0,0:0:0:0:
97,366,4374,5,2,0:0:0:0:
114,234,4903,1,2,0:0:0:0:
131,102,5433,2,0,P|176:108|204:90,1,78.7500030040742,10|0,0:3|0:0,0:0:0:0:
203,71,5786,6,0,L|246:133,2,73.4999977569581,10|0|0,0:0|1:2|1:2,0:0:0:0:
275,23,6315,2,0,L|318:85,1,73.4999977569581,10|0,0:0|1:2,0:0:0:0:
316,83,6668,1,0,1:2:0:0:
353,181,6844,6,0,L|415:138,2,73.4999977569581,10|0|2,0:0|1:2|1:2,0:0:0:0:
407,251,7374,2,8,L|467:209,1,73.4999977569581,8|0,0:0|1:2,0:0:0:0:
467,209,7727,1,2,1:2:0:0:
448,330,7903,6,0,P|391:287|313:288,1,146.999995513916,4|6,1:2|1:2,0:0:0:0:
131,211,8609,6,0,L|61:185,2,73.4999977569581,14|0|0,0:0|1:2|1:2,0:0:0:0:
203,145,9138,2,0,L|176:75,2,73.4999977569581,10|0|0,0:0|1:2|1:2,0:0:0:0:
302,145,9668,2,0,L|335:75,1,73.4999977569581,10|0,0:0|1:2,0:0:0:0:
372,219,10021,6,0,P|342:264|285:248,1,120.750002303124,6|0,1:2|0:0,0:0:0:0:
264,230,10374,2,0,P|234:275|177:259,1,120.750002303124,4|0,1:2|0:0,0:0:0:0:
156,241,10727,2,0,P|126:286|69:270,1,120.750002303124,4|0,1:2|0:0,0:0:0:0:
48,285,11080,1,8,0:0:0:0:
43,265,11168,1,8,0:0:0:0:
38,245,11256,1,8,0:0:0:0:
34,225,11344,1,8,0:0:0:0:
30,205,11433,6,0,L|4:67,1,132.999996448517,6|0,1:2|1:2,0:0:0:0:
98,99,11962,2,0,P|158:84|167:13,1,132.999996448517,2|0,0:0|0:0,0:0:0:0:
170,20,12491,1,10,0:0:0:0:
292,117,12844,6,0,B|346:109|346:109|370:120|370:120|425:111,1,132.999996448517,2|0,1:2|1:2,0:0:0:0:
494,172,13374,2,0,P|475:228|411:224,1,132.999996448517,2|0,0:0|0:0,0:0:0:0:
332,279,13903,2,0,L|341:354,1,66.4999982242585,10|0,0:0|1:2,0:0:0:0:
243,192,14256,6,0,B|210:192|210:192|172:192|179:210|144:210|144:210|110:210,1,132.999996448517,2|0,1:2|1:2,0:0:0:0:
64,141,14786,2,0,L|59:297,1,132.999996448517,2|0,0:0|0:0,0:0:0:0:
59,273,15315,1,10,0:0:0:0:
177,384,15668,6,0,B|182:336|225:309|280:330,1,132.999996448517,2|0,1:2|1:2,0:0:0:0:
260,234,16197,2,0,B|269:284|313:305|364:283,1,132.999996448517,2|0,0:0|0:2,0:0:0:0:
456,333,16727,2,0,P|472:348|446:340,1,66.4999982242585,10|0,0:0|0:2,0:0:0:0:
475,205,17080,6,0,L|495:60,1,132.999996448517,2|0,1:2|1:2,0:0:0:0:
375,53,17609,2,0,P|385:117|461:126,1,132.999996448517,2|0,0:0|0:0,0:0:0:0:
443,133,18138,1,10,0:0:0:0:
498,292,18491,6,0,L|354:275,1,132.999996448517,2|0,1:2|1:2,0:0:0:0:
275,245,19021,2,0,B|189:236|189:236|173:256|185:279,1,132.999996448517,2|0,0:0|0:0,0:0:0:0:
173,381,19550,2,0,B|201:365|201:365|235:372,1,66.4999982242585,10|0,0:0|1:2,0:0:0:0:
185,279,19903,6,0,L|166:140,1,132.999996448517,2|0,1:2|1:2,0:0:0:0:
97,88,20433,2,0,P|163:104|218:64,1,132.999996448517,2|0,0:0|0:0,0:0:0:0:
214,70,20962,1,10,0:0:0:0:
346,139,21315,6,0,L|398:131,3,45.4999979171754,2|0|2|0,1:2|0:0|0:0|0:0,0:0:0:0:
325,226,22021,2,0,L|371:233,3,45.4999979171754,2|2|2|0,0:0|0:0|0:0|0:0,0:0:0:0:
354,340,22727,6,0,P|406:313|466:319,1,119.000002269745,6|2,1:2|1:2,0:0:0:0:
510,246,23256,2,0,L|501:113,1,119.000002269745,2|2,0:0|0:0,0:0:0:0:
500,45,23786,1,2,1:2:0:0:
500,45,23962,1,2,0:0:0:0:
273,20,24491,6,0,P|281:49|270:82,1,59.5000011348725,2|0,1:2|0:0,0:0:0:0:
312,156,24844,2,0,P|290:177|256:184,1,59.5000011348725,2|0,1:2|0:0,0:0:0:0:
213,257,25197,2,0,P|183:249|160:223,1,59.5000011348725,2|0,1:2|0:0,0:0:0:0:
141,348,25550,6,0,B|191:338|191:338|210:344|210:344|265:332,1,119.000002269745,2|2,1:2|1:2,0:0:0:0:
347,348,26080,2,0,L|282:361,1,59.5000011348725,2|0,0:0|1:2,0:0:0:0:
322,262,26433,2,0,L|380:250,1,59.5000011348725,2|0,0:0|1:2,0:0:0:0:
465,298,26786,2,0,P|532:246|508:157,1,178.500003404617,2|0,0:0|1:2,0:0:0:0:
468,73,27491,5,2,0:0:0:0:
468,73,27668,2,0,L|537:77,2,59.5000011348725,2|0|2,1:2|0:0|1:2,0:0:0:0:
403,136,28197,1,2,0:0:0:0:
327,209,28374,6,0,P|277:177|218:184,1,119.000002269745,6|2,1:2|1:2,0:0:0:0:
181,248,28903,2,0,L|161:122,1,119.000002269745,2|2,0:0|0:0,0:0:0:0:
0,258,29609,6,0,L|46:300,1,59.5000011348725,2|0,0:0|1:2,0:0:0:0:
106,355,29962,2,0,L|60:313,1,59.5000011348725,2|0,0:0|1:2,0:0:0:0:
0,258,30315,6,0,L|49:214,1,59.5000011348725,2|0,0:0|1:2,0:0:0:0:
134,254,30668,2,0,L|183:210,1,59.5000011348725,2|0,0:0|1:2,0:0:0:0:
296,215,31021,6,0,P|354:196|356:139,1,119.000002269745,2|2,0:0|0:0,0:0:0:0:
378,229,31550,2,0,L|424:269,1,59.5000011348725,2|0,1:2|0:0,0:0:0:0:
475,346,31903,2,0,L|516:302,2,59.5000011348725,2|2|2,1:2|0:0|1:2,0:0:0:0:
292,362,32609,6,0,P|270:373|271:349,1,56,10|0,0:0|0:0,0:0:0:0:
286,255,32962,2,0,P|308:244|307:268,1,56,10|0,0:0|0:0,0:0:0:0:
194,290,33315,2,0,L|125:290,2,56,6|2|10,1:2|0:0|1:3,0:0:0:0:
292,290,33844,1,2,0:0:0:0:
383,351,34021,6,0,P|430:311|499:323,1,125.999996154785,2|2,1:2|1:2,0:0:0:0:
473,227,34550,2,0,B|499:169|499:169|463:104,1,125.999996154785,2|2,0:0|0:0,0:0:0:0:
375,130,35080,1,8,0:0:0:0:
283,147,35256,2,0,P|214:135|204:77,1,125.999996154785,2|0,1:2|0:0,0:0:0:0:
288,180,35786,6,0,L|299:258,1,62.9999980773926,2|0,1:2|0:0,0:0:0:0:
392,233,36138,2,0,L|464:226,1,62.9999980773926,2|0,1:2|0:0,0:0:0:0:
296,242,36491,2,0,L|307:320,1,62.9999980773926,10|0,0:0|1:2,0:0:0:0:
203,375,36844,6,0,P|142:384|99:343,1,125.999996154785,2|2,1:2|1:2,0:0:0:0:
52,265,37374,2,0,P|61:298|47:332,1,62.9999980773926,2|0,0:0|1:2,0:0:0:0:
136,218,37727,2,0,P|127:185|141:151,1,62.9999980773926,2|8,0:0|0:0,0:0:0:0:
256,186,38080,6,0,B|310:186|310:186|323:194|323:194|379:194,1,125.999996154785,2|0,1:2|0:0,0:0:0:0:
468,229,38609,1,0,1:2:0:0:
501,142,38786,1,2,0:0:0:0:
501,142,38962,2,0,P|511:108|482:73,2,62.9999980773926,2|0|10,1:2|0:0|0:0,0:0:0:0:
468,229,39491,1,2,1:2:0:0:
490,354,39668,6,0,P|439:320|370:328,1,125.999996154785,2|2,1:2|1:2,0:0:0:0:
355,248,40197,2,0,P|353:272|323:255,1,62.9999980773926,2|0,0:0|1:2,0:0:0:0:
213,284,40550,2,0,P|216:311|243:304,1,62.9999980773926,2|8,0:0|0:0,0:0:0:0:
140,199,40903,6,0,P|117:215|138:235,1,62.9999980773926,2|0,1:2|1:2,0:0:0:0:
176,94,41256,2,0,P|151:82|145:110,1,62.9999980773926,2|0,2:0|1:2,0:0:0:0:
286,72,41609,6,0,P|283:45|257:53,1,62.9999980773926,2|0,0:0|1:2,0:0:0:0:
359,156,41962,2,0,P|382:140|362:121,1,62.9999980773926,2|8,0:0|0:0,0:0:0:0:
361,120,42315,1,2,1:2:0:0:
408,238,42491,6,0,P|352:209|274:225,1,125.999996154785,0|0,1:2|1:2,0:0:0:0:
202,174,43021,2,0,B|161:174|161:174|139:181|139:181|117:174|117:174|77:174,1,125.999996154785,2|0,0:0|0:0,0:0:0:0:
24,251,43550,1,10,0:0:0:0:
103,314,43727,1,2,1:2:0:0:
187,382,43903,6,0,P|195:358|211:382,1,62.9999980773926,6|0,1:2|0:0,0:0:0:0:
266,291,44256,2,0,P|258:315|242:291,1,62.9999980773926,6|0,1:2|0:0,0:0:0:0:
352,347,44609,1,10,0:0:0:0:
367,347,44697,1,8,0:0:0:0:
382,347,44786,1,10,0:0:0:0:
397,347,44874,1,8,0:0:0:0:
412,347,44962,2,0,L|461:347,3,31.4999990386963,10|8|10|8,0:0|0:0|0:0|0:0,0:0:0:0:
474,372,45315,6,0,L|483:235,1,125.999996154785,6|8,1:2|0:0,0:0:0:0:
408,182,45844,2,0,P|348:177|329:117,1,125.999996154785,2|0,0:0|1:2,0:0:0:0:
404,69,46374,1,10,0:0:0:0:
325,23,46550,1,2,1:2:0:0:
225,69,46727,6,0,B|185:77|158:57|158:57|100:57,1,125.999996154785,2|8,1:2|0:0,0:0:0:0:
17,91,47256,2,0,P|82:100|117:149,1,125.999996154785,2|0,0:0|1:2,0:0:0:0:
49,208,47786,1,10,0:0:0:0:
141,233,47962,1,2,1:2:0:0:
244,256,48138,6,0,B|290:250|290:250|321:262|321:262|369:255,1,125.999996154785,2|10,1:2|0:0,0:0:0:0:
462,214,48668,2,0,L|473:277,1,62.9999980773926,2|0,0:0|1:2,0:0:0:0:
367,192,49021,2,0,L|366:255,1,62.9999980773926,2|8,1:2|0:0,0:0:0:0:
270,160,49374,2,0,L|255:294,1,125.999996154785,2|0,1:2|0:0,0:0:0:0:
143,304,49903,6,0,P|121:322|108:289,1,62.9999980773926,10|0,0:0|0:0,0:0:0:0:
264,323,50256,2,0,P|242:341|229:308,1,62.9999980773926,2|0,1:2|0:0,0:0:0:0:
385,342,50609,2,0,P|363:360|350:327,1,62.9999980773926,10|0,0:0|1:2,0:0:0:0:
507,353,50962,6,0,B|534:295|534:295|501:240,1,125.999996154785,4|8,1:2|0:0,0:0:0:0:
512,88,51668,2,0,P|467:132|405:122,1,125.999996154785,2|10,1:2|0:0,0:0:0:0:
310,153,52197,6,0,L|379:149,1,62.9999980773926,2|0,1:2|0:0,0:0:0:0:
222,119,52550,2,0,L|153:123,1,62.9999980773926,2|8,0:0|0:0,0:0:0:0:
311,48,52903,6,0,L|316:125,1,62.9999980773926,2|0,0:0|1:2,0:0:0:0:
219,163,53256,2,0,L|227:293,1,125.999996154785,2|0,1:2|1:2,0:0:0:0:
127,345,53786,6,0,P|70:354|32:297,1,125.999996154785,2|10,1:2|0:0,0:0:0:0:
25,211,54315,2,0,L|92:226,1,62.9999980773926,2|0,0:0|2:2,0:0:0:0:
174,197,54668,2,0,L|241:212,1,62.9999980773926,2|8,1:2|0:0,0:0:0:0:
324,230,55021,1,2,1:2:0:0:
413,159,55197,6,0,P|436:148|409:139,1,62.9999980773926,4|8,1:2|0:0,0:0:0:0:
335,83,55550,2,0,P|324:60|315:87,1,62.9999980773926,8|8,0:0|0:0,0:0:0:0:
246,150,55903,1,2,1:2:0:0:
230,150,55991,1,0,1:2:0:0:
214,150,56080,1,10,0:2:0:0:
198,150,56168,1,8,0:2:0:0:
182,150,56256,2,0,L|131:151,3,31.4999990386963,10|8|10|8,0:0|0:0|0:0|0:0,0:0:0:0:
133,134,56609,6,0,L|144:280,1,146.999995513916,6|10,1:2|0:0,0:0:0:0:
48,265,57138,2,0,P|21:256|49:249,1,73.4999977569581,2|0,1:2|1:2,0:0:0:0:
78,359,57491,1,2,1:2:0:0:
144,281,57668,2,0,L|220:277,1,73.4999977569581,10|2,0:0|1:2,0:0:0:0:
321,319,58021,6,0,B|357:317|357:317|396:314|388:335|427:333|427:333|466:331,1,146.999995513916,2|8,1:2|0:0,0:0:0:0:
503,247,58550,1,2,1:2:0:0:
503,247,58727,2,0,B|517:213|517:213|498:178,1,73.4999977569581,2|2,1:2|1:2,0:0:0:0:
399,147,59080,2,0,B|385:181|385:181|404:216,1,73.4999977569581,10|2,0:0|1:2,0:0:0:0:
444,60,59433,6,0,P|391:106|313:86,1,146.999995513916,2|10,1:2|0:0,0:0:0:0:
228,138,59962,2,0,L|303:133,1,73.4999977569581,2|0,1:2|1:2,0:0:0:0:
234,223,60315,1,2,1:2:0:0:
234,223,60491,2,0,L|309:218,1,73.4999977569581,8|2,0:0|1:2,0:0:0:0:
206,354,60844,6,0,B|181:304|120:293|80:338,1,146.999995513916,2|8,1:2|0:0,0:0:0:0:
14,259,61374,2,0,B|56:294|115:283|143:223,1,146.999995513916,2|0,0:0|1:2,0:0:0:0:
103,141,61903,2,0,B|65:152|32:124,1,73.4999977569581,10|2,0:0|1:2,0:0:0:0:
170,64,62256,6,0,B|234:61|234:61|252:70|252:70|317:66,1,146.999995513916,2|10,1:2|0:0,0:0:0:0:
356,137,62786,2,0,P|324:143|301:113,1,73.4999977569581,2|0,0:2|1:2,0:0:0:0:
410,61,63138,2,0,L|489:57,1,73.4999977569581,2|8,1:2|0:0,0:0:0:0:
455,162,63491,2,0,L|465:313,1,146.999995513916,2|0,1:2|0:0,0:0:0:0:
360,347,64021,6,0,B|345:314|345:314|360:277,1,73.4999977569581,10|0,0:0|0:0,0:0:0:0:
241,359,64374,2,0,B|226:326|226:326|241:289,1,73.4999977569581,2|0,1:2|1:2,0:0:0:0:
122,371,64727,2,0,B|107:338|107:338|122:301,1,73.4999977569581,10|0,0:0|1:2,0:0:0:0:
169,202,65080,6,0,P|227:191|250:108,1,146.999995513916,2|10,1:2|0:0,0:0:0:0:
181,53,65609,2,0,P|123:64|100:147,1,146.999995513916,2|2,1:2|1:2,0:0:0:0:
17,192,66138,1,10,0:0:0:0:
79,263,66315,1,2,1:2:0:0:
141,344,66491,6,0,B|196:338|196:338|228:353|228:353|285:346,1,146.999995513916,4|8,1:2|0:0,0:0:0:0:
384,255,67109,1,0,1:2:0:0:
384,255,67197,2,0,P|354:230|348:188,1,73.4999977569581,14|10,0:0|0:0,0:0:0:0:
476,265,67550,2,0,P|469:303|435:329,1,73.4999977569581,10|10,0:0|0:0,0:0:0:0:
350,384,67903,6,0,P|296:338|222:348,1,146.999995513916,6|10,1:2|0:0,0:0:0:0:
158,270,68433,2,0,L|110:213,1,73.4999977569581,2|0,1:2|1:2,0:0:0:0:
144,350,68786,1,2,1:2:0:0:
239,291,68962,2,0,L|310:246,1,73.4999977569581,10|2,0:0|1:2,0:0:0:0:
391,331,69315,6,0,P|462:324|479:254,1,146.999995513916,2|8,1:2|0:0,0:0:0:0:
431,171,69844,1,0,1:2:0:0:
431,171,70021,2,0,L|510:163,1,73.4999977569581,2|2,1:2|1:2,0:0:0:0:
422,86,70374,2,0,L|501:78,1,73.4999977569581,8|2,0:0|1:2,0:0:0:0:
339,138,70727,6,0,L|193:151,1,146.999995513916,2|10,1:2|0:0,0:0:0:0:
90,127,71256,2,0,B|43:132|43:132|63:156,1,73.4999977569581,2|0,1:2|1:2,0:0:0:0:
118,235,71609,1,2,1:2:0:0:
118,235,71786,2,0,B|145:273|145:273|156:243,1,73.4999977569581,8|2,0:0|1:2,0:0:0:0:
102,374,72138,6,0,B|111:322|170:298|222:335,1,146.999995513916,2|8,1:2|0:0,0:0:0:0:
308,369,72668,2,0,B|372:376|399:320|370:271,1,146.999995513916,2|0,0:0|1:2,0:0:0:0:
299,203,73197,2,0,L|219:214,1,73.4999977569581,10|2,0:0|1:2,0:0:0:0:
147,140,73550,6,0,B|259:124|259:124|301:155|361:144,1,220.499993270874,2|0,1:2|1:2,0:0:0:0:
452,107,74256,2,0,L|439:35,1,73.4999977569581,2|0,1:2|1:2,0:0:0:0:
355,104,74609,2,0,L|367:177,1,73.4999977569581,10|0,0:0|1:2,0:0:0:0:
407,295,74962,6,0,P|377:279|339:281,1,73.4999977569581,2|0,1:2|0:0,0:0:0:0:
248,316,75315,2,0,P|218:300|180:302,1,73.4999977569581,10|0,0:2|0:2,0:0:0:0:
89,337,75668,2,0,P|59:321|21:323,1,73.4999977569581,2|0,1:2|1:2,0:0:0:0:
0,233,76021,1,10,0:0:0:0:
0,233,76197,1,2,1:2:0:0:
71,143,76374,6,0,B|107:143|107:143|150:143|135:164|180:164|180:164|217:164,1,146.999995513916,4|10,1:2|0:2,0:0:0:0:
318,223,76903,1,8,3:3:0:0:
318,223,76991,1,8,3:3:0:0:
318,223,77080,6,0,P|395:196|389:135,1,146.999995513916,4|8,1:2|0:0,0:0:0:0:
324,59,77609,1,4,3:3:0:0:
324,59,77697,1,4,3:3:0:0:
324,59,77786,6,0,P|290:65|290:35,1,73.4999977569581,12|8,0:0|0:0,0:0:0:0:
198,77,78138,2,0,P|164:83|164:53,1,73.4999977569581,8|8,0:0|0:0,0:0:0:0:
73,99,78491,1,0,1:2:0:0:
76,114,78580,1,0,1:2:0:0:
78,128,78668,1,8,0:0:0:0:
81,142,78756,1,8,0:0:0:0:
84,157,78844,2,0,L|94:205,3,36.749998878479,8|8|8|8,0:0|0:0|0:0|0:0,0:0:0:0:
81,220,79197,6,0,P|139:217|181:262,1,119.000002269745,6|2,1:2|0:0,0:0:0:0:
265,241,79727,2,0,B|308:231|308:231|337:242|337:242|379:232,1,119.000002269745,2|2,0:0|0:0,0:0:0:0:
448,293,80256,1,2,1:2:0:0:
448,293,80433,1,2,0:0:0:0:
258,383,80962,6,0,L|192:364,1,59.5000011348725,2|0,1:2|0:0,0:0:0:0:
274,305,81315,2,0,L|208:286,1,59.5000011348725,2|0,1:2|0:0,0:0:0:0:
290,227,81668,2,0,L|224:208,1,59.5000011348725,2|0,1:2|0:0,0:0:0:0:
128,231,82021,6,0,P|79:223|62:159,1,119.000002269745,2|2,1:2|1:2,0:0:0:0:
28,79,82550,2,0,L|92:74,1,59.5000011348725,2|0,0:0|1:2,0:0:0:0:
170,36,82903,2,0,L|177:110,1,59.5000011348725,2|0,0:0|1:2,0:0:0:0:
260,59,83256,2,0,B|356:52|356:52|389:78|435:68,1,178.500003404617,2|0,0:0|1:2,0:0:0:0:
409,175,83962,5,2,0:0:0:0:
409,175,84138,2,0,B|418:146|418:146|402:109,2,59.5000011348725,2|0|2,1:2|0:0|1:2,0:0:0:0:
448,255,84668,1,2,0:0:0:0:
495,349,84844,6,0,P|436:346|392:383,1,119.000002269745,2|2,1:2|1:2,0:0:0:0:
329,328,85374,2,0,P|371:357|435:346,1,119.000002269745,2|2,0:0|0:0,0:0:0:0:
475,194,86080,6,0,L|469:126,1,59.5000011348725,2|0,0:0|1:2,0:0:0:0:
462,49,86433,2,0,L|456:-13,1,59.5000011348725,2|0,0:2|1:2,2:2:0:0:
501,89,86786,6,0,L|430:94,1,59.5000011348725,2|0,0:0|1:2,0:0:0:0:
354,99,87138,2,0,L|283:104,2,59.5000011348725,2|0|2,0:0|1:2|0:0,0:0:0:0:
316,188,87668,6,0,P|270:149|211:155,1,119.000002269745,0|0,1:2|1:2,0:0:0:0:
136,113,88197,2,0,B|105:63|105:63|128:2,1,119.000002269745,2|0,0:0|0:0,0:0:0:0:
213,18,88727,1,2,1:2:0:0:
303,28,88903,1,2,0:0:0:0:
342,116,89080,6,0,P|338:138|313:121,1,59.5000011348725,8|0,0:2|0:0,0:0:0:0:
270,185,89433,2,0,P|274:207|299:190,1,59.5000011348725,8|0,0:2|0:0,0:0:0:0:
325,286,89786,2,0,P|272:257|211:274,1,119.000002269745,4|10,1:2|1:3,0:0:0:0:
150,209,90315,1,2,0:0:0:0:
68,145,90491,6,0,B|107:121|107:121|139:124|139:124|180:99,1,125.999996154785,2|0,1:2|1:2,0:0:0:0:
153,12,91021,2,0,P|192:55|264:51,1,125.999996154785,2|0,0:0|0:0,0:0:0:0:
343,34,91550,1,10,0:0:0:0:
433,56,91727,1,2,0:0:0:0:
475,145,91903,6,0,L|469:290,1,125.999996154785,2|0,1:2|1:2,0:0:0:0:
377,293,92433,2,0,P|371:239|427:206,1,125.999996154785,2|0,0:0|0:0,0:0:0:0:
486,135,92962,1,10,0:0:0:0:
442,55,93138,1,2,0:0:0:0:
336,85,93315,6,0,B|283:85|283:85|268:94|268:94|209:94,1,125.999996154785,2|2,1:2|1:2,0:0:0:0:
127,63,93844,2,0,L|83:-8,1,62.9999980773926,2|0,0:0|1:2,0:0:0:0:
139,149,94197,2,0,L|98:222,1,62.9999980773926,2|8,0:0|0:0,0:0:0:0:
31,245,94550,2,0,P|95:244|133:288,1,125.999996154785,2|0,0:0|0:0,0:0:0:0:
239,267,95080,6,0,B|286:258|286:258|274:283,1,62.9999980773926,2|0,1:2|0:0,0:0:0:0:
329,185,95433,2,0,B|376:176|376:176|364:201,1,62.9999980773926,6|0,1:2|0:0,0:0:0:0:
419,103,95786,2,0,B|466:94|466:94|454:119,1,62.9999980773926,10|0,0:0|1:2,0:0:0:0:
327,60,96138,6,0,L|314:-10,2,70,12|0|0,0:0|1:2|1:2,0:0:0:0:
242,75,96668,2,0,L|230:7,1,70,8|2,0:0|1:2,0:0:0:0:
229,6,97021,1,0,1:2:0:0:
124,61,97197,6,0,L|50:71,2,70,10|2|0,0:0|1:2|1:2,0:0:0:0:
139,145,97727,2,0,L|65:155,1,70,10|0,0:0|1:2,0:0:0:0:
69,154,98080,1,2,1:2:0:0:
0,244,98256,6,0,P|39:302|106:291,1,140,8|8,0:0|0:0,0:0:0:0:
225,150,98962,6,0,B|237:117|237:117|220:82,2,70,10|0|2,2:0|1:2|1:2,0:0:0:0:
291,201,99491,2,0,B|303:168|303:168|285:133,2,70,10|0|2,0:0|1:2|1:2,0:0:0:0:
357,252,100021,2,0,B|370:218|370:218|353:183,1,70,8|2,0:0|1:2,0:0:0:0:
360,355,100374,6,0,P|387:373|381:346,1,70,6|0,1:2|0:0,0:0:0:0:
357,252,100727,2,0,P|333:228|334:255,1,70,6|0,1:2|0:0,0:0:0:0:
269,355,101080,1,6,1:2:0:0:
231,250,101256,1,2,0:0:0:0:
143,312,101433,1,10,0:0:0:0:
124,312,101521,1,8,0:0:0:0:
105,312,101609,1,10,0:0:0:0:
86,312,101697,1,8,0:0:0:0:
67,325,101786,6,0,P|1:317|-24:249,1,146.999995513916,6|10,1:2|0:0,0:0:0:0:
37,168,102315,2,0,B|65:189|65:189|105:182,1,73.4999977569581,2|0,1:2|1:2,0:0:0:0:
211,220,102668,1,2,1:2:0:0:
211,220,102844,2,0,B|183:199|183:199|143:206,1,73.4999977569581,10|0,0:0|1:2,0:0:0:0:
311,149,103197,6,0,L|322:309,1,146.999995513916,0|8,1:2|0:0,0:0:0:0:
354,384,103727,1,0,1:2:0:0:
354,384,103903,2,0,P|364:346|349:313,1,73.4999977569581,2|2,1:2|1:2,0:0:0:0:
254,353,104256,2,0,L|181:356,1,73.4999977569581,10|2,0:0|1:2,0:0:0:0:
354,384,104609,6,0,L|503:377,1,146.999995513916,2|10,1:2|0:0,0:0:0:0:
488,280,105138,2,0,P|514:268|487:264,1,73.4999977569581,2|0,1:2|1:2,0:0:0:0:
398,221,105491,1,2,1:2:0:0:
398,221,105668,2,0,P|414:182|404:146,1,73.4999977569581,8|2,0:0|1:2,0:0:0:0:
289,233,106021,6,0,B|301:182|262:131|199:143,1,146.999995513916,2|8,1:2|0:0,0:0:0:0:
121,80,106550,2,0,B|169:115|228:97|241:46,1,146.999995513916,2|0,0:0|1:2,0:0:0:0:
345,14,107080,2,0,L|324:89,1,73.4999977569581,10|2,0:0|1:2,0:0:0:0:
453,82,107433,6,0,L|479:232,1,146.999995513916,2|10,1:2|0:0,0:0:0:0:
386,263,107962,2,0,B|371:229|371:229|387:189,1,73.4999977569581,2|0,0:2|1:2,0:0:0:0:
284,228,108315,2,0,L|205:228,1,73.4999977569581,2|8,1:2|0:0,0:0:0:0:
124,258,108668,2,0,P|61:260|33:186,1,146.999995513916,2|0,1:2|0:0,0:0:0:0:
53,67,109197,6,0,P|69:90|42:81,1,73.4999977569581,10|0,0:0|0:0,0:0:0:0:
155,108,109550,2,0,P|183:112|157:125,1,73.4999977569581,2|0,1:2|1:2,0:0:0:0:
256,64,109903,2,0,P|279:47|270:74,1,73.4999977569581,10|0,0:0|1:2,0:0:0:0:
160,24,110256,6,0,L|178:188,1,146.999995513916,2|10,1:2|0:0,0:0:0:0:
97,222,110786,2,0,P|167:210|226:258,1,146.999995513916,2|2,1:2|1:2,0:0:0:0:
297,195,111315,1,10,0:0:0:0:
349,277,111491,1,2,1:2:0:0:
403,365,111668,6,0,P|481:369|514:306,1,146.999995513916,4|8,1:2|0:0,0:0:0:0:
419,187,112286,1,0,1:2:0:0:
419,187,112374,2,0,L|427:269,1,73.4999977569581,14|10,0:0|0:0,0:0:0:0:
512,201,112727,2,0,L|504:119,1,73.4999977569581,10|10,0:0|0:0,0:0:0:0:
381,201,113080,6,0,B|339:200|339:200|310:211|310:211|279:201|279:201|234:201,1,146.999995513916,6|10,1:2|0:0,0:0:0:0:
177,274,113609,2,0,P|146:256|106:258,1,73.4999977569581,2|0,1:2|1:2,0:0:0:0:
55,177,113962,1,2,1:2:0:0:
55,177,114138,2,0,B|41:144|41:144|55:108,1,73.4999977569581,10|0,0:0|1:2,0:0:0:0:
97,0,114491,6,0,P|145:53|216:45,1,146.999995513916,0|8,1:2|0:0,0:0:0:0:
317,32,115021,1,0,1:2:0:0:
317,32,115197,2,0,P|298:68|306:106,1,73.4999977569581,2|2,1:2|1:2,0:0:0:0:
405,50,115550,2,0,P|408:85|390:117,1,73.4999977569581,10|2,0:0|1:2,0:0:0:0:
441,221,115903,6,0,B|383:230|383:230|362:246|362:246|301:256,1,146.999995513916,2|10,1:2|0:0,0:0:0:0:
379,346,116433,2,0,P|391:312|368:269,1,73.4999977569581,2|0,1:2|1:2,0:0:0:0:
287,346,116786,1,2,1:2:0:0:
287,346,116962,2,0,L|212:360,1,73.4999977569581,8|2,0:0|1:2,0:0:0:0:
126,269,117315,6,0,B|121:213|177:182|230:207,1,146.999995513916,2|8,1:2|0:0,0:0:0:0:
267,117,117844,2,0,L|278:263,1,146.999995513916,2|0,0:0|1:2,0:0:0:0:
323,347,118374,2,0,L|241:354,1,73.4999977569581,10|2,0:0|1:2,0:0:0:0:
430,375,118727,6,0,P|522:351|512:238,1,220.499993270874,2|0,1:2|1:2,0:0:0:0:
419,192,119433,2,0,B|405:226|405:226|423:264,1,73.4999977569581,2|0,1:2|1:2,0:0:0:0:
317,192,119786,2,0,B|303:226|303:226|321:264,1,73.4999977569581,10|0,0:0|1:2,0:0:0:0:
187,255,120138,6,0,P|171:280|161:251,1,73.4999977569581,2|0,1:2|0:0,0:0:0:0:
85,186,120491,2,0,P|60:170|89:160,1,73.4999977569581,10|0,0:0|0:2,0:0:0:0:
168,103,120844,2,0,P|184:78|194:107,1,73.4999977569581,2|0,1:2|1:2,0:0:0:0:
261,185,121197,1,10,0:0:0:0:
261,185,121374,1,2,1:2:0:0:
304,73,121550,6,0,B|250:62|250:62|215:73|215:73|161:63,1,146.999995513916,4|10,1:2|0:0,0:0:0:0:
81,131,122080,1,8,3:3:0:0:
81,131,122168,1,8,3:3:0:0:
81,131,122256,6,0,P|104:194|174:188,1,146.999995513916,4|8,1:2|0:0,0:0:0:0:
194,292,122786,1,4,3:3:0:0:
194,292,122874,1,4,3:3:0:0:
194,292,122962,6,0,P|167:310|157:278,1,73.4999977569581,12|8,0:2|0:0,0:0:0:0:
319,278,123315,2,0,P|292:296|282:264,1,73.4999977569581,8|8,0:0|0:0,0:0:0:0:
407,264,123668,1,0,1:2:0:0:
410,249,123756,1,0,1:2:0:0:
414,235,123844,1,8,0:0:0:0:
418,220,123933,1,8,0:0:0:0:
422,206,124021,2,0,L|433:157,3,36.749998878479,8|8|8|8,0:0|0:0|0:0|0:0,0:0:0:0:
419,149,124374,6,0,L|488:164,2,70,6|2|8,1:2|0:0|0:0,0:0:0:0:
324,179,124903,2,0,L|302:111,2,70,2|0|2,0:0|1:2|0:0,0:0:0:0:
397,246,125433,2,0,L|349:298,1,70,10|2,0:0|1:2,0:0:0:0:
430,353,125786,6,0,P|370:315|291:324,1,140,2|8,1:2|0:0,0:0:0:0:
222,266,126315,2,0,P|153:269|95:231,1,140,2|0,0:0|1:2,0:0:0:0:
61,142,126844,2,0,P|69:115|88:143,1,70,10|0,0:0|0:0,0:0:0:0:
201,74,127197,6,0,B|213:41|213:41|198:6,2,70,2|0|8,1:2|0:0|0:0,0:0:0:0:
115,44,127727,2,0,L|254:42,1,140,2|0,0:0|1:2,0:0:0:0:
312,111,128256,1,10,0:0:0:0:
407,133,128433,1,2,1:2:0:0:
509,105,128609,6,0,B|555:138|541:206|479:210,1,140,2|8,1:2|0:0,0:0:0:0:
512,310,129138,2,0,B|505:256|438:233|394:277,1,140,2|0,0:0|1:2,0:0:0:0:
291,197,129668,2,0,B|328:211|357:185,1,70,10|0,0:0|0:0,0:0:0:0:
185,240,130021,6,0,L|111:246,2,70,6|2|8,1:2|0:0|0:0,0:0:0:0:
262,298,130550,2,0,L|331:292,2,70,2|0|2,0:0|1:2|0:0,0:0:0:0:
194,365,131080,2,0,L|124:370,1,70,10|2,0:0|1:2,0:0:0:0:
20,315,131433,6,0,P|-18:261|25:204,1,140,2|8,1:2|0:0,0:0:0:0:
97,152,131962,2,0,B|155:152|155:152|173:165|173:165|234:165,1,140,2|0,0:0|1:2,0:0:0:0:
167,57,132491,2,0,B|153:88|153:88|167:123,1,70,10|0,0:0|0:0,0:0:0:0:
287,77,132844,6,0,P|358:82|399:29,1,140,2|8,1:2|0:0,0:0:0:0:
308,0,133374,2,0,L|307:144,1,140,2|0,0:0|1:2,0:0:0:0:
307,236,133903,2,0,L|306:324,1,70,10|0,0:0|0:0,0:0:0:0:
396,193,134256,6,0,P|431:202|466:190,1,70,6|0,1:2|0:0,0:0:0:0:
307,236,134609,2,0,P|342:245|377:233,1,70,8|0,0:0|0:0,0:0:0:0:
205,235,134962,6,0,P|171:245|138:235,1,70,4|0,1:2|1:2,0:0:0:0:
116,192,135315,2,0,P|82:202|49:192,1,70,8|0,0:0|1:2,0:0:0:0:
83,78,135668,6,0,B|137:71|137:71|167:82|167:82|223:74,1,140,6|8,1:2|0:0,0:0:0:0:
288,19,136197,2,0,P|254:72|289:133,1,140,2|0,0:0|1:2,0:0:0:0:
288,132,136638,1,2,0:0:0:0:
288,132,136727,1,10,0:0:0:0:
332,308,137080,6,0,P|355:286|396:277,2,70,2|2|8,1:2|0:0|0:0,0:0:0:0:
242,280,137609,2,0,B|197:280|197:280|174:288|174:288|150:280|150:280|105:280,1,140,2|2,0:0|1:2,0:0:0:0:
66,195,138138,1,10,0:0:0:0:
28,111,138315,1,0,1:2:0:0:
28,111,138403,1,2,0:0:0:0:
28,111,138491,6,0,L|41:38,2,70,2|2|8,1:2|0:0|0:0,0:0:0:0:
130,90,139021,2,0,P|196:86|219:20,1,140,2|2,0:0|1:2,0:0:0:0:
308,78,139550,1,10,0:0:0:0:
212,127,139727,1,2,1:2:0:0:
316,182,139903,6,0,L|393:172,2,70,10|0|0,0:0|1:2|1:2,0:0:0:0:
295,276,140433,2,0,L|380:266,1,70,10|0,0:0|1:2,0:0:0:0:
364,267,140697,1,8,0:0:0:0:
364,267,140786,1,0,1:2:0:0:
437,344,140962,2,0,P|400:366|340:358,1,105,10|0,0:0|0:0,0:0:0:0:
338,342,141315,6,0,L|318:190,1,140,6|8,1:2|0:0,0:0:0:0:
416,227,141844,2,0,P|484:199|472:128,1,140,2|0,0:0|1:2,0:0:0:0:
482,141,142286,1,2,0:0:0:0:
482,141,142374,1,10,0:0:0:0:
301,70,142727,6,0,L|293:0,2,70,2|2|8,1:2|0:0|0:0,0:0:0:0:
359,143,143256,2,0,P|298:112|228:126,1,140,2|2,0:0|1:2,0:0:0:0:
138,98,143786,1,10,0:0:0:0:
46,76,143962,1,0,1:2:0:0:
46,76,144050,1,2,0:0:0:0:
46,76,144138,6,0,L|-34:54,2,70,2|2|8,1:2|0:0|0:0,0:0:0:0:
39,0,144668,2,0,L|54:159,1,140,2|2,0:0|1:2,0:0:0:0:
138,98,145197,1,10,0:0:0:0:
230,124,145374,1,2,1:2:0:0:
333,155,145550,6,0,P|342:183|356:159,1,70,6|8,1:2|0:0,0:0:0:0:
342,258,145903,2,0,P|332:231|359:239,1,70,8|10,0:0|0:0,0:0:0:0:
237,208,146256,1,2,1:2:0:0:
221,208,146344,1,0,1:2:0:0:
205,208,146433,1,10,0:0:0:0:
189,208,146521,1,8,0:0:0:0:
173,208,146609,2,0,L|126:208,3,35,10|8|10|8,0:0|0:0|0:0|0:0,0:0:0:0:
118,226,146962,6,0,B|78:253|28:218|30:170|60:144|60:144|91:120|102:74|52:31|8:62,1,308.000009399414,6|2,0:0|0:0,0:0:0:0:
280,134,149786,6,0,B|508:96|508:96|474:118|456:152,1,308.000009399414,2|2,0:0|0:0,0:0:0:0:
337,18,152609,5,2,0:0:0:0:
202,268,154021,5,2,0:0:0:0:
441,192,155433,5,2,0:0:0:0:
82,99,156844,5,2,0:0:0:0:
82,99,157903,2,0,L|169:87,1,78.7500030040742,8|0,0:3|0:0,0:0:0:0:
175,74,158256,6,0,P|220:163|316:141,1,210.000008010865,2|2,3:2|3:2,0:0:0:0:
432,221,159314,1,0,3:2:0:0:
349,334,159667,5,2,3:2:0:0:
349,334,160374,2,0,L|356:226,1,105.000004005432,2|2,3:2|3:2,0:0:0:0:
446,384,161079,5,2,3:2:0:0:
349,334,161432,1,0,3:2:0:0:
227,315,161785,1,2,3:2:0:0:
94,333,162138,1,0,3:2:0:0:
18,210,162491,6,0,P|-5:168|19:117,1,105.000004005432,2|0,3:2|3:2,0:0:0:0:
170,39,163197,2,0,P|194:78|169:132,1,105.000004005432,2|0,3:2|3:2,0:0:0:0:
183,355,163903,6,0,L|122:321,2,70,10|0|0,0:0|1:2|1:2,0:0:0:0:
227,283,164432,2,0,L|166:249,1,70,8|2,0:0|1:2,0:0:0:0:
165,248,164785,1,0,1:2:0:0:
113,143,164962,6,8,L|147:82,2,70,10|0|2,0:0|1:2|1:2,0:0:0:0:
35,106,165491,2,0,L|69:45,1,70,8|2,0:0|1:2,0:0:0:0:
69,44,165844,1,0,1:2:0:0:
157,128,166021,6,0,P|227:138|271:87,1,140,6|6,1:2|1:2,0:0:0:0:
442,171,166727,6,0,L|510:202,2,70,14|0|2,0:0|1:2|1:2,0:0:0:0:
434,76,167256,2,0,L|426:1,2,70,8|0|0,0:0|1:2|1:2,0:0:0:0:
358,134,167786,2,0,L|297:177,1,70,8|0,0:0|1:2,0:0:0:0:
197,80,168138,6,0,P|218:99|189:101,1,70,6|0,1:2|0:0,0:0:0:0:
105,137,168491,2,0,P|84:156|113:158,1,70,6|0,1:2|0:0,0:0:0:0:
192,218,168844,1,6,1:2:0:0:
133,297,169020,1,2,0:0:0:0:
180,383,169197,1,10,0:0:0:0:
194,377,169285,1,8,0:0:0:0:
208,372,169373,1,10,0:0:0:0:
222,366,169461,1,8,0:0:0:0:
243,357,169550,6,0,P|168:353|132:282,1,146.999995513916,6|10,1:2|0:0,0:0:0:0:
46,326,170079,2,0,L|-33:352,1,73.4999977569581,2|0,1:2|1:2,0:0:0:0:
13,240,170432,1,2,1:2:0:0:
19,366,170609,2,0,L|88:343,1,73.4999977569581,10|2,0:0|1:2,0:0:0:0:
191,383,170962,6,0,P|255:353|320:383,1,146.999995513916,2|8,1:2|0:0,0:0:0:0:
405,345,171491,1,2,1:2:0:0:
405,345,171668,2,0,P|370:353|328:329,1,73.4999977569581,2|2,1:2|1:2,0:0:0:0:
413,261,172021,2,0,P|379:246|344:254,1,73.4999977569581,10|2,0:0|1:2,0:0:0:0:
392,139,172374,6,0,L|405:-13,1,146.999995513916,2|10,1:2|0:0,0:0:0:0:
299,55,172903,2,0,P|287:84|307:69,1,73.4999977569581,2|0,1:2|1:2,0:0:0:0:
396,142,173256,1,2,1:2:0:0:
396,142,173432,2,0,L|474:126,1,73.4999977569581,8|2,0:0|1:2,0:0:0:0:
435,276,173785,6,0,B|409:226|351:214|300:254,1,146.999995513916,2|8,1:2|0:0,0:0:0:0:
222,291,174315,2,0,B|164:293|139:228|179:183,1,146.999995513916,2|0,0:0|1:2,0:0:0:0:
193,83,174844,2,0,L|120:97,1,73.4999977569581,10|2,0:0|1:2,0:0:0:0:
304,118,175197,6,0,B|377:104|377:104|403:122|447:115,1,146.999995513916,2|10,1:2|0:0,0:0:0:0:
501,190,175727,2,0,P|478:214|431:216,1,73.4999977569581,2|0,0:0|1:2,0:0:0:0:
385,294,176080,2,0,P|408:318|455:320,1,73.4999977569581,2|8,1:2|0:0,0:0:0:0:
332,374,176433,2,0,B|290:374|290:374|261:383|261:383|230:374|230:374|188:374,1,146.999995513916,2|0,1:2|0:0,0:0:0:0:
132,275,176961,6,0,B|169:280|169:280|202:261,1,73.4999977569581,10|0,0:0|0:0,0:0:0:0:
116,185,177314,2,0,B|153:190|153:190|186:171,1,73.4999977569581,2|0,1:2|1:2,0:0:0:0:
100,95,177667,2,0,B|137:100|137:100|170:81,1,73.4999977569581,10|0,0:0|1:2,0:0:0:0:
263,2,178021,6,0,P|301:58|379:53,1,146.999995513916,2|10,1:2|0:0,0:0:0:0:
464,99,178550,2,0,P|503:154|466:219,1,146.999995513916,2|2,1:2|1:2,0:0:0:0:
374,188,179079,1,10,0:0:0:0:
279,217,179256,1,2,1:2:0:0:
180,188,179433,6,0,B|111:188|111:188|84:213|37:203,1,146.999995513916,4|8,1:2|0:0,0:0:0:0:
2,351,180050,1,0,1:2:0:0:
2,351,180138,2,0,P|-25:339|2:333,1,73.4999977569581,10|10,0:0|0:0,0:0:0:0:
91,384,180491,2,0,P|122:364|162:366,1,73.4999977569581,10|10,0:0|0:0,0:0:0:0:
205,266,180844,6,0,P|258:311|331:302,1,146.999995513916,6|10,1:2|0:0,0:0:0:0:
290,216,181373,2,0,L|267:291,1,73.4999977569581,2|0,0:0|1:2,0:0:0:0:
404,226,181726,1,2,1:2:0:0:
404,226,181903,2,0,L|383:140,1,73.4999977569581,10|2,0:0|1:2,0:0:0:0:
447,68,182256,6,0,P|392:108|310:95,1,146.999995513916,2|8,1:2|0:0,0:0:0:0:
216,75,182785,1,2,0:0:0:0:
216,75,182961,2,0,L|232:146,1,73.4999977569581,2|2,1:2|1:2,0:0:0:0:
132,139,183314,2,0,L|148:210,1,73.4999977569581,10|2,0:0|1:2,0:0:0:0:
203,317,183668,6,0,B|149:308|149:308|115:326|115:326|61:318,1,146.999995513916,2|10,1:2|0:0,0:0:0:0:
9,239,184197,2,0,P|-5:207|9:172,1,73.4999977569581,2|0,0:0|1:2,0:0:0:0:
133,224,184550,1,2,1:2:0:0:
133,224,184727,2,0,P|147:256|133:291,1,73.4999977569581,8|2,0:0|1:2,0:0:0:0:
98,127,185080,6,0,B|107:180|165:202|212:164,1,146.999995513916,2|8,1:2|0:0,0:0:0:0:
284,246,185609,2,0,B|294:193|351:173|401:204,1,146.999995513916,2|0,0:0|1:2,0:0:0:0:
478,136,186138,2,0,P|505:143|478:152,1,73.4999977569581,10|2,0:0|1:2,0:0:0:0:
409,39,186491,6,0,B|355:39|355:39|294:39|308:70|241:70|241:70|192:70,1,220.499993270874,6|0,1:2|0:0,0:0:0:0:
102,39,187197,2,0,B|90:72|90:72|107:109,1,73.4999977569581,2|0,1:2|1:2,0:0:0:0:
76,194,187550,2,0,B|110:208|110:208|147:191,1,73.4999977569581,10|0,0:0|1:2,0:0:0:0:
210,302,187903,6,0,P|181:285|139:291,1,73.4999977569581,2|0,1:2|0:0,0:0:0:0:
311,288,188256,2,0,P|282:271|240:277,1,73.4999977569581,10|0,0:0|0:0,0:0:0:0:
412,274,188609,2,0,P|383:257|341:263,1,73.4999977569581,2|0,1:2|1:2,0:0:0:0:
392,163,188961,1,10,0:0:0:0:
392,163,189138,1,2,1:2:0:0:
264,182,189315,6,0,B|220:188|191:162|191:162|120:162,1,146.999995513916,0|10,1:2|0:0,0:0:0:0:
158,72,189844,1,0,0:0:0:0:
158,72,190020,2,0,L|158:-1,1,73.4999977569581,0|0,1:2|1:2,0:0:0:0:
158,192,190373,2,0,L|78:193,1,73.4999977569581,8|0,0:0|1:2,0:0:0:0:
158,313,190726,6,0,P|189:322|175:294,1,73.4999977569581,12|8,0:2|0:0,0:0:0:0:
269,354,191079,2,0,P|276:324|247:333,1,73.4999977569581,8|8,0:0|0:0,0:0:0:0:
334,254,191432,1,0,1:2:0:0:
344,243,191520,1,0,1:2:0:0:
355,233,191608,1,8,0:0:0:0:
366,223,191697,1,8,0:0:0:0:
377,213,191785,2,0,L|414:175,3,36.749998878479,8|8|8|8,0:0|0:0|0:0|0:0,0:0:0:0:
397,162,192138,6,0,P|477:162|499:89,2,168,6|2|2,1:2|0:0|1:2,0:0:0:0:
272,104,193550,5,2,1:2:0:0:
186,244,194079,1,2,0:0:0:0:
310,352,194608,1,2,1:2:0:0:
414,266,194962,6,0,B|515:251|515:251|547:271|537:315,2,168,2|2|2,1:2|0:0|1:2,0:0:0:0:
307,346,196373,5,2,1:2:0:0:
291,181,196903,1,2,0:0:0:0:
275,16,197432,1,2,1:2:0:0:
157,76,197785,6,0,P|105:79|79:29,1,112,2|0,1:2|1:2,0:0:0:0:
161,0,198314,2,0,L|155:175,1,168,2|2,0:0|1:2,0:0:0:0:
93,295,199197,5,2,1:2:0:0:
193,364,199550,1,0,1:2:0:0:
193,364,199726,1,2,0:0:0:0:
272,269,200079,1,0,0:0:0:0:
272,269,200255,1,2,1:2:0:0:
169,179,200609,6,0,P|109:177|81:137,1,112,2|0,1:2|1:2,0:0:0:0:
126,57,201138,2,0,B|200:57|200:57|219:67|219:67|293:67,1,168,2|2,0:0|1:2,0:0:0:0:
427,76,202021,6,0,P|450:65|426:55,1,62.9999980773926,10|0,0:0|0:0,0:0:0:0:
447,168,202374,6,0,P|421:180|447:190,1,70,8|2,0:0|0:0,0:0:0:0:
431,315,202727,6,0,P|459:302|431:289,1,77.0000023498536,4|0,1:2|0:0,0:0:0:0:
320,339,203079,5,14,0:0:0:0:
201,361,203255,5,14,0:0:0:0:
