osu file format v14

[General]
AudioFilename: audio.mp3
AudioLeadIn: 0
PreviewTime: 82304
Countdown: 0
SampleSet: None
StackLeniency: 0.7
Mode: 3
LetterboxInBreaks: 0
SpecialStyle: 0
WidescreenStoryboard: 0

[Editor]
DistanceSpacing: 0.8
BeatDivisor: 4
GridSize: 32
TimelineZoom: 1

[Metadata]
Title:Dawn of Asia -ginkiha mix-
TitleUnicode:Dawn of Asia -ginkiha mix-
Artist:ginkiha+kamome sano
ArtistUnicode:ginkiha+kamome sano
Creator:Anima_Alumi-47
Version:Marathon
Source:
Tags:ginkiha kamome sano
BeatmapID:948709
BeatmapSetID:441005

[Difficulty]
HPDrainRate:8
CircleSize:4
OverallDifficulty:8
ApproachRate:5
SliderMultiplier:1.4
SliderTickRate:1

[Events]
//Background and Video events
0,0,"bg.jpg",0,0
//Break Periods
//Storyboard Layer 0 (Background)
//Storyboard Layer 1 (Fail)
//Storyboard Layer 2 (Pass)
//Storyboard Layer 3 (Foreground)
//Storyboard Sound Samples

[TimingPoints]
1400,319.148936170213,4,1,1,50,1,0
11612,-100,4,3,1,50,0,0
19272,-100,4,1,2,50,0,0
39697,-100,4,3,2,50,0,0
60123,-100,4,1,1,50,0,0
83102,-100,4,3,2,50,0,1
123953,-100,4,1,1,50,0,0
134165,-100,4,3,1,50,0,0
141825,-100,4,1,2,50,0,0
162251,-100,4,3,2,50,0,0
182676,-100,4,1,1,50,0,0
205655,-100,4,3,2,50,0,1
246506,-100,4,3,2,50,0,0

[HitObjects]
64,192,602,5,0,0:0:0:0:
320,192,761,1,0,0:0:0:0:
192,192,921,1,0,0:0:0:0:
448,192,1080,1,0,0:0:0:0:
320,192,1240,1,0,0:0:0:0:
448,192,1400,1,0,0:0:0:0:
64,192,1400,1,0,0:0:0:0:
64,192,2197,1,0,0:0:0:0:
192,192,2357,1,0,0:0:0:0:
320,192,2517,1,0,0:0:0:0:
448,192,2517,1,0,0:0:0:0:
64,192,3474,1,0,0:0:0:0:
320,192,3634,1,0,0:0:0:0:
448,192,3793,1,0,0:0:0:0:
320,192,3953,1,0,0:0:0:0:
64,192,3953,1,0,0:0:0:0:
448,192,4112,1,0,0:0:0:0:
192,192,4272,1,0,0:0:0:0:
320,192,4431,1,0,0:0:0:0:
192,192,4751,1,0,0:0:0:0:
448,192,4910,1,0,0:0:0:0:
320,192,5070,1,0,0:0:0:0:
64,192,5070,1,0,0:0:0:0:
64,192,6027,1,0,0:0:0:0:
320,192,6187,1,0,0:0:0:0:
192,192,6346,1,0,0:0:0:0:
448,192,6506,1,0,0:0:0:0:
320,192,6506,1,0,0:0:0:0:
64,192,7304,1,0,0:0:0:0:
320,192,7463,1,0,0:0:0:0:
192,192,7623,1,0,0:0:0:0:
448,192,7623,1,0,0:0:0:0:
192,192,7942,1,0,0:0:0:0:
448,192,8102,1,0,0:0:0:0:
320,192,8261,1,0,0:0:0:0:
192,192,8580,1,0,0:0:0:0:
64,192,8740,1,0,0:0:0:0:
192,192,8900,1,0,0:0:0:0:
320,192,9059,1,0,0:0:0:0:
448,192,9059,1,0,0:0:0:0:
448,192,10176,1,0,0:0:0:0:
64,192,10176,1,0,0:0:0:0:
448,192,10814,1,0,0:0:0:0:
192,192,10974,1,0,0:0:0:0:
64,192,11134,1,0,0:0:0:0:
320,192,11293,1,0,0:0:0:0:
448,192,11453,1,0,0:0:0:0:
64,192,11612,1,0,0:0:0:0:
320,192,11612,1,0,0:0:0:0:
192,192,11772,1,0,0:0:0:0:
64,192,11931,1,0,0:0:0:0:
448,192,11931,1,0,0:0:0:0:
320,192,12091,1,0,0:0:0:0:
192,192,12171,1,0,0:0:0:0:
64,192,12251,1,0,0:0:0:0:
448,192,12251,1,0,0:0:0:0:
192,192,12330,1,0,0:0:0:0:
320,192,12410,1,0,0:0:0:0:
192,192,12570,1,0,0:0:0:0:
64,192,12570,1,0,0:0:0:0:
448,192,12729,1,0,0:0:0:0:
320,192,12809,1,0,0:0:0:0:
192,192,12889,1,0,0:0:0:0:
64,192,12889,1,0,0:0:0:0:
320,192,13048,1,0,0:0:0:0:
192,192,13208,1,0,0:0:0:0:
448,192,13208,1,0,0:0:0:0:
64,192,13368,1,0,0:0:0:0:
320,192,13447,1,0,0:0:0:0:
192,192,13527,1,0,0:0:0:0:
448,192,13527,1,0,0:0:0:0:
320,192,13607,1,0,0:0:0:0:
64,192,13687,1,0,0:0:0:0:
320,192,13846,1,0,0:0:0:0:
448,192,13846,1,0,0:0:0:0:
64,192,14006,1,0,0:0:0:0:
192,192,14086,1,0,0:0:0:0:
320,192,14165,1,0,0:0:0:0:
64,192,14165,1,0,0:0:0:0:
192,192,14325,1,0,0:0:0:0:
320,192,14485,1,0,0:0:0:0:
448,192,14485,1,0,0:0:0:0:
64,192,14644,1,0,0:0:0:0:
320,192,14724,1,0,0:0:0:0:
192,192,14804,1,0,0:0:0:0:
64,192,14804,1,0,0:0:0:0:
448,192,14884,1,0,0:0:0:0:
320,192,14963,1,0,0:0:0:0:
64,192,15123,1,0,0:0:0:0:
192,192,15123,1,0,0:0:0:0:
320,192,15282,1,0,0:0:0:0:
448,192,15362,1,0,0:0:0:0:
64,192,15442,1,0,0:0:0:0:
320,192,15442,1,0,0:0:0:0:
192,192,15602,1,0,0:0:0:0:
64,192,15761,1,0,0:0:0:0:
448,192,15761,1,0,0:0:0:0:
320,192,15921,1,0,0:0:0:0:
192,192,16001,1,0,0:0:0:0:
64,192,16080,1,0,0:0:0:0:
320,192,16080,1,0,0:0:0:0:
448,192,16160,1,0,0:0:0:0:
320,192,16240,1,0,0:0:0:0:
192,192,16400,1,0,0:0:0:0:
64,192,16400,1,0,0:0:0:0:
320,192,16559,1,0,0:0:0:0:
448,192,16639,1,0,0:0:0:0:
192,192,16719,1,0,0:0:0:0:
320,192,16719,1,0,0:0:0:0:
64,192,16878,1,0,0:0:0:0:
192,192,17038,1,0,0:0:0:0:
448,192,17038,1,0,0:0:0:0:
320,192,17197,1,0,0:0:0:0:
448,192,17277,1,0,0:0:0:0:
64,192,17357,1,0,0:0:0:0:
320,192,17357,1,0,0:0:0:0:
192,192,17437,1,0,0:0:0:0:
320,192,17517,1,0,0:0:0:0:
64,192,17676,1,0,0:0:0:0:
448,192,17676,1,0,0:0:0:0:
320,192,17836,1,0,0:0:0:0:
192,192,17915,1,0,0:0:0:0:
64,192,17995,1,0,0:0:0:0:
320,192,17995,1,0,0:0:0:0:
192,192,18155,1,0,0:0:0:0:
320,192,18314,1,0,0:0:0:0:
448,192,18314,1,0,0:0:0:0:
64,192,18474,1,0,0:0:0:0:
320,192,18554,1,0,0:0:0:0:
192,192,18634,1,0,0:0:0:0:
64,192,18634,1,0,0:0:0:0:
448,192,18713,1,0,0:0:0:0:
320,192,18793,1,0,0:0:0:0:
64,192,18953,1,0,0:0:0:0:
192,192,18953,1,0,0:0:0:0:
320,192,19112,1,0,0:0:0:0:
192,192,19272,1,2,0:0:0:0:
448,192,19272,1,2,0:0:0:0:
64,192,19431,1,0,0:0:0:0:
192,192,19591,1,0,0:0:0:0:
320,192,19591,1,0,0:0:0:0:
448,192,19751,1,0,0:0:0:0:
192,192,19830,1,0,0:0:0:0:
320,192,19910,1,0,0:0:0:0:
64,192,19910,1,0,0:0:0:0:
192,192,19990,1,0,0:0:0:0:
320,192,20070,1,0,0:0:0:0:
192,192,20229,1,0,0:0:0:0:
448,192,20229,1,0,0:0:0:0:
64,192,20389,1,0,0:0:0:0:
320,192,20548,1,0,0:0:0:0:
448,192,20548,1,0,0:0:0:0:
192,192,20708,1,0,0:0:0:0:
64,192,20868,1,0,0:0:0:0:
448,192,20868,1,0,0:0:0:0:
320,192,21027,1,0,0:0:0:0:
192,192,21107,1,0,0:0:0:0:
448,192,21187,1,0,0:0:0:0:
320,192,21187,1,0,0:0:0:0:
64,192,21267,1,0,0:0:0:0:
192,192,21346,1,0,0:0:0:0:
448,192,21506,1,0,0:0:0:0:
64,192,21506,1,0,0:0:0:0:
320,192,21665,1,0,0:0:0:0:
64,192,21825,1,0,0:0:0:0:
448,192,21825,1,0,0:0:0:0:
320,192,21985,1,0,0:0:0:0:
192,192,22144,1,0,0:0:0:0:
64,192,22144,1,0,0:0:0:0:
448,192,22304,1,0,0:0:0:0:
320,192,22384,1,0,0:0:0:0:
64,192,22463,1,0,0:0:0:0:
192,192,22463,1,0,0:0:0:0:
320,192,22543,1,0,0:0:0:0:
64,192,22623,1,0,0:0:0:0:
192,192,22782,1,0,0:0:0:0:
448,192,22782,1,0,0:0:0:0:
320,192,22942,1,0,0:0:0:0:
192,192,23102,1,0,0:0:0:0:
64,192,23102,1,0,0:0:0:0:
320,192,23261,1,0,0:0:0:0:
64,192,23421,1,0,0:0:0:0:
448,192,23421,1,0,0:0:0:0:
192,192,23580,1,0,0:0:0:0:
64,192,23660,1,0,0:0:0:0:
320,192,23740,1,0,0:0:0:0:
448,192,23740,1,0,0:0:0:0:
192,192,23820,1,0,0:0:0:0:
64,192,23900,1,0,0:0:0:0:
448,192,24059,1,0,0:0:0:0:
192,192,24059,1,0,0:0:0:0:
320,192,24219,1,0,0:0:0:0:
448,192,24378,1,0,0:0:0:0:
64,192,24378,1,0,0:0:0:0:
320,192,24538,1,0,0:0:0:0:
64,192,24697,1,0,0:0:0:0:
192,192,24697,1,0,0:0:0:0:
448,192,24857,1,0,0:0:0:0:
192,192,24937,1,0,0:0:0:0:
320,192,25017,1,0,0:0:0:0:
448,192,25017,1,0,0:0:0:0:
64,192,25096,1,0,0:0:0:0:
192,192,25176,1,0,0:0:0:0:
320,192,25336,1,0,0:0:0:0:
448,192,25336,1,0,0:0:0:0:
192,192,25495,1,0,0:0:0:0:
64,192,25655,1,0,0:0:0:0:
320,192,25655,1,0,0:0:0:0:
448,192,25814,1,0,0:0:0:0:
192,192,25974,1,0,0:0:0:0:
320,192,25974,1,0,0:0:0:0:
64,192,26134,1,0,0:0:0:0:
320,192,26213,1,0,0:0:0:0:
192,192,26293,1,0,0:0:0:0:
448,192,26293,1,0,0:0:0:0:
320,192,26373,1,0,0:0:0:0:
64,192,26453,1,0,0:0:0:0:
192,192,26612,1,0,0:0:0:0:
448,192,26612,1,0,0:0:0:0:
320,192,26772,1,0,0:0:0:0:
192,192,26931,1,0,0:0:0:0:
64,192,26931,1,0,0:0:0:0:
448,192,27091,1,0,0:0:0:0:
192,192,27251,1,0,0:0:0:0:
320,192,27251,1,0,0:0:0:0:
64,192,27410,1,0,0:0:0:0:
320,192,27490,1,0,0:0:0:0:
192,192,27570,1,0,0:0:0:0:
448,192,27570,1,0,0:0:0:0:
64,192,27650,1,0,0:0:0:0:
320,192,27729,1,0,0:0:0:0:
192,192,27889,1,0,0:0:0:0:
64,192,27889,1,0,0:0:0:0:
448,192,28048,1,0,0:0:0:0:
320,192,28208,1,0,0:0:0:0:
192,192,28208,1,0,0:0:0:0:
64,192,28368,1,0,0:0:0:0:
192,192,28527,1,0,0:0:0:0:
448,192,28527,1,0,0:0:0:0:
320,192,28687,1,0,0:0:0:0:
448,192,28767,1,0,0:0:0:0:
64,192,28846,1,0,0:0:0:0:
320,192,28846,1,0,0:0:0:0:
192,192,28926,1,0,0:0:0:0:
320,192,29006,1,0,0:0:0:0:
192,192,29165,1,0,0:0:0:0:
448,192,29165,1,0,0:0:0:0:
320,192,29325,1,0,0:0:0:0:
192,192,29485,1,0,0:0:0:0:
64,192,29485,1,0,0:0:0:0:
448,192,29644,1,0,0:0:0:0:
320,192,29804,1,0,0:0:0:0:
64,192,29804,1,0,0:0:0:0:
192,192,29963,1,0,0:0:0:0:
448,192,30043,1,0,0:0:0:0:
320,192,30123,1,0,0:0:0:0:
64,192,30123,1,0,0:0:0:0:
192,192,30203,1,0,0:0:0:0:
320,192,30282,1,0,0:0:0:0:
192,192,30442,1,0,0:0:0:0:
64,192,30442,1,0,0:0:0:0:
448,192,30602,1,0,0:0:0:0:
320,192,30761,1,0,0:0:0:0:
192,192,30761,1,0,0:0:0:0:
64,192,30921,1,0,0:0:0:0:
192,192,31080,1,0,0:0:0:0:
448,192,31080,1,0,0:0:0:0:
320,192,31240,1,0,0:0:0:0:
448,192,31320,1,0,0:0:0:0:
64,192,31400,1,0,0:0:0:0:
192,192,31400,1,0,0:0:0:0:
320,192,31479,1,0,0:0:0:0:
448,192,31559,1,0,0:0:0:0:
64,192,31719,1,0,0:0:0:0:
320,192,31719,1,0,0:0:0:0:
192,192,31878,1,0,0:0:0:0:
64,192,32038,1,0,0:0:0:0:
448,192,32038,1,0,0:0:0:0:
320,192,32197,1,0,0:0:0:0:
192,192,32357,1,0,0:0:0:0:
64,192,32357,1,0,0:0:0:0:
448,192,32517,1,0,0:0:0:0:
192,192,32596,1,0,0:0:0:0:
64,192,32676,1,0,0:0:0:0:
320,192,32676,1,0,0:0:0:0:
448,192,32756,1,0,0:0:0:0:
192,192,32836,1,0,0:0:0:0:
64,192,32995,1,0,0:0:0:0:
320,192,32995,1,0,0:0:0:0:
448,192,33155,1,0,0:0:0:0:
192,192,33314,1,0,0:0:0:0:
320,192,33314,1,0,0:0:0:0:
64,192,33474,1,0,0:0:0:0:
192,192,33634,1,0,0:0:0:0:
448,192,33634,1,0,0:0:0:0:
320,192,33793,1,0,0:0:0:0:
448,192,33873,1,0,0:0:0:0:
64,192,33953,1,0,0:0:0:0:
320,192,33953,1,0,0:0:0:0:
192,192,34032,1,0,0:0:0:0:
320,192,34112,1,0,0:0:0:0:
192,192,34272,1,0,0:0:0:0:
64,192,34272,1,0,0:0:0:0:
448,192,34431,1,0,0:0:0:0:
320,192,34591,1,0,0:0:0:0:
192,192,34591,1,0,0:0:0:0:
64,192,34751,1,0,0:0:0:0:
192,192,34910,1,0,0:0:0:0:
448,192,34910,1,0,0:0:0:0:
320,192,35070,1,0,0:0:0:0:
192,192,35150,1,0,0:0:0:0:
320,192,35229,1,0,0:0:0:0:
448,192,35229,1,0,0:0:0:0:
64,192,35309,1,0,0:0:0:0:
192,192,35389,1,0,0:0:0:0:
320,192,35548,1,0,0:0:0:0:
64,192,35548,1,0,0:0:0:0:
448,192,35708,1,0,0:0:0:0:
192,192,35868,1,0,0:0:0:0:
320,192,35868,1,0,0:0:0:0:
64,192,36027,1,0,0:0:0:0:
192,192,36187,1,0,0:0:0:0:
448,192,36187,1,0,0:0:0:0:
320,192,36346,1,0,0:0:0:0:
64,192,36426,1,0,0:0:0:0:
192,192,36506,1,0,0:0:0:0:
448,192,36506,1,0,0:0:0:0:
320,192,36586,1,0,0:0:0:0:
192,192,36665,1,0,0:0:0:0:
320,192,36825,1,0,0:0:0:0:
448,192,36825,1,0,0:0:0:0:
64,192,36985,1,0,0:0:0:0:
192,192,37144,1,0,0:0:0:0:
320,192,37144,1,0,0:0:0:0:
448,192,37304,1,0,0:0:0:0:
64,192,37463,1,0,0:0:0:0:
320,192,37463,1,0,0:0:0:0:
448,192,37623,1,0,0:0:0:0:
192,192,37703,1,0,0:0:0:0:
320,192,37782,1,0,0:0:0:0:
448,192,37782,1,0,0:0:0:0:
64,192,37862,1,0,0:0:0:0:
320,192,37942,1,0,0:0:0:0:
192,192,38102,1,0,0:0:0:0:
64,192,38102,1,0,0:0:0:0:
448,192,38261,1,0,0:0:0:0:
320,192,38421,1,0,0:0:0:0:
64,192,38421,1,0,0:0:0:0:
192,192,38580,1,0,0:0:0:0:
64,192,38740,1,0,0:0:0:0:
448,192,38740,1,0,0:0:0:0:
320,192,38900,1,0,0:0:0:0:
192,192,38979,1,0,0:0:0:0:
64,192,39059,1,0,0:0:0:0:
448,192,39059,1,0,0:0:0:0:
320,192,39139,1,0,0:0:0:0:
192,192,39219,1,0,0:0:0:0:
64,192,39378,1,0,0:0:0:0:
320,192,39378,1,0,0:0:0:0:
192,192,39538,1,0,0:0:0:0:
64,192,39697,1,2,0:0:0:0:
448,192,39697,1,2,0:0:0:0:
320,192,39857,1,0,0:0:0:0:
64,192,40017,1,0,0:0:0:0:
448,192,40017,1,0,0:0:0:0:
192,192,40176,1,0,0:0:0:0:
64,192,40336,1,0,0:0:0:0:
320,192,40336,1,0,0:0:0:0:
192,192,40495,1,0,0:0:0:0:
320,192,40655,1,0,0:0:0:0:
448,192,40655,1,0,0:0:0:0:
64,192,40814,1,0,0:0:0:0:
192,192,40974,1,0,0:0:0:0:
448,192,40974,1,0,0:0:0:0:
320,192,41134,1,0,0:0:0:0:
192,192,41293,1,0,0:0:0:0:
64,192,41293,1,0,0:0:0:0:
448,192,41453,1,0,0:0:0:0:
320,192,41612,1,0,0:0:0:0:
64,192,41612,1,0,0:0:0:0:
192,192,41772,1,0,0:0:0:0:
64,192,41931,1,0,0:0:0:0:
448,192,41931,1,0,0:0:0:0:
320,192,42091,1,0,0:0:0:0:
192,192,42091,1,0,0:0:0:0:
192,192,42251,1,0,0:0:0:0:
64,192,42251,1,0,0:0:0:0:
320,192,42410,1,0,0:0:0:0:
192,192,42570,1,0,0:0:0:0:
448,192,42570,1,0,0:0:0:0:
64,192,42729,1,0,0:0:0:0:
192,192,42889,1,0,0:0:0:0:
320,192,42889,1,0,0:0:0:0:
448,192,43048,1,0,0:0:0:0:
64,192,43208,1,0,0:0:0:0:
320,192,43208,1,0,0:0:0:0:
192,192,43368,1,0,0:0:0:0:
64,192,43527,1,0,0:0:0:0:
320,192,43527,1,0,0:0:0:0:
448,192,43687,1,0,0:0:0:0:
64,192,43846,1,0,0:0:0:0:
192,192,43846,1,0,0:0:0:0:
448,192,44006,1,0,0:0:0:0:
320,192,44165,1,0,0:0:0:0:
192,192,44165,1,0,0:0:0:0:
64,192,44325,1,0,0:0:0:0:
192,192,44485,1,0,0:0:0:0:
448,192,44485,1,0,0:0:0:0:
320,192,44644,1,0,0:0:0:0:
64,192,44644,1,0,0:0:0:0:
64,192,44804,1,0,0:0:0:0:
192,192,44804,1,0,0:0:0:0:
448,192,44963,1,0,0:0:0:0:
320,192,45123,1,0,0:0:0:0:
192,192,45123,1,0,0:0:0:0:
64,192,45282,1,0,0:0:0:0:
192,192,45442,1,0,0:0:0:0:
448,192,45442,1,0,0:0:0:0:
320,192,45602,1,0,0:0:0:0:
448,192,45761,1,0,0:0:0:0:
192,192,45761,1,0,0:0:0:0:
64,192,45921,1,0,0:0:0:0:
320,192,46080,1,0,0:0:0:0:
448,192,46080,1,0,0:0:0:0:
64,192,46240,1,0,0:0:0:0:
192,192,46400,1,0,0:0:0:0:
320,192,46400,1,0,0:0:0:0:
448,192,46559,1,0,0:0:0:0:
64,192,46719,1,0,0:0:0:0:
320,192,46719,1,0,0:0:0:0:
192,192,46878,1,0,0:0:0:0:
64,192,47038,1,0,0:0:0:0:
448,192,47038,1,0,0:0:0:0:
320,192,47197,1,0,0:0:0:0:
192,192,47197,1,0,0:0:0:0:
64,192,47357,1,0,0:0:0:0:
192,192,47357,1,0,0:0:0:0:
320,192,47517,1,0,0:0:0:0:
192,192,47676,1,0,0:0:0:0:
448,192,47676,1,0,0:0:0:0:
64,192,47836,1,0,0:0:0:0:
320,192,47995,1,0,0:0:0:0:
448,192,47995,1,0,0:0:0:0:
64,192,48155,1,0,0:0:0:0:
320,192,48314,1,0,0:0:0:0:
192,192,48314,1,0,0:0:0:0:
448,192,48474,1,0,0:0:0:0:
64,192,48634,1,0,0:0:0:0:
320,192,48634,1,0,0:0:0:0:
192,192,48793,1,0,0:0:0:0:
64,192,48953,1,0,0:0:0:0:
448,192,48953,1,0,0:0:0:0:
320,192,49112,1,0,0:0:0:0:
192,192,49272,1,0,0:0:0:0:
64,192,49272,1,0,0:0:0:0:
448,192,49431,1,0,0:0:0:0:
320,192,49591,1,0,0:0:0:0:
192,192,49591,1,0,0:0:0:0:
64,192,49751,1,0,0:0:0:0:
320,192,49751,1,0,0:0:0:0:
192,192,49910,1,2,0:0:0:0:
448,192,49910,1,2,0:0:0:0:
320,192,50070,1,0,0:0:0:0:
64,192,50229,1,0,0:0:0:0:
448,192,50229,1,0,0:0:0:0:
320,192,50389,1,0,0:0:0:0:
448,192,50469,1,0,0:0:0:0:
192,192,50548,1,0,0:0:0:0:
64,192,50548,1,0,0:0:0:0:
320,192,50628,1,0,0:0:0:0:
448,192,50708,1,0,0:0:0:0:
320,192,50868,1,0,0:0:0:0:
192,192,50868,1,0,0:0:0:0:
64,192,51027,1,0,0:0:0:0:
320,192,51187,1,0,0:0:0:0:
448,192,51187,1,0,0:0:0:0:
64,192,51346,1,0,0:0:0:0:
192,192,51506,1,0,0:0:0:0:
448,192,51506,1,0,0:0:0:0:
320,192,51665,1,0,0:0:0:0:
192,192,51745,1,0,0:0:0:0:
64,192,51825,1,0,0:0:0:0:
448,192,51825,1,0,0:0:0:0:
192,192,51905,1,0,0:0:0:0:
320,192,51985,1,0,0:0:0:0:
192,192,52144,1,0,0:0:0:0:
64,192,52144,1,0,0:0:0:0:
448,192,52304,1,0,0:0:0:0:
192,192,52463,1,0,0:0:0:0:
320,192,52463,1,0,0:0:0:0:
64,192,52623,1,0,0:0:0:0:
320,192,52782,1,0,0:0:0:0:
448,192,52782,1,0,0:0:0:0:
64,192,52942,1,0,0:0:0:0:
320,192,53022,1,0,0:0:0:0:
192,192,53102,1,0,0:0:0:0:
448,192,53102,1,0,0:0:0:0:
320,192,53181,1,0,0:0:0:0:
192,192,53261,1,0,0:0:0:0:
448,192,53421,1,0,0:0:0:0:
64,192,53421,1,0,0:0:0:0:
320,192,53580,1,0,0:0:0:0:
192,192,53740,1,0,0:0:0:0:
64,192,53740,1,0,0:0:0:0:
448,192,53900,1,0,0:0:0:0:
64,192,54059,1,0,0:0:0:0:
320,192,54059,1,0,0:0:0:0:
64,192,54219,1,0,0:0:0:0:
320,192,54298,1,0,0:0:0:0:
448,192,54378,1,0,0:0:0:0:
192,192,54378,1,0,0:0:0:0:
320,192,54458,1,0,0:0:0:0:
192,192,54538,1,0,0:0:0:0:
64,192,54697,1,0,0:0:0:0:
320,192,54697,1,0,0:0:0:0:
448,192,54857,1,0,0:0:0:0:
192,192,55017,1,0,0:0:0:0:
64,192,55017,1,0,0:0:0:0:
320,192,55176,1,0,0:0:0:0:
192,192,55336,1,0,0:0:0:0:
448,192,55336,1,0,0:0:0:0:
64,192,55495,1,0,0:0:0:0:
320,192,55575,1,0,0:0:0:0:
192,192,55655,1,0,0:0:0:0:
448,192,55655,1,0,0:0:0:0:
320,192,55735,1,0,0:0:0:0:
448,192,55814,1,0,0:0:0:0:
64,192,55974,1,0,0:0:0:0:
192,192,55974,1,0,0:0:0:0:
320,192,56134,1,0,0:0:0:0:
448,192,56293,1,0,0:0:0:0:
192,192,56293,1,0,0:0:0:0:
64,192,56453,1,0,0:0:0:0:
448,192,56612,1,0,0:0:0:0:
320,192,56612,1,0,0:0:0:0:
192,192,56772,1,0,0:0:0:0:
64,192,56852,1,0,0:0:0:0:
320,192,56931,1,0,0:0:0:0:
448,192,56931,1,0,0:0:0:0:
192,192,57011,1,0,0:0:0:0:
448,192,57091,1,0,0:0:0:0:
64,192,57251,1,0,0:0:0:0:
320,192,57251,1,0,0:0:0:0:
192,192,57410,1,0,0:0:0:0:
448,192,57570,1,0,0:0:0:0:
64,192,57570,1,0,0:0:0:0:
320,192,57729,1,0,0:0:0:0:
192,192,57889,1,0,0:0:0:0:
64,192,57889,1,0,0:0:0:0:
448,192,58048,1,0,0:0:0:0:
192,192,58128,1,0,0:0:0:0:
320,192,58208,1,0,0:0:0:0:
64,192,58208,1,0,0:0:0:0:
448,192,58288,1,0,0:0:0:0:
192,192,58368,1,0,0:0:0:0:
64,192,58527,1,0,0:0:0:0:
448,192,58527,1,0,0:0:0:0:
320,192,58687,1,0,0:0:0:0:
192,192,58846,1,0,0:0:0:0:
64,192,58846,1,0,0:0:0:0:
320,192,59006,1,0,0:0:0:0:
64,192,59165,1,0,0:0:0:0:
448,192,59165,1,0,0:0:0:0:
320,192,59325,1,0,0:0:0:0:
64,192,59405,1,0,0:0:0:0:
192,192,59485,1,0,0:0:0:0:
448,192,59485,1,0,0:0:0:0:
320,192,59564,1,0,0:0:0:0:
448,192,59644,1,0,0:0:0:0:
64,192,59804,1,0,0:0:0:0:
320,192,59804,1,0,0:0:0:0:
192,192,59963,1,0,0:0:0:0:
320,192,60123,1,0,0:0:0:0:
448,192,60123,1,0,0:0:0:0:
192,192,61001,1,0,0:0:0:0:
320,192,61080,1,0,0:0:0:0:
192,192,61400,1,0,0:0:0:0:
448,192,61400,1,0,0:0:0:0:
320,192,61612,1,0,0:0:0:0:
64,192,61612,1,0,0:0:0:0:
192,192,61825,1,0,0:0:0:0:
448,192,61825,1,0,0:0:0:0:
320,192,62038,1,0,0:0:0:0:
448,192,62038,1,0,0:0:0:0:
192,192,62251,1,0,0:0:0:0:
64,192,62251,1,0,0:0:0:0:
320,192,62463,1,0,0:0:0:0:
448,192,62463,1,0,0:0:0:0:
64,192,62676,1,0,0:0:0:0:
320,192,62676,1,0,0:0:0:0:
64,192,63554,1,0,0:0:0:0:
320,192,63634,1,0,0:0:0:0:
448,192,63846,1,0,0:0:0:0:
192,192,63846,1,0,0:0:0:0:
64,192,64059,1,0,0:0:0:0:
320,192,64059,1,0,0:0:0:0:
192,192,64272,1,0,0:0:0:0:
64,192,64272,1,0,0:0:0:0:
320,192,64485,1,0,0:0:0:0:
448,192,64485,1,0,0:0:0:0:
192,192,64697,1,0,0:0:0:0:
320,192,64697,1,0,0:0:0:0:
192,192,64910,1,0,0:0:0:0:
64,192,64910,1,0,0:0:0:0:
192,192,65123,1,0,0:0:0:0:
320,192,65123,1,0,0:0:0:0:
64,192,66426,1,0,0:0:0:0:
320,192,66506,1,0,0:0:0:0:
192,192,67782,1,0,0:0:0:0:
448,192,67782,1,0,0:0:0:0:
320,192,69059,1,0,0:0:0:0:
448,192,69059,1,0,0:0:0:0:
320,192,69697,1,0,0:0:0:0:
192,192,69697,1,0,0:0:0:0:
192,192,71400,1,0,0:0:0:0:
448,192,71400,1,0,0:0:0:0:
320,192,71612,1,0,0:0:0:0:
448,192,71612,1,0,0:0:0:0:
64,192,71772,1,0,0:0:0:0:
192,192,71825,1,0,0:0:0:0:
320,192,71878,1,0,0:0:0:0:
64,192,71931,1,0,0:0:0:0:
448,192,71931,1,0,0:0:0:0:
320,192,72091,1,0,0:0:0:0:
192,192,72091,1,0,0:0:0:0:
192,192,72251,1,0,0:0:0:0:
448,192,72251,1,0,0:0:0:0:
320,192,72463,1,0,0:0:0:0:
64,192,72463,1,0,0:0:0:0:
64,192,72676,1,0,0:0:0:0:
192,192,72676,1,0,0:0:0:0:
192,192,72889,1,0,0:0:0:0:
320,192,72889,1,0,0:0:0:0:
448,192,73953,1,0,0:0:0:0:
64,192,74165,1,0,0:0:0:0:
320,192,74165,1,0,0:0:0:0:
192,192,74378,1,0,0:0:0:0:
320,192,74591,1,0,0:0:0:0:
448,192,74804,1,0,0:0:0:0:
320,192,75017,1,0,0:0:0:0:
192,192,75229,1,0,0:0:0:0:
64,192,75442,1,0,0:0:0:0:
448,192,75442,1,0,0:0:0:0:
320,192,75868,1,0,0:0:0:0:
192,192,75974,1,0,0:0:0:0:
64,192,76080,1,0,0:0:0:0:
448,192,76506,1,0,0:0:0:0:
320,192,76612,1,0,0:0:0:0:
192,192,76719,1,0,0:0:0:0:
192,192,77144,1,0,0:0:0:0:
64,192,77357,1,0,0:0:0:0:
320,192,77570,1,0,0:0:0:0:
192,192,77782,1,0,0:0:0:0:
320,192,77995,1,0,0:0:0:0:
448,192,77995,1,0,0:0:0:0:
64,192,78634,1,0,0:0:0:0:
320,192,78846,1,0,0:0:0:0:
192,192,79059,1,0,0:0:0:0:
448,192,79059,1,0,0:0:0:0:
192,192,82304,1,0,0:0:0:0:
64,192,82463,1,0,0:0:0:0:
448,192,82623,1,0,0:0:0:0:
192,192,82782,1,0,0:0:0:0:
320,192,82942,1,0,0:0:0:0:
448,192,83102,1,0,0:0:0:0:
192,192,83102,1,0,0:0:0:0:
320,192,83261,1,0,0:0:0:0:
192,192,83341,1,0,0:0:0:0:
320,192,83421,1,0,0:0:0:0:
448,192,83421,1,0,0:0:0:0:
64,192,83580,1,0,0:0:0:0:
192,192,83740,1,0,0:0:0:0:
448,192,83740,1,0,0:0:0:0:
320,192,83900,1,0,0:0:0:0:
448,192,84059,1,0,0:0:0:0:
64,192,84059,1,0,0:0:0:0:
320,192,84219,1,0,0:0:0:0:
192,192,84378,1,0,0:0:0:0:
64,192,84378,1,0,0:0:0:0:
448,192,84538,1,0,0:0:0:0:
320,192,84618,1,0,0:0:0:0:
192,192,84697,1,0,0:0:0:0:
64,192,84697,1,0,0:0:0:0:
320,192,84857,1,0,0:0:0:0:
192,192,85017,1,0,0:0:0:0:
448,192,85017,1,0,0:0:0:0:
320,192,85176,1,0,0:0:0:0:
64,192,85336,1,0,0:0:0:0:
448,192,85336,1,0,0:0:0:0:
320,192,85495,1,0,0:0:0:0:
192,192,85655,1,0,0:0:0:0:
64,192,85655,1,0,0:0:0:0:
448,192,85814,1,0,0:0:0:0:
320,192,85894,1,0,0:0:0:0:
64,192,85974,1,0,0:0:0:0:
192,192,85974,1,0,0:0:0:0:
320,192,86134,1,0,0:0:0:0:
192,192,86293,1,0,0:0:0:0:
448,192,86293,1,0,0:0:0:0:
64,192,86453,1,0,0:0:0:0:
320,192,86612,1,0,0:0:0:0:
448,192,86612,1,0,0:0:0:0:
64,192,86772,1,0,0:0:0:0:
192,192,86931,1,0,0:0:0:0:
448,192,86931,1,0,0:0:0:0:
320,192,87091,1,0,0:0:0:0:
64,192,87171,1,0,0:0:0:0:
192,192,87251,1,0,0:0:0:0:
448,192,87251,1,0,0:0:0:0:
320,192,87410,1,0,0:0:0:0:
64,192,87570,1,0,0:0:0:0:
448,192,87570,1,0,0:0:0:0:
320,192,87729,1,0,0:0:0:0:
64,192,87889,1,0,0:0:0:0:
448,192,87889,1,0,0:0:0:0:
192,192,88048,1,0,0:0:0:0:
64,192,88208,1,0,0:0:0:0:
320,192,88208,1,0,0:0:0:0:
448,192,88368,1,0,0:0:0:0:
320,192,88447,1,0,0:0:0:0:
64,192,88527,1,0,0:0:0:0:
192,192,88527,1,0,0:0:0:0:
320,192,88687,1,0,0:0:0:0:
192,192,88846,1,0,0:0:0:0:
448,192,88846,1,0,0:0:0:0:
64,192,89006,1,0,0:0:0:0:
192,192,89165,1,0,0:0:0:0:
448,192,89165,1,0,0:0:0:0:
320,192,89325,1,0,0:0:0:0:
448,192,89485,1,0,0:0:0:0:
64,192,89485,1,0,0:0:0:0:
192,192,89644,1,0,0:0:0:0:
320,192,89724,1,0,0:0:0:0:
448,192,89804,1,0,0:0:0:0:
64,192,89804,1,0,0:0:0:0:
320,192,89963,1,0,0:0:0:0:
192,192,90123,1,0,0:0:0:0:
64,192,90123,1,0,0:0:0:0:
448,192,90282,1,0,0:0:0:0:
320,192,90442,1,0,0:0:0:0:
192,192,90442,1,0,0:0:0:0:
448,192,90602,1,0,0:0:0:0:
64,192,90761,1,0,0:0:0:0:
320,192,90761,1,0,0:0:0:0:
192,192,90921,1,0,0:0:0:0:
320,192,91001,1,0,0:0:0:0:
192,192,91080,1,0,0:0:0:0:
448,192,91080,1,0,0:0:0:0:
64,192,91240,1,0,0:0:0:0:
320,192,91400,1,0,0:0:0:0:
448,192,91400,1,0,0:0:0:0:
64,192,91559,1,0,0:0:0:0:
192,192,91719,1,0,0:0:0:0:
320,192,91719,1,0,0:0:0:0:
448,192,91878,1,0,0:0:0:0:
64,192,92038,1,0,0:0:0:0:
320,192,92038,1,0,0:0:0:0:
448,192,92197,1,0,0:0:0:0:
192,192,92277,1,0,0:0:0:0:
320,192,92357,1,0,0:0:0:0:
448,192,92357,1,0,0:0:0:0:
64,192,92517,1,0,0:0:0:0:
320,192,92596,1,0,0:0:0:0:
192,192,92676,1,0,0:0:0:0:
448,192,92676,1,0,0:0:0:0:
320,192,92756,1,0,0:0:0:0:
64,192,92836,1,0,0:0:0:0:
192,192,92995,1,0,0:0:0:0:
448,192,92995,1,0,0:0:0:0:
320,192,93155,1,0,0:0:0:0:
64,192,93314,1,0,0:0:0:0:
448,192,93314,1,0,0:0:0:0:
320,192,93474,1,0,0:0:0:0:
192,192,93554,1,0,0:0:0:0:
64,192,93634,1,0,0:0:0:0:
448,192,93634,1,0,0:0:0:0:
320,192,93793,1,0,0:0:0:0:
192,192,93953,1,0,0:0:0:0:
64,192,93953,1,0,0:0:0:0:
448,192,94112,1,0,0:0:0:0:
320,192,94272,1,0,0:0:0:0:
192,192,94272,1,0,0:0:0:0:
448,192,94431,1,0,0:0:0:0:
64,192,94591,1,0,0:0:0:0:
320,192,94591,1,0,0:0:0:0:
448,192,94751,1,0,0:0:0:0:
192,192,94830,1,0,0:0:0:0:
320,192,94910,1,0,0:0:0:0:
64,192,94910,1,0,0:0:0:0:
192,192,95070,1,0,0:0:0:0:
320,192,95229,1,0,0:0:0:0:
448,192,95229,1,0,0:0:0:0:
64,192,95389,1,0,0:0:0:0:
192,192,95548,1,0,0:0:0:0:
320,192,95548,1,0,0:0:0:0:
64,192,95708,1,0,0:0:0:0:
320,192,95868,1,0,0:0:0:0:
448,192,95868,1,0,0:0:0:0:
192,192,96027,1,0,0:0:0:0:
320,192,96107,1,0,0:0:0:0:
192,192,96187,1,0,0:0:0:0:
64,192,96187,1,0,0:0:0:0:
448,192,96346,1,0,0:0:0:0:
64,192,96506,1,0,0:0:0:0:
320,192,96506,1,0,0:0:0:0:
192,192,96665,1,0,0:0:0:0:
64,192,96825,1,0,0:0:0:0:
320,192,96825,1,0,0:0:0:0:
448,192,96985,1,0,0:0:0:0:
64,192,97144,1,0,0:0:0:0:
192,192,97144,1,0,0:0:0:0:
448,192,97304,1,0,0:0:0:0:
320,192,97384,1,0,0:0:0:0:
192,192,97463,1,0,0:0:0:0:
64,192,97463,1,0,0:0:0:0:
320,192,97623,1,0,0:0:0:0:
192,192,97782,1,0,0:0:0:0:
448,192,97782,1,0,0:0:0:0:
64,192,97942,1,0,0:0:0:0:
320,192,98102,1,0,0:0:0:0:
448,192,98102,1,0,0:0:0:0:
64,192,98261,1,0,0:0:0:0:
192,192,98421,1,0,0:0:0:0:
448,192,98421,1,0,0:0:0:0:
320,192,98580,1,0,0:0:0:0:
192,192,98660,1,0,0:0:0:0:
320,192,98740,1,0,0:0:0:0:
448,192,98740,1,0,0:0:0:0:
64,192,98900,1,0,0:0:0:0:
448,192,99059,1,0,0:0:0:0:
192,192,99059,1,0,0:0:0:0:
320,192,99219,1,0,0:0:0:0:
192,192,99378,1,0,0:0:0:0:
448,192,99378,1,0,0:0:0:0:
64,192,99538,1,0,0:0:0:0:
320,192,99697,1,0,0:0:0:0:
448,192,99697,1,0,0:0:0:0:
64,192,99857,1,0,0:0:0:0:
320,192,99937,1,0,0:0:0:0:
192,192,100017,1,0,0:0:0:0:
64,192,100017,1,0,0:0:0:0:
448,192,100176,1,0,0:0:0:0:
64,192,100336,1,0,0:0:0:0:
320,192,100336,1,0,0:0:0:0:
192,192,100495,1,0,0:0:0:0:
64,192,100655,1,0,0:0:0:0:
320,192,100655,1,0,0:0:0:0:
448,192,100814,1,0,0:0:0:0:
64,192,100974,1,0,0:0:0:0:
192,192,100974,1,0,0:0:0:0:
320,192,101134,1,0,0:0:0:0:
448,192,101213,1,0,0:0:0:0:
64,192,101293,1,0,0:0:0:0:
320,192,101293,1,0,0:0:0:0:
192,192,101453,1,0,0:0:0:0:
320,192,101612,1,0,0:0:0:0:
448,192,101612,1,0,0:0:0:0:
192,192,101692,1,0,0:0:0:0:
64,192,101772,1,0,0:0:0:0:
192,192,101931,1,0,0:0:0:0:
448,192,101931,1,0,0:0:0:0:
320,192,102091,1,0,0:0:0:0:
192,192,102171,1,0,0:0:0:0:
64,192,102251,1,0,0:0:0:0:
320,192,102251,1,0,0:0:0:0:
192,192,102410,1,0,0:0:0:0:
320,192,102490,1,0,0:0:0:0:
448,192,102570,1,0,0:0:0:0:
192,192,102570,1,0,0:0:0:0:
64,192,102650,1,0,0:0:0:0:
192,192,102729,1,0,0:0:0:0:
320,192,102809,1,0,0:0:0:0:
192,192,102889,1,0,0:0:0:0:
448,192,102889,1,0,0:0:0:0:
320,192,102969,1,0,0:0:0:0:
64,192,103048,1,0,0:0:0:0:
192,192,103128,1,0,0:0:0:0:
320,192,103208,1,2,0:0:0:0:
448,192,103208,1,2,0:0:0:0:
192,192,103368,1,0,0:0:0:0:
64,192,103527,1,2,0:0:0:0:
448,192,103527,1,2,0:0:0:0:
320,192,103687,1,0,0:0:0:0:
64,192,103767,1,0,0:0:0:0:
192,192,103846,1,0,0:0:0:0:
448,192,103846,1,0,0:0:0:0:
320,192,104006,1,0,0:0:0:0:
64,192,104165,1,0,0:0:0:0:
448,192,104165,1,0,0:0:0:0:
320,192,104325,1,0,0:0:0:0:
192,192,104485,1,0,0:0:0:0:
64,192,104485,1,0,0:0:0:0:
448,192,104644,1,0,0:0:0:0:
192,192,104804,1,0,0:0:0:0:
320,192,104804,1,0,0:0:0:0:
448,192,104963,1,0,0:0:0:0:
320,192,105043,1,0,0:0:0:0:
192,192,105123,1,0,0:0:0:0:
64,192,105123,1,0,0:0:0:0:
320,192,105282,1,0,0:0:0:0:
192,192,105442,1,0,0:0:0:0:
448,192,105442,1,0,0:0:0:0:
64,192,105602,1,0,0:0:0:0:
192,192,105761,1,0,0:0:0:0:
320,192,105761,1,0,0:0:0:0:
448,192,105921,1,0,0:0:0:0:
64,192,106080,1,0,0:0:0:0:
192,192,106080,1,0,0:0:0:0:
320,192,106240,1,0,0:0:0:0:
448,192,106320,1,0,0:0:0:0:
192,192,106400,1,0,0:0:0:0:
64,192,106400,1,0,0:0:0:0:
320,192,106559,1,0,0:0:0:0:
192,192,106719,1,0,0:0:0:0:
448,192,106719,1,0,0:0:0:0:
64,192,106878,1,0,0:0:0:0:
320,192,107038,1,0,0:0:0:0:
448,192,107038,1,0,0:0:0:0:
64,192,107197,1,0,0:0:0:0:
192,192,107357,1,0,0:0:0:0:
448,192,107357,1,0,0:0:0:0:
320,192,107517,1,0,0:0:0:0:
192,192,107596,1,0,0:0:0:0:
320,192,107676,1,0,0:0:0:0:
448,192,107676,1,0,0:0:0:0:
64,192,107836,1,0,0:0:0:0:
192,192,107995,1,0,0:0:0:0:
448,192,107995,1,0,0:0:0:0:
320,192,108155,1,0,0:0:0:0:
448,192,108314,1,0,0:0:0:0:
64,192,108314,1,0,0:0:0:0:
320,192,108474,1,0,0:0:0:0:
192,192,108634,1,0,0:0:0:0:
64,192,108634,1,0,0:0:0:0:
320,192,108793,1,0,0:0:0:0:
192,192,108873,1,0,0:0:0:0:
64,192,108953,1,0,0:0:0:0:
448,192,108953,1,0,0:0:0:0:
320,192,109112,1,0,0:0:0:0:
192,192,109272,1,0,0:0:0:0:
64,192,109272,1,0,0:0:0:0:
448,192,109431,1,0,0:0:0:0:
320,192,109591,1,0,0:0:0:0:
192,192,109591,1,0,0:0:0:0:
448,192,109751,1,0,0:0:0:0:
64,192,109910,1,0,0:0:0:0:
320,192,109910,1,0,0:0:0:0:
192,192,110070,1,0,0:0:0:0:
320,192,110150,1,0,0:0:0:0:
448,192,110229,1,0,0:0:0:0:
64,192,110229,1,0,0:0:0:0:
320,192,110389,1,0,0:0:0:0:
192,192,110548,1,0,0:0:0:0:
64,192,110548,1,0,0:0:0:0:
448,192,110708,1,0,0:0:0:0:
320,192,110868,1,0,0:0:0:0:
192,192,110868,1,0,0:0:0:0:
64,192,111027,1,0,0:0:0:0:
192,192,111187,1,0,0:0:0:0:
448,192,111187,1,0,0:0:0:0:
320,192,111346,1,0,0:0:0:0:
64,192,111426,1,0,0:0:0:0:
192,192,111506,1,0,0:0:0:0:
448,192,111506,1,0,0:0:0:0:
320,192,111665,1,0,0:0:0:0:
64,192,111825,1,0,0:0:0:0:
448,192,111825,1,0,0:0:0:0:
320,192,111985,1,0,0:0:0:0:
192,192,112144,1,0,0:0:0:0:
64,192,112144,1,0,0:0:0:0:
448,192,112304,1,0,0:0:0:0:
64,192,112463,1,0,0:0:0:0:
320,192,112463,1,0,0:0:0:0:
192,192,112623,1,0,0:0:0:0:
320,192,112703,1,0,0:0:0:0:
448,192,112782,1,0,0:0:0:0:
192,192,112782,1,0,0:0:0:0:
64,192,112942,1,0,0:0:0:0:
320,192,113022,1,0,0:0:0:0:
192,192,113102,1,0,0:0:0:0:
64,192,113102,1,0,0:0:0:0:
448,192,113181,1,0,0:0:0:0:
320,192,113261,1,0,0:0:0:0:
192,192,113421,1,0,0:0:0:0:
64,192,113421,1,0,0:0:0:0:
448,192,113580,1,0,0:0:0:0:
64,192,113740,1,0,0:0:0:0:
320,192,113740,1,0,0:0:0:0:
448,192,113900,1,0,0:0:0:0:
320,192,113979,1,0,0:0:0:0:
192,192,114059,1,0,0:0:0:0:
64,192,114059,1,0,0:0:0:0:
320,192,114219,1,0,0:0:0:0:
192,192,114378,1,0,0:0:0:0:
448,192,114378,1,0,0:0:0:0:
320,192,114538,1,0,0:0:0:0:
64,192,114697,1,0,0:0:0:0:
448,192,114697,1,0,0:0:0:0:
320,192,114857,1,0,0:0:0:0:
192,192,115017,1,0,0:0:0:0:
64,192,115017,1,0,0:0:0:0:
320,192,115176,1,0,0:0:0:0:
448,192,115256,1,0,0:0:0:0:
320,192,115336,1,0,0:0:0:0:
64,192,115336,1,0,0:0:0:0:
192,192,115495,1,0,0:0:0:0:
320,192,115655,1,0,0:0:0:0:
448,192,115655,1,0,0:0:0:0:
64,192,115814,1,0,0:0:0:0:
192,192,115974,1,0,0:0:0:0:
320,192,115974,1,0,0:0:0:0:
64,192,116134,1,0,0:0:0:0:
320,192,116293,1,0,0:0:0:0:
448,192,116293,1,0,0:0:0:0:
192,192,116453,1,0,0:0:0:0:
64,192,116532,1,0,0:0:0:0:
320,192,116612,1,0,0:0:0:0:
448,192,116612,1,0,0:0:0:0:
192,192,116772,1,0,0:0:0:0:
64,192,116931,1,0,0:0:0:0:
320,192,116931,1,0,0:0:0:0:
448,192,117091,1,0,0:0:0:0:
64,192,117251,1,0,0:0:0:0:
192,192,117251,1,0,0:0:0:0:
448,192,117410,1,0,0:0:0:0:
320,192,117570,1,0,0:0:0:0:
192,192,117570,1,0,0:0:0:0:
64,192,117729,1,0,0:0:0:0:
192,192,117889,1,0,0:0:0:0:
448,192,117889,1,0,0:0:0:0:
320,192,118048,1,0,0:0:0:0:
448,192,118208,1,0,0:0:0:0:
192,192,118208,1,0,0:0:0:0:
64,192,118368,1,0,0:0:0:0:
320,192,118527,1,0,0:0:0:0:
448,192,118527,1,0,0:0:0:0:
64,192,118687,1,0,0:0:0:0:
192,192,118846,1,0,0:0:0:0:
448,192,118846,1,0,0:0:0:0:
320,192,119006,1,0,0:0:0:0:
64,192,119086,1,0,0:0:0:0:
192,192,119165,1,0,0:0:0:0:
448,192,119165,1,0,0:0:0:0:
320,192,119325,1,0,0:0:0:0:
448,192,119485,1,0,0:0:0:0:
192,192,119485,1,0,0:0:0:0:
64,192,119644,1,0,0:0:0:0:
320,192,119804,1,0,0:0:0:0:
448,192,119804,1,0,0:0:0:0:
64,192,119963,1,0,0:0:0:0:
192,192,120123,1,0,0:0:0:0:
448,192,120123,1,0,0:0:0:0:
320,192,120282,1,0,0:0:0:0:
64,192,120362,1,0,0:0:0:0:
448,192,120442,1,0,0:0:0:0:
320,192,120442,1,0,0:0:0:0:
192,192,120602,1,0,0:0:0:0:
64,192,120761,1,0,0:0:0:0:
320,192,120761,1,0,0:0:0:0:
448,192,120921,1,0,0:0:0:0:
64,192,121080,1,0,0:0:0:0:
192,192,121080,1,0,0:0:0:0:
448,192,121240,1,0,0:0:0:0:
320,192,121400,1,0,0:0:0:0:
192,192,121400,1,0,0:0:0:0:
64,192,121559,1,0,0:0:0:0:
320,192,121639,1,0,0:0:0:0:
192,192,121719,1,0,0:0:0:0:
448,192,121719,1,0,0:0:0:0:
320,192,121878,1,0,0:0:0:0:
192,192,122038,1,0,0:0:0:0:
64,192,122038,1,0,0:0:0:0:
320,192,122118,1,0,0:0:0:0:
448,192,122197,1,0,0:0:0:0:
64,192,122357,1,0,0:0:0:0:
320,192,122357,1,0,0:0:0:0:
192,192,122517,1,0,0:0:0:0:
448,192,122596,1,0,0:0:0:0:
320,192,122676,1,0,0:0:0:0:
64,192,122676,1,0,0:0:0:0:
192,192,122836,1,0,0:0:0:0:
320,192,122915,1,0,0:0:0:0:
64,192,122995,1,0,0:0:0:0:
448,192,122995,1,0,0:0:0:0:
320,192,123075,1,0,0:0:0:0:
192,192,123155,1,0,0:0:0:0:
320,192,123235,1,0,0:0:0:0:
192,192,123314,1,0,0:0:0:0:
64,192,123314,1,0,0:0:0:0:
448,192,123394,1,0,0:0:0:0:
320,192,123474,1,0,0:0:0:0:
192,192,123554,1,0,0:0:0:0:
64,192,123634,1,0,0:0:0:0:
320,192,123634,1,0,0:0:0:0:
448,192,123793,1,0,0:0:0:0:
320,192,123953,1,0,0:0:0:0:
192,192,123953,1,0,0:0:0:0:
64,192,124751,1,0,0:0:0:0:
192,192,124910,1,0,0:0:0:0:
320,192,125070,1,0,0:0:0:0:
64,192,126027,1,0,0:0:0:0:
192,192,126187,1,0,0:0:0:0:
320,192,126346,1,0,0:0:0:0:
448,192,126665,1,0,0:0:0:0:
64,192,126825,1,0,0:0:0:0:
192,192,126985,1,0,0:0:0:0:
320,192,127304,1,0,0:0:0:0:
448,192,127463,1,0,0:0:0:0:
192,192,127623,1,0,0:0:0:0:
192,192,128580,1,0,0:0:0:0:
64,192,128740,1,0,0:0:0:0:
320,192,128900,1,0,0:0:0:0:
64,192,129857,1,0,0:0:0:0:
320,192,130017,1,0,0:0:0:0:
448,192,130176,1,0,0:0:0:0:
192,192,130495,1,0,0:0:0:0:
448,192,130655,1,0,0:0:0:0:
320,192,130814,1,0,0:0:0:0:
192,192,131134,1,0,0:0:0:0:
64,192,131293,1,0,0:0:0:0:
192,192,131453,1,0,0:0:0:0:
448,192,133368,1,0,0:0:0:0:
192,192,133527,1,0,0:0:0:0:
64,192,133687,1,0,0:0:0:0:
320,192,133846,1,0,0:0:0:0:
448,192,134006,1,0,0:0:0:0:
64,192,134165,1,0,0:0:0:0:
320,192,134165,1,0,0:0:0:0:
192,192,134325,1,0,0:0:0:0:
64,192,134485,1,0,0:0:0:0:
448,192,134485,1,0,0:0:0:0:
320,192,134644,1,0,0:0:0:0:
192,192,134724,1,0,0:0:0:0:
448,192,134804,1,0,0:0:0:0:
320,192,134804,1,0,0:0:0:0:
64,192,134884,1,0,0:0:0:0:
192,192,134963,1,0,0:0:0:0:
320,192,135123,1,0,0:0:0:0:
448,192,135123,1,0,0:0:0:0:
192,192,135282,1,0,0:0:0:0:
448,192,135362,1,0,0:0:0:0:
320,192,135442,1,0,0:0:0:0:
64,192,135442,1,0,0:0:0:0:
448,192,135602,1,0,0:0:0:0:
64,192,135761,1,0,0:0:0:0:
320,192,135761,1,0,0:0:0:0:
192,192,135921,1,0,0:0:0:0:
320,192,136001,1,0,0:0:0:0:
192,192,136080,1,0,0:0:0:0:
448,192,136080,1,0,0:0:0:0:
64,192,136160,1,0,0:0:0:0:
320,192,136240,1,0,0:0:0:0:
192,192,136400,1,0,0:0:0:0:
64,192,136400,1,0,0:0:0:0:
448,192,136559,1,0,0:0:0:0:
192,192,136639,1,0,0:0:0:0:
320,192,136719,1,0,0:0:0:0:
64,192,136719,1,0,0:0:0:0:
192,192,136878,1,0,0:0:0:0:
448,192,137038,1,0,0:0:0:0:
64,192,137038,1,0,0:0:0:0:
320,192,137197,1,0,0:0:0:0:
64,192,137277,1,0,0:0:0:0:
192,192,137357,1,0,0:0:0:0:
448,192,137357,1,0,0:0:0:0:
320,192,137437,1,0,0:0:0:0:
448,192,137517,1,0,0:0:0:0:
192,192,137676,1,0,0:0:0:0:
320,192,137676,1,0,0:0:0:0:
448,192,137836,1,0,0:0:0:0:
192,192,137915,1,0,0:0:0:0:
64,192,137995,1,0,0:0:0:0:
320,192,137995,1,0,0:0:0:0:
192,192,138155,1,0,0:0:0:0:
64,192,138314,1,0,0:0:0:0:
448,192,138314,1,0,0:0:0:0:
320,192,138474,1,0,0:0:0:0:
64,192,138554,1,0,0:0:0:0:
192,192,138634,1,0,0:0:0:0:
448,192,138634,1,0,0:0:0:0:
320,192,138713,1,0,0:0:0:0:
192,192,138793,1,0,0:0:0:0:
64,192,138953,1,0,0:0:0:0:
320,192,138953,1,0,0:0:0:0:
448,192,139112,1,0,0:0:0:0:
64,192,139192,1,0,0:0:0:0:
192,192,139272,1,0,0:0:0:0:
320,192,139272,1,0,0:0:0:0:
64,192,139431,1,0,0:0:0:0:
320,192,139591,1,0,0:0:0:0:
448,192,139591,1,0,0:0:0:0:
64,192,139751,1,0,0:0:0:0:
320,192,139830,1,0,0:0:0:0:
192,192,139910,1,0,0:0:0:0:
64,192,139910,1,0,0:0:0:0:
448,192,139990,1,0,0:0:0:0:
320,192,140070,1,0,0:0:0:0:
192,192,140229,1,0,0:0:0:0:
64,192,140229,1,0,0:0:0:0:
320,192,140389,1,0,0:0:0:0:
64,192,140469,1,0,0:0:0:0:
448,192,140548,1,0,0:0:0:0:
192,192,140548,1,0,0:0:0:0:
64,192,140708,1,0,0:0:0:0:
320,192,140868,1,0,0:0:0:0:
448,192,140868,1,0,0:0:0:0:
64,192,141027,1,0,0:0:0:0:
192,192,141107,1,0,0:0:0:0:
320,192,141187,1,0,0:0:0:0:
448,192,141187,1,0,0:0:0:0:
64,192,141267,1,0,0:0:0:0:
320,192,141346,1,0,0:0:0:0:
192,192,141506,1,0,0:0:0:0:
448,192,141506,1,0,0:0:0:0:
320,192,141665,1,0,0:0:0:0:
192,192,141825,1,2,0:0:0:0:
64,192,141825,1,2,0:0:0:0:
448,192,141985,1,0,0:0:0:0:
320,192,142144,1,0,0:0:0:0:
192,192,142144,1,0,0:0:0:0:
64,192,142304,1,0,0:0:0:0:
320,192,142384,1,0,0:0:0:0:
192,192,142463,1,0,0:0:0:0:
64,192,142463,1,0,0:0:0:0:
448,192,142543,1,0,0:0:0:0:
320,192,142623,1,0,0:0:0:0:
192,192,142782,1,0,0:0:0:0:
64,192,142782,1,0,0:0:0:0:
320,192,142942,1,0,0:0:0:0:
448,192,143102,1,0,0:0:0:0:
192,192,143102,1,0,0:0:0:0:
320,192,143261,1,0,0:0:0:0:
64,192,143421,1,0,0:0:0:0:
448,192,143421,1,0,0:0:0:0:
320,192,143580,1,0,0:0:0:0:
64,192,143660,1,0,0:0:0:0:
192,192,143740,1,0,0:0:0:0:
448,192,143740,1,0,0:0:0:0:
320,192,143820,1,0,0:0:0:0:
448,192,143900,1,0,0:0:0:0:
320,192,144059,1,0,0:0:0:0:
64,192,144059,1,0,0:0:0:0:
192,192,144219,1,0,0:0:0:0:
448,192,144378,1,0,0:0:0:0:
64,192,144378,1,0,0:0:0:0:
320,192,144538,1,0,0:0:0:0:
192,192,144697,1,0,0:0:0:0:
64,192,144697,1,0,0:0:0:0:
448,192,144857,1,0,0:0:0:0:
64,192,144937,1,0,0:0:0:0:
192,192,145017,1,0,0:0:0:0:
320,192,145017,1,0,0:0:0:0:
448,192,145096,1,0,0:0:0:0:
192,192,145176,1,0,0:0:0:0:
64,192,145336,1,0,0:0:0:0:
320,192,145336,1,0,0:0:0:0:
448,192,145495,1,0,0:0:0:0:
192,192,145655,1,0,0:0:0:0:
320,192,145655,1,0,0:0:0:0:
64,192,145814,1,0,0:0:0:0:
192,192,145974,1,0,0:0:0:0:
448,192,145974,1,0,0:0:0:0:
320,192,146134,1,0,0:0:0:0:
64,192,146213,1,0,0:0:0:0:
448,192,146293,1,0,0:0:0:0:
192,192,146293,1,0,0:0:0:0:
320,192,146373,1,0,0:0:0:0:
448,192,146453,1,0,0:0:0:0:
64,192,146612,1,0,0:0:0:0:
320,192,146612,1,0,0:0:0:0:
192,192,146772,1,0,0:0:0:0:
64,192,146931,1,0,0:0:0:0:
448,192,146931,1,0,0:0:0:0:
320,192,147091,1,0,0:0:0:0:
192,192,147251,1,0,0:0:0:0:
64,192,147251,1,0,0:0:0:0:
448,192,147410,1,0,0:0:0:0:
192,192,147490,1,0,0:0:0:0:
320,192,147570,1,0,0:0:0:0:
448,192,147570,1,0,0:0:0:0:
64,192,147650,1,0,0:0:0:0:
192,192,147729,1,0,0:0:0:0:
320,192,147889,1,0,0:0:0:0:
64,192,147889,1,0,0:0:0:0:
448,192,148048,1,0,0:0:0:0:
64,192,148208,1,0,0:0:0:0:
320,192,148208,1,0,0:0:0:0:
192,192,148368,1,0,0:0:0:0:
64,192,148527,1,0,0:0:0:0:
448,192,148527,1,0,0:0:0:0:
320,192,148687,1,0,0:0:0:0:
192,192,148767,1,0,0:0:0:0:
64,192,148846,1,0,0:0:0:0:
320,192,148846,1,0,0:0:0:0:
448,192,148926,1,0,0:0:0:0:
192,192,149006,1,0,0:0:0:0:
320,192,149165,1,0,0:0:0:0:
448,192,149165,1,0,0:0:0:0:
64,192,149325,1,0,0:0:0:0:
192,192,149485,1,0,0:0:0:0:
320,192,149485,1,0,0:0:0:0:
448,192,149644,1,0,0:0:0:0:
320,192,149804,1,0,0:0:0:0:
64,192,149804,1,0,0:0:0:0:
448,192,149963,1,0,0:0:0:0:
320,192,150043,1,0,0:0:0:0:
192,192,150123,1,0,0:0:0:0:
64,192,150123,1,0,0:0:0:0:
320,192,150203,1,0,0:0:0:0:
192,192,150282,1,0,0:0:0:0:
64,192,150442,1,0,0:0:0:0:
320,192,150442,1,0,0:0:0:0:
192,192,150602,1,0,0:0:0:0:
448,192,150761,1,0,0:0:0:0:
320,192,150761,1,0,0:0:0:0:
64,192,150921,1,0,0:0:0:0:
192,192,151080,1,0,0:0:0:0:
448,192,151080,1,0,0:0:0:0:
320,192,151240,1,0,0:0:0:0:
192,192,151320,1,0,0:0:0:0:
64,192,151400,1,0,0:0:0:0:
320,192,151400,1,0,0:0:0:0:
448,192,151479,1,0,0:0:0:0:
320,192,151559,1,0,0:0:0:0:
192,192,151719,1,0,0:0:0:0:
64,192,151719,1,0,0:0:0:0:
320,192,151878,1,0,0:0:0:0:
64,192,152038,1,0,0:0:0:0:
448,192,152038,1,0,0:0:0:0:
320,192,152197,1,0,0:0:0:0:
192,192,152357,1,0,0:0:0:0:
64,192,152357,1,0,0:0:0:0:
448,192,152517,1,0,0:0:0:0:
192,192,152596,1,0,0:0:0:0:
320,192,152676,1,0,0:0:0:0:
448,192,152676,1,0,0:0:0:0:
64,192,152756,1,0,0:0:0:0:
192,192,152836,1,0,0:0:0:0:
320,192,152995,1,0,0:0:0:0:
64,192,152995,1,0,0:0:0:0:
448,192,153155,1,0,0:0:0:0:
192,192,153314,1,0,0:0:0:0:
320,192,153314,1,0,0:0:0:0:
64,192,153474,1,0,0:0:0:0:
192,192,153634,1,0,0:0:0:0:
448,192,153634,1,0,0:0:0:0:
320,192,153793,1,0,0:0:0:0:
64,192,153873,1,0,0:0:0:0:
192,192,153953,1,0,0:0:0:0:
320,192,153953,1,0,0:0:0:0:
448,192,154032,1,0,0:0:0:0:
192,192,154112,1,0,0:0:0:0:
448,192,154272,1,0,0:0:0:0:
64,192,154272,1,0,0:0:0:0:
320,192,154431,1,0,0:0:0:0:
192,192,154591,1,0,0:0:0:0:
64,192,154591,1,0,0:0:0:0:
448,192,154751,1,0,0:0:0:0:
64,192,154910,1,0,0:0:0:0:
320,192,154910,1,0,0:0:0:0:
192,192,155070,1,0,0:0:0:0:
448,192,155150,1,0,0:0:0:0:
320,192,155229,1,0,0:0:0:0:
192,192,155229,1,0,0:0:0:0:
64,192,155309,1,0,0:0:0:0:
320,192,155389,1,0,0:0:0:0:
192,192,155548,1,0,0:0:0:0:
448,192,155548,1,0,0:0:0:0:
320,192,155708,1,0,0:0:0:0:
192,192,155868,1,0,0:0:0:0:
64,192,155868,1,0,0:0:0:0:
448,192,156027,1,0,0:0:0:0:
64,192,156187,1,0,0:0:0:0:
320,192,156187,1,0,0:0:0:0:
192,192,156346,1,0,0:0:0:0:
448,192,156426,1,0,0:0:0:0:
64,192,156506,1,0,0:0:0:0:
320,192,156506,1,0,0:0:0:0:
192,192,156586,1,0,0:0:0:0:
320,192,156665,1,0,0:0:0:0:
64,192,156825,1,0,0:0:0:0:
448,192,156825,1,0,0:0:0:0:
320,192,156985,1,0,0:0:0:0:
64,192,157144,1,0,0:0:0:0:
192,192,157144,1,0,0:0:0:0:
448,192,157304,1,0,0:0:0:0:
320,192,157463,1,0,0:0:0:0:
192,192,157463,1,0,0:0:0:0:
64,192,157623,1,0,0:0:0:0:
320,192,157703,1,0,0:0:0:0:
192,192,157782,1,0,0:0:0:0:
64,192,157782,1,0,0:0:0:0:
448,192,157862,1,0,0:0:0:0:
320,192,157942,1,0,0:0:0:0:
64,192,158102,1,0,0:0:0:0:
448,192,158102,1,0,0:0:0:0:
320,192,158261,1,0,0:0:0:0:
192,192,158421,1,0,0:0:0:0:
64,192,158421,1,0,0:0:0:0:
448,192,158580,1,0,0:0:0:0:
192,192,158740,1,0,0:0:0:0:
320,192,158740,1,0,0:0:0:0:
64,192,158900,1,0,0:0:0:0:
320,192,158979,1,0,0:0:0:0:
192,192,159059,1,0,0:0:0:0:
64,192,159059,1,0,0:0:0:0:
320,192,159139,1,0,0:0:0:0:
448,192,159219,1,0,0:0:0:0:
64,192,159378,1,0,0:0:0:0:
320,192,159378,1,0,0:0:0:0:
192,192,159538,1,0,0:0:0:0:
320,192,159697,1,0,0:0:0:0:
448,192,159697,1,0,0:0:0:0:
192,192,159857,1,0,0:0:0:0:
64,192,160017,1,0,0:0:0:0:
320,192,160017,1,0,0:0:0:0:
448,192,160176,1,0,0:0:0:0:
192,192,160256,1,0,0:0:0:0:
320,192,160336,1,0,0:0:0:0:
448,192,160336,1,0,0:0:0:0:
64,192,160415,1,0,0:0:0:0:
192,192,160495,1,0,0:0:0:0:
320,192,160655,1,0,0:0:0:0:
64,192,160655,1,0,0:0:0:0:
192,192,160814,1,0,0:0:0:0:
64,192,160974,1,0,0:0:0:0:
448,192,160974,1,0,0:0:0:0:
320,192,161134,1,0,0:0:0:0:
192,192,161293,1,0,0:0:0:0:
64,192,161293,1,0,0:0:0:0:
448,192,161453,1,0,0:0:0:0:
320,192,161532,1,0,0:0:0:0:
192,192,161612,1,0,0:0:0:0:
64,192,161612,1,0,0:0:0:0:
320,192,161692,1,0,0:0:0:0:
448,192,161772,1,0,0:0:0:0:
64,192,161931,1,0,0:0:0:0:
320,192,161931,1,0,0:0:0:0:
192,192,162091,1,0,0:0:0:0:
320,192,162251,1,2,0:0:0:0:
64,192,162251,1,2,0:0:0:0:
192,192,162410,1,0,0:0:0:0:
64,192,162570,1,0,0:0:0:0:
448,192,162570,1,0,0:0:0:0:
320,192,162729,1,0,0:0:0:0:
192,192,162889,1,0,0:0:0:0:
64,192,162889,1,0,0:0:0:0:
320,192,163048,1,0,0:0:0:0:
448,192,163208,1,0,0:0:0:0:
192,192,163208,1,0,0:0:0:0:
64,192,163368,1,0,0:0:0:0:
192,192,163527,1,0,0:0:0:0:
320,192,163527,1,0,0:0:0:0:
64,192,163687,1,0,0:0:0:0:
320,192,163846,1,0,0:0:0:0:
448,192,163846,1,0,0:0:0:0:
192,192,164006,1,0,0:0:0:0:
64,192,164165,1,0,0:0:0:0:
320,192,164165,1,0,0:0:0:0:
192,192,164325,1,0,0:0:0:0:
448,192,164485,1,0,0:0:0:0:
320,192,164485,1,0,0:0:0:0:
320,192,164644,1,0,0:0:0:0:
192,192,164644,1,0,0:0:0:0:
192,192,164804,1,0,0:0:0:0:
64,192,164804,1,0,0:0:0:0:
320,192,164963,1,0,0:0:0:0:
192,192,165123,1,0,0:0:0:0:
448,192,165123,1,0,0:0:0:0:
320,192,165282,1,0,0:0:0:0:
64,192,165442,1,0,0:0:0:0:
448,192,165442,1,0,0:0:0:0:
192,192,165602,1,0,0:0:0:0:
320,192,165761,1,0,0:0:0:0:
448,192,165761,1,0,0:0:0:0:
64,192,165921,1,0,0:0:0:0:
320,192,166080,1,0,0:0:0:0:
192,192,166080,1,0,0:0:0:0:
64,192,166240,1,0,0:0:0:0:
320,192,166400,1,0,0:0:0:0:
448,192,166400,1,0,0:0:0:0:
192,192,166559,1,0,0:0:0:0:
64,192,166719,1,0,0:0:0:0:
320,192,166719,1,0,0:0:0:0:
448,192,166878,1,0,0:0:0:0:
64,192,167038,1,0,0:0:0:0:
320,192,167038,1,0,0:0:0:0:
192,192,167197,1,0,0:0:0:0:
448,192,167197,1,0,0:0:0:0:
320,192,167357,1,0,0:0:0:0:
448,192,167357,1,0,0:0:0:0:
64,192,167517,1,0,0:0:0:0:
448,192,167676,1,0,0:0:0:0:
320,192,167676,1,0,0:0:0:0:
192,192,167836,1,0,0:0:0:0:
64,192,167995,1,0,0:0:0:0:
320,192,167995,1,0,0:0:0:0:
448,192,168155,1,0,0:0:0:0:
64,192,168314,1,0,0:0:0:0:
192,192,168314,1,0,0:0:0:0:
448,192,168474,1,0,0:0:0:0:
320,192,168634,1,0,0:0:0:0:
192,192,168634,1,0,0:0:0:0:
64,192,168793,1,0,0:0:0:0:
192,192,168953,1,0,0:0:0:0:
448,192,168953,1,0,0:0:0:0:
320,192,169112,1,0,0:0:0:0:
64,192,169272,1,0,0:0:0:0:
448,192,169272,1,0,0:0:0:0:
320,192,169431,1,0,0:0:0:0:
192,192,169591,1,0,0:0:0:0:
64,192,169591,1,0,0:0:0:0:
320,192,169751,1,0,0:0:0:0:
448,192,169751,1,0,0:0:0:0:
320,192,169910,1,0,0:0:0:0:
192,192,169910,1,0,0:0:0:0:
64,192,170070,1,0,0:0:0:0:
192,192,170229,1,0,0:0:0:0:
448,192,170229,1,0,0:0:0:0:
320,192,170389,1,0,0:0:0:0:
448,192,170548,1,0,0:0:0:0:
192,192,170548,1,0,0:0:0:0:
64,192,170708,1,0,0:0:0:0:
320,192,170868,1,0,0:0:0:0:
448,192,170868,1,0,0:0:0:0:
64,192,171027,1,0,0:0:0:0:
192,192,171187,1,0,0:0:0:0:
320,192,171187,1,0,0:0:0:0:
448,192,171346,1,0,0:0:0:0:
320,192,171506,1,0,0:0:0:0:
64,192,171506,1,0,0:0:0:0:
192,192,171665,1,0,0:0:0:0:
64,192,171825,1,0,0:0:0:0:
448,192,171825,1,0,0:0:0:0:
320,192,171985,1,0,0:0:0:0:
192,192,172144,1,0,0:0:0:0:
448,192,172144,1,0,0:0:0:0:
320,192,172304,1,0,0:0:0:0:
64,192,172304,1,0,0:0:0:0:
64,192,172463,1,2,0:0:0:0:
192,192,172463,1,2,0:0:0:0:
320,192,172623,1,0,0:0:0:0:
64,192,172782,1,0,0:0:0:0:
448,192,172782,1,0,0:0:0:0:
192,192,172942,1,0,0:0:0:0:
320,192,173022,1,0,0:0:0:0:
64,192,173102,1,0,0:0:0:0:
448,192,173102,1,0,0:0:0:0:
192,192,173181,1,0,0:0:0:0:
320,192,173261,1,0,0:0:0:0:
64,192,173421,1,0,0:0:0:0:
192,192,173421,1,0,0:0:0:0:
320,192,173580,1,0,0:0:0:0:
64,192,173740,1,0,0:0:0:0:
448,192,173740,1,0,0:0:0:0:
320,192,173900,1,0,0:0:0:0:
192,192,174059,1,0,0:0:0:0:
64,192,174059,1,0,0:0:0:0:
448,192,174219,1,0,0:0:0:0:
192,192,174298,1,0,0:0:0:0:
320,192,174378,1,0,0:0:0:0:
448,192,174378,1,0,0:0:0:0:
192,192,174458,1,0,0:0:0:0:
64,192,174538,1,0,0:0:0:0:
192,192,174697,1,0,0:0:0:0:
448,192,174697,1,0,0:0:0:0:
320,192,174857,1,0,0:0:0:0:
192,192,175017,1,0,0:0:0:0:
64,192,175017,1,0,0:0:0:0:
448,192,175176,1,0,0:0:0:0:
64,192,175336,1,0,0:0:0:0:
320,192,175336,1,0,0:0:0:0:
192,192,175495,1,0,0:0:0:0:
448,192,175575,1,0,0:0:0:0:
320,192,175655,1,0,0:0:0:0:
64,192,175655,1,0,0:0:0:0:
192,192,175735,1,0,0:0:0:0:
320,192,175814,1,0,0:0:0:0:
64,192,175974,1,0,0:0:0:0:
448,192,175974,1,0,0:0:0:0:
320,192,176134,1,0,0:0:0:0:
64,192,176293,1,0,0:0:0:0:
192,192,176293,1,0,0:0:0:0:
448,192,176453,1,0,0:0:0:0:
320,192,176612,1,0,0:0:0:0:
192,192,176612,1,0,0:0:0:0:
64,192,176772,1,0,0:0:0:0:
320,192,176852,1,0,0:0:0:0:
192,192,176931,1,0,0:0:0:0:
64,192,176931,1,0,0:0:0:0:
320,192,177011,1,0,0:0:0:0:
448,192,177091,1,0,0:0:0:0:
64,192,177251,1,0,0:0:0:0:
320,192,177251,1,0,0:0:0:0:
192,192,177410,1,0,0:0:0:0:
320,192,177570,1,0,0:0:0:0:
448,192,177570,1,0,0:0:0:0:
192,192,177729,1,0,0:0:0:0:
64,192,177889,1,0,0:0:0:0:
448,192,177889,1,0,0:0:0:0:
320,192,178048,1,0,0:0:0:0:
192,192,178128,1,0,0:0:0:0:
448,192,178208,1,0,0:0:0:0:
320,192,178208,1,0,0:0:0:0:
64,192,178288,1,0,0:0:0:0:
192,192,178368,1,0,0:0:0:0:
320,192,178527,1,0,0:0:0:0:
448,192,178527,1,0,0:0:0:0:
192,192,178687,1,0,0:0:0:0:
64,192,178846,1,0,0:0:0:0:
320,192,178846,1,0,0:0:0:0:
448,192,179006,1,0,0:0:0:0:
64,192,179165,1,0,0:0:0:0:
320,192,179165,1,0,0:0:0:0:
192,192,179325,1,0,0:0:0:0:
64,192,179405,1,0,0:0:0:0:
320,192,179485,1,0,0:0:0:0:
448,192,179485,1,0,0:0:0:0:
192,192,179564,1,0,0:0:0:0:
320,192,179644,1,0,0:0:0:0:
64,192,179804,1,0,0:0:0:0:
192,192,179804,1,0,0:0:0:0:
448,192,179963,1,0,0:0:0:0:
320,192,180123,1,0,0:0:0:0:
192,192,180123,1,0,0:0:0:0:
64,192,180282,1,0,0:0:0:0:
192,192,180442,1,0,0:0:0:0:
448,192,180442,1,0,0:0:0:0:
320,192,180602,1,0,0:0:0:0:
64,192,180681,1,0,0:0:0:0:
192,192,180761,1,0,0:0:0:0:
448,192,180761,1,0,0:0:0:0:
320,192,180841,1,0,0:0:0:0:
448,192,180921,1,0,0:0:0:0:
192,192,181080,1,0,0:0:0:0:
64,192,181080,1,0,0:0:0:0:
320,192,181240,1,0,0:0:0:0:
192,192,181400,1,0,0:0:0:0:
448,192,181400,1,0,0:0:0:0:
64,192,181559,1,0,0:0:0:0:
320,192,181719,1,0,0:0:0:0:
448,192,181719,1,0,0:0:0:0:
64,192,181878,1,0,0:0:0:0:
448,192,181958,1,0,0:0:0:0:
320,192,182038,1,0,0:0:0:0:
192,192,182038,1,0,0:0:0:0:
64,192,182118,1,0,0:0:0:0:
320,192,182197,1,0,0:0:0:0:
192,192,182357,1,0,0:0:0:0:
448,192,182357,1,0,0:0:0:0:
64,192,182517,1,0,0:0:0:0:
320,192,182676,1,0,0:0:0:0:
448,192,182676,1,0,0:0:0:0:
64,192,183554,1,0,0:0:0:0:
320,192,183634,1,0,0:0:0:0:
192,192,183953,1,0,0:0:0:0:
448,192,183953,1,0,0:0:0:0:
320,192,184165,1,0,0:0:0:0:
64,192,184165,1,0,0:0:0:0:
64,192,184378,1,0,0:0:0:0:
192,192,184378,1,0,0:0:0:0:
320,192,184591,1,0,0:0:0:0:
448,192,184591,1,0,0:0:0:0:
192,192,184804,1,0,0:0:0:0:
320,192,184804,1,0,0:0:0:0:
320,192,185017,1,0,0:0:0:0:
448,192,185017,1,0,0:0:0:0:
64,192,185229,1,0,0:0:0:0:
320,192,185229,1,0,0:0:0:0:
64,192,186107,1,0,0:0:0:0:
320,192,186187,1,0,0:0:0:0:
192,192,186400,1,0,0:0:0:0:
448,192,186400,1,0,0:0:0:0:
320,192,186612,1,0,0:0:0:0:
64,192,186612,1,0,0:0:0:0:
192,192,186825,1,0,0:0:0:0:
448,192,186825,1,0,0:0:0:0:
320,192,187038,1,0,0:0:0:0:
448,192,187038,1,0,0:0:0:0:
320,192,187251,1,0,0:0:0:0:
192,192,187251,1,0,0:0:0:0:
64,192,187463,1,0,0:0:0:0:
192,192,187463,1,0,0:0:0:0:
192,192,187676,1,0,0:0:0:0:
320,192,187676,1,0,0:0:0:0:
192,192,188979,1,0,0:0:0:0:
448,192,189059,1,0,0:0:0:0:
192,192,190336,1,0,0:0:0:0:
320,192,190336,1,0,0:0:0:0:
320,192,191612,1,0,0:0:0:0:
448,192,191612,1,0,0:0:0:0:
320,192,192251,1,0,0:0:0:0:
192,192,192251,1,0,0:0:0:0:
448,192,193953,1,0,0:0:0:0:
64,192,194165,1,0,0:0:0:0:
320,192,194165,1,0,0:0:0:0:
448,192,194325,1,0,0:0:0:0:
320,192,194378,1,0,0:0:0:0:
192,192,194431,1,0,0:0:0:0:
64,192,194485,1,0,0:0:0:0:
448,192,194485,1,0,0:0:0:0:
320,192,194644,1,0,0:0:0:0:
192,192,194804,1,0,0:0:0:0:
448,192,194804,1,0,0:0:0:0:
64,192,195017,1,0,0:0:0:0:
320,192,195017,1,0,0:0:0:0:
192,192,195229,1,0,0:0:0:0:
64,192,195229,1,0,0:0:0:0:
320,192,195442,1,0,0:0:0:0:
448,192,195442,1,0,0:0:0:0:
192,192,196506,1,0,0:0:0:0:
448,192,196719,1,0,0:0:0:0:
320,192,196931,1,0,0:0:0:0:
64,192,197144,1,0,0:0:0:0:
448,192,197357,1,0,0:0:0:0:
320,192,197570,1,0,0:0:0:0:
192,192,197782,1,0,0:0:0:0:
320,192,197995,1,0,0:0:0:0:
448,192,198421,1,0,0:0:0:0:
320,192,198527,1,0,0:0:0:0:
192,192,198634,1,0,0:0:0:0:
320,192,199059,1,0,0:0:0:0:
192,192,199165,1,0,0:0:0:0:
64,192,199272,1,0,0:0:0:0:
320,192,199910,1,0,0:0:0:0:
64,192,200123,1,0,0:0:0:0:
192,192,200336,1,0,0:0:0:0:
448,192,200548,1,0,0:0:0:0:
64,192,201187,1,0,0:0:0:0:
192,192,201400,1,0,0:0:0:0:
320,192,201612,1,0,0:0:0:0:
448,192,201612,1,0,0:0:0:0:
192,192,204857,1,0,0:0:0:0:
320,192,205017,1,0,0:0:0:0:
448,192,205176,1,0,0:0:0:0:
64,192,205336,1,0,0:0:0:0:
320,192,205495,1,0,0:0:0:0:
448,192,205655,1,2,0:0:0:0:
192,192,205655,1,2,0:0:0:0:
320,192,205814,1,0,0:0:0:0:
64,192,205894,1,0,0:0:0:0:
192,192,205974,1,0,0:0:0:0:
448,192,205974,1,0,0:0:0:0:
320,192,206134,1,0,0:0:0:0:
64,192,206293,1,0,0:0:0:0:
448,192,206293,1,0,0:0:0:0:
320,192,206453,1,0,0:0:0:0:
192,192,206612,1,0,0:0:0:0:
64,192,206612,1,0,0:0:0:0:
448,192,206772,1,0,0:0:0:0:
320,192,206931,1,0,0:0:0:0:
192,192,206931,1,0,0:0:0:0:
448,192,207091,1,0,0:0:0:0:
320,192,207171,1,0,0:0:0:0:
192,192,207251,1,0,0:0:0:0:
64,192,207251,1,0,0:0:0:0:
320,192,207410,1,0,0:0:0:0:
192,192,207570,1,0,0:0:0:0:
448,192,207570,1,0,0:0:0:0:
64,192,207729,1,0,0:0:0:0:
192,192,207889,1,0,0:0:0:0:
448,192,207889,1,0,0:0:0:0:
320,192,208048,1,0,0:0:0:0:
192,192,208208,1,0,0:0:0:0:
64,192,208208,1,0,0:0:0:0:
320,192,208368,1,0,0:0:0:0:
448,192,208447,1,0,0:0:0:0:
192,192,208527,1,0,0:0:0:0:
64,192,208527,1,0,0:0:0:0:
320,192,208687,1,0,0:0:0:0:
192,192,208846,1,0,0:0:0:0:
448,192,208846,1,0,0:0:0:0:
64,192,209006,1,0,0:0:0:0:
192,192,209165,1,0,0:0:0:0:
320,192,209165,1,0,0:0:0:0:
448,192,209325,1,0,0:0:0:0:
64,192,209485,1,0,0:0:0:0:
320,192,209485,1,0,0:0:0:0:
192,192,209644,1,0,0:0:0:0:
64,192,209724,1,0,0:0:0:0:
320,192,209804,1,0,0:0:0:0:
448,192,209804,1,0,0:0:0:0:
192,192,209963,1,0,0:0:0:0:
64,192,210123,1,0,0:0:0:0:
320,192,210123,1,0,0:0:0:0:
448,192,210282,1,0,0:0:0:0:
64,192,210442,1,0,0:0:0:0:
192,192,210442,1,0,0:0:0:0:
448,192,210602,1,0,0:0:0:0:
320,192,210761,1,0,0:0:0:0:
192,192,210761,1,0,0:0:0:0:
64,192,210921,1,0,0:0:0:0:
320,192,211001,1,0,0:0:0:0:
192,192,211080,1,0,0:0:0:0:
448,192,211080,1,0,0:0:0:0:
320,192,211240,1,0,0:0:0:0:
192,192,211400,1,0,0:0:0:0:
64,192,211400,1,0,0:0:0:0:
448,192,211559,1,0,0:0:0:0:
320,192,211719,1,0,0:0:0:0:
192,192,211719,1,0,0:0:0:0:
448,192,211878,1,0,0:0:0:0:
64,192,212038,1,0,0:0:0:0:
320,192,212038,1,0,0:0:0:0:
448,192,212197,1,0,0:0:0:0:
320,192,212277,1,0,0:0:0:0:
192,192,212357,1,0,0:0:0:0:
64,192,212357,1,0,0:0:0:0:
320,192,212517,1,0,0:0:0:0:
192,192,212676,1,0,0:0:0:0:
448,192,212676,1,0,0:0:0:0:
64,192,212836,1,0,0:0:0:0:
320,192,212995,1,0,0:0:0:0:
448,192,212995,1,0,0:0:0:0:
64,192,213155,1,0,0:0:0:0:
192,192,213314,1,0,0:0:0:0:
448,192,213314,1,0,0:0:0:0:
320,192,213474,1,0,0:0:0:0:
64,192,213554,1,0,0:0:0:0:
320,192,213634,1,0,0:0:0:0:
192,192,213634,1,0,0:0:0:0:
448,192,213793,1,0,0:0:0:0:
64,192,213953,1,0,0:0:0:0:
320,192,213953,1,0,0:0:0:0:
192,192,214112,1,0,0:0:0:0:
320,192,214272,1,0,0:0:0:0:
448,192,214272,1,0,0:0:0:0:
192,192,214431,1,0,0:0:0:0:
64,192,214591,1,0,0:0:0:0:
448,192,214591,1,0,0:0:0:0:
320,192,214751,1,0,0:0:0:0:
192,192,214830,1,0,0:0:0:0:
64,192,214910,1,0,0:0:0:0:
448,192,214910,1,0,0:0:0:0:
192,192,215070,1,0,0:0:0:0:
320,192,215150,1,0,0:0:0:0:
448,192,215229,1,0,0:0:0:0:
192,192,215229,1,0,0:0:0:0:
64,192,215309,1,0,0:0:0:0:
320,192,215389,1,0,0:0:0:0:
192,192,215548,1,0,0:0:0:0:
64,192,215548,1,0,0:0:0:0:
448,192,215708,1,0,0:0:0:0:
64,192,215868,1,0,0:0:0:0:
320,192,215868,1,0,0:0:0:0:
448,192,216027,1,0,0:0:0:0:
320,192,216107,1,0,0:0:0:0:
192,192,216187,1,0,0:0:0:0:
64,192,216187,1,0,0:0:0:0:
320,192,216346,1,0,0:0:0:0:
192,192,216506,1,0,0:0:0:0:
448,192,216506,1,0,0:0:0:0:
64,192,216665,1,0,0:0:0:0:
192,192,216825,1,0,0:0:0:0:
320,192,216825,1,0,0:0:0:0:
448,192,216985,1,0,0:0:0:0:
64,192,217144,1,0,0:0:0:0:
320,192,217144,1,0,0:0:0:0:
192,192,217304,1,0,0:0:0:0:
320,192,217384,1,0,0:0:0:0:
192,192,217463,1,0,0:0:0:0:
64,192,217463,1,0,0:0:0:0:
448,192,217623,1,0,0:0:0:0:
64,192,217782,1,0,0:0:0:0:
320,192,217782,1,0,0:0:0:0:
192,192,217942,1,0,0:0:0:0:
64,192,218102,1,0,0:0:0:0:
320,192,218102,1,0,0:0:0:0:
448,192,218261,1,0,0:0:0:0:
192,192,218421,1,0,0:0:0:0:
64,192,218421,1,0,0:0:0:0:
320,192,218580,1,0,0:0:0:0:
448,192,218660,1,0,0:0:0:0:
64,192,218740,1,0,0:0:0:0:
320,192,218740,1,0,0:0:0:0:
192,192,218900,1,0,0:0:0:0:
320,192,219059,1,0,0:0:0:0:
448,192,219059,1,0,0:0:0:0:
64,192,219219,1,0,0:0:0:0:
192,192,219378,1,0,0:0:0:0:
320,192,219378,1,0,0:0:0:0:
64,192,219538,1,0,0:0:0:0:
320,192,219697,1,0,0:0:0:0:
448,192,219697,1,0,0:0:0:0:
192,192,219857,1,0,0:0:0:0:
64,192,219937,1,0,0:0:0:0:
320,192,220017,1,0,0:0:0:0:
448,192,220017,1,0,0:0:0:0:
192,192,220176,1,0,0:0:0:0:
64,192,220336,1,0,0:0:0:0:
320,192,220336,1,0,0:0:0:0:
448,192,220495,1,0,0:0:0:0:
192,192,220655,1,0,0:0:0:0:
320,192,220655,1,0,0:0:0:0:
448,192,220814,1,0,0:0:0:0:
64,192,220974,1,0,0:0:0:0:
192,192,220974,1,0,0:0:0:0:
448,192,221134,1,0,0:0:0:0:
192,192,221213,1,0,0:0:0:0:
320,192,221293,1,0,0:0:0:0:
448,192,221293,1,0,0:0:0:0:
64,192,221453,1,0,0:0:0:0:
192,192,221612,1,0,0:0:0:0:
448,192,221612,1,0,0:0:0:0:
320,192,221772,1,0,0:0:0:0:
192,192,221931,1,0,0:0:0:0:
448,192,221931,1,0,0:0:0:0:
64,192,222091,1,0,0:0:0:0:
320,192,222251,1,0,0:0:0:0:
448,192,222251,1,0,0:0:0:0:
64,192,222410,1,0,0:0:0:0:
320,192,222490,1,0,0:0:0:0:
192,192,222570,1,0,0:0:0:0:
64,192,222570,1,0,0:0:0:0:
448,192,222729,1,0,0:0:0:0:
64,192,222889,1,0,0:0:0:0:
320,192,222889,1,0,0:0:0:0:
192,192,223048,1,0,0:0:0:0:
64,192,223208,1,0,0:0:0:0:
448,192,223208,1,0,0:0:0:0:
320,192,223368,1,0,0:0:0:0:
448,192,223527,1,0,0:0:0:0:
64,192,223527,1,0,0:0:0:0:
192,192,223687,1,0,0:0:0:0:
320,192,223767,1,0,0:0:0:0:
192,192,223846,1,0,0:0:0:0:
64,192,223846,1,0,0:0:0:0:
320,192,224006,1,0,0:0:0:0:
192,192,224165,1,0,0:0:0:0:
448,192,224165,1,0,0:0:0:0:
320,192,224245,1,0,0:0:0:0:
192,192,224325,1,0,0:0:0:0:
64,192,224485,1,0,0:0:0:0:
192,192,224644,1,0,0:0:0:0:
448,192,224724,1,0,0:0:0:0:
64,192,224804,1,0,0:0:0:0:
192,192,224804,1,0,0:0:0:0:
320,192,224963,1,0,0:0:0:0:
64,192,225043,1,0,0:0:0:0:
192,192,225123,1,0,0:0:0:0:
448,192,225123,1,0,0:0:0:0:
320,192,225203,1,0,0:0:0:0:
192,192,225282,1,0,0:0:0:0:
448,192,225362,1,0,0:0:0:0:
64,192,225442,1,0,0:0:0:0:
320,192,225442,1,0,0:0:0:0:
192,192,225522,1,0,0:0:0:0:
64,192,225602,1,0,0:0:0:0:
320,192,225681,1,0,0:0:0:0:
192,192,225761,1,2,0:0:0:0:
448,192,225761,1,2,0:0:0:0:
320,192,225921,1,0,0:0:0:0:
192,192,226080,1,2,0:0:0:0:
64,192,226080,1,2,0:0:0:0:
448,192,226240,1,0,0:0:0:0:
192,192,226320,1,0,0:0:0:0:
64,192,226400,1,0,0:0:0:0:
320,192,226400,1,0,0:0:0:0:
192,192,226559,1,0,0:0:0:0:
320,192,226719,1,0,0:0:0:0:
448,192,226719,1,0,0:0:0:0:
64,192,226878,1,0,0:0:0:0:
192,192,227038,1,0,0:0:0:0:
320,192,227038,1,0,0:0:0:0:
64,192,227197,1,0,0:0:0:0:
192,192,227357,1,0,0:0:0:0:
448,192,227357,1,0,0:0:0:0:
320,192,227517,1,0,0:0:0:0:
192,192,227596,1,0,0:0:0:0:
64,192,227676,1,0,0:0:0:0:
448,192,227676,1,0,0:0:0:0:
320,192,227836,1,0,0:0:0:0:
192,192,227995,1,0,0:0:0:0:
64,192,227995,1,0,0:0:0:0:
448,192,228155,1,0,0:0:0:0:
192,192,228314,1,0,0:0:0:0:
320,192,228314,1,0,0:0:0:0:
448,192,228474,1,0,0:0:0:0:
320,192,228634,1,0,0:0:0:0:
64,192,228634,1,0,0:0:0:0:
192,192,228793,1,0,0:0:0:0:
320,192,228873,1,0,0:0:0:0:
448,192,228953,1,0,0:0:0:0:
64,192,228953,1,0,0:0:0:0:
192,192,229112,1,0,0:0:0:0:
64,192,229272,1,0,0:0:0:0:
320,192,229272,1,0,0:0:0:0:
448,192,229431,1,0,0:0:0:0:
192,192,229591,1,0,0:0:0:0:
320,192,229591,1,0,0:0:0:0:
64,192,229751,1,0,0:0:0:0:
320,192,229910,1,0,0:0:0:0:
448,192,229910,1,0,0:0:0:0:
64,192,230070,1,0,0:0:0:0:
320,192,230150,1,0,0:0:0:0:
192,192,230229,1,0,0:0:0:0:
448,192,230229,1,0,0:0:0:0:
320,192,230389,1,0,0:0:0:0:
64,192,230548,1,0,0:0:0:0:
192,192,230548,1,0,0:0:0:0:
448,192,230708,1,0,0:0:0:0:
320,192,230868,1,0,0:0:0:0:
192,192,230868,1,0,0:0:0:0:
448,192,231027,1,0,0:0:0:0:
64,192,231187,1,0,0:0:0:0:
320,192,231187,1,0,0:0:0:0:
192,192,231346,1,0,0:0:0:0:
64,192,231426,1,0,0:0:0:0:
320,192,231506,1,0,0:0:0:0:
448,192,231506,1,0,0:0:0:0:
192,192,231665,1,0,0:0:0:0:
64,192,231825,1,0,0:0:0:0:
320,192,231825,1,0,0:0:0:0:
448,192,231985,1,0,0:0:0:0:
192,192,232144,1,0,0:0:0:0:
320,192,232144,1,0,0:0:0:0:
448,192,232304,1,0,0:0:0:0:
64,192,232463,1,0,0:0:0:0:
320,192,232463,1,0,0:0:0:0:
192,192,232623,1,0,0:0:0:0:
320,192,232703,1,0,0:0:0:0:
448,192,232782,1,0,0:0:0:0:
64,192,232782,1,0,0:0:0:0:
192,192,232942,1,0,0:0:0:0:
64,192,233102,1,0,0:0:0:0:
320,192,233102,1,0,0:0:0:0:
448,192,233261,1,0,0:0:0:0:
320,192,233421,1,0,0:0:0:0:
192,192,233421,1,0,0:0:0:0:
448,192,233580,1,0,0:0:0:0:
64,192,233740,1,0,0:0:0:0:
192,192,233740,1,0,0:0:0:0:
448,192,233900,1,0,0:0:0:0:
192,192,233979,1,0,0:0:0:0:
320,192,234059,1,0,0:0:0:0:
448,192,234059,1,0,0:0:0:0:
64,192,234219,1,0,0:0:0:0:
192,192,234378,1,0,0:0:0:0:
448,192,234378,1,0,0:0:0:0:
320,192,234538,1,0,0:0:0:0:
448,192,234697,1,0,0:0:0:0:
192,192,234697,1,0,0:0:0:0:
64,192,234857,1,0,0:0:0:0:
320,192,235017,1,0,0:0:0:0:
448,192,235017,1,0,0:0:0:0:
64,192,235176,1,0,0:0:0:0:
320,192,235256,1,0,0:0:0:0:
192,192,235336,1,0,0:0:0:0:
448,192,235336,1,0,0:0:0:0:
320,192,235495,1,0,0:0:0:0:
192,192,235575,1,0,0:0:0:0:
64,192,235655,1,0,0:0:0:0:
448,192,235655,1,0,0:0:0:0:
320,192,235735,1,0,0:0:0:0:
192,192,235814,1,0,0:0:0:0:
64,192,235974,1,0,0:0:0:0:
320,192,235974,1,0,0:0:0:0:
448,192,236134,1,0,0:0:0:0:
320,192,236293,1,0,0:0:0:0:
192,192,236293,1,0,0:0:0:0:
448,192,236453,1,0,0:0:0:0:
320,192,236532,1,0,0:0:0:0:
192,192,236612,1,0,0:0:0:0:
64,192,236612,1,0,0:0:0:0:
320,192,236772,1,0,0:0:0:0:
192,192,236931,1,0,0:0:0:0:
448,192,236931,1,0,0:0:0:0:
320,192,237091,1,0,0:0:0:0:
192,192,237251,1,0,0:0:0:0:
64,192,237251,1,0,0:0:0:0:
448,192,237410,1,0,0:0:0:0:
320,192,237570,1,0,0:0:0:0:
192,192,237570,1,0,0:0:0:0:
320,192,237729,1,0,0:0:0:0:
192,192,237809,1,0,0:0:0:0:
64,192,237889,1,0,0:0:0:0:
448,192,237889,1,0,0:0:0:0:
320,192,238048,1,0,0:0:0:0:
64,192,238208,1,0,0:0:0:0:
192,192,238208,1,0,0:0:0:0:
448,192,238368,1,0,0:0:0:0:
320,192,238527,1,0,0:0:0:0:
192,192,238527,1,0,0:0:0:0:
448,192,238687,1,0,0:0:0:0:
64,192,238846,1,0,0:0:0:0:
192,192,238846,1,0,0:0:0:0:
320,192,239006,1,0,0:0:0:0:
448,192,239086,1,0,0:0:0:0:
192,192,239165,1,0,0:0:0:0:
320,192,239165,1,0,0:0:0:0:
64,192,239325,1,0,0:0:0:0:
192,192,239485,1,0,0:0:0:0:
448,192,239485,1,0,0:0:0:0:
320,192,239644,1,0,0:0:0:0:
448,192,239804,1,0,0:0:0:0:
64,192,239804,1,0,0:0:0:0:
320,192,239963,1,0,0:0:0:0:
192,192,240123,1,0,0:0:0:0:
64,192,240123,1,0,0:0:0:0:
448,192,240282,1,0,0:0:0:0:
192,192,240362,1,0,0:0:0:0:
320,192,240442,1,0,0:0:0:0:
448,192,240442,1,0,0:0:0:0:
192,192,240602,1,0,0:0:0:0:
64,192,240761,1,0,0:0:0:0:
320,192,240761,1,0,0:0:0:0:
448,192,240921,1,0,0:0:0:0:
320,192,241080,1,0,0:0:0:0:
64,192,241080,1,0,0:0:0:0:
192,192,241240,1,0,0:0:0:0:
64,192,241400,1,0,0:0:0:0:
448,192,241400,1,0,0:0:0:0:
320,192,241559,1,0,0:0:0:0:
192,192,241639,1,0,0:0:0:0:
64,192,241719,1,0,0:0:0:0:
448,192,241719,1,0,0:0:0:0:
192,192,241878,1,0,0:0:0:0:
320,192,242038,1,0,0:0:0:0:
448,192,242038,1,0,0:0:0:0:
64,192,242197,1,0,0:0:0:0:
192,192,242357,1,0,0:0:0:0:
448,192,242357,1,0,0:0:0:0:
64,192,242517,1,0,0:0:0:0:
320,192,242676,1,0,0:0:0:0:
448,192,242676,1,0,0:0:0:0:
192,192,242836,1,0,0:0:0:0:
64,192,242915,1,0,0:0:0:0:
320,192,242995,1,0,0:0:0:0:
448,192,242995,1,0,0:0:0:0:
192,192,243155,1,0,0:0:0:0:
64,192,243314,1,0,0:0:0:0:
320,192,243314,1,0,0:0:0:0:
448,192,243474,1,0,0:0:0:0:
64,192,243634,1,0,0:0:0:0:
192,192,243634,1,0,0:0:0:0:
320,192,243793,1,0,0:0:0:0:
64,192,243953,1,0,0:0:0:0:
448,192,243953,1,0,0:0:0:0:
320,192,244112,1,0,0:0:0:0:
192,192,244192,1,0,0:0:0:0:
64,192,244272,1,0,0:0:0:0:
448,192,244272,1,0,0:0:0:0:
320,192,244431,1,0,0:0:0:0:
192,192,244591,1,0,0:0:0:0:
64,192,244591,1,0,0:0:0:0:
320,192,244671,1,0,0:0:0:0:
448,192,244751,1,0,0:0:0:0:
64,192,244910,1,0,0:0:0:0:
320,192,244910,1,0,0:0:0:0:
192,192,245070,1,0,0:0:0:0:
320,192,245150,1,0,0:0:0:0:
448,192,245229,1,0,0:0:0:0:
192,192,245229,1,0,0:0:0:0:
64,192,245389,1,0,0:0:0:0:
192,192,245469,1,0,0:0:0:0:
320,192,245548,1,0,0:0:0:0:
448,192,245548,1,0,0:0:0:0:
64,192,245628,1,0,0:0:0:0:
192,192,245708,1,0,0:0:0:0:
64,192,245788,1,0,0:0:0:0:
320,192,245868,1,0,0:0:0:0:
448,192,245868,1,0,0:0:0:0:
192,192,245947,1,0,0:0:0:0:
320,192,246027,1,0,0:0:0:0:
64,192,246107,1,0,0:0:0:0:
192,192,246187,1,2,0:0:0:0:
448,192,246187,1,2,0:0:0:0:
320,192,246346,1,0,0:0:0:0:
448,192,246506,1,2,0:0:0:0:
64,192,246506,1,2,0:0:0:0:
320,192,246665,1,0,0:0:0:0:
64,192,246825,1,0,0:0:0:0:
448,192,246825,1,0,0:0:0:0:
320,192,246985,1,0,0:0:0:0:
192,192,247064,1,0,0:0:0:0:
64,192,247144,1,0,0:0:0:0:
320,192,247144,1,0,0:0:0:0:
448,192,247224,1,0,0:0:0:0:
192,192,247304,1,0,0:0:0:0:
320,192,247463,1,0,0:0:0:0:
448,192,247463,1,0,0:0:0:0:
64,192,247623,1,0,0:0:0:0:
192,192,247782,1,0,0:0:0:0:
448,192,247782,1,0,0:0:0:0:
320,192,247942,1,0,0:0:0:0:
64,192,248102,1,0,0:0:0:0:
448,192,248102,1,0,0:0:0:0:
320,192,248261,1,0,0:0:0:0:
192,192,248341,1,0,0:0:0:0:
64,192,248421,1,0,0:0:0:0:
448,192,248421,1,0,0:0:0:0:
320,192,248501,1,0,0:0:0:0:
192,192,248580,1,0,0:0:0:0:
320,192,248740,1,0,0:0:0:0:
448,192,248740,1,0,0:0:0:0:
64,192,248900,1,0,0:0:0:0:
192,192,249059,1,0,0:0:0:0:
320,192,249059,1,0,0:0:0:0:
448,192,249219,1,0,0:0:0:0:
64,192,249378,1,0,0:0:0:0:
320,192,249378,1,0,0:0:0:0:
192,192,249538,1,0,0:0:0:0:
448,192,249618,1,0,0:0:0:0:
64,192,249697,1,0,0:0:0:0:
320,192,249697,1,0,0:0:0:0:
192,192,249777,1,0,0:0:0:0:
64,192,249857,1,0,0:0:0:0:
320,192,250017,1,0,0:0:0:0:
448,192,250017,1,0,0:0:0:0:
64,192,250176,1,0,0:0:0:0:
192,192,250336,1,0,0:0:0:0:
448,192,250336,1,0,0:0:0:0:
320,192,250495,1,0,0:0:0:0:
448,192,250655,1,0,0:0:0:0:
64,192,250655,1,0,0:0:0:0:
320,192,250814,1,0,0:0:0:0:
64,192,250894,1,0,0:0:0:0:
192,192,250974,1,0,0:0:0:0:
448,192,250974,1,0,0:0:0:0:
320,192,251054,1,0,0:0:0:0:
448,192,251134,1,0,0:0:0:0:
64,192,251293,1,0,0:0:0:0:
320,192,251293,1,0,0:0:0:0:
192,192,251453,1,0,0:0:0:0:
64,192,251612,1,0,0:0:0:0:
448,192,251612,1,0,0:0:0:0:
320,192,251772,1,0,0:0:0:0:
192,192,251931,1,0,0:0:0:0:
64,192,251931,1,0,0:0:0:0:
448,192,252091,1,0,0:0:0:0:
192,192,252171,1,0,0:0:0:0:
320,192,252251,1,0,0:0:0:0:
448,192,252251,1,0,0:0:0:0:
64,192,252330,1,0,0:0:0:0:
192,192,252410,1,0,0:0:0:0:
320,192,252570,1,0,0:0:0:0:
64,192,252570,1,0,0:0:0:0:
448,192,252729,1,0,0:0:0:0:
192,192,252889,1,0,0:0:0:0:
320,192,252889,1,0,0:0:0:0:
64,192,253048,1,0,0:0:0:0:
192,192,253208,1,0,0:0:0:0:
448,192,253208,1,0,0:0:0:0:
320,192,253368,1,0,0:0:0:0:
64,192,253447,1,0,0:0:0:0:
192,192,253527,1,0,0:0:0:0:
320,192,253527,1,0,0:0:0:0:
448,192,253607,1,0,0:0:0:0:
192,192,253687,1,0,0:0:0:0:
64,192,253846,1,0,0:0:0:0:
448,192,253846,1,0,0:0:0:0:
320,192,254006,1,0,0:0:0:0:
192,192,254165,1,0,0:0:0:0:
64,192,254165,1,0,0:0:0:0:
448,192,254325,1,0,0:0:0:0:
64,192,254485,1,0,0:0:0:0:
320,192,254485,1,0,0:0:0:0:
192,192,254644,1,0,0:0:0:0:
64,192,254724,1,0,0:0:0:0:
320,192,254804,1,0,0:0:0:0:
448,192,254804,1,0,0:0:0:0:
192,192,254884,1,0,0:0:0:0:
320,192,254963,1,0,0:0:0:0:
64,192,255123,1,0,0:0:0:0:
192,192,255123,1,0,0:0:0:0:
320,192,255282,1,0,0:0:0:0:
192,192,255442,1,0,0:0:0:0:
448,192,255442,1,0,0:0:0:0:
64,192,255602,1,0,0:0:0:0:
192,192,255761,1,0,0:0:0:0:
448,192,255761,1,0,0:0:0:0:
320,192,255921,1,0,0:0:0:0:
64,192,256001,1,0,0:0:0:0:
192,192,256080,1,0,0:0:0:0:
448,192,256080,1,0,0:0:0:0:
320,192,256160,1,0,0:0:0:0:
448,192,256240,1,0,0:0:0:0:
192,192,256400,1,0,0:0:0:0:
64,192,256400,1,0,0:0:0:0:
448,192,256559,1,0,0:0:0:0:
192,192,256719,1,0,0:0:0:0:
320,192,256719,1,0,0:0:0:0:
448,192,256878,1,0,0:0:0:0:
64,192,257038,1,0,0:0:0:0:
320,192,257038,1,0,0:0:0:0:
192,192,257197,1,0,0:0:0:0:
64,192,257277,1,0,0:0:0:0:
320,192,257357,1,0,0:0:0:0:
448,192,257357,1,0,0:0:0:0:
192,192,257437,1,0,0:0:0:0:
448,192,257517,1,0,0:0:0:0:
320,192,257676,1,0,0:0:0:0:
64,192,257676,1,0,0:0:0:0:
192,192,257836,1,0,0:0:0:0:
320,192,257995,1,0,0:0:0:0:
448,192,257995,1,0,0:0:0:0:
64,192,258155,1,0,0:0:0:0:
192,192,258314,1,0,0:0:0:0:
320,192,258314,1,0,0:0:0:0:
64,192,258474,1,0,0:0:0:0:
320,192,258554,1,0,0:0:0:0:
192,192,258634,1,0,0:0:0:0:
64,192,258634,1,0,0:0:0:0:
448,192,258713,1,0,0:0:0:0:
320,192,258793,1,0,0:0:0:0:
192,192,258953,1,0,0:0:0:0:
448,192,258953,1,0,0:0:0:0:
64,192,259112,1,0,0:0:0:0:
192,192,259272,1,0,0:0:0:0:
320,192,259272,1,0,0:0:0:0:
320,192,259431,1,0,0:0:0:0:
64,192,259591,1,0,0:0:0:0:
448,192,259591,1,0,0:0:0:0:
320,192,259751,1,0,0:0:0:0:
192,192,259830,1,0,0:0:0:0:
64,192,259910,1,0,0:0:0:0:
448,192,259910,1,0,0:0:0:0:
320,192,259990,1,0,0:0:0:0:
448,192,260070,1,0,0:0:0:0:
192,192,260229,1,0,0:0:0:0:
64,192,260229,1,0,0:0:0:0:
320,192,260389,1,0,0:0:0:0:
448,192,260548,1,0,0:0:0:0:
192,192,260548,1,0,0:0:0:0:
64,192,260708,1,0,0:0:0:0:
320,192,260868,1,0,0:0:0:0:
448,192,260868,1,0,0:0:0:0:
64,192,261027,1,0,0:0:0:0:
320,192,261107,1,0,0:0:0:0:
192,192,261187,1,0,0:0:0:0:
448,192,261187,1,0,0:0:0:0:
320,192,261267,1,0,0:0:0:0:
64,192,261346,1,0,0:0:0:0:
320,192,261506,1,0,0:0:0:0:
448,192,261506,1,0,0:0:0:0:
64,192,261665,1,0,0:0:0:0:
192,192,261825,1,0,0:0:0:0:
320,192,261825,1,0,0:0:0:0:
448,192,261985,1,0,0:0:0:0:
64,192,262144,1,0,0:0:0:0:
320,192,262144,1,0,0:0:0:0:
192,192,262304,1,0,0:0:0:0:
448,192,262384,1,0,0:0:0:0:
320,192,262463,1,0,0:0:0:0:
64,192,262463,1,0,0:0:0:0:
192,192,262543,1,0,0:0:0:0:
64,192,262623,1,0,0:0:0:0:
320,192,262782,1,0,0:0:0:0:
448,192,262782,1,0,0:0:0:0:
64,192,262942,1,0,0:0:0:0:
192,192,263102,1,0,0:0:0:0:
320,192,263102,1,0,0:0:0:0:
64,192,263261,1,0,0:0:0:0:
192,192,263421,1,0,0:0:0:0:
448,192,263421,1,0,0:0:0:0:
320,192,263580,1,0,0:0:0:0:
64,192,263660,1,0,0:0:0:0:
192,192,263740,1,0,0:0:0:0:
448,192,263740,1,0,0:0:0:0:
320,192,263820,1,0,0:0:0:0:
192,192,263900,1,0,0:0:0:0:
64,192,264059,1,0,0:0:0:0:
320,192,264059,1,0,0:0:0:0:
448,192,264219,1,0,0:0:0:0:
320,192,264378,1,0,0:0:0:0:
192,192,264378,1,0,0:0:0:0:
64,192,264538,1,0,0:0:0:0:
320,192,264697,1,0,0:0:0:0:
448,192,264697,1,0,0:0:0:0:
64,192,264857,1,0,0:0:0:0:
192,192,264937,1,0,0:0:0:0:
448,192,265017,1,0,0:0:0:0:
64,192,265017,1,0,0:0:0:0:
320,192,265096,1,0,0:0:0:0:
192,192,265176,1,0,0:0:0:0:
448,192,265336,1,0,0:0:0:0:
320,192,265336,1,0,0:0:0:0:
64,192,265495,1,0,0:0:0:0:
192,192,265655,1,0,0:0:0:0:
320,192,265655,1,0,0:0:0:0:
448,192,265814,1,0,0:0:0:0:
64,192,265974,1,0,0:0:0:0:
320,192,265974,1,0,0:0:0:0:
192,192,266134,1,0,0:0:0:0:
448,192,266213,1,0,0:0:0:0:
64,192,266293,1,0,0:0:0:0:
320,192,266293,1,0,0:0:0:0:
192,192,266373,1,0,0:0:0:0:
320,192,266453,1,0,0:0:0:0:
192,192,266612,1,2,0:0:0:0:
448,192,266612,1,2,0:0:0:0:
64,192,266772,1,0,0:0:0:0:
320,192,266931,1,2,0:0:0:0:
448,192,266931,1,2,0:0:0:0:
64,192,267091,1,0,0:0:0:0:
192,192,267251,1,0,0:0:0:0:
320,192,267251,1,0,0:0:0:0:
448,192,267410,1,0,0:0:0:0:
64,192,267490,1,0,0:0:0:0:
192,192,267570,1,0,0:0:0:0:
320,192,267570,1,0,0:0:0:0:
448,192,267650,1,0,0:0:0:0:
320,192,267729,1,0,0:0:0:0:
192,192,267889,1,0,0:0:0:0:
64,192,267889,1,0,0:0:0:0:
320,192,268048,1,0,0:0:0:0:
64,192,268208,1,0,0:0:0:0:
192,192,268208,1,0,0:0:0:0:
448,192,268368,1,0,0:0:0:0:
320,192,268527,1,0,0:0:0:0:
64,192,268527,1,0,0:0:0:0:
192,192,268687,1,0,0:0:0:0:
448,192,268767,1,0,0:0:0:0:
320,192,268846,1,0,0:0:0:0:
64,192,268846,1,0,0:0:0:0:
192,192,268926,1,0,0:0:0:0:
64,192,269006,1,0,0:0:0:0:
320,192,269165,1,0,0:0:0:0:
448,192,269165,1,0,0:0:0:0:
192,192,269325,1,0,0:0:0:0:
64,192,269485,1,0,0:0:0:0:
320,192,269485,1,0,0:0:0:0:
448,192,269644,1,0,0:0:0:0:
64,192,269804,1,0,0:0:0:0:
192,192,269804,1,0,0:0:0:0:
448,192,269963,1,0,0:0:0:0:
192,192,270043,1,0,0:0:0:0:
320,192,270123,1,0,0:0:0:0:
64,192,270123,1,0,0:0:0:0:
448,192,270203,1,0,0:0:0:0:
192,192,270282,1,0,0:0:0:0:
320,192,270442,1,0,0:0:0:0:
448,192,270442,1,0,0:0:0:0:
64,192,270602,1,0,0:0:0:0:
192,192,270761,1,0,0:0:0:0:
448,192,270761,1,0,0:0:0:0:
320,192,270921,1,0,0:0:0:0:
448,192,271080,1,0,0:0:0:0:
64,192,271080,1,0,0:0:0:0:
320,192,271240,1,0,0:0:0:0:
64,192,271320,1,0,0:0:0:0:
192,192,271400,1,0,0:0:0:0:
448,192,271400,1,0,0:0:0:0:
320,192,271479,1,0,0:0:0:0:
192,192,271559,1,0,0:0:0:0:
320,192,271719,1,0,0:0:0:0:
448,192,271719,1,0,0:0:0:0:
192,192,271878,1,0,0:0:0:0:
64,192,272038,1,0,0:0:0:0:
320,192,272038,1,0,0:0:0:0:
448,192,272197,1,0,0:0:0:0:
192,192,272357,1,0,0:0:0:0:
320,192,272357,1,0,0:0:0:0:
64,192,272517,1,0,0:0:0:0:
320,192,272596,1,0,0:0:0:0:
192,192,272676,1,0,0:0:0:0:
64,192,272676,1,0,0:0:0:0:
320,192,272756,1,0,0:0:0:0:
448,192,272836,1,0,0:0:0:0:
192,192,272995,1,0,0:0:0:0:
320,192,272995,1,0,0:0:0:0:
64,192,273155,1,0,0:0:0:0:
320,192,273314,1,0,0:0:0:0:
448,192,273314,1,0,0:0:0:0:
64,192,273474,1,0,0:0:0:0:
192,192,273634,1,0,0:0:0:0:
448,192,273634,1,0,0:0:0:0:
320,192,273793,1,0,0:0:0:0:
64,192,273873,1,0,0:0:0:0:
192,192,273953,1,0,0:0:0:0:
448,192,273953,1,0,0:0:0:0:
320,192,274032,1,0,0:0:0:0:
448,192,274112,1,0,0:0:0:0:
64,192,274272,1,0,0:0:0:0:
192,192,274272,1,0,0:0:0:0:
448,192,274431,1,0,0:0:0:0:
320,192,274591,1,0,0:0:0:0:
192,192,274591,1,0,0:0:0:0:
64,192,274751,1,0,0:0:0:0:
320,192,274910,1,0,0:0:0:0:
448,192,274910,1,0,0:0:0:0:
192,192,275070,1,0,0:0:0:0:
64,192,275150,1,0,0:0:0:0:
320,192,275229,1,0,0:0:0:0:
448,192,275229,1,0,0:0:0:0:
192,192,275309,1,0,0:0:0:0:
320,192,275389,1,0,0:0:0:0:
448,192,275548,1,0,0:0:0:0:
64,192,275548,1,0,0:0:0:0:
320,192,275708,1,0,0:0:0:0:
64,192,275868,1,0,0:0:0:0:
192,192,275868,1,0,0:0:0:0:
448,192,276027,1,0,0:0:0:0:
320,192,276187,1,0,0:0:0:0:
192,192,276187,1,0,0:0:0:0:
64,192,276346,1,0,0:0:0:0:
192,192,276426,1,0,0:0:0:0:
448,192,276506,1,0,0:0:0:0:
320,192,276506,1,0,0:0:0:0:
192,192,276586,1,0,0:0:0:0:
320,192,276665,1,0,0:0:0:0:
64,192,276825,1,0,0:0:0:0:
192,192,276825,1,0,0:0:0:0:
448,192,276985,1,0,0:0:0:0:
320,192,277144,1,0,0:0:0:0:
192,192,277144,1,0,0:0:0:0:
64,192,277304,1,0,0:0:0:0:
192,192,277463,1,0,0:0:0:0:
448,192,277463,1,0,0:0:0:0:
320,192,277623,1,0,0:0:0:0:
448,192,277703,1,0,0:0:0:0:
64,192,277782,1,0,0:0:0:0:
192,192,277782,1,0,0:0:0:0:
320,192,277862,1,0,0:0:0:0:
192,192,277942,1,0,0:0:0:0:
320,192,278102,1,0,0:0:0:0:
448,192,278102,1,0,0:0:0:0:
64,192,278261,1,0,0:0:0:0:
192,192,278421,1,0,0:0:0:0:
448,192,278421,1,0,0:0:0:0:
320,192,278580,1,0,0:0:0:0:
192,192,278740,1,0,0:0:0:0:
448,192,278740,1,0,0:0:0:0:
320,192,278900,1,0,0:0:0:0:
64,192,278979,1,0,0:0:0:0:
192,192,279059,1,0,0:0:0:0:
448,192,279059,1,0,0:0:0:0:
64,192,279139,1,0,0:0:0:0:
320,192,279219,1,0,0:0:0:0:
192,192,279378,1,0,0:0:0:0:
64,192,279378,1,0,0:0:0:0:
448,192,279538,1,0,0:0:0:0:
192,192,279697,1,0,0:0:0:0:
320,192,279697,1,0,0:0:0:0:
64,192,279857,1,0,0:0:0:0:
320,192,280017,1,0,0:0:0:0:
448,192,280017,1,0,0:0:0:0:
64,192,280176,1,0,0:0:0:0:
320,192,280256,1,0,0:0:0:0:
192,192,280336,1,0,0:0:0:0:
64,192,280336,1,0,0:0:0:0:
448,192,280415,1,0,0:0:0:0:
320,192,280495,1,0,0:0:0:0:
192,192,280655,1,0,0:0:0:0:
64,192,280655,1,0,0:0:0:0:
448,192,280814,1,0,0:0:0:0:
64,192,280974,1,0,0:0:0:0:
320,192,280974,1,0,0:0:0:0:
192,192,281134,1,0,0:0:0:0:
64,192,281293,1,0,0:0:0:0:
448,192,281293,1,0,0:0:0:0:
192,192,281453,1,0,0:0:0:0:
320,192,281532,1,0,0:0:0:0:
192,192,281612,1,0,0:0:0:0:
448,192,281612,1,0,0:0:0:0:
64,192,281692,1,0,0:0:0:0:
192,192,281772,1,0,0:0:0:0:
320,192,281931,1,0,0:0:0:0:
448,192,281931,1,0,0:0:0:0:
64,192,282091,1,0,0:0:0:0:
192,192,282251,1,0,0:0:0:0:
448,192,282251,1,0,0:0:0:0:
320,192,282410,1,0,0:0:0:0:
64,192,282570,1,0,0:0:0:0:
448,192,282570,1,0,0:0:0:0:
320,192,282729,1,0,0:0:0:0:
64,192,282809,1,0,0:0:0:0:
192,192,282889,1,0,0:0:0:0:
448,192,282889,1,0,0:0:0:0:
320,192,282969,1,0,0:0:0:0:
448,192,283048,1,0,0:0:0:0:
64,192,283208,1,0,0:0:0:0:
192,192,283208,1,0,0:0:0:0:
448,192,283368,1,0,0:0:0:0:
320,192,283527,1,0,0:0:0:0:
448,192,283527,1,0,0:0:0:0:
64,192,283687,1,0,0:0:0:0:
192,192,283846,1,0,0:0:0:0:
448,192,283846,1,0,0:0:0:0:
320,192,284006,1,0,0:0:0:0:
64,192,284086,1,0,0:0:0:0:
192,192,284165,1,0,0:0:0:0:
448,192,284165,1,0,0:0:0:0:
320,192,284245,1,0,0:0:0:0:
192,192,284325,1,0,0:0:0:0:
320,192,284485,1,0,0:0:0:0:
448,192,284485,1,0,0:0:0:0:
64,192,284644,1,0,0:0:0:0:
192,192,284804,1,0,0:0:0:0:
320,192,284804,1,0,0:0:0:0:
448,192,284963,1,0,0:0:0:0:
192,192,285123,1,0,0:0:0:0:
320,192,285123,1,0,0:0:0:0:
64,192,285282,1,0,0:0:0:0:
320,192,285362,1,0,0:0:0:0:
192,192,285442,1,0,0:0:0:0:
448,192,285442,1,0,0:0:0:0:
64,192,285522,1,0,0:0:0:0:
320,192,285602,1,0,0:0:0:0:
192,192,285761,1,0,0:0:0:0:
64,192,285761,1,0,0:0:0:0:
448,192,285921,1,0,0:0:0:0:
320,192,286080,1,0,0:0:0:0:
64,192,286080,1,0,0:0:0:0:
448,192,286240,1,0,0:0:0:0:
64,192,286400,1,0,0:0:0:0:
192,192,286400,1,0,0:0:0:0:
320,192,286559,1,0,0:0:0:0:
448,192,286639,1,0,0:0:0:0:
64,192,286719,1,0,0:0:0:0:
320,192,286719,1,0,0:0:0:0:
192,192,286798,1,0,0:0:0:0:
320,192,286878,1,0,0:0:0:0:
64,192,287038,1,2,0:0:0:0:
448,192,287038,1,2,0:0:0:0:
320,192,287197,1,0,0:0:0:0:
448,192,287357,1,2,0:0:0:0:
192,192,287357,1,2,0:0:0:0:
320,192,287517,1,0,0:0:0:0:
192,192,287676,1,0,0:0:0:0:
64,192,287676,1,0,0:0:0:0:
448,192,287836,1,0,0:0:0:0:
192,192,287915,1,0,0:0:0:0:
320,192,287995,1,0,0:0:0:0:
64,192,287995,1,0,0:0:0:0:
192,192,288075,1,0,0:0:0:0:
448,192,288155,1,0,0:0:0:0:
320,192,288235,1,0,0:0:0:0:
192,192,288314,1,0,0:0:0:0:
64,192,288314,1,0,0:0:0:0:
320,192,288474,1,0,0:0:0:0:
192,192,288554,1,0,0:0:0:0:
320,192,288634,1,0,0:0:0:0:
448,192,288634,1,0,0:0:0:0:
64,192,288793,1,0,0:0:0:0:
192,192,288953,1,0,0:0:0:0:
448,192,288953,1,0,0:0:0:0:
320,192,289112,1,0,0:0:0:0:
64,192,289192,1,0,0:0:0:0:
192,192,289272,1,0,0:0:0:0:
448,192,289272,1,0,0:0:0:0:
320,192,289352,1,0,0:0:0:0:
448,192,289431,1,0,0:0:0:0:
320,192,289511,1,0,0:0:0:0:
64,192,289591,1,0,0:0:0:0:
192,192,289591,1,0,0:0:0:0:
448,192,289751,1,0,0:0:0:0:
320,192,289830,1,0,0:0:0:0:
192,192,289910,1,0,0:0:0:0:
64,192,289910,1,0,0:0:0:0:
320,192,290070,1,0,0:0:0:0:
64,192,290229,1,0,0:0:0:0:
448,192,290229,1,0,0:0:0:0:
192,192,290389,1,0,0:0:0:0:
320,192,290469,1,0,0:0:0:0:
64,192,290548,1,0,0:0:0:0:
448,192,290548,1,0,0:0:0:0:
192,192,290628,1,0,0:0:0:0:
64,192,290708,1,0,0:0:0:0:
320,192,290788,1,0,0:0:0:0:
448,192,290868,1,0,0:0:0:0:
192,192,290868,1,0,0:0:0:0:
64,192,291027,1,0,0:0:0:0:
320,192,291107,1,0,0:0:0:0:
192,192,291187,1,0,0:0:0:0:
64,192,291187,1,0,0:0:0:0:
448,192,291346,1,0,0:0:0:0:
320,192,291506,1,0,0:0:0:0:
192,192,291506,1,0,0:0:0:0:
64,192,291665,1,0,0:0:0:0:
320,192,291745,1,0,0:0:0:0:
192,192,291825,1,0,0:0:0:0:
448,192,291825,1,0,0:0:0:0:
64,192,291905,1,0,0:0:0:0:
320,192,291985,1,0,0:0:0:0:
448,192,292064,1,0,0:0:0:0:
64,192,292144,1,0,0:0:0:0:
192,192,292144,1,0,0:0:0:0:
320,192,292304,1,0,0:0:0:0:
448,192,292384,1,0,0:0:0:0:
192,192,292463,1,0,0:0:0:0:
64,192,292463,1,0,0:0:0:0:
320,192,292623,1,0,0:0:0:0:
192,192,292782,1,0,0:0:0:0:
448,192,292782,1,0,0:0:0:0:
64,192,292942,1,0,0:0:0:0:
320,192,293022,1,0,0:0:0:0:
192,192,293102,1,0,0:0:0:0:
448,192,293102,1,0,0:0:0:0:
320,192,293181,1,0,0:0:0:0:
192,192,293261,1,0,0:0:0:0:
64,192,293341,1,0,0:0:0:0:
320,192,293421,1,0,0:0:0:0:
448,192,293421,1,0,0:0:0:0:
192,192,293580,1,0,0:0:0:0:
320,192,293660,1,0,0:0:0:0:
192,192,293740,1,0,0:0:0:0:
448,192,293740,1,0,0:0:0:0:
64,192,293900,1,0,0:0:0:0:
320,192,294059,1,0,0:0:0:0:
448,192,294059,1,0,0:0:0:0:
192,192,294219,1,0,0:0:0:0:
64,192,294298,1,0,0:0:0:0:
320,192,294378,1,0,0:0:0:0:
448,192,294378,1,0,0:0:0:0:
192,192,294458,1,0,0:0:0:0:
320,192,294538,1,0,0:0:0:0:
448,192,294618,1,0,0:0:0:0:
64,192,294697,1,0,0:0:0:0:
320,192,294697,1,0,0:0:0:0:
192,192,294857,1,0,0:0:0:0:
448,192,294937,1,0,0:0:0:0:
320,192,295017,1,0,0:0:0:0:
64,192,295017,1,0,0:0:0:0:
192,192,295176,1,0,0:0:0:0:
64,192,295336,1,0,0:0:0:0:
448,192,295336,1,0,0:0:0:0:
320,192,295495,1,0,0:0:0:0:
64,192,295575,1,0,0:0:0:0:
192,192,295655,1,0,0:0:0:0:
448,192,295655,1,0,0:0:0:0:
320,192,295735,1,0,0:0:0:0:
448,192,295814,1,0,0:0:0:0:
192,192,295894,1,0,0:0:0:0:
64,192,295974,1,0,0:0:0:0:
320,192,295974,1,0,0:0:0:0:
448,192,296134,1,0,0:0:0:0:
192,192,296213,1,0,0:0:0:0:
320,192,296293,1,0,0:0:0:0:
64,192,296293,1,0,0:0:0:0:
192,192,296453,1,0,0:0:0:0:
320,192,296612,1,0,0:0:0:0:
448,192,296612,1,0,0:0:0:0:
64,192,296772,1,0,0:0:0:0:
320,192,296852,1,0,0:0:0:0:
192,192,296931,1,0,0:0:0:0:
64,192,296931,1,0,0:0:0:0:
448,192,297011,1,0,0:0:0:0:
192,192,297091,1,0,0:0:0:0:
320,192,297171,1,0,0:0:0:0:
448,192,297251,1,0,0:0:0:0:
64,192,297251,1,0,0:0:0:0:
320,192,297410,1,0,0:0:0:0:
64,192,297490,1,0,0:0:0:0:
192,192,297570,1,0,0:0:0:0:
320,192,297570,1,0,0:0:0:0:
448,192,297729,1,0,0:0:0:0:
64,192,297889,1,0,0:0:0:0:
320,192,297889,1,0,0:0:0:0:
192,192,298048,1,0,0:0:0:0:
448,192,298128,1,0,0:0:0:0:
320,192,298208,1,0,0:0:0:0:
64,192,298208,1,0,0:0:0:0:
192,192,298288,1,0,0:0:0:0:
64,192,298368,1,0,0:0:0:0:
320,192,298447,1,0,0:0:0:0:
192,192,298527,1,0,0:0:0:0:
448,192,298527,1,0,0:0:0:0:
64,192,298687,1,0,0:0:0:0:
320,192,298767,1,0,0:0:0:0:
192,192,298846,1,0,0:0:0:0:
64,192,298846,1,0,0:0:0:0:
320,192,299006,1,0,0:0:0:0:
192,192,299165,1,0,0:0:0:0:
448,192,299165,1,0,0:0:0:0:
320,192,299325,1,0,0:0:0:0:
64,192,299405,1,0,0:0:0:0:
192,192,299485,1,0,0:0:0:0:
448,192,299485,1,0,0:0:0:0:
320,192,299564,1,0,0:0:0:0:
448,192,299644,1,0,0:0:0:0:
192,192,299724,1,0,0:0:0:0:
320,192,299804,1,0,0:0:0:0:
64,192,299804,1,0,0:0:0:0:
448,192,299963,1,0,0:0:0:0:
320,192,300043,1,0,0:0:0:0:
192,192,300123,1,0,0:0:0:0:
64,192,300123,1,0,0:0:0:0:
320,192,300282,1,0,0:0:0:0:
192,192,300442,1,0,0:0:0:0:
448,192,300442,1,0,0:0:0:0:
64,192,300602,1,0,0:0:0:0:
320,192,300681,1,0,0:0:0:0:
192,192,300761,1,0,0:0:0:0:
64,192,300761,1,0,0:0:0:0:
448,192,300841,1,0,0:0:0:0:
320,192,300921,1,0,0:0:0:0:
192,192,301001,1,0,0:0:0:0:
64,192,301080,1,0,0:0:0:0:
320,192,301080,1,0,0:0:0:0:
448,192,301240,1,0,0:0:0:0:
192,192,301320,1,0,0:0:0:0:
320,192,301400,1,0,0:0:0:0:
448,192,301400,1,0,0:0:0:0:
64,192,301559,1,0,0:0:0:0:
192,192,301719,1,0,0:0:0:0:
448,192,301719,1,0,0:0:0:0:
320,192,301878,1,0,0:0:0:0:
64,192,301958,1,0,0:0:0:0:
192,192,302038,1,0,0:0:0:0:
448,192,302038,1,0,0:0:0:0:
320,192,302118,1,0,0:0:0:0:
192,192,302197,1,0,0:0:0:0:
64,192,302277,1,0,0:0:0:0:
320,192,302357,1,0,0:0:0:0:
448,192,302357,1,0,0:0:0:0:
192,192,302517,1,0,0:0:0:0:
448,192,302596,1,0,0:0:0:0:
320,192,302676,1,0,0:0:0:0:
64,192,302676,1,0,0:0:0:0:
192,192,302836,1,0,0:0:0:0:
64,192,302995,1,0,0:0:0:0:
448,192,302995,1,0,0:0:0:0:
320,192,303155,1,0,0:0:0:0:
64,192,303235,1,0,0:0:0:0:
192,192,303314,1,0,0:0:0:0:
448,192,303314,1,0,0:0:0:0:
320,192,303394,1,0,0:0:0:0:
448,192,303474,1,0,0:0:0:0:
192,192,303554,1,0,0:0:0:0:
320,192,303634,1,0,0:0:0:0:
64,192,303634,1,0,0:0:0:0:
448,192,303793,1,0,0:0:0:0:
320,192,303873,1,0,0:0:0:0:
64,192,303953,1,0,0:0:0:0:
192,192,303953,1,0,0:0:0:0:
448,192,304112,1,0,0:0:0:0:
64,192,304272,1,0,0:0:0:0:
320,192,304272,1,0,0:0:0:0:
192,192,304431,1,0,0:0:0:0:
448,192,304511,1,0,0:0:0:0:
320,192,304591,1,0,0:0:0:0:
64,192,304591,1,0,0:0:0:0:
192,192,304671,1,0,0:0:0:0:
64,192,304751,1,0,0:0:0:0:
320,192,304830,1,0,0:0:0:0:
192,192,304910,1,0,0:0:0:0:
448,192,304910,1,0,0:0:0:0:
320,192,305070,1,0,0:0:0:0:
192,192,305150,1,0,0:0:0:0:
64,192,305229,1,0,0:0:0:0:
320,192,305229,1,0,0:0:0:0:
192,192,305389,1,0,0:0:0:0:
320,192,305548,1,0,0:0:0:0:
448,192,305548,1,0,0:0:0:0:
64,192,305708,1,0,0:0:0:0:
320,192,305788,1,0,0:0:0:0:
192,192,305868,1,0,0:0:0:0:
64,192,305868,1,0,0:0:0:0:
448,192,305947,1,0,0:0:0:0:
320,192,306027,1,0,0:0:0:0:
192,192,306107,1,0,0:0:0:0:
64,192,306187,1,0,0:0:0:0:
448,192,306187,1,0,0:0:0:0:
192,192,306346,1,0,0:0:0:0:
320,192,306426,1,0,0:0:0:0:
448,192,306506,1,0,0:0:0:0:
64,192,306506,1,0,0:0:0:0:
192,192,306665,1,0,0:0:0:0:
320,192,306825,1,0,0:0:0:0:
448,192,306825,1,0,0:0:0:0:
64,192,306985,1,0,0:0:0:0:
320,192,307064,1,0,0:0:0:0:
192,192,307144,1,0,0:0:0:0:
64,192,307144,1,0,0:0:0:0:
448,192,307224,1,0,0:0:0:0:
192,192,307304,1,0,0:0:0:0:
320,192,307384,1,0,0:0:0:0:
192,192,307463,1,2,0:0:0:0:
448,192,307463,1,2,0:0:0:0:
64,192,307623,1,0,0:0:0:0:
192,192,307703,1,0,0:0:0:0:
320,192,307782,1,2,0:0:0:0:
448,192,307782,1,2,0:0:0:0:
192,192,307942,1,0,0:0:0:0:
64,192,308102,1,0,0:0:0:0:
448,192,308102,1,0,0:0:0:0:
320,192,308261,1,0,0:0:0:0:
64,192,308341,1,0,0:0:0:0:
192,192,308421,1,0,0:0:0:0:
448,192,308421,1,0,0:0:0:0:
320,192,308501,1,0,0:0:0:0:
192,192,308580,1,0,0:0:0:0:
64,192,308660,1,0,0:0:0:0:
192,192,308740,1,0,0:0:0:0:
320,192,308740,1,0,0:0:0:0:
448,192,308900,1,0,0:0:0:0:
320,192,308979,1,0,0:0:0:0:
192,192,309059,1,0,0:0:0:0:
64,192,309059,1,0,0:0:0:0:
320,192,309219,1,0,0:0:0:0:
192,192,309378,1,0,0:0:0:0:
448,192,309378,1,0,0:0:0:0:
64,192,309538,1,0,0:0:0:0:
320,192,309618,1,0,0:0:0:0:
192,192,309697,1,0,0:0:0:0:
64,192,309697,1,0,0:0:0:0:
448,192,309777,1,0,0:0:0:0:
320,192,309857,1,0,0:0:0:0:
448,192,309937,1,0,0:0:0:0:
192,192,310017,1,0,0:0:0:0:
320,192,310017,1,0,0:0:0:0:
64,192,310176,1,0,0:0:0:0:
320,192,310256,1,0,0:0:0:0:
192,192,310336,1,0,0:0:0:0:
64,192,310336,1,0,0:0:0:0:
320,192,310495,1,0,0:0:0:0:
192,192,310655,1,0,0:0:0:0:
448,192,310655,1,0,0:0:0:0:
64,192,310814,1,0,0:0:0:0:
320,192,310894,1,0,0:0:0:0:
192,192,310974,1,0,0:0:0:0:
448,192,310974,1,0,0:0:0:0:
320,192,311054,1,0,0:0:0:0:
448,192,311134,1,0,0:0:0:0:
64,192,311213,1,0,0:0:0:0:
192,192,311293,1,0,0:0:0:0:
320,192,311293,1,0,0:0:0:0:
448,192,311453,1,0,0:0:0:0:
192,192,311532,1,0,0:0:0:0:
64,192,311612,1,0,0:0:0:0:
320,192,311612,1,0,0:0:0:0:
192,192,311772,1,0,0:0:0:0:
64,192,311931,1,0,0:0:0:0:
320,192,311931,1,0,0:0:0:0:
448,192,312091,1,0,0:0:0:0:
192,192,312171,1,0,0:0:0:0:
320,192,312251,1,0,0:0:0:0:
448,192,312251,1,0,0:0:0:0:
64,192,312330,1,0,0:0:0:0:
192,192,312410,1,0,0:0:0:0:
64,192,312490,1,0,0:0:0:0:
320,192,312570,1,0,0:0:0:0:
448,192,312570,1,0,0:0:0:0:
192,192,312729,1,0,0:0:0:0:
320,192,312809,1,0,0:0:0:0:
64,192,312889,1,0,0:0:0:0:
448,192,312889,1,0,0:0:0:0:
320,192,313048,1,0,0:0:0:0:
192,192,313208,1,0,0:0:0:0:
64,192,313208,1,0,0:0:0:0:
448,192,313368,1,0,0:0:0:0:
192,192,313447,1,0,0:0:0:0:
64,192,313527,1,0,0:0:0:0:
320,192,313527,1,0,0:0:0:0:
448,192,313607,1,0,0:0:0:0:
192,192,313687,1,0,0:0:0:0:
320,192,313767,1,0,0:0:0:0:
192,192,313846,1,0,0:0:0:0:
64,192,313846,1,0,0:0:0:0:
320,192,314006,1,0,0:0:0:0:
192,192,314086,1,0,0:0:0:0:
64,192,314165,1,0,0:0:0:0:
448,192,314165,1,0,0:0:0:0:
320,192,314325,1,0,0:0:0:0:
192,192,314485,1,0,0:0:0:0:
64,192,314485,1,0,0:0:0:0:
448,192,314644,1,0,0:0:0:0:
192,192,314724,1,0,0:0:0:0:
320,192,314804,1,0,0:0:0:0:
448,192,314804,1,0,0:0:0:0:
64,192,314884,1,0,0:0:0:0:
192,192,314963,1,0,0:0:0:0:
320,192,315043,1,0,0:0:0:0:
448,192,315123,1,0,0:0:0:0:
192,192,315123,1,0,0:0:0:0:
64,192,315282,1,0,0:0:0:0:
192,192,315362,1,0,0:0:0:0:
320,192,315442,1,0,0:0:0:0:
448,192,315442,1,0,0:0:0:0:
64,192,315602,1,0,0:0:0:0:
192,192,315761,1,0,0:0:0:0:
320,192,315761,1,0,0:0:0:0:
448,192,315921,1,0,0:0:0:0:
192,192,316001,1,0,0:0:0:0:
320,192,316080,1,0,0:0:0:0:
64,192,316080,1,0,0:0:0:0:
192,192,316160,1,0,0:0:0:0:
448,192,316240,1,0,0:0:0:0:
320,192,316320,1,0,0:0:0:0:
192,192,316400,1,0,0:0:0:0:
64,192,316400,1,0,0:0:0:0:
320,192,316559,1,0,0:0:0:0:
192,192,316639,1,0,0:0:0:0:
320,192,316719,1,0,0:0:0:0:
448,192,316719,1,0,0:0:0:0:
64,192,316878,1,0,0:0:0:0:
448,192,317038,1,0,0:0:0:0:
192,192,317038,1,0,0:0:0:0:
320,192,317197,1,0,0:0:0:0:
64,192,317277,1,0,0:0:0:0:
192,192,317357,1,0,0:0:0:0:
448,192,317357,1,0,0:0:0:0:
320,192,317437,1,0,0:0:0:0:
448,192,317517,1,0,0:0:0:0:
192,192,317596,1,0,0:0:0:0:
64,192,317676,1,0,0:0:0:0:
320,192,317676,1,0,0:0:0:0:
448,192,317836,1,0,0:0:0:0:
192,192,317915,1,0,0:0:0:0:
64,192,317995,1,0,0:0:0:0:
320,192,317995,1,0,0:0:0:0:
448,192,318155,1,0,0:0:0:0:
192,192,318314,1,0,0:0:0:0:
320,192,318314,1,0,0:0:0:0:
64,192,318474,1,0,0:0:0:0:
320,192,318554,1,0,0:0:0:0:
192,192,318634,1,0,0:0:0:0:
448,192,318634,1,0,0:0:0:0:
64,192,318713,1,0,0:0:0:0:
192,192,318793,1,0,0:0:0:0:
320,192,318873,1,0,0:0:0:0:
192,192,318953,1,0,0:0:0:0:
448,192,318953,1,0,0:0:0:0:
320,192,319112,1,0,0:0:0:0:
64,192,319192,1,0,0:0:0:0:
192,192,319272,1,0,0:0:0:0:
448,192,319272,1,0,0:0:0:0:
320,192,319431,1,0,0:0:0:0:
64,192,319591,1,0,0:0:0:0:
448,192,319591,1,0,0:0:0:0:
192,192,319751,1,0,0:0:0:0:
448,192,319830,1,0,0:0:0:0:
320,192,319910,1,0,0:0:0:0:
64,192,319910,1,0,0:0:0:0:
192,192,319990,1,0,0:0:0:0:
64,192,320070,1,0,0:0:0:0:
320,192,320150,1,0,0:0:0:0:
192,192,320229,1,0,0:0:0:0:
448,192,320229,1,0,0:0:0:0:
64,192,320389,1,0,0:0:0:0:
320,192,320469,1,0,0:0:0:0:
192,192,320548,1,0,0:0:0:0:
64,192,320548,1,0,0:0:0:0:
448,192,320708,1,0,0:0:0:0:
320,192,320868,1,0,0:0:0:0:
192,192,320868,1,0,0:0:0:0:
64,192,321027,1,0,0:0:0:0:
320,192,321107,1,0,0:0:0:0:
192,192,321187,1,0,0:0:0:0:
448,192,321187,1,0,0:0:0:0:
320,192,321267,1,0,0:0:0:0:
64,192,321346,1,0,0:0:0:0:
192,192,321426,1,0,0:0:0:0:
320,192,321506,1,0,0:0:0:0:
448,192,321506,1,0,0:0:0:0:
192,192,321665,1,0,0:0:0:0:
320,192,321745,1,0,0:0:0:0:
64,192,321825,1,0,0:0:0:0:
448,192,321825,1,0,0:0:0:0:
320,192,321985,1,0,0:0:0:0:
192,192,322144,1,0,0:0:0:0:
64,192,322144,1,0,0:0:0:0:
448,192,322304,1,0,0:0:0:0:
192,192,322384,1,0,0:0:0:0:
320,192,322463,1,0,0:0:0:0:
64,192,322463,1,0,0:0:0:0:
192,192,322543,1,0,0:0:0:0:
64,192,322623,1,0,0:0:0:0:
448,192,322703,1,0,0:0:0:0:
320,192,322782,1,0,0:0:0:0:
192,192,322782,1,0,0:0:0:0:
64,192,322942,1,0,0:0:0:0:
192,192,323022,1,0,0:0:0:0:
320,192,323102,1,0,0:0:0:0:
448,192,323102,1,0,0:0:0:0:
192,192,323261,1,0,0:0:0:0:
64,192,323421,1,0,0:0:0:0:
320,192,323421,1,0,0:0:0:0:
448,192,323580,1,0,0:0:0:0:
320,192,323660,1,0,0:0:0:0:
192,192,323740,1,0,0:0:0:0:
64,192,323740,1,0,0:0:0:0:
448,192,323820,1,0,0:0:0:0:
320,192,323900,1,0,0:0:0:0:
64,192,323979,1,0,0:0:0:0:
192,192,324059,1,0,0:0:0:0:
448,192,324059,1,0,0:0:0:0:
320,192,324219,1,0,0:0:0:0:
192,192,324298,1,0,0:0:0:0:
64,192,324378,1,0,0:0:0:0:
448,192,324378,1,0,0:0:0:0:
192,192,324538,1,0,0:0:0:0:
320,192,324697,1,0,0:0:0:0:
448,192,324697,1,0,0:0:0:0:
192,192,324857,1,0,0:0:0:0:
320,192,324937,1,0,0:0:0:0:
64,192,325017,1,0,0:0:0:0:
448,192,325017,1,0,0:0:0:0:
192,192,325096,1,0,0:0:0:0:
320,192,325176,1,0,0:0:0:0:
448,192,325256,1,0,0:0:0:0:
192,192,325336,1,0,0:0:0:0:
64,192,325336,1,0,0:0:0:0:
448,192,325495,1,0,0:0:0:0:
192,192,325575,1,0,0:0:0:0:
320,192,325655,1,0,0:0:0:0:
64,192,325655,1,0,0:0:0:0:
192,192,325814,1,0,0:0:0:0:
448,192,325814,1,0,0:0:0:0:
320,192,325974,1,0,0:0:0:0:
192,192,326134,1,0,0:0:0:0:
448,192,326134,1,0,0:0:0:0:
64,192,326293,1,0,0:0:0:0:
192,192,326453,1,0,0:0:0:0:
320,192,326612,1,0,0:0:0:0:
448,192,326612,1,0,0:0:0:0:
192,192,326772,1,0,0:0:0:0:
64,192,326931,1,0,0:0:0:0:
320,192,327091,1,0,0:0:0:0:
448,192,327091,1,0,0:0:0:0:
192,192,327251,1,0,0:0:0:0:
320,192,327410,1,0,0:0:0:0:
448,192,327410,1,0,0:0:0:0:
64,192,327570,1,0,0:0:0:0:
192,192,327570,1,0,0:0:0:0:
192,192,327729,1,0,0:0:0:0:
320,192,327729,1,0,0:0:0:0:
448,192,327889,1,2,0:0:0:0:
320,192,327889,1,2,0:0:0:0:
192,192,328048,1,0,0:0:0:0:
320,192,328048,1,0,0:0:0:0:
192,192,328208,1,2,0:0:0:0:
64,192,328208,1,2,0:0:0:0:
