osu file format v14

[General]
AudioFilename: audio.mp3
AudioLeadIn: 0
PreviewTime: 116170
Countdown: 0
SampleSet: Soft
StackLeniency: 0.7
Mode: 3
LetterboxInBreaks: 0
SpecialStyle: 0
WidescreenStoryboard: 1

[Editor]
Bookmarks: 171,10837,21504,32170,42837,64170,74837,85504,96170,106837,117504,128170,138837,149504,160170,171170,181504,192170,202837
DistanceSpacing: 2.6
BeatDivisor: 8
GridSize: 32
TimelineZoom: 2.099999

[Metadata]
Title:CROSSING DELTA
TitleUnicode:CROSSING DELTA
Artist:ginkiha x t+pazolite x Hommarju
ArtistUnicode:ginkiha x t+pazolite x Hommarju
Creator:AlexDunk
Version:Ping's Insane
Source:OverRapid
Tags:electronic instrumental Future Bass Trap Hardcore CAFE.D seven's code [ping] TheNewBungping FAMoss PIU XX Pump It Up Dynamix Lanota Dance EDM FLUCTON CAFE-0001
BeatmapID:3202242
BeatmapSetID:1063841

[Difficulty]
HPDrainRate:8
CircleSize:4
OverallDifficulty:8
ApproachRate:5
SliderMultiplier:1.4
SliderTickRate:1

[Events]
//Background and Video events
0,0,"for gd.jpg",0,0
//Break Periods
//Storyboard Layer 0 (Background)
//Storyboard Layer 1 (Fail)
//Storyboard Layer 2 (Pass)
//Storyboard Layer 3 (Foreground)
//Storyboard Layer 4 (Overlay)
//Storyboard Sound Samples

[TimingPoints]
171,333.333333333333,4,2,1,60,1,0
42837,-100,4,2,1,60,0,1
62837,-100,4,2,1,60,0,0
106837,-100,4,2,1,60,0,1
116170,-100,4,2,1,60,0,0
117504,-100,4,2,1,60,0,1
127837,-100,4,2,1,60,0,0
128170,-100,4,2,1,60,0,1
149170,-100,4,2,1,60,0,0
171170,-100,4,2,1,60,0,1
181504,-100,4,2,1,60,0,0

[HitObjects]
192,192,1004,5,0,0:0:0:100:D#5H_Eb5H.wav
320,192,1170,1,0,0:0:0:100:F5H.wav
448,192,1337,1,0,0:0:0:100:A5H.wav
448,192,1504,1,0,0:0:0:100:A5H.wav
320,192,1670,1,0,0:0:0:100:F5H.wav
192,192,2004,1,0,0:0:0:100:D#5H_Eb5H.wav
320,192,2337,1,0,0:0:0:100:F5H.wav
64,192,2670,1,0,0:0:0:100:C#5H_Db5H.wav
192,192,5004,1,0,0:0:0:100:D#5H_Eb5H.wav
320,192,5170,1,0,0:0:0:100:F5H.wav
64,192,5337,1,0,0:0:0:100:C#5H_Db5H.wav
192,192,6337,1,0,0:0:0:100:C5H.wav
192,192,6504,1,0,0:0:0:100:C5H.wav
64,192,6670,1,0,0:0:0:100:C#5H_Db5H.wav
448,192,7670,1,0,0:0:0:100:D#5H_Eb5H.wav
192,192,7837,1,0,0:0:0:100:E5H.wav
320,192,8004,1,0,0:0:0:100:F5H.wav
448,192,9004,1,0,0:0:0:100:F#5H_Gb5H.wav
320,192,9337,1,0,0:0:0:100:F5H.wav
192,192,10504,1,2,0:0:0:0:
320,192,10587,1,2,0:0:0:0:
64,192,10670,1,2,0:0:0:0:
192,192,10754,1,2,0:0:0:0:
320,192,10837,1,2,0:0:0:0:
448,192,10837,1,8,0:0:0:0:
192,192,11087,1,10,0:0:0:0:
320,192,11170,1,2,0:0:0:0:
448,192,11170,1,0,0:0:0:0:
64,192,11337,1,2,0:0:0:0:
192,192,11337,1,8,0:0:0:0:
448,192,11420,1,0,0:0:0:0:
64,192,11504,1,2,0:0:0:0:
192,192,11504,1,8,0:0:0:0:
320,192,11670,1,0,0:0:0:0:
448,192,11754,1,10,0:0:0:0:
64,192,11837,1,2,0:0:0:0:
192,192,11837,1,0,0:0:0:0:
320,192,12004,1,2,0:0:0:0:
448,192,12004,1,8,0:0:0:0:
320,192,12170,1,2,0:0:0:0:
448,192,12170,1,8,0:0:0:0:
64,192,12254,1,0,0:0:0:0:
192,192,12337,1,0,0:0:0:0:
64,192,12420,1,8,0:0:0:0:
320,192,12504,1,2,0:0:0:0:
448,192,12504,1,0,0:0:0:0:
192,192,12670,1,8,0:0:0:0:
320,192,12754,1,0,0:0:0:0:
64,192,12837,1,2,0:0:0:0:
192,192,12837,1,8,0:0:0:0:
320,192,12920,1,0,0:0:0:0:
448,192,13004,1,8,0:0:0:0:
192,192,13087,1,8,0:0:0:0:
64,192,13170,1,2,0:0:0:0:
448,192,13170,1,8,0:0:0:0:
320,192,13254,1,10,0:0:0:0:
64,192,13337,1,2,0:0:0:0:
192,192,13337,1,8,0:0:0:0:
320,192,13420,1,2,0:0:0:0:
448,192,13420,1,8,0:0:0:0:
64,192,13504,1,2,0:0:0:0:
192,192,13504,1,8,0:0:0:0:
320,192,13754,1,10,0:0:0:0:
64,192,13837,1,2,0:0:0:0:
192,192,13837,1,0,0:0:0:0:
320,192,14004,1,2,0:0:0:0:
448,192,14004,1,8,0:0:0:0:
64,192,14087,1,0,0:0:0:0:
320,192,14170,1,2,0:0:0:0:
448,192,14170,1,8,0:0:0:0:
320,192,14420,1,10,0:0:0:0:
64,192,14504,1,2,0:0:0:0:
192,192,14504,1,0,0:0:0:0:
320,192,14670,1,2,0:0:0:0:
448,192,14670,1,8,0:0:0:0:
320,192,14837,1,2,0:0:0:0:
448,192,14837,1,8,0:0:0:0:
64,192,14920,1,0,0:0:0:0:
320,192,15087,1,8,0:0:0:0:
64,192,15170,1,2,0:0:0:0:
192,192,15170,1,0,0:0:0:0:
320,192,15337,1,8,0:0:0:0:
192,192,15420,1,0,0:0:0:0:
64,192,15504,1,2,0:0:0:0:
448,192,15504,1,8,0:0:0:0:
320,192,15587,1,8,0:0:0:0:
64,192,15670,1,8,0:0:0:0:
192,192,15670,1,0,0:0:0:0:
192,192,15837,1,2,0:0:0:0:
320,192,15837,1,0,0:0:0:0:
192,192,16004,1,2,0:0:0:0:
448,192,16004,1,8,0:0:0:0:
64,192,16170,1,2,0:0:0:0:
320,192,16170,1,8,0:0:0:0:
448,192,16254,1,0,0:0:0:0:
64,192,16337,1,2,0:0:0:0:
192,192,16337,1,8,0:0:0:0:
320,192,16504,1,2,0:0:0:0:
448,192,16504,1,8,0:0:0:0:
192,192,16670,1,2,0:0:0:0:
448,192,16670,1,8,0:0:0:0:
320,192,16754,1,0,0:0:0:0:
64,192,16837,1,2,0:0:0:0:
192,192,16837,1,8,0:0:0:0:
64,192,17004,1,2,0:0:0:0:
320,192,17004,1,8,0:0:0:0:
192,192,17170,1,2,0:0:0:0:
320,192,17170,1,8,0:0:0:0:
320,192,17337,1,2,0:0:0:0:
448,192,17337,1,8,0:0:0:0:
64,192,17504,1,2,0:0:0:0:
192,192,17504,1,8,0:0:0:0:
448,192,17587,1,0,0:0:0:0:
64,192,17670,1,2,0:0:0:0:
192,192,17670,1,8,0:0:0:0:
320,192,17837,1,2,0:0:0:0:
448,192,17837,1,8,0:0:0:0:
192,192,18004,1,2,0:0:0:0:
320,192,18004,1,8,0:0:0:0:
448,192,18087,1,0,0:0:0:0:
64,192,18170,1,2,0:0:0:0:
192,192,18170,1,8,0:0:0:0:
320,192,18254,1,0,0:0:0:0:
64,192,18337,1,2,0:0:0:0:
448,192,18337,1,8,0:0:0:0:
192,192,18504,1,2,0:0:0:0:
448,192,18504,1,8,0:0:0:0:
320,192,18670,1,2,0:0:0:0:
448,192,18670,1,8,0:0:0:0:
192,192,18754,1,10,0:0:0:0:
64,192,18837,1,2,0:0:0:0:
320,192,18837,1,8,0:0:0:0:
448,192,18920,1,10,0:0:0:0:
64,192,19004,1,8,0:0:0:0:
192,192,19004,1,2,0:0:0:0:
320,192,19087,1,10,0:0:0:0:
192,192,19170,1,8,0:0:0:0:
448,192,19170,1,2,0:0:0:0:
64,192,19254,1,10,0:0:0:0:
320,192,19337,1,8,0:0:0:0:
448,192,19337,1,2,0:0:0:0:
192,192,19420,1,10,0:0:0:0:
64,192,19504,1,8,0:0:0:0:
448,192,19504,1,2,0:0:0:0:
320,192,19587,1,10,0:0:0:0:
64,192,19670,1,8,0:0:0:0:
192,192,19670,1,2,0:0:0:0:
320,192,19754,1,10,0:0:0:0:
64,192,19837,1,8,0:0:0:0:
448,192,19837,1,2,0:0:0:0:
192,192,19920,1,10,0:0:0:0:
320,192,20004,1,8,0:0:0:0:
448,192,20004,1,2,0:0:0:0:
192,192,20087,1,10,0:0:0:0:
64,192,20170,128,2,20420:0:0:0:0:
448,192,20170,128,0,20420:0:0:0:0:
320,192,20420,1,0,0:0:0:0:
64,192,20504,128,2,20754:0:0:0:0:
192,192,20504,128,0,20754:0:0:0:0:
320,192,20837,1,2,0:0:0:0:
448,192,20837,1,0,0:0:0:0:
192,192,20920,1,0,0:0:0:0:
448,192,21004,1,0,0:0:0:70:LR_Drum Rpd x2.wav
320,192,21087,1,0,0:0:0:0:
64,192,21170,128,0,21504:0:0:0:70:LR_Drum Rpd x2.wav
448,192,21170,128,0,21337:0:0:0:0:
320,192,21504,1,2,0:0:0:0:
448,192,21504,128,4,22337:0:0:0:0:
64,192,21670,1,0,0:0:0:0:
192,192,21837,1,0,0:0:0:0:
64,192,22004,1,0,0:0:0:0:
320,192,22170,1,0,0:0:0:0:
64,192,22337,1,2,0:0:0:0:
192,192,22337,1,0,0:0:0:0:
320,192,22504,1,0,0:0:0:0:
448,192,22587,1,0,0:0:0:0:
64,192,22670,1,0,0:0:0:0:
192,192,22754,1,0,0:0:0:0:
64,192,22837,128,2,23504:0:0:0:0:
448,192,22837,1,0,0:0:0:0:
320,192,23004,1,0,0:0:0:0:
192,192,23087,1,0,0:0:0:0:
448,192,23170,1,0,0:0:0:0:
320,192,23254,1,0,0:0:0:0:
448,192,23337,128,2,23504:0:0:0:0:
192,192,23504,1,0,0:0:0:0:
320,192,23587,1,0,0:0:0:0:
64,192,23670,1,0,0:0:0:0:
192,192,23754,1,0,0:0:0:0:
64,192,23837,128,2,24170:0:0:0:0:
448,192,23837,1,0,0:0:0:0:
320,192,24004,128,0,24170:0:0:0:0:
192,192,24170,1,2,0:0:0:0:
448,192,24170,1,0,0:0:0:0:
192,192,24337,1,0,0:0:0:0:
64,192,24504,1,2,0:0:0:0:
448,192,24504,1,0,0:0:0:0:
448,192,24670,128,0,25004:0:0:0:0:
64,192,25004,1,2,0:0:0:0:
192,192,25004,1,0,0:0:0:0:
320,192,25170,1,0,0:0:0:0:
192,192,25254,1,0,0:0:0:0:
448,192,25337,1,0,0:0:0:0:
192,192,25420,1,0,0:0:0:0:
64,192,25504,1,2,0:0:0:0:
448,192,25504,128,0,26170:0:0:0:0:
192,192,25670,1,0,0:0:0:0:
320,192,25754,1,0,0:0:0:0:
64,192,25837,1,0,0:0:0:0:
320,192,25920,1,0,0:0:0:0:
64,192,26004,128,2,26170:0:0:0:0:
192,192,26170,128,0,26504:0:0:0:0:
320,192,26337,128,0,26504:0:0:0:0:
64,192,26504,128,0,26837:0:0:0:0:
320,192,26837,1,2,0:0:0:0:
448,192,26837,128,4,27670:0:0:0:0:
64,192,27004,1,0,0:0:0:0:
192,192,27170,1,0,0:0:0:0:
64,192,27337,1,0,0:0:0:0:
320,192,27504,1,0,0:0:0:0:
64,192,27670,1,2,0:0:0:0:
192,192,27670,1,0,0:0:0:0:
320,192,27837,1,0,0:0:0:0:
448,192,27920,1,0,0:0:0:0:
64,192,28004,1,0,0:0:0:0:
192,192,28087,1,0,0:0:0:0:
64,192,28170,128,2,28837:0:0:0:0:
448,192,28170,1,0,0:0:0:0:
320,192,28337,1,0,0:0:0:0:
192,192,28420,1,0,0:0:0:0:
448,192,28504,1,0,0:0:0:0:
320,192,28587,1,0,0:0:0:0:
448,192,28670,128,2,28837:0:0:0:0:
192,192,28837,1,0,0:0:0:0:
320,192,28920,1,0,0:0:0:0:
64,192,29004,1,0,0:0:0:0:
192,192,29087,1,0,0:0:0:0:
64,192,29170,128,2,29504:0:0:0:0:
448,192,29170,128,0,29337:0:0:0:0:
320,192,29337,1,0,0:0:0:0:
192,192,29504,1,0,0:0:0:50:Bassdrop.wav
448,192,29504,128,0,30004:0:0:0:0:
320,192,29837,1,0,0:0:0:0:
64,192,30004,128,0,30337:0:0:0:0:
448,192,30170,1,0,0:0:0:0:
320,192,30254,1,0,0:0:0:0:
448,192,30337,1,0,0:0:0:0:
192,192,30420,1,0,0:0:0:0:
320,192,30504,128,0,30670:0:0:0:0:
64,192,30587,1,0,0:0:0:0:
192,192,30670,1,0,0:0:0:0:
64,192,30754,1,0,0:0:0:0:
448,192,30837,128,0,31004:0:0:0:0:
192,192,31004,1,0,0:0:0:0:
320,192,31087,1,0,0:0:0:0:
64,192,31170,1,0,0:0:0:70:LR_Tom Drop.wav
192,192,31170,1,0,0:0:0:0:
320,192,31254,1,0,0:0:0:0:
64,192,31337,128,0,31504:0:0:0:0:
320,192,31504,128,0,31670:0:0:0:70:Cymatics - Trap Snare 8 - A#.wav
448,192,31504,1,0,0:0:0:0:
192,192,31670,1,0,0:0:0:70:Cymatics - Trap Snare 8 - A#.wav
320,192,31754,1,0,0:0:0:0:
64,192,31837,128,0,32170:0:0:0:70:Cymatics - Trap Snare 8 - A#.wav
448,192,31837,1,0,0:0:0:0:
320,192,32170,1,2,0:0:0:0:
448,192,32170,1,4,0:0:0:0:
192,192,32337,1,0,0:0:0:0:
64,192,32504,1,8,0:0:0:0:
448,192,32504,1,0,0:0:0:0:
320,192,32670,1,0,0:0:0:0:
64,192,32837,1,2,0:0:0:0:
192,192,32837,1,0,0:0:0:0:
448,192,33004,1,0,0:0:0:0:
64,192,33170,1,8,0:0:0:0:
192,192,33170,1,0,0:0:0:0:
320,192,33254,1,0,0:0:0:0:
64,192,33337,1,0,0:0:0:0:
192,192,33420,1,0,0:0:0:0:
64,192,33504,1,2,0:0:0:0:
448,192,33504,1,0,0:0:0:0:
320,192,33670,1,0,0:0:0:0:
192,192,33754,1,0,0:0:0:0:
64,192,33837,1,8,0:0:0:0:
448,192,33837,1,0,0:0:0:0:
320,192,33920,1,0,0:0:0:0:
448,192,34004,1,0,0:0:0:0:
64,192,34170,1,2,0:0:0:0:
192,192,34170,1,0,0:0:0:0:
320,192,34254,1,0,0:0:0:0:
64,192,34337,1,0,0:0:0:0:
192,192,34420,1,0,0:0:0:0:
64,192,34504,128,8,34837:0:0:0:0:
448,192,34504,1,0,0:0:0:0:
320,192,34670,1,0,0:0:0:0:
192,192,34837,1,2,0:0:0:0:
448,192,34837,1,0,0:0:0:0:
192,192,35004,1,0,0:0:0:0:
64,192,35170,1,8,0:0:0:0:
448,192,35170,1,0,0:0:0:0:
448,192,35337,128,0,35670:0:0:0:0:
64,192,35504,1,2,0:0:0:0:
192,192,35504,1,0,0:0:0:0:
320,192,35670,1,0,0:0:0:0:
64,192,35754,1,0,0:0:0:0:
320,192,35837,1,8,0:0:0:0:
448,192,35837,1,0,0:0:0:0:
192,192,35920,1,0,0:0:0:0:
448,192,36004,1,0,0:0:0:0:
192,192,36087,1,0,0:0:0:0:
64,192,36170,1,2,0:0:0:0:
448,192,36170,128,0,36504:0:0:0:0:
192,192,36337,1,0,0:0:0:0:
320,192,36420,1,0,0:0:0:0:
64,192,36504,1,8,0:0:0:0:
192,192,36504,1,0,0:0:0:0:
320,192,36587,1,0,0:0:0:0:
64,192,36670,128,0,36837:0:0:0:0:
192,192,36837,128,2,37170:0:0:0:0:
448,192,36837,1,0,0:0:0:0:
320,192,37004,128,0,37170:0:0:0:0:
64,192,37170,128,8,37504:0:0:0:0:
448,192,37170,1,0,0:0:0:0:
192,192,37337,1,0,0:0:0:0:
320,192,37504,1,4,0:0:0:0:
448,192,37504,1,2,0:0:0:0:
64,192,37670,1,2,0:0:0:0:
192,192,37670,1,0,0:0:0:0:
320,192,37837,1,8,0:0:0:0:
448,192,37837,1,0,0:0:0:0:
320,192,38004,1,2,0:0:0:0:
448,192,38004,1,0,0:0:0:0:
192,192,38170,1,2,0:0:0:0:
320,192,38170,1,0,0:0:0:0:
64,192,38337,1,2,0:0:0:0:
192,192,38337,1,0,0:0:0:0:
64,192,38504,1,8,0:0:0:0:
448,192,38504,1,0,0:0:0:0:
192,192,38587,1,0,0:0:0:0:
64,192,38670,1,2,0:0:0:0:
448,192,38670,1,0,0:0:0:0:
320,192,38754,1,0,0:0:0:0:
192,192,38837,1,2,0:0:0:0:
448,192,38837,1,0,0:0:0:0:
64,192,39004,1,2,0:0:0:0:
192,192,39004,1,0,0:0:0:0:
320,192,39087,1,0,0:0:0:0:
64,192,39170,1,8,0:0:0:0:
448,192,39170,1,0,0:0:0:0:
192,192,39254,1,0,0:0:0:0:
64,192,39337,1,2,0:0:0:0:
320,192,39337,1,0,0:0:0:0:
320,192,39504,1,2,0:0:0:0:
448,192,39504,1,0,0:0:0:0:
64,192,39587,1,0,0:0:0:0:
320,192,39670,1,2,0:0:0:0:
448,192,39670,1,0,0:0:0:0:
192,192,39754,1,0,0:0:0:0:
64,192,39837,1,8,0:0:0:0:
448,192,39837,1,0,0:0:0:0:
64,192,40004,1,2,0:0:0:0:
320,192,40004,1,0,0:0:0:0:
64,192,40170,1,2,0:0:0:0:
448,192,40170,1,0,0:0:0:0:
192,192,40254,1,2,0:0:0:0:
320,192,40337,1,2,0:0:0:0:
448,192,40337,1,0,0:0:0:0:
64,192,40420,1,2,0:0:0:0:
192,192,40504,1,2,0:0:0:0:
448,192,40504,1,0,0:0:0:0:
320,192,40587,1,2,0:0:0:0:
64,192,40670,1,2,0:0:0:0:
192,192,40670,1,0,0:0:0:0:
448,192,40754,1,2,0:0:0:0:
64,192,40837,1,2,0:0:0:0:
320,192,40837,1,0,0:0:0:0:
192,192,40920,1,0,0:0:0:70:LR_Drum Rpd x2.wav
320,192,41004,1,0,0:0:0:70:LR_Drum Rpd x2.wav
448,192,41004,1,0,0:0:0:0:
64,192,41087,1,0,0:0:0:70:LR_Drum Rpd x2.wav
192,192,41170,1,0,0:0:0:70:LR_Drum Rpd x2.wav
448,192,41170,1,0,0:0:0:0:
320,192,41254,1,0,0:0:0:70:LR_Drum Rpd x2.wav
64,192,41337,1,2,0:0:0:0:
192,192,41337,1,0,0:0:0:0:
448,192,41420,1,0,0:0:0:70:LR_Drum Rpd x2.wav
320,192,41504,1,0,0:0:0:0:
192,192,41670,1,0,0:0:0:0:
448,192,41837,1,0,0:0:0:0:
64,192,41920,1,0,0:0:0:0:
320,192,42004,1,0,0:0:0:0:
192,192,42170,1,0,0:0:0:0:
448,192,42337,1,0,0:0:0:0:
64,192,42420,1,0,0:0:0:0:
320,192,42504,1,0,0:0:0:0:
320,192,42670,1,0,0:0:0:0:
64,192,42837,128,2,43004:0:0:0:0:
192,192,42837,128,4,43004:0:0:0:0:
448,192,42837,1,0,0:0:0:0:
192,192,43087,1,0,0:0:0:0:
64,192,43170,128,2,43337:0:0:0:0:
448,192,43170,128,0,43337:0:0:0:0:
320,192,43337,1,0,0:0:0:0:
320,192,43504,128,2,43670:0:0:0:0:
448,192,43504,128,0,43670:0:0:0:0:
64,192,43670,1,0,0:0:0:0:
192,192,43754,1,0,0:0:0:0:
64,192,43837,128,2,44004:0:0:0:0:
448,192,43837,128,0,44004:0:0:0:0:
320,192,44004,1,0,0:0:0:0:
320,192,44170,128,2,44337:0:0:0:0:
448,192,44170,128,0,44337:0:0:0:0:
64,192,44337,1,0,0:0:0:0:
192,192,44420,1,0,0:0:0:0:
64,192,44504,128,2,44670:0:0:0:0:
448,192,44504,128,0,44670:0:0:0:0:
320,192,44670,1,0,0:0:0:0:
320,192,44837,1,2,0:0:0:0:
448,192,44837,1,0,0:0:0:0:
64,192,44920,1,0,0:0:0:0:
448,192,45004,1,0,0:0:0:0:
64,192,45087,1,0,0:0:0:0:
192,192,45170,128,2,45337:0:0:0:0:
448,192,45170,128,0,45337:0:0:0:0:
64,192,45504,128,2,45670:0:0:0:0:
192,192,45504,128,0,45670:0:0:0:0:
448,192,45670,1,0,0:0:0:0:
192,192,45754,1,0,0:0:0:0:
320,192,45837,128,2,46004:0:0:0:0:
448,192,45837,128,0,46004:0:0:0:0:
64,192,46004,1,0,0:0:0:0:
192,192,46087,1,0,0:0:0:0:
64,192,46170,128,2,46337:0:0:0:0:
320,192,46170,128,0,46337:0:0:0:0:
448,192,46337,1,0,0:0:0:0:
192,192,46420,1,0,0:0:0:0:
320,192,46504,128,2,46670:0:0:0:0:
448,192,46504,128,0,46670:0:0:0:0:
64,192,46670,1,0,0:0:0:0:
192,192,46754,1,0,0:0:0:0:
64,192,46837,128,2,47004:0:0:0:0:
320,192,46837,128,0,47004:0:0:0:0:
448,192,47004,1,0,0:0:0:0:
192,192,47087,1,0,0:0:0:0:
320,192,47170,128,2,47337:0:0:0:0:
448,192,47170,128,0,47337:0:0:0:0:
64,192,47337,1,0,0:0:0:0:
192,192,47420,1,0,0:0:0:0:
64,192,47504,128,2,47670:0:0:0:0:
320,192,47504,128,0,47670:0:0:0:0:
448,192,47670,1,0,0:0:0:0:
192,192,47754,1,0,0:0:0:0:
64,192,47837,128,2,48004:0:0:0:0:
448,192,47837,128,0,48004:0:0:0:0:
64,192,48170,128,2,48337:0:0:0:0:
192,192,48170,128,4,48337:0:0:0:0:
192,192,48420,1,0,0:0:0:0:
64,192,48504,128,2,48670:0:0:0:0:
320,192,48504,128,0,48670:0:0:0:0:
448,192,48670,128,0,48837:0:0:0:0:
64,192,48837,1,2,0:0:0:0:
192,192,48837,128,0,49004:0:0:0:0:
192,192,49087,1,0,0:0:0:0:
64,192,49170,128,2,49337:0:0:0:0:
320,192,49170,128,0,49337:0:0:0:0:
448,192,49337,128,0,49504:0:0:0:0:
64,192,49504,1,2,0:0:0:0:
192,192,49504,128,0,49670:0:0:0:0:
192,192,49754,1,0,0:0:0:0:
64,192,49837,128,2,50004:0:0:0:0:
320,192,49837,128,0,50004:0:0:0:0:
448,192,50004,128,0,50170:0:0:0:0:
64,192,50170,1,2,0:0:0:0:
192,192,50170,128,0,50337:0:0:0:0:
192,192,50420,1,0,0:0:0:0:
64,192,50504,128,2,50670:0:0:0:0:
448,192,50504,128,0,50670:0:0:0:0:
64,192,50837,128,2,51004:0:0:0:0:
192,192,50837,128,4,51004:0:0:0:0:
320,192,51004,1,0,0:0:0:0:
192,192,51087,1,0,0:0:0:0:
320,192,51170,1,2,0:0:0:0:
448,192,51170,1,0,0:0:0:0:
64,192,51254,1,0,0:0:0:0:
320,192,51337,1,0,0:0:0:0:
448,192,51420,1,0,0:0:0:0:
64,192,51504,1,2,0:0:0:0:
192,192,51504,1,0,0:0:0:0:
320,192,51587,1,0,0:0:0:0:
64,192,51670,1,0,0:0:0:0:
192,192,51754,1,0,0:0:0:0:
320,192,51837,1,2,0:0:0:0:
448,192,51837,1,0,0:0:0:0:
64,192,51920,1,0,0:0:0:0:
448,192,52004,1,0,0:0:0:0:
320,192,52087,1,0,0:0:0:0:
64,192,52170,1,2,0:0:0:0:
192,192,52170,1,0,0:0:0:0:
320,192,52337,1,0,0:0:0:0:
64,192,52504,1,0,0:0:0:0:
448,192,52587,1,0,0:0:0:0:
192,192,52670,1,0,0:0:0:0:
320,192,52837,1,0,0:0:0:0:
64,192,53004,1,0,0:0:0:0:
448,192,53087,1,0,0:0:0:0:
192,192,53170,1,0,0:0:0:0:
64,192,53337,128,0,53504:0:0:0:0:
320,192,53504,128,4,53670:0:0:0:0:
448,192,53504,128,2,53670:0:0:0:0:
320,192,53754,1,0,0:0:0:0:
64,192,53837,128,2,54004:0:0:0:0:
448,192,53837,128,0,54004:0:0:0:0:
192,192,54004,1,0,0:0:0:0:
64,192,54170,128,2,54337:0:0:0:0:
192,192,54170,128,0,54337:0:0:0:0:
448,192,54337,1,0,0:0:0:0:
320,192,54420,1,0,0:0:0:0:
64,192,54504,128,2,54670:0:0:0:0:
448,192,54504,128,0,54670:0:0:0:0:
192,192,54670,1,0,0:0:0:0:
64,192,54837,128,2,55004:0:0:0:0:
192,192,54837,128,0,55004:0:0:0:0:
448,192,55004,1,0,0:0:0:0:
320,192,55087,1,0,0:0:0:0:
64,192,55170,128,2,55337:0:0:0:0:
448,192,55170,128,0,55337:0:0:0:0:
192,192,55337,1,0,0:0:0:0:
64,192,55504,1,2,0:0:0:0:
192,192,55504,1,0,0:0:0:0:
448,192,55587,1,0,0:0:0:0:
64,192,55670,1,0,0:0:0:0:
448,192,55754,1,0,0:0:0:0:
64,192,55837,128,2,56004:0:0:0:0:
320,192,55837,128,0,56004:0:0:0:0:
320,192,56170,128,2,56337:0:0:0:0:
448,192,56170,128,0,56337:0:0:0:0:
64,192,56337,1,0,0:0:0:0:
320,192,56420,1,0,0:0:0:0:
64,192,56504,128,2,56670:0:0:0:0:
192,192,56504,128,0,56670:0:0:0:0:
448,192,56670,1,0,0:0:0:0:
320,192,56754,1,0,0:0:0:0:
192,192,56837,128,2,57004:0:0:0:0:
448,192,56837,128,0,57004:0:0:0:0:
64,192,57004,1,0,0:0:0:0:
320,192,57087,1,0,0:0:0:0:
64,192,57170,128,2,57337:0:0:0:0:
192,192,57170,128,0,57337:0:0:0:0:
448,192,57337,1,0,0:0:0:0:
320,192,57420,1,0,0:0:0:0:
192,192,57504,128,2,57670:0:0:0:0:
448,192,57504,128,0,57670:0:0:0:0:
64,192,57670,1,0,0:0:0:0:
320,192,57754,1,0,0:0:0:0:
64,192,57837,128,2,58004:0:0:0:0:
192,192,57837,128,0,58004:0:0:0:0:
448,192,58004,1,0,0:0:0:0:
320,192,58087,1,0,0:0:0:0:
192,192,58170,128,2,58337:0:0:0:0:
448,192,58170,128,0,58337:0:0:0:0:
64,192,58337,1,0,0:0:0:0:
320,192,58420,1,0,0:0:0:0:
64,192,58504,128,2,58670:0:0:0:0:
448,192,58504,128,0,58670:0:0:0:0:
320,192,58837,128,2,59004:0:0:0:0:
448,192,58837,128,4,59004:0:0:0:0:
64,192,58920,1,0,0:0:0:0:
192,192,59004,1,0,0:0:0:0:
320,192,59087,1,0,0:0:0:0:
192,192,59170,128,2,59504:0:0:0:0:
448,192,59170,128,0,59337:0:0:0:0:
64,192,59337,128,0,59504:0:0:0:0:
320,192,59504,128,2,59670:0:0:0:0:
448,192,59504,1,0,0:0:0:0:
192,192,59587,1,0,0:0:0:0:
64,192,59670,1,0,0:0:0:0:
320,192,59754,1,0,0:0:0:0:
192,192,59837,128,2,60004:0:0:0:0:
448,192,59837,128,0,60004:0:0:0:0:
64,192,60004,128,0,60170:0:0:0:0:
320,192,60170,128,2,60337:0:0:0:0:
448,192,60170,1,0,0:0:0:0:
192,192,60254,1,0,0:0:0:0:
64,192,60337,1,0,0:0:0:0:
320,192,60420,1,0,0:0:0:0:
192,192,60504,128,2,60837:0:0:0:0:
448,192,60504,128,0,60670:0:0:0:0:
64,192,60670,128,0,60837:0:0:0:0:
320,192,60837,128,2,61004:0:0:0:0:
448,192,60837,1,0,0:0:0:0:
192,192,60920,1,0,0:0:0:0:
64,192,61004,1,0,0:0:0:0:
320,192,61087,1,0,0:0:0:0:
64,192,61170,128,2,61337:0:0:0:0:
448,192,61170,128,0,61337:0:0:0:0:
192,192,61337,128,0,61504:0:0:0:0:
64,192,61504,1,2,0:0:0:0:
448,192,61504,1,4,0:0:0:0:
320,192,61587,1,0,0:0:0:0:
64,192,61670,128,0,61837:0:0:0:0:
192,192,61837,1,2,0:0:0:0:
448,192,61837,1,0,0:0:0:0:
320,192,61920,1,0,0:0:0:0:
192,192,62004,128,0,62170:0:0:0:0:
64,192,62170,1,2,0:0:0:0:
320,192,62170,1,0,0:0:0:0:
192,192,62254,1,0,0:0:0:0:
320,192,62337,128,0,62504:0:0:0:0:
64,192,62504,1,2,0:0:0:0:
448,192,62504,1,0,0:0:0:0:
192,192,62587,1,0,0:0:0:0:
448,192,62670,128,0,62837:0:0:0:0:
64,192,62837,1,2,0:0:0:0:
192,192,62837,1,0,0:0:0:0:
320,192,62920,1,0,0:0:0:0:
64,192,63004,1,0,0:0:0:0:
192,192,63087,1,0,0:0:0:0:
64,192,63170,128,0,63254:0:0:0:0:
448,192,63337,128,0,63504:0:0:0:0:
320,192,63420,1,0,0:0:0:0:
192,192,63504,128,0,63587:0:0:0:0:
448,192,63587,1,0,0:0:0:0:
192,192,63670,1,0,0:0:0:0:
320,192,63754,1,0,0:0:0:0:
64,192,63837,1,0,0:0:0:70:VEC4 Snares 151.wav
448,192,63837,1,0,0:0:0:0:
192,192,64170,1,2,0:0:0:0:
320,192,64170,1,4,0:0:0:0:
192,192,64337,1,0,0:0:0:0:
320,192,64420,1,0,0:0:0:0:
64,192,64504,1,8,0:0:0:0:
448,192,64504,1,0,0:0:0:0:
320,192,64587,1,0,0:0:0:0:
192,192,64670,1,0,0:0:0:0:
320,192,64837,1,0,0:0:0:0:
64,192,64920,1,0,0:0:0:0:
320,192,65004,1,2,0:0:0:0:
448,192,65087,1,0,0:0:0:0:
64,192,65170,1,8,0:0:0:0:
192,192,65170,1,0,0:0:0:0:
320,192,65337,1,0,0:0:0:0:
192,192,65420,1,0,0:0:0:0:
64,192,65504,1,2,0:0:0:0:
64,192,65670,1,0,0:0:0:0:
192,192,65754,1,0,0:0:0:0:
320,192,65837,1,8,0:0:0:0:
448,192,65837,1,0,0:0:0:0:
192,192,65920,1,0,0:0:0:0:
64,192,66004,1,0,0:0:0:0:
320,192,66170,1,0,0:0:0:0:
192,192,66254,1,0,0:0:0:0:
320,192,66337,1,2,0:0:0:0:
448,192,66420,1,0,0:0:0:0:
64,192,66504,1,8,0:0:0:0:
192,192,66504,1,0,0:0:0:0:
192,192,66670,1,0,0:0:0:0:
64,192,66754,1,0,0:0:0:0:
320,192,66837,1,2,0:0:0:0:
320,192,67004,1,0,0:0:0:0:
448,192,67087,1,0,0:0:0:0:
64,192,67170,1,8,0:0:0:0:
192,192,67170,1,0,0:0:0:0:
448,192,67254,1,0,0:0:0:0:
320,192,67337,1,0,0:0:0:0:
64,192,67504,1,0,0:0:0:0:
448,192,67587,1,0,0:0:0:0:
64,192,67670,1,2,0:0:0:0:
192,192,67754,1,0,0:0:0:0:
320,192,67837,1,8,0:0:0:0:
448,192,67837,1,0,0:0:0:0:
448,192,68004,1,0,0:0:0:0:
320,192,68087,1,0,0:0:0:0:
192,192,68170,1,2,0:0:0:0:
192,192,68337,1,0,0:0:0:0:
64,192,68420,1,0,0:0:0:0:
320,192,68504,1,8,0:0:0:0:
448,192,68504,1,0,0:0:0:0:
64,192,68587,1,0,0:0:0:0:
192,192,68670,1,0,0:0:0:0:
448,192,68837,1,0,0:0:0:0:
320,192,68920,1,0,0:0:0:0:
448,192,69004,1,2,0:0:0:0:
320,192,69087,1,0,0:0:0:0:
64,192,69170,1,8,0:0:0:0:
192,192,69170,1,0,0:0:0:0:
320,192,69337,1,0,0:0:0:0:
448,192,69420,1,0,0:0:0:0:
192,192,69504,1,2,0:0:0:0:
192,192,69670,1,0,0:0:0:0:
320,192,69754,1,0,0:0:0:0:
64,192,69837,1,8,0:0:0:0:
448,192,69837,1,0,0:0:0:0:
320,192,69920,1,0,0:0:0:0:
192,192,70004,1,0,0:0:0:0:
320,192,70170,1,0,0:0:0:0:
64,192,70254,1,0,0:0:0:0:
320,192,70337,1,2,0:0:0:0:
448,192,70420,1,0,0:0:0:0:
64,192,70504,1,8,0:0:0:0:
192,192,70504,1,0,0:0:0:0:
320,192,70670,1,0,0:0:0:0:
192,192,70754,1,0,0:0:0:0:
64,192,70837,1,2,0:0:0:0:
64,192,71004,1,0,0:0:0:0:
192,192,71087,1,0,0:0:0:0:
320,192,71170,1,8,0:0:0:0:
448,192,71170,1,0,0:0:0:0:
192,192,71254,1,0,0:0:0:0:
64,192,71337,1,0,0:0:0:0:
320,192,71504,1,0,0:0:0:0:
192,192,71587,1,0,0:0:0:0:
320,192,71670,1,2,0:0:0:0:
448,192,71754,1,0,0:0:0:0:
64,192,71837,1,8,0:0:0:0:
192,192,71837,1,0,0:0:0:0:
192,192,72004,1,0,0:0:0:0:
64,192,72087,1,0,0:0:0:0:
320,192,72170,1,2,0:0:0:0:
320,192,72337,1,0,0:0:0:0:
448,192,72420,1,0,0:0:0:0:
64,192,72504,1,8,0:0:0:0:
192,192,72504,1,0,0:0:0:0:
448,192,72587,1,0,0:0:0:0:
320,192,72670,1,0,0:0:0:0:
64,192,72837,1,0,0:0:0:0:
448,192,72920,1,0,0:0:0:0:
64,192,73004,1,2,0:0:0:0:
192,192,73087,1,0,0:0:0:0:
320,192,73170,1,8,0:0:0:0:
448,192,73170,1,0,0:0:0:0:
448,192,73337,1,0,0:0:0:0:
320,192,73420,1,0,0:0:0:0:
192,192,73504,1,2,0:0:0:0:
192,192,73670,1,0,0:0:0:0:
64,192,73754,1,0,0:0:0:0:
320,192,73837,1,8,0:0:0:0:
448,192,73837,1,0,0:0:0:0:
64,192,73920,1,0,0:0:0:0:
192,192,74004,1,0,0:0:0:0:
320,192,74087,1,0,0:0:0:0:
448,192,74170,1,0,0:0:0:0:
192,192,74254,1,0,0:0:0:0:
448,192,74337,1,2,0:0:0:0:
192,192,74420,1,0,0:0:0:0:
64,192,74504,1,8,0:0:0:0:
320,192,74504,1,0,0:0:0:0:
448,192,74587,1,2,0:0:0:0:
192,192,74670,1,2,0:0:0:0:
320,192,74754,1,2,0:0:0:0:
64,192,74837,1,8,0:0:0:0:
448,192,74837,1,0,0:0:0:0:
192,192,75004,1,0,0:0:0:0:
448,192,75087,1,8,0:0:0:0:
64,192,75170,1,2,0:0:0:0:
320,192,75170,1,0,0:0:0:0:
64,192,75337,1,8,0:0:0:0:
192,192,75337,1,0,0:0:0:0:
192,192,75504,1,8,0:0:0:0:
448,192,75504,1,0,0:0:0:0:
320,192,75670,1,0,0:0:0:0:
64,192,75754,1,8,0:0:0:0:
192,192,75837,1,2,0:0:0:0:
448,192,75837,1,0,0:0:0:0:
320,192,76004,1,8,0:0:0:0:
448,192,76004,1,0,0:0:0:0:
64,192,76170,1,8,0:0:0:0:
192,192,76170,1,0,0:0:0:0:
448,192,76337,1,0,0:0:0:0:
64,192,76420,1,8,0:0:0:0:
320,192,76504,1,2,0:0:0:0:
448,192,76504,1,0,0:0:0:0:
192,192,76670,1,8,0:0:0:0:
320,192,76670,1,0,0:0:0:0:
64,192,76837,1,8,0:0:0:0:
192,192,76837,1,0,0:0:0:0:
320,192,77004,1,8,0:0:0:0:
448,192,77004,1,0,0:0:0:0:
192,192,77087,1,2,0:0:0:0:
64,192,77170,1,8,0:0:0:0:
448,192,77170,1,0,0:0:0:0:
320,192,77254,1,8,0:0:0:0:
64,192,77337,1,8,0:0:0:0:
192,192,77337,1,0,0:0:0:0:
448,192,77420,1,8,0:0:0:0:
192,192,77504,1,8,0:0:0:0:
320,192,77504,1,0,0:0:0:0:
64,192,77670,1,0,0:0:0:0:
192,192,77754,1,8,0:0:0:0:
320,192,77837,1,2,0:0:0:0:
448,192,77837,1,0,0:0:0:0:
64,192,78004,1,8,0:0:0:0:
320,192,78004,1,0,0:0:0:0:
64,192,78170,1,8,0:0:0:0:
192,192,78170,1,0,0:0:0:0:
192,192,78337,1,0,0:0:0:0:
320,192,78420,1,8,0:0:0:0:
64,192,78504,1,2,0:0:0:0:
448,192,78504,1,0,0:0:0:0:
64,192,78670,1,8,0:0:0:0:
320,192,78670,1,0,0:0:0:0:
320,192,78837,1,8,0:0:0:0:
448,192,78837,1,0,0:0:0:0:
192,192,79004,1,0,0:0:0:0:
448,192,79087,1,8,0:0:0:0:
64,192,79170,1,2,0:0:0:0:
192,192,79170,1,0,0:0:0:0:
320,192,79337,1,8,0:0:0:0:
448,192,79337,1,0,0:0:0:0:
64,192,79504,1,8,0:0:0:0:
448,192,79504,1,0,0:0:0:0:
192,192,79587,1,8,0:0:0:0:
64,192,79670,1,8,0:0:0:0:
192,192,79754,1,2,0:0:0:0:
320,192,79837,1,8,0:0:0:0:
448,192,79837,1,0,0:0:0:0:
320,192,80004,1,8,0:0:0:0:
448,192,80004,1,0,0:0:0:0:
64,192,80170,1,8,0:0:0:0:
192,192,80170,1,0,0:0:0:0:
64,192,80337,1,8,0:0:0:0:
320,192,80337,1,0,0:0:0:0:
192,192,80420,1,2,0:0:0:0:
320,192,80504,1,8,0:0:0:0:
448,192,80504,1,0,0:0:0:0:
64,192,80670,1,8,0:0:0:0:
192,192,80670,1,0,0:0:0:0:
192,192,80837,1,8,0:0:0:0:
448,192,80837,1,0,0:0:0:0:
64,192,81004,1,8,0:0:0:0:
320,192,81004,1,0,0:0:0:0:
448,192,81087,1,2,0:0:0:0:
64,192,81170,1,8,0:0:0:0:
192,192,81170,1,0,0:0:0:0:
320,192,81337,1,8,0:0:0:0:
448,192,81337,1,0,0:0:0:0:
64,192,81504,1,8,0:0:0:0:
320,192,81504,1,0,0:0:0:0:
192,192,81670,1,8,0:0:0:0:
448,192,81670,1,0,0:0:0:0:
64,192,81754,1,2,0:0:0:0:
320,192,81837,1,8,0:0:0:0:
448,192,81837,1,0,0:0:0:0:
192,192,82004,1,8,0:0:0:0:
320,192,82004,1,0,0:0:0:0:
64,192,82170,1,8,0:0:0:0:
192,192,82170,1,0,0:0:0:0:
320,192,82337,1,8,0:0:0:0:
448,192,82337,1,0,0:0:0:0:
64,192,82420,1,2,0:0:0:0:
320,192,82504,1,8,0:0:0:0:
448,192,82504,1,0,0:0:0:0:
192,192,82670,1,8,0:0:0:0:
320,192,82670,1,0,0:0:0:0:
448,192,82754,1,2,0:0:0:0:
64,192,82837,1,8,0:0:0:0:
192,192,82837,1,0,0:0:0:0:
448,192,82920,1,2,0:0:0:0:
64,192,83004,1,8,0:0:0:0:
192,192,83004,1,0,0:0:0:0:
320,192,83087,1,2,0:0:0:0:
64,192,83170,1,8,0:0:0:0:
448,192,83170,1,0,0:0:0:0:
192,192,83254,1,2,0:0:0:0:
320,192,83337,1,8,0:0:0:0:
448,192,83337,1,0,0:0:0:0:
64,192,83420,1,2,0:0:0:0:
320,192,83504,1,8,0:0:0:0:
448,192,83504,1,0,0:0:0:0:
192,192,83587,1,2,0:0:0:0:
64,192,83670,1,8,0:0:0:0:
448,192,83670,1,0,0:0:0:0:
320,192,83754,1,2,0:0:0:0:
64,192,83837,1,8,0:0:0:0:
192,192,83837,1,0,0:0:0:0:
448,192,83920,1,2,0:0:0:0:
64,192,84004,1,8,0:0:0:0:
192,192,84004,1,0,0:0:0:0:
320,192,84087,1,2,0:0:0:0:
64,192,84170,1,2,0:0:0:0:
448,192,84170,128,0,84420:0:0:0:0:
64,192,84337,128,0,84587:0:0:0:0:
192,192,84420,1,0,0:0:0:0:
320,192,84504,128,2,84754:0:0:0:0:
448,192,84504,1,0,0:0:0:0:
64,192,84670,1,0,0:0:0:0:
448,192,84754,1,0,0:0:0:0:
64,192,84837,1,2,0:0:0:0:
192,192,84837,128,0,85087:0:0:0:0:
320,192,85004,1,0,0:0:0:0:
448,192,85087,1,0,0:0:0:0:
64,192,85170,128,0,85254:0:0:0:100:LR4_DrumKickHat.wav
192,192,85170,128,0,85254:0:0:0:0:
192,192,85504,1,4,0:0:0:0:
320,192,85504,1,2,0:0:0:0:
448,192,85504,128,0,85754:0:0:0:0:
448,192,85837,1,0,0:0:0:0:
192,192,85920,1,0,0:0:0:0:
448,192,86004,128,0,86170:0:0:0:0:
64,192,86170,128,0,86754:0:0:0:70:Cymatics - Trap Snare 8 - A#.wav
192,192,86170,128,0,86254:0:0:0:0:
320,192,86337,1,2,0:0:0:0:
192,192,86504,128,0,86754:0:0:0:0:
192,192,86837,1,2,0:0:0:0:
448,192,86837,1,0,0:0:0:0:
192,192,87004,128,0,87170:0:0:0:0:
320,192,87170,1,0,0:0:0:0:
64,192,87254,1,0,0:0:0:0:
320,192,87337,128,0,87504:0:0:0:0:
192,192,87504,128,0,87587:0:0:0:70:Cymatics - Trap Snare 8 - A#.wav
448,192,87504,128,0,88087:0:0:0:0:
320,192,87837,128,0,88087:0:0:0:0:
64,192,88170,128,2,88420:0:0:0:0:
448,192,88170,1,0,0:0:0:0:
64,192,88504,1,0,0:0:0:0:
320,192,88587,1,0,0:0:0:0:
64,192,88670,128,0,88837:0:0:0:0:
320,192,88837,128,0,88920:0:0:0:70:Cymatics - Trap Snare 8 - A#.wav
448,192,88837,128,0,89420:0:0:0:0:
192,192,89004,1,2,0:0:0:0:
320,192,89170,128,0,89420:0:0:0:0:
64,192,89504,1,2,0:0:0:0:
320,192,89504,1,0,0:0:0:0:
320,192,89670,128,0,89837:0:0:0:0:
192,192,89837,1,0,0:0:0:0:
448,192,89920,1,0,0:0:0:0:
192,192,90004,1,0,0:0:0:0:
320,192,90045,1,0,0:0:0:0:
64,192,90170,128,0,90754:0:0:0:70:Cymatics - Trap Snare 8 - A#.wav
448,192,90170,128,0,90254:0:0:0:0:
320,192,90337,1,2,0:0:0:0:
192,192,90504,128,0,90754:0:0:0:0:
192,192,90837,1,2,0:0:0:0:
320,192,90837,1,4,0:0:0:0:
448,192,90837,128,0,91087:0:0:0:0:
448,192,91170,1,0,0:0:0:0:
192,192,91254,1,0,0:0:0:0:
448,192,91337,128,0,91504:0:0:0:0:
64,192,91504,128,0,92087:0:0:0:70:Cymatics - Trap Snare 8 - A#.wav
192,192,91504,128,0,91587:0:0:0:0:
320,192,91670,1,2,0:0:0:0:
192,192,91837,128,0,92087:0:0:0:0:
192,192,92170,1,2,0:0:0:0:
448,192,92170,1,0,0:0:0:0:
192,192,92337,128,0,92504:0:0:0:0:
320,192,92504,1,0,0:0:0:0:
64,192,92587,1,0,0:0:0:0:
320,192,92670,128,0,92837:0:0:0:0:
192,192,92837,128,0,92920:0:0:0:70:Cymatics - Trap Snare 8 - A#.wav
448,192,92837,128,0,93420:0:0:0:0:
320,192,93170,128,0,93420:0:0:0:0:
64,192,93504,128,2,93754:0:0:0:0:
448,192,93504,1,0,0:0:0:0:
64,192,93837,1,0,0:0:0:0:
320,192,93920,1,0,0:0:0:0:
64,192,94004,128,0,94170:0:0:0:0:
320,192,94170,128,0,94254:0:0:0:70:Cymatics - Trap Snare 8 - A#.wav
448,192,94170,128,0,94754:0:0:0:0:
192,192,94337,1,2,0:0:0:0:
320,192,94504,128,0,94754:0:0:0:0:
64,192,94837,1,2,0:0:0:0:
320,192,94837,1,0,0:0:0:0:
320,192,95004,128,0,95170:0:0:0:0:
192,192,95170,1,0,0:0:0:0:
448,192,95254,1,0,0:0:0:0:
192,192,95337,128,0,95504:0:0:0:0:
320,192,95379,1,0,0:0:0:0:
64,192,95504,128,0,95670:0:0:0:70:Cymatics - Trap Snare 8 - A#.wav
448,192,95504,128,0,95587:0:0:0:0:
320,192,95670,1,2,0:0:0:0:
64,192,95837,128,8,95920:0:0:0:0:
448,192,95837,1,0,0:0:0:0:
320,192,95920,1,2,0:0:0:0:
192,192,96004,1,8,0:0:0:0:
448,192,96087,1,2,0:0:0:0:
64,192,96170,1,8,0:0:0:0:
192,192,96170,1,0,0:0:0:0:
64,192,96337,1,0,0:0:0:0:
192,192,96420,1,2,0:0:0:0:
64,192,96504,1,2,0:0:0:0:
448,192,96504,1,0,0:0:0:0:
320,192,96587,1,0,0:0:0:0:
64,192,96670,1,2,0:0:0:0:
192,192,96670,1,0,0:0:0:0:
448,192,96754,1,0,0:0:0:0:
64,192,96837,1,8,0:0:0:0:
192,192,96837,1,0,0:0:0:0:
320,192,97004,1,0,0:0:0:0:
448,192,97087,1,2,0:0:0:0:
64,192,97170,1,2,0:0:0:0:
320,192,97170,1,0,0:0:0:0:
192,192,97254,1,0,0:0:0:0:
320,192,97337,1,2,0:0:0:0:
448,192,97337,1,0,0:0:0:0:
64,192,97504,1,8,0:0:0:0:
192,192,97504,1,0,0:0:0:0:
192,192,97670,1,0,0:0:0:0:
320,192,97754,1,2,0:0:0:0:
192,192,97837,1,2,0:0:0:0:
448,192,97837,1,0,0:0:0:0:
64,192,97920,1,0,0:0:0:0:
320,192,98004,1,2,0:0:0:0:
448,192,98004,1,0,0:0:0:0:
192,192,98087,1,0,0:0:0:0:
64,192,98170,1,8,0:0:0:0:
320,192,98170,1,0,0:0:0:0:
448,192,98254,1,0,0:0:0:0:
64,192,98337,1,8,0:0:0:0:
192,192,98337,1,0,0:0:0:0:
448,192,98420,1,2,0:0:0:0:
64,192,98504,1,2,0:0:0:0:
192,192,98504,1,0,0:0:0:0:
448,192,98587,1,8,0:0:0:0:
64,192,98670,1,2,0:0:0:0:
192,192,98670,1,0,0:0:0:0:
320,192,98754,1,0,0:0:0:0:
64,192,98837,1,8,0:0:0:0:
448,192,98837,1,0,0:0:0:0:
448,192,99004,1,0,0:0:0:0:
320,192,99087,1,2,0:0:0:0:
64,192,99170,1,2,0:0:0:0:
448,192,99170,1,0,0:0:0:0:
192,192,99254,1,0,0:0:0:0:
320,192,99337,1,2,0:0:0:0:
448,192,99337,1,0,0:0:0:0:
64,192,99420,1,0,0:0:0:0:
320,192,99504,1,8,0:0:0:0:
448,192,99504,1,0,0:0:0:0:
192,192,99670,1,0,0:0:0:0:
64,192,99754,1,2,0:0:0:0:
192,192,99837,1,2,0:0:0:0:
448,192,99837,1,0,0:0:0:0:
320,192,99920,1,0,0:0:0:0:
64,192,100004,1,2,0:0:0:0:
192,192,100004,1,0,0:0:0:0:
320,192,100170,1,8,0:0:0:0:
448,192,100170,1,0,0:0:0:0:
192,192,100254,1,0,0:0:0:0:
64,192,100337,1,0,0:0:0:0:
320,192,100420,1,2,0:0:0:0:
64,192,100504,1,2,0:0:0:0:
192,192,100504,1,0,0:0:0:0:
192,192,100670,1,2,0:0:0:0:
320,192,100754,1,0,0:0:0:0:
64,192,100837,1,2,0:0:0:0:
448,192,100837,1,0,0:0:0:0:
192,192,100920,1,2,0:0:0:0:
320,192,101004,1,0,0:0:0:0:
320,192,101170,1,8,0:0:0:0:
448,192,101170,1,0,0:0:0:0:
64,192,101254,1,0,0:0:0:0:
320,192,101337,1,2,0:0:0:0:
448,192,101337,1,0,0:0:0:0:
64,192,101420,1,0,0:0:0:0:
192,192,101504,1,8,0:0:0:0:
320,192,101504,1,0,0:0:0:0:
64,192,101670,1,2,0:0:0:0:
192,192,101670,1,0,0:0:0:0:
64,192,101837,1,8,0:0:0:0:
192,192,101837,1,0,0:0:0:0:
448,192,101920,1,0,0:0:0:0:
64,192,102004,1,2,0:0:0:0:
192,192,102004,1,0,0:0:0:0:
448,192,102087,1,0,0:0:0:0:
192,192,102170,1,8,0:0:0:0:
320,192,102170,1,0,0:0:0:0:
320,192,102337,1,2,0:0:0:0:
448,192,102337,1,0,0:0:0:0:
320,192,102504,1,8,0:0:0:0:
448,192,102504,1,0,0:0:0:0:
64,192,102587,1,0,0:0:0:0:
320,192,102670,1,2,0:0:0:0:
448,192,102670,1,0,0:0:0:0:
64,192,102754,1,0,0:0:0:0:
192,192,102837,1,8,0:0:0:0:
448,192,102837,1,0,0:0:0:0:
64,192,103004,1,2,0:0:0:0:
192,192,103004,1,0,0:0:0:0:
64,192,103170,1,8,0:0:0:0:
192,192,103170,1,0,0:0:0:0:
448,192,103254,1,0,0:0:0:0:
64,192,103337,1,2,0:0:0:0:
192,192,103337,1,0,0:0:0:0:
320,192,103420,1,0,0:0:0:0:
64,192,103504,1,8,0:0:0:0:
448,192,103504,1,0,0:0:0:0:
192,192,103587,1,0,0:0:0:0:
320,192,103670,1,2,0:0:0:0:
448,192,103670,1,0,0:0:0:0:
64,192,103754,1,0,0:0:0:0:
320,192,103837,1,8,0:0:0:0:
448,192,103837,1,0,0:0:0:0:
64,192,103920,1,0,0:0:0:0:
320,192,104004,1,2,0:0:0:0:
448,192,104004,1,0,0:0:0:0:
192,192,104087,1,2,0:0:0:0:
64,192,104170,1,8,0:0:0:0:
448,192,104170,1,0,0:0:0:0:
320,192,104254,1,2,0:0:0:0:
64,192,104337,1,2,0:0:0:0:
192,192,104337,1,0,0:0:0:0:
448,192,104420,1,2,0:0:0:0:
64,192,104504,1,8,0:0:0:0:
320,192,104504,1,0,0:0:0:0:
192,192,104587,1,2,0:0:0:0:
320,192,104670,1,2,0:0:0:0:
448,192,104670,1,0,0:0:0:0:
64,192,104754,1,2,0:0:0:0:
192,192,104837,1,8,0:0:0:0:
448,192,104837,1,0,0:0:0:0:
320,192,104920,1,2,0:0:0:0:
64,192,105004,1,2,0:0:0:0:
192,192,105004,1,0,0:0:0:0:
320,192,105087,1,2,0:0:0:0:
64,192,105170,1,8,0:0:0:0:
448,192,105170,1,0,0:0:0:0:
192,192,105254,1,2,0:0:0:0:
320,192,105337,1,2,0:0:0:0:
448,192,105337,1,0,0:0:0:0:
192,192,105420,1,2,0:0:0:0:
64,192,105504,128,2,105754:0:0:0:0:
448,192,105504,128,0,105754:0:0:0:70:Cymatics - Trap Snare 8 - A#.wav
320,192,105754,1,0,0:0:0:0:
64,192,105837,128,2,106087:0:0:0:0:
192,192,105837,128,0,106087:0:0:0:70:Cymatics - Trap Snare 8 - A#.wav
320,192,106170,1,2,0:0:0:0:
448,192,106170,1,0,0:0:0:70:Cymatics - Trap Snare 8 - A#.wav
192,192,106254,1,0,0:0:0:0:
448,192,106337,1,0,0:0:0:0:
320,192,106420,1,0,0:0:0:0:
64,192,106504,128,2,106754:0:0:0:0:
448,192,106504,128,0,106754:0:0:0:70:Cymatics - Trap Snare 8 - A#.wav
64,192,106837,1,2,0:0:0:0:
192,192,106837,1,4,0:0:0:0:
320,192,106920,1,0,0:0:0:0:
448,192,107004,1,0,0:0:0:0:
192,192,107087,1,0,0:0:0:0:
448,192,107170,1,0,0:0:0:0:
192,192,107254,1,0,0:0:0:0:
448,192,107337,128,0,107504:0:0:0:0:
192,192,107420,1,0,0:0:0:0:
64,192,107504,1,8,0:0:0:0:
320,192,107504,1,0,0:0:0:0:
320,192,107670,1,0,0:0:0:0:
448,192,107754,1,0,0:0:0:0:
192,192,107837,1,0,0:0:0:0:
320,192,107920,1,0,0:0:0:0:
64,192,108004,1,0,0:0:0:0:
192,192,108087,1,0,0:0:0:0:
64,192,108170,1,2,0:0:0:0:
448,192,108170,1,4,0:0:0:0:
320,192,108337,1,0,0:0:0:0:
192,192,108420,1,0,0:0:0:0:
64,192,108504,1,8,0:0:0:0:
448,192,108504,1,0,0:0:0:0:
320,192,108587,1,0,0:0:0:0:
64,192,108670,128,2,108837:0:0:0:0:
192,192,108670,1,0,0:0:0:0:
320,192,108837,1,0,0:0:0:0:
448,192,108920,1,0,0:0:0:0:
64,192,109004,1,2,0:0:0:0:
192,192,109004,1,0,0:0:0:0:
320,192,109087,1,0,0:0:0:0:
64,192,109170,1,8,0:0:0:0:
448,192,109170,1,0,0:0:0:0:
192,192,109254,1,0,0:0:0:0:
320,192,109337,1,2,0:0:0:0:
448,192,109337,128,0,109504:0:0:0:0:
64,192,109504,1,2,0:0:0:0:
192,192,109504,1,4,0:0:0:0:
64,192,109670,1,0,0:0:0:0:
64,192,109837,1,2,0:0:0:0:
448,192,109837,1,0,0:0:0:0:
64,192,110004,1,0,0:0:0:0:
64,192,110170,1,8,0:0:0:0:
448,192,110170,1,0,0:0:0:0:
192,192,110337,1,0,0:0:0:0:
64,192,110420,1,2,0:0:0:0:
448,192,110420,1,0,0:0:0:0:
320,192,110504,1,0,0:0:0:0:
192,192,110587,1,0,0:0:0:0:
64,192,110670,1,2,0:0:0:0:
448,192,110670,1,0,0:0:0:0:
320,192,110754,1,0,0:0:0:0:
64,192,110837,128,2,111337:0:0:0:0:
448,192,110837,1,4,0:0:0:0:
320,192,111004,1,0,0:0:0:0:
192,192,111170,128,0,111337:0:0:0:0:
448,192,111337,128,2,111504:0:0:0:0:
64,192,111504,1,8,0:0:0:0:
320,192,111504,1,4,0:0:0:0:
320,192,111670,1,0,0:0:0:0:
64,192,111837,128,0,112004:0:0:0:0:
320,192,111837,1,0,0:0:0:0:
320,192,112004,1,0,0:0:0:0:
64,192,112170,1,2,0:0:0:0:
448,192,112170,1,4,0:0:0:0:
448,192,112337,1,0,0:0:0:0:
192,192,112420,1,0,0:0:0:0:
64,192,112504,1,2,0:0:0:0:
448,192,112504,1,0,0:0:0:0:
192,192,112587,1,0,0:0:0:0:
448,192,112670,128,0,112837:0:0:0:0:
192,192,112754,1,0,0:0:0:0:
64,192,112837,1,8,0:0:0:0:
320,192,112837,1,0,0:0:0:0:
320,192,113004,1,0,0:0:0:0:
64,192,113087,1,2,0:0:0:0:
448,192,113087,1,0,0:0:0:0:
192,192,113170,1,0,0:0:0:0:
320,192,113254,1,0,0:0:0:0:
64,192,113337,1,2,0:0:0:0:
448,192,113337,1,0,0:0:0:0:
192,192,113420,1,0,0:0:0:0:
64,192,113504,1,2,0:0:0:0:
448,192,113504,1,4,0:0:0:0:
320,192,113670,1,0,0:0:0:0:
192,192,113754,1,0,0:0:0:0:
64,192,113837,1,8,0:0:0:0:
448,192,113837,1,0,0:0:0:0:
320,192,113920,1,0,0:0:0:0:
64,192,114004,128,0,114170:0:0:0:0:
320,192,114170,1,8,0:0:0:0:
448,192,114170,1,0,0:0:0:0:
192,192,114254,1,2,0:0:0:0:
64,192,114337,1,2,0:0:0:0:
320,192,114420,1,2,0:0:0:0:
448,192,114420,1,0,0:0:0:0:
192,192,114504,128,8,114670:0:0:0:0:
320,192,114670,1,2,0:0:0:0:
448,192,114670,1,0,0:0:0:0:
64,192,114837,1,2,0:0:0:0:
192,192,114837,1,4,0:0:0:0:
64,192,115004,1,0,0:0:0:0:
64,192,115170,1,2,0:0:0:0:
448,192,115170,1,0,0:0:0:0:
64,192,115337,1,0,0:0:0:0:
320,192,115420,1,0,0:0:0:0:
64,192,115504,1,2,0:0:0:0:
448,192,115504,1,0,0:0:0:0:
320,192,115587,1,0,0:0:0:0:
192,192,115670,1,0,0:0:0:0:
448,192,115754,1,0,0:0:0:0:
64,192,115837,1,2,0:0:0:0:
320,192,115837,128,0,116004:0:0:0:0:
64,192,116004,1,0,0:0:0:0:
192,192,116087,1,0,0:0:0:0:
320,192,116170,1,4,0:0:0:0:
448,192,116170,1,2,0:0:0:0:
64,192,116254,1,0,0:0:0:70:Cymatics - Trap Snare 8 - A#.wav
320,192,116337,1,2,0:0:0:0:
448,192,116337,1,0,0:0:0:70:Cymatics - Trap Snare 8 - A#.wav
64,192,116504,1,2,0:0:0:0:
192,192,116504,1,0,0:0:0:70:Cymatics - Trap Snare 8 - A#.wav
64,192,116670,1,2,0:0:0:0:
192,192,116670,1,0,0:0:0:70:Cymatics - Trap Snare 8 - A#.wav
320,192,116837,1,0,0:0:0:70:Cymatics - Trap Snare 8 - A#.wav
64,192,116920,1,0,0:0:0:0:
320,192,117004,1,0,0:0:0:0:
448,192,117004,1,0,0:0:0:0:
192,192,117087,1,0,0:0:0:0:
64,192,117170,1,2,0:0:0:0:
448,192,117170,1,0,0:0:0:0:
320,192,117254,1,0,0:0:0:70:LR_Drum Rpd x2.wav
64,192,117337,128,0,117504:0:0:0:70:LR_Drum Rpd x2.wav
320,192,117420,1,0,0:0:0:70:LR_Drum Rpd x2.wav
192,192,117504,1,4,0:0:0:0:
448,192,117504,128,2,117754:0:0:0:0:
192,192,117670,1,0,0:0:0:0:
192,192,117837,1,8,0:0:0:0:
448,192,117837,128,0,118337:0:0:0:0:
192,192,118004,1,0,0:0:0:0:
64,192,118170,1,2,0:0:0:0:
320,192,118170,1,0,0:0:0:0:
320,192,118337,1,0,0:0:0:0:
192,192,118504,1,8,0:0:0:0:
448,192,118504,1,0,0:0:0:0:
320,192,118587,1,0,0:0:0:0:
64,192,118670,1,0,0:0:0:0:
192,192,118754,1,0,0:0:0:0:
64,192,118837,128,2,119087:0:0:0:0:
448,192,118837,1,0,0:0:0:0:
320,192,119004,1,0,0:0:0:0:
192,192,119087,1,0,0:0:0:0:
64,192,119170,128,8,119670:0:0:0:0:
448,192,119170,1,0,0:0:0:0:
320,192,119254,1,0,0:0:0:0:
192,192,119337,1,0,0:0:0:0:
320,192,119504,1,2,0:0:0:0:
448,192,119587,1,0,0:0:0:0:
192,192,119670,1,0,0:0:0:0:
320,192,119754,1,0,0:0:0:0:
64,192,119837,1,8,0:0:0:0:
448,192,119837,1,0,0:0:0:0:
448,192,120004,1,0,0:0:0:0:
64,192,120170,1,2,0:0:0:0:
192,192,120170,128,4,120420:0:0:0:0:
64,192,120337,1,0,0:0:0:0:
64,192,120504,1,8,0:0:0:0:
320,192,120504,128,0,120754:0:0:0:0:
64,192,120670,1,0,0:0:0:0:
64,192,120837,1,2,0:0:0:0:
448,192,120837,128,0,121087:0:0:0:0:
192,192,121004,1,0,0:0:0:0:
64,192,121087,1,0,0:0:0:0:
320,192,121170,1,8,0:0:0:0:
448,192,121170,1,0,0:0:0:0:
192,192,121254,1,0,0:0:0:0:
448,192,121337,1,0,0:0:0:0:
320,192,121420,1,0,0:0:0:0:
64,192,121504,1,2,0:0:0:0:
448,192,121504,128,4,121754:0:0:0:0:
192,192,121670,1,0,0:0:0:0:
320,192,121837,128,8,122087:0:0:0:0:
448,192,121837,1,0,0:0:0:0:
64,192,122004,1,0,0:0:0:0:
192,192,122170,128,2,122337:0:0:0:0:
448,192,122170,1,4,0:0:0:0:
320,192,122337,128,0,122504:0:0:0:0:
64,192,122504,1,8,0:0:0:0:
192,192,122504,1,0,0:0:0:0:
320,192,122670,1,0,0:0:0:0:
192,192,122837,1,4,0:0:0:0:
448,192,122837,128,2,123087:0:0:0:0:
192,192,123004,1,0,0:0:0:0:
192,192,123170,1,8,0:0:0:0:
448,192,123170,128,0,123670:0:0:0:0:
192,192,123337,1,0,0:0:0:0:
64,192,123504,1,2,0:0:0:0:
320,192,123504,1,0,0:0:0:0:
320,192,123670,1,0,0:0:0:0:
192,192,123837,1,8,0:0:0:0:
448,192,123837,1,0,0:0:0:0:
320,192,123920,1,0,0:0:0:0:
64,192,124004,1,0,0:0:0:0:
192,192,124087,1,0,0:0:0:0:
64,192,124170,128,2,124420:0:0:0:0:
448,192,124170,1,0,0:0:0:0:
320,192,124337,1,0,0:0:0:0:
192,192,124420,1,0,0:0:0:0:
64,192,124504,128,8,124837:0:0:0:0:
448,192,124504,1,0,0:0:0:0:
320,192,124587,1,0,0:0:0:0:
192,192,124670,1,0,0:0:0:0:
320,192,124837,1,2,0:0:0:0:
448,192,124837,1,0,0:0:0:0:
64,192,124920,1,0,0:0:0:0:
192,192,125004,1,0,0:0:0:0:
448,192,125087,1,0,0:0:0:0:
64,192,125170,1,8,0:0:0:0:
320,192,125170,1,0,0:0:0:0:
320,192,125337,1,0,0:0:0:0:
64,192,125504,1,2,0:0:0:0:
448,192,125504,128,4,125754:0:0:0:0:
64,192,125670,1,0,0:0:0:0:
64,192,125837,1,8,0:0:0:0:
320,192,125837,128,0,126087:0:0:0:0:
64,192,126004,1,0,0:0:0:0:
64,192,126170,1,2,0:0:0:0:
192,192,126170,128,0,126420:0:0:0:0:
448,192,126337,1,0,0:0:0:0:
320,192,126420,1,0,0:0:0:0:
64,192,126504,1,8,0:0:0:0:
448,192,126504,1,0,0:0:0:0:
192,192,126587,1,0,0:0:0:0:
64,192,126670,1,0,0:0:0:0:
320,192,126754,1,0,0:0:0:0:
192,192,126837,1,2,0:0:0:0:
448,192,126837,128,4,127504:0:0:0:0:
320,192,127004,1,0,0:0:0:0:
64,192,127170,1,8,0:0:0:0:
192,192,127170,1,0,0:0:0:0:
64,192,127504,128,2,128004:0:0:0:0:
192,192,127587,1,0,0:0:0:0:
320,192,127670,128,0,127920:0:0:0:0:
448,192,127837,128,0,127920:0:0:0:0:
64,192,128170,1,4,0:0:0:0:
192,192,128170,1,2,0:0:0:0:
320,192,128170,1,0,0:0:0:0:
448,192,128337,1,0,0:0:0:0:
64,192,128504,1,8,0:0:0:0:
448,192,128504,1,0,0:0:0:0:
64,192,128670,1,0,0:0:0:0:
448,192,128670,1,0,0:0:0:0:
64,192,128837,1,2,0:0:0:0:
320,192,128837,1,0,0:0:0:0:
64,192,129004,1,0,0:0:0:0:
320,192,129004,1,0,0:0:0:0:
192,192,129170,1,8,0:0:0:0:
320,192,129254,1,0,0:0:0:0:
64,192,129337,1,0,0:0:0:0:
448,192,129337,1,0,0:0:0:0:
192,192,129420,1,0,0:0:0:0:
64,192,129504,1,2,0:0:0:0:
320,192,129504,1,0,0:0:0:0:
320,192,129670,1,0,0:0:0:0:
448,192,129670,1,0,0:0:0:0:
192,192,129754,1,0,0:0:0:0:
64,192,129837,1,8,0:0:0:0:
448,192,129837,1,0,0:0:0:0:
320,192,129920,1,0,0:0:0:0:
192,192,130004,1,0,0:0:0:0:
64,192,130170,1,2,0:0:0:0:
192,192,130170,1,0,0:0:0:0:
320,192,130254,1,0,0:0:0:0:
64,192,130337,1,0,0:0:0:0:
448,192,130337,1,0,0:0:0:0:
192,192,130420,1,0,0:0:0:0:
320,192,130504,1,8,0:0:0:0:
448,192,130504,1,0,0:0:0:0:
192,192,130670,1,0,0:0:0:0:
320,192,130670,1,0,0:0:0:0:
64,192,130837,1,2,0:0:0:0:
192,192,130837,1,4,0:0:0:0:
448,192,131004,1,0,0:0:0:0:
192,192,131170,1,8,0:0:0:0:
448,192,131170,1,0,0:0:0:0:
192,192,131337,1,0,0:0:0:0:
448,192,131337,1,0,0:0:0:0:
448,192,131504,1,2,0:0:0:0:
192,192,131670,1,0,0:0:0:0:
448,192,131670,1,0,0:0:0:0:
64,192,131754,1,0,0:0:0:0:
320,192,131837,1,8,0:0:0:0:
192,192,131920,1,0,0:0:0:0:
448,192,132004,1,0,0:0:0:0:
64,192,132004,1,0,0:0:0:0:
320,192,132087,1,0,0:0:0:0:
192,192,132170,1,2,0:0:0:0:
448,192,132170,128,4,132420:0:0:0:0:
64,192,132504,1,8,0:0:0:0:
448,192,132504,128,0,132837:0:0:0:0:
320,192,132670,128,0,132837:0:0:0:0:
64,192,132837,128,2,133087:0:0:0:0:
192,192,132837,128,4,133087:0:0:0:0:
192,192,133170,1,8,0:0:0:0:
448,192,133170,128,0,133420:0:0:0:0:
64,192,133504,1,4,0:0:0:0:
320,192,133504,1,2,0:0:0:0:
448,192,133670,1,0,0:0:0:0:
64,192,133837,1,8,0:0:0:0:
448,192,133837,1,0,0:0:0:0:
64,192,134004,1,0,0:0:0:0:
448,192,134004,1,0,0:0:0:0:
64,192,134170,1,2,0:0:0:0:
320,192,134170,1,0,0:0:0:0:
64,192,134337,1,0,0:0:0:0:
320,192,134337,1,0,0:0:0:0:
192,192,134504,1,8,0:0:0:0:
320,192,134587,1,0,0:0:0:0:
64,192,134670,1,0,0:0:0:0:
448,192,134670,1,0,0:0:0:0:
192,192,134754,1,0,0:0:0:0:
64,192,134837,1,2,0:0:0:0:
320,192,134837,1,0,0:0:0:0:
448,192,135004,1,0,0:0:0:0:
320,192,135087,1,0,0:0:0:0:
64,192,135170,1,8,0:0:0:0:
192,192,135170,1,0,0:0:0:0:
448,192,135254,1,0,0:0:0:0:
192,192,135337,1,0,0:0:0:0:
64,192,135504,1,2,0:0:0:0:
320,192,135504,1,0,0:0:0:0:
448,192,135587,1,0,0:0:0:0:
192,192,135670,1,0,0:0:0:0:
320,192,135754,1,0,0:0:0:0:
64,192,135837,1,8,0:0:0:0:
448,192,135837,1,0,0:0:0:0:
64,192,136004,1,0,0:0:0:0:
320,192,136170,1,2,0:0:0:0:
448,192,136170,1,4,0:0:0:0:
448,192,136337,1,0,0:0:0:0:
192,192,136504,1,8,0:0:0:0:
448,192,136504,1,0,0:0:0:0:
448,192,136670,1,0,0:0:0:0:
64,192,136837,1,2,0:0:0:0:
320,192,136837,1,0,0:0:0:0:
192,192,137004,1,0,0:0:0:0:
64,192,137087,1,0,0:0:0:0:
320,192,137170,1,8,0:0:0:0:
448,192,137170,1,0,0:0:0:0:
192,192,137254,1,0,0:0:0:0:
448,192,137337,1,0,0:0:0:0:
320,192,137420,1,0,0:0:0:0:
64,192,137504,1,2,0:0:0:0:
448,192,137504,128,4,137754:0:0:0:0:
64,192,137837,1,8,0:0:0:0:
448,192,137837,128,0,138170:0:0:0:0:
320,192,138004,128,0,138170:0:0:0:0:
64,192,138170,128,2,138420:0:0:0:0:
192,192,138170,128,0,138420:0:0:0:0:
192,192,138504,1,8,0:0:0:0:
448,192,138587,1,2,0:0:0:0:
192,192,138670,1,2,0:0:0:0:
320,192,138754,1,2,0:0:0:0:
64,192,138837,1,2,0:0:0:0:
448,192,138837,128,4,139087:0:0:0:0:
64,192,139087,1,8,0:0:0:0:
320,192,139170,1,2,0:0:0:0:
448,192,139170,128,0,139670:0:0:0:0:
320,192,139337,1,8,0:0:0:0:
64,192,139504,1,8,0:0:0:0:
192,192,139504,1,0,0:0:0:0:
192,192,139670,1,0,0:0:0:70:LR_Drum Rpd x2.wav
64,192,139754,1,8,0:0:0:0:
320,192,139837,1,2,0:0:0:0:
192,192,139920,1,0,0:0:0:0:
448,192,140004,1,8,0:0:0:0:
64,192,140004,1,0,0:0:0:0:
320,192,140087,1,0,0:0:0:70:LR_Drum Rpd x2.wav
64,192,140170,128,8,140420:0:0:0:0:
448,192,140170,1,0,0:0:0:0:
192,192,140337,1,0,0:0:0:70:LR_Drum Rpd x2.wav
448,192,140420,1,0,0:0:0:70:LR_Drum Rpd x2.wav
64,192,140504,128,8,141004:0:0:0:0:
320,192,140504,1,0,0:0:0:0:
192,192,140587,1,0,0:0:0:0:
448,192,140670,1,2,0:0:0:0:
192,192,140837,1,8,0:0:0:0:
320,192,140837,1,0,0:0:0:0:
192,192,141004,1,2,0:0:0:0:
448,192,141004,1,0,0:0:0:0:
320,192,141087,1,0,0:0:0:0:
64,192,141170,1,8,0:0:0:0:
448,192,141170,1,0,0:0:0:0:
192,192,141254,1,0,0:0:0:70:LR_Drum Rpd x2.wav
448,192,141337,1,8,0:0:0:0:
64,192,141337,1,0,0:0:0:0:
320,192,141420,1,0,0:0:0:70:LR_Drum Rpd x2.wav
64,192,141504,1,4,0:0:0:0:
192,192,141504,1,2,0:0:0:0:
192,192,141670,1,0,0:0:0:70:LR_Drum Rpd x2.wav
448,192,141754,1,8,0:0:0:0:
64,192,141837,1,2,0:0:0:0:
320,192,141837,1,0,0:0:0:0:
64,192,142004,1,8,0:0:0:0:
320,192,142004,1,0,0:0:0:0:
448,192,142170,1,8,0:0:0:0:
192,192,142337,1,0,0:0:0:70:LR_Drum Rpd x2.wav
448,192,142337,1,0,0:0:0:0:
64,192,142420,1,8,0:0:0:0:
320,192,142504,1,2,0:0:0:0:
192,192,142587,1,0,0:0:0:0:
448,192,142670,1,8,0:0:0:0:
64,192,142670,1,0,0:0:0:0:
320,192,142754,1,0,0:0:0:70:LR_Drum Rpd x2.wav
192,192,142837,1,8,0:0:0:0:
448,192,142837,128,0,143087:0:0:0:0:
64,192,143087,1,0,0:0:0:70:LR_Drum Rpd x2.wav
448,192,143170,128,8,143504:0:0:0:0:
320,192,143337,128,2,143504:0:0:0:0:
64,192,143504,128,8,143754:0:0:0:0:
192,192,143504,128,0,143754:0:0:0:0:
448,192,143587,1,0,0:0:0:0:
320,192,143670,1,2,0:0:0:0:
192,192,143837,1,8,0:0:0:0:
448,192,143837,1,0,0:0:0:0:
192,192,144004,1,2,0:0:0:0:
64,192,144170,1,8,0:0:0:0:
448,192,144170,128,4,144420:0:0:0:0:
192,192,144337,1,2,0:0:0:0:
320,192,144504,1,8,0:0:0:0:
448,192,144504,128,0,145004:0:0:0:0:
320,192,144670,1,2,0:0:0:0:
64,192,144670,1,0,0:0:0:0:
192,192,144837,1,8,0:0:0:0:
192,192,145004,1,2,0:0:0:0:
320,192,145004,1,0,0:0:0:0:
64,192,145170,1,8,0:0:0:0:
320,192,145170,1,0,0:0:0:0:
448,192,145254,1,0,0:0:0:0:
192,192,145337,1,2,0:0:0:0:
64,192,145337,1,0,0:0:0:0:
448,192,145420,1,0,0:0:0:0:
64,192,145504,128,8,145754:0:0:0:0:
320,192,145504,1,0,0:0:0:0:
448,192,145670,1,2,0:0:0:0:
64,192,145837,128,8,146087:0:0:0:0:
192,192,145837,1,0,0:0:0:0:
320,192,146004,1,2,0:0:0:0:
64,192,146170,1,8,0:0:0:0:
192,192,146170,1,0,0:0:0:0:
448,192,146254,1,0,0:0:0:0:
192,192,146337,1,2,0:0:0:0:
320,192,146420,1,0,0:0:0:0:
64,192,146504,1,8,0:0:0:0:
448,192,146504,1,0,0:0:0:0:
64,192,146670,1,2,0:0:0:0:
192,192,146754,1,2,0:0:0:0:
320,192,146837,1,0,0:0:0:0:
448,192,146837,1,0,0:0:0:0:
64,192,146920,1,0,0:0:0:0:
320,192,147004,1,0,0:0:0:0:
192,192,147087,1,0,0:0:0:0:
64,192,147170,1,0,0:0:0:0:
448,192,147170,1,0,0:0:0:0:
320,192,147254,1,0,0:0:0:0:
192,192,147337,1,0,0:0:0:0:
448,192,147420,1,0,0:0:0:0:
64,192,147504,1,0,0:0:0:0:
192,192,147504,1,0,0:0:0:0:
320,192,147587,1,0,0:0:0:0:
64,192,147670,1,0,0:0:0:0:
192,192,147754,1,0,0:0:0:0:
320,192,147837,1,0,0:0:0:70:Cymatics - Trap Snare 8 - A#.wav
448,192,147837,1,0,0:0:0:0:
64,192,147920,1,2,0:0:0:0:
448,192,148004,1,2,0:0:0:0:
64,192,148087,1,8,0:0:0:0:
320,192,148170,1,2,0:0:0:0:
448,192,148170,128,0,148420:0:0:0:70:Cymatics - Trap Snare 8 - A#.wav
320,192,148504,1,2,0:0:0:0:
448,192,148504,1,0,0:0:0:70:Cymatics - Trap Snare 8 - A#.wav
64,192,148837,128,2,149087:0:0:0:0:
192,192,148837,1,0,0:0:0:70:Cymatics - Trap Snare 8 - A#.wav
320,192,149004,1,0,0:0:0:0:
64,192,149170,1,0,0:0:0:70:VEC4 Snares 151.wav
320,192,149170,1,0,0:0:0:0:
320,192,149337,1,0,0:0:0:0:
64,192,149504,1,2,0:0:0:0:
448,192,149504,1,4,0:0:0:0:
192,192,149587,1,0,0:0:0:0:
320,192,149670,1,0,0:0:0:0:
448,192,149754,1,0,0:0:0:0:
192,192,149837,1,8,0:0:0:0:
320,192,149837,1,0,0:0:0:0:
448,192,149920,1,0,0:0:0:0:
64,192,150004,1,0,0:0:0:0:
320,192,150087,1,0,0:0:0:0:
64,192,150170,1,2,0:0:0:0:
192,192,150170,1,0,0:0:0:0:
448,192,150254,1,0,0:0:0:0:
192,192,150337,1,0,0:0:0:0:
448,192,150420,1,0,0:0:0:0:
64,192,150504,1,8,0:0:0:0:
320,192,150504,1,0,0:0:0:0:
192,192,150587,1,0,0:0:0:0:
320,192,150670,1,0,0:0:0:0:
448,192,150754,1,0,0:0:0:0:
64,192,150837,1,2,0:0:0:0:
192,192,150837,1,0,0:0:0:0:
320,192,150920,1,0,0:0:0:0:
192,192,151004,1,0,0:0:0:0:
64,192,151087,1,0,0:0:0:0:
192,192,151170,1,8,0:0:0:0:
320,192,151170,1,0,0:0:0:0:
64,192,151254,1,0,0:0:0:0:
448,192,151337,1,0,0:0:0:0:
192,192,151420,1,0,0:0:0:0:
320,192,151504,1,2,0:0:0:0:
448,192,151504,1,0,0:0:0:0:
64,192,151587,1,0,0:0:0:0:
320,192,151670,1,0,0:0:0:0:
64,192,151754,1,0,0:0:0:0:
192,192,151837,1,8,0:0:0:0:
448,192,151837,1,0,0:0:0:0:
320,192,151920,1,0,0:0:0:0:
192,192,152004,1,0,0:0:0:0:
64,192,152087,1,0,0:0:0:0:
320,192,152170,1,2,0:0:0:0:
448,192,152170,1,0,0:0:0:0:
192,192,152254,1,0,0:0:0:0:
320,192,152337,1,0,0:0:0:0:
64,192,152420,1,0,0:0:0:0:
192,192,152504,1,8,0:0:0:0:
448,192,152504,1,0,0:0:0:0:
64,192,152587,1,0,0:0:0:0:
320,192,152670,1,0,0:0:0:0:
192,192,152754,1,0,0:0:0:0:
320,192,152837,1,2,0:0:0:0:
448,192,152837,1,0,0:0:0:0:
64,192,152920,1,0,0:0:0:0:
192,192,153004,1,0,0:0:0:0:
320,192,153087,1,0,0:0:0:0:
64,192,153170,1,8,0:0:0:0:
448,192,153170,1,0,0:0:0:0:
192,192,153254,1,0,0:0:0:0:
320,192,153337,1,0,0:0:0:0:
192,192,153420,1,0,0:0:0:0:
64,192,153504,1,2,0:0:0:0:
448,192,153504,1,0,0:0:0:0:
320,192,153587,1,0,0:0:0:0:
448,192,153670,1,0,0:0:0:0:
320,192,153754,1,0,0:0:0:0:
64,192,153837,1,8,0:0:0:0:
192,192,153837,1,0,0:0:0:0:
448,192,153920,1,0,0:0:0:0:
320,192,154004,1,0,0:0:0:0:
192,192,154087,1,0,0:0:0:0:
320,192,154170,1,2,0:0:0:0:
448,192,154170,1,0,0:0:0:0:
192,192,154254,1,0,0:0:0:0:
64,192,154337,1,0,0:0:0:0:
320,192,154420,1,0,0:0:0:0:
192,192,154504,1,8,0:0:0:0:
448,192,154504,1,0,0:0:0:0:
64,192,154587,1,0,0:0:0:0:
192,192,154670,1,0,0:0:0:0:
64,192,154754,1,0,0:0:0:0:
320,192,154837,1,2,0:0:0:0:
448,192,154837,1,0,0:0:0:0:
192,192,154920,1,0,0:0:0:0:
320,192,155004,1,0,0:0:0:0:
448,192,155087,1,0,0:0:0:0:
192,192,155170,1,8,0:0:0:0:
320,192,155170,1,0,0:0:0:0:
448,192,155254,1,0,0:0:0:0:
64,192,155337,1,0,0:0:0:0:
320,192,155420,1,0,0:0:0:0:
64,192,155504,1,2,0:0:0:0:
192,192,155504,1,0,0:0:0:0:
448,192,155587,1,0,0:0:0:0:
192,192,155670,1,0,0:0:0:0:
448,192,155754,1,0,0:0:0:0:
64,192,155837,1,8,0:0:0:0:
320,192,155837,1,0,0:0:0:0:
192,192,155920,1,0,0:0:0:0:
320,192,156004,1,0,0:0:0:0:
448,192,156087,1,0,0:0:0:0:
64,192,156170,1,2,0:0:0:0:
192,192,156170,1,0,0:0:0:0:
320,192,156254,1,0,0:0:0:0:
192,192,156337,1,0,0:0:0:0:
64,192,156420,1,0,0:0:0:0:
192,192,156504,1,8,0:0:0:0:
320,192,156504,1,0,0:0:0:0:
64,192,156587,1,0,0:0:0:0:
448,192,156670,1,0,0:0:0:0:
192,192,156754,1,0,0:0:0:0:
320,192,156837,1,2,0:0:0:0:
448,192,156837,1,0,0:0:0:0:
64,192,156920,1,0,0:0:0:0:
320,192,157004,1,0,0:0:0:0:
64,192,157087,1,0,0:0:0:0:
192,192,157170,1,8,0:0:0:0:
448,192,157170,1,0,0:0:0:0:
320,192,157254,1,0,0:0:0:0:
192,192,157337,1,0,0:0:0:0:
64,192,157420,1,0,0:0:0:0:
320,192,157504,1,2,0:0:0:0:
448,192,157504,1,0,0:0:0:0:
192,192,157587,1,0,0:0:0:0:
320,192,157670,1,0,0:0:0:0:
64,192,157754,1,0,0:0:0:0:
192,192,157837,1,8,0:0:0:0:
448,192,157837,1,0,0:0:0:0:
64,192,157920,1,0,0:0:0:0:
320,192,158004,1,0,0:0:0:0:
192,192,158087,1,0,0:0:0:0:
320,192,158170,1,2,0:0:0:0:
448,192,158170,1,0,0:0:0:0:
64,192,158254,1,0,0:0:0:0:
192,192,158337,1,0,0:0:0:0:
320,192,158420,1,0,0:0:0:0:
64,192,158504,1,8,0:0:0:0:
448,192,158504,1,0,0:0:0:0:
192,192,158587,1,0,0:0:0:0:
64,192,158670,1,0,0:0:0:0:
320,192,158754,1,0,0:0:0:0:
64,192,158837,1,2,0:0:0:0:
192,192,158837,128,0,159004:0:0:0:0:
448,192,158920,128,0,159004:0:0:0:0:
320,192,159004,128,0,159170:0:0:0:0:
64,192,159170,1,2,0:0:0:0:
448,192,159170,128,0,159337:0:0:0:0:
192,192,159254,128,0,159337:0:0:0:0:
320,192,159337,128,0,159504:0:0:0:0:
64,192,159504,128,2,159670:0:0:0:0:
192,192,159504,1,0,0:0:0:0:
448,192,159587,1,0,0:0:0:0:
320,192,159670,1,0,0:0:0:0:
448,192,159754,1,0,0:0:0:0:
64,192,159837,1,0,0:0:0:70:VEC4 Snares 151.wav
192,192,159837,1,0,0:0:0:0:
320,192,159920,1,2,0:0:0:0:
192,192,160004,1,2,0:0:0:0:
320,192,160087,1,2,0:0:0:0:
64,192,160170,1,4,0:0:0:0:
448,192,160170,1,8,0:0:0:0:
192,192,160337,1,0,0:0:0:0:
64,192,160420,1,0,0:0:0:0:
320,192,160504,1,2,0:0:0:0:
448,192,160504,1,0,0:0:0:0:
320,192,160670,1,2,0:0:0:0:
448,192,160670,1,0,0:0:0:0:
64,192,160837,1,8,0:0:0:0:
192,192,160837,1,0,0:0:0:0:
320,192,161004,1,0,0:0:0:0:
448,192,161087,1,0,0:0:0:0:
64,192,161170,1,2,0:0:0:0:
192,192,161170,1,0,0:0:0:0:
320,192,161337,1,8,0:0:0:0:
448,192,161337,1,0,0:0:0:0:
64,192,161504,1,2,0:0:0:0:
192,192,161504,1,0,0:0:0:0:
192,192,161670,1,0,0:0:0:0:
64,192,161754,1,0,0:0:0:0:
320,192,161837,1,8,0:0:0:0:
448,192,161837,1,0,0:0:0:0:
320,192,162004,1,0,0:0:0:0:
64,192,162170,1,8,0:0:0:0:
448,192,162170,1,0,0:0:0:0:
64,192,162337,1,2,0:0:0:0:
320,192,162337,1,0,0:0:0:0:
192,192,162420,1,0,0:0:0:0:
320,192,162504,1,8,0:0:0:0:
448,192,162504,1,0,0:0:0:0:
64,192,162587,1,2,0:0:0:0:
320,192,162670,1,8,0:0:0:0:
448,192,162670,1,0,0:0:0:0:
192,192,162754,1,2,0:0:0:0:
64,192,162837,1,8,0:0:0:0:
448,192,162837,1,0,0:0:0:0:
320,192,163004,1,0,0:0:0:0:
448,192,163087,1,0,0:0:0:0:
64,192,163170,1,2,0:0:0:0:
192,192,163170,1,0,0:0:0:0:
64,192,163337,1,2,0:0:0:0:
192,192,163337,1,0,0:0:0:0:
320,192,163504,1,8,0:0:0:0:
448,192,163504,1,0,0:0:0:0:
192,192,163670,1,0,0:0:0:0:
64,192,163754,1,8,0:0:0:0:
320,192,163837,1,2,0:0:0:0:
448,192,163837,1,0,0:0:0:0:
64,192,164004,1,8,0:0:0:0:
192,192,164004,1,0,0:0:0:0:
320,192,164170,1,2,0:0:0:0:
448,192,164170,1,0,0:0:0:0:
320,192,164337,1,0,0:0:0:0:
448,192,164420,1,0,0:0:0:0:
64,192,164504,1,8,0:0:0:0:
192,192,164504,1,0,0:0:0:0:
192,192,164670,1,0,0:0:0:0:
320,192,164837,1,2,0:0:0:0:
448,192,164837,1,0,0:0:0:0:
64,192,164920,1,8,0:0:0:0:
192,192,165004,1,8,0:0:0:0:
320,192,165004,1,0,0:0:0:0:
448,192,165087,1,0,0:0:0:0:
64,192,165170,1,8,0:0:0:0:
192,192,165170,1,0,0:0:0:0:
64,192,165337,1,2,0:0:0:0:
192,192,165337,1,0,0:0:0:0:
320,192,165504,1,8,0:0:0:0:
448,192,165504,1,0,0:0:0:0:
64,192,165670,1,2,0:0:0:0:
192,192,165670,1,0,0:0:0:0:
192,192,165837,1,8,0:0:0:0:
320,192,165837,1,0,0:0:0:0:
192,192,166004,1,2,0:0:0:0:
448,192,166004,1,0,0:0:0:0:
320,192,166170,1,8,0:0:0:0:
448,192,166170,1,0,0:0:0:0:
64,192,166337,1,2,0:0:0:0:
192,192,166337,1,0,0:0:0:0:
192,192,166504,1,8,0:0:0:0:
320,192,166504,1,0,0:0:0:0:
192,192,166670,1,2,0:0:0:0:
448,192,166670,1,0,0:0:0:0:
320,192,166837,1,8,0:0:0:0:
448,192,166837,1,0,0:0:0:0:
192,192,167004,1,2,0:0:0:0:
320,192,167004,1,0,0:0:0:0:
64,192,167170,1,8,0:0:0:0:
192,192,167170,1,0,0:0:0:0:
320,192,167337,1,2,0:0:0:0:
448,192,167337,1,0,0:0:0:0:
64,192,167504,1,8,0:0:0:0:
192,192,167504,1,0,0:0:0:0:
64,192,167670,1,2,0:0:0:0:
320,192,167670,1,0,0:0:0:0:
192,192,167837,1,8,0:0:0:0:
320,192,167837,1,0,0:0:0:0:
192,192,168004,1,2,0:0:0:0:
448,192,168004,1,0,0:0:0:0:
64,192,168087,1,2,0:0:0:0:
320,192,168170,1,8,0:0:0:0:
448,192,168170,1,0,0:0:0:0:
192,192,168254,1,2,0:0:0:0:
448,192,168337,1,2,0:0:0:0:
320,192,168420,1,2,0:0:0:0:
64,192,168504,1,8,0:0:0:0:
192,192,168504,1,0,0:0:0:0:
448,192,168587,1,2,0:0:0:0:
192,192,168670,1,2,0:0:0:0:
448,192,168754,1,2,0:0:0:0:
192,192,168837,1,8,0:0:0:0:
320,192,168837,1,0,0:0:0:0:
64,192,168920,1,2,0:0:0:0:
320,192,169004,1,2,0:0:0:0:
64,192,169087,1,2,0:0:0:0:
192,192,169170,1,8,0:0:0:0:
320,192,169170,1,0,0:0:0:0:
448,192,169254,1,2,0:0:0:0:
192,192,169337,1,2,0:0:0:0:
448,192,169420,1,2,0:0:0:0:
192,192,169504,128,2,169754:0:0:0:0:
320,192,169504,128,0,169754:0:0:0:70:Cymatics - Trap Snare 8 - A#.wav
64,192,169754,128,0,170087:0:0:0:0:
320,192,169837,128,2,170087:0:0:0:0:
448,192,169837,128,0,170087:0:0:0:70:Cymatics - Trap Snare 8 - A#.wav
64,192,170170,1,2,0:0:0:0:
192,192,170170,1,0,0:0:0:70:Cymatics - Trap Snare 8 - A#.wav
320,192,170254,1,0,0:0:0:0:
64,192,170337,1,0,0:0:0:0:
192,192,170420,1,0,0:0:0:0:
320,192,170504,1,2,0:0:0:0:
448,192,170504,128,0,170837:0:0:0:70:Cymatics - Trap Snare 8 - A#.wav
64,192,170587,1,0,0:0:0:0:
320,192,170670,128,0,170837:0:0:0:0:
64,192,170837,128,2,171004:0:0:0:0:
192,192,170837,128,0,171004:0:0:0:0:
64,192,171170,128,4,171337:0:0:0:0:
320,192,171170,1,8,0:0:0:0:
448,192,171170,1,0,0:0:0:0:
192,192,171337,1,0,0:0:0:0:
64,192,171504,1,2,0:0:0:0:
320,192,171504,128,0,171670:0:0:0:0:
64,192,171670,1,0,0:0:0:0:
192,192,171754,1,2,0:0:0:0:
64,192,171837,128,8,172004:0:0:0:0:
320,192,171837,128,0,171920:0:0:0:0:
320,192,172004,128,2,172087:0:0:0:0:
448,192,172004,1,0,0:0:0:0:
192,192,172170,1,2,0:0:0:0:
448,192,172170,128,0,172337:0:0:0:0:
320,192,172337,1,0,0:0:0:0:
192,192,172504,1,8,0:0:0:0:
448,192,172504,128,0,172670:0:0:0:0:
320,192,172670,1,0,0:0:0:0:
192,192,172837,128,2,173004:0:0:0:0:
448,192,172837,1,0,0:0:0:0:
448,192,173004,1,0,0:0:0:0:
64,192,173170,128,8,173337:0:0:0:0:
192,192,173170,1,0,0:0:0:0:
192,192,173337,128,0,173504:0:0:0:0:
64,192,173504,1,2,0:0:0:0:
448,192,173504,128,0,173754:0:0:0:0:
320,192,173587,128,0,173754:0:0:0:0:
192,192,173837,1,4,0:0:0:0:
448,192,173837,128,8,174004:0:0:0:0:
320,192,174004,1,0,0:0:0:0:
192,192,174170,128,2,174337:0:0:0:0:
448,192,174170,1,0,0:0:0:0:
448,192,174337,1,0,0:0:0:0:
320,192,174420,1,2,0:0:0:0:
192,192,174504,128,8,174587:0:0:0:0:
448,192,174504,128,0,174670:0:0:0:0:
64,192,174670,1,2,0:0:0:0:
192,192,174670,128,0,174754:0:0:0:0:
64,192,174837,128,2,175004:0:0:0:0:
320,192,174837,1,0,0:0:0:0:
192,192,175004,1,0,0:0:0:0:
64,192,175170,1,8,0:0:0:0:
320,192,175170,128,0,175337:0:0:0:0:
64,192,175337,1,0,0:0:0:0:
64,192,175504,128,2,175670:0:0:0:0:
320,192,175504,1,0,0:0:0:0:
320,192,175670,1,0,0:0:0:0:
64,192,175837,1,8,0:0:0:0:
192,192,175837,1,0,0:0:0:0:
320,192,176170,128,0,176337:0:0:0:0:
64,192,176254,1,0,0:0:0:0:
192,192,176337,1,0,0:0:0:0:
448,192,176420,1,0,0:0:0:0:
64,192,176504,128,8,176670:0:0:0:0:
320,192,176504,1,4,0:0:0:0:
192,192,176670,128,0,176754:0:0:0:0:
64,192,176837,1,2,0:0:0:0:
320,192,176837,128,0,177004:0:0:0:0:
64,192,177004,1,0,0:0:0:0:
192,192,177087,1,2,0:0:0:0:
64,192,177170,128,8,177337:0:0:0:0:
320,192,177170,128,0,177254:0:0:0:0:
320,192,177337,128,2,177420:0:0:0:0:
448,192,177337,1,0,0:0:0:0:
192,192,177504,1,2,0:0:0:0:
448,192,177504,128,0,177670:0:0:0:0:
320,192,177670,1,0,0:0:0:0:
192,192,177837,1,8,0:0:0:0:
448,192,177837,128,0,178004:0:0:0:0:
320,192,178004,128,0,178087:0:0:0:0:
192,192,178170,128,2,178337:0:0:0:0:
448,192,178170,1,0,0:0:0:0:
448,192,178337,1,0,0:0:0:0:
64,192,178504,1,8,0:0:0:0:
192,192,178504,1,0,0:0:0:0:
192,192,178670,128,0,178754:0:0:0:0:
448,192,178837,1,0,0:0:0:0:
320,192,178920,1,0,0:0:0:0:
64,192,179004,1,0,0:0:0:0:
320,192,179087,1,0,0:0:0:0:
192,192,179170,1,4,0:0:0:0:
448,192,179170,128,8,179337:0:0:0:0:
320,192,179337,128,0,179420:0:0:0:0:
192,192,179504,128,2,179670:0:0:0:0:
448,192,179504,1,0,0:0:0:0:
448,192,179670,1,0,0:0:0:0:
320,192,179754,1,2,0:0:0:0:
192,192,179837,128,8,179920:0:0:0:0:
448,192,179837,128,0,180004:0:0:0:0:
192,192,180004,1,2,0:0:0:0:
320,192,180170,128,0,180254:0:0:0:0:
64,192,180254,1,0,0:0:0:0:
320,192,180337,128,0,180504:0:0:0:0:
192,192,180420,1,0,0:0:0:0:
64,192,180504,128,0,180587:0:0:0:0:
448,192,180670,128,0,180837:0:0:0:0:
320,192,180754,1,0,0:0:0:0:
192,192,180837,128,0,180920:0:0:0:0:
448,192,180920,1,0,0:0:0:0:
192,192,181004,1,0,0:0:0:0:
320,192,181087,1,0,0:0:0:0:
64,192,181170,1,0,0:0:0:0:
448,192,181170,1,0,0:0:0:0:
320,192,181254,1,0,0:0:0:0:
192,192,181337,1,0,0:0:0:0:
64,192,181420,1,0,0:0:0:0:
320,192,181504,1,0,0:0:0:70:LR_Tom Drop.wav
448,192,181504,1,0,0:0:0:0:
64,192,181837,1,8,0:0:0:0:
192,192,181837,1,0,0:0:0:0:
320,192,182004,1,0,0:0:0:0:
192,192,182170,1,0,0:0:0:0:
320,192,182254,1,0,0:0:0:0:
448,192,182420,1,0,0:0:0:0:
64,192,182504,1,8,0:0:0:0:
192,192,182504,1,0,0:0:0:0:
320,192,182670,1,0,0:0:0:0:
192,192,182754,1,0,0:0:0:0:
64,192,182837,1,0,0:0:0:0:
320,192,182837,1,0,0:0:0:0:
320,192,183170,1,8,0:0:0:0:
448,192,183170,1,0,0:0:0:0:
192,192,183337,1,0,0:0:0:0:
320,192,183504,1,0,0:0:0:0:
192,192,183587,1,0,0:0:0:0:
64,192,183754,1,0,0:0:0:0:
320,192,183837,1,8,0:0:0:0:
448,192,183837,1,0,0:0:0:0:
192,192,184004,1,0,0:0:0:0:
320,192,184087,1,0,0:0:0:0:
192,192,184170,1,0,0:0:0:0:
448,192,184170,1,0,0:0:0:0:
64,192,184504,1,8,0:0:0:0:
192,192,184504,1,0,0:0:0:0:
448,192,184670,1,0,0:0:0:0:
192,192,184837,1,0,0:0:0:0:
448,192,184920,1,0,0:0:0:0:
320,192,185087,1,0,0:0:0:0:
64,192,185170,1,8,0:0:0:0:
192,192,185170,1,0,0:0:0:0:
448,192,185337,1,0,0:0:0:0:
192,192,185420,1,0,0:0:0:0:
64,192,185504,1,0,0:0:0:0:
448,192,185504,1,0,0:0:0:0:
320,192,185837,1,8,0:0:0:0:
448,192,185837,1,0,0:0:0:0:
64,192,186004,1,0,0:0:0:0:
320,192,186170,1,0,0:0:0:0:
64,192,186254,1,0,0:0:0:0:
192,192,186420,1,0,0:0:0:0:
320,192,186504,1,8,0:0:0:0:
448,192,186504,1,0,0:0:0:0:
64,192,186670,1,0,0:0:0:0:
192,192,186754,1,0,0:0:0:0:
64,192,186837,1,0,0:0:0:0:
320,192,186837,1,0,0:0:0:0:
64,192,187170,1,8,0:0:0:0:
192,192,187170,1,0,0:0:0:0:
320,192,187337,1,0,0:0:0:0:
64,192,187504,1,0,0:0:0:0:
320,192,187587,1,0,0:0:0:0:
448,192,187754,1,0,0:0:0:0:
64,192,187837,1,8,0:0:0:0:
192,192,187837,1,0,0:0:0:0:
320,192,188004,1,0,0:0:0:0:
192,192,188087,1,0,0:0:0:0:
64,192,188170,1,0,0:0:0:0:
320,192,188170,1,0,0:0:0:0:
320,192,188504,1,8,0:0:0:0:
448,192,188504,1,0,0:0:0:0:
192,192,188670,1,0,0:0:0:0:
448,192,188837,1,0,0:0:0:0:
192,192,188920,1,0,0:0:0:0:
64,192,189087,1,0,0:0:0:0:
320,192,189170,1,8,0:0:0:0:
448,192,189170,1,0,0:0:0:0:
192,192,189337,1,0,0:0:0:0:
320,192,189420,1,0,0:0:0:0:
192,192,189504,1,0,0:0:0:0:
448,192,189504,1,0,0:0:0:0:
64,192,189837,1,8,0:0:0:0:
192,192,189837,1,0,0:0:0:0:
64,192,190004,1,0,0:0:0:0:
320,192,190170,1,0,0:0:0:0:
448,192,190170,1,0,0:0:0:0:
64,192,190504,1,8,0:0:0:0:
192,192,190504,1,0,0:0:0:0:
448,192,190670,1,0,0:0:0:0:
320,192,190754,1,0,0:0:0:0:
64,192,190837,1,0,0:0:0:0:
448,192,190837,1,0,0:0:0:0:
192,192,191170,1,8,0:0:0:0:
320,192,191170,1,0,0:0:0:0:
320,192,191504,1,0,0:0:0:0:
448,192,191504,1,0,0:0:0:0:
64,192,191837,1,8,0:0:0:0:
192,192,191837,1,0,0:0:0:0:
320,192,192170,1,2,0:0:0:0:
448,192,192170,1,8,0:0:0:0:
320,192,192337,1,0,0:0:0:0:
192,192,192420,1,8,0:0:0:0:
320,192,192504,1,2,0:0:0:0:
448,192,192504,1,0,0:0:0:0:
192,192,192670,1,8,0:0:0:0:
64,192,192837,1,2,0:0:0:0:
192,192,192837,1,8,0:0:0:0:
64,192,193004,1,0,0:0:0:0:
320,192,193004,1,0,0:0:0:0:
192,192,193087,1,8,0:0:0:0:
320,192,193170,1,2,0:0:0:0:
448,192,193170,1,0,0:0:0:0:
64,192,193337,1,8,0:0:0:0:
320,192,193337,1,0,0:0:0:0:
64,192,193504,1,2,0:0:0:0:
448,192,193504,1,8,0:0:0:0:
320,192,193670,1,0,0:0:0:0:
448,192,193670,1,0,0:0:0:0:
192,192,193754,1,8,0:0:0:0:
64,192,193837,1,2,0:0:0:0:
448,192,193837,1,0,0:0:0:0:
192,192,194004,1,8,0:0:0:0:
320,192,194004,1,0,0:0:0:0:
64,192,194170,1,2,0:0:0:0:
192,192,194170,1,8,0:0:0:0:
64,192,194337,1,0,0:0:0:0:
448,192,194337,1,0,0:0:0:0:
320,192,194504,1,8,0:0:0:0:
448,192,194504,1,0,0:0:0:0:
192,192,194587,1,8,0:0:0:0:
64,192,194670,1,8,0:0:0:0:
320,192,194670,1,0,0:0:0:0:
448,192,194754,1,8,0:0:0:0:
64,192,194837,1,2,0:0:0:0:
192,192,194837,1,8,0:0:0:0:
192,192,195004,1,0,0:0:0:0:
320,192,195087,1,8,0:0:0:0:
64,192,195170,1,2,0:0:0:0:
192,192,195170,1,0,0:0:0:0:
320,192,195337,1,8,0:0:0:0:
320,192,195504,1,2,0:0:0:0:
448,192,195504,1,8,0:0:0:0:
192,192,195670,1,0,0:0:0:0:
320,192,195754,1,8,0:0:0:0:
64,192,195837,1,2,0:0:0:0:
192,192,195837,1,0,0:0:0:0:
192,192,196004,1,8,0:0:0:0:
64,192,196170,1,2,0:0:0:0:
448,192,196170,1,8,0:0:0:0:
64,192,196337,1,0,0:0:0:0:
192,192,196420,1,8,0:0:0:0:
320,192,196504,1,2,0:0:0:0:
448,192,196504,1,0,0:0:0:0:
320,192,196670,1,8,0:0:0:0:
64,192,196837,1,2,0:0:0:0:
192,192,196837,1,8,0:0:0:0:
448,192,196920,1,8,0:0:0:0:
64,192,197004,1,8,0:0:0:0:
192,192,197004,1,0,0:0:0:0:
320,192,197170,1,2,0:0:0:0:
448,192,197170,1,0,0:0:0:0:
192,192,197337,1,8,0:0:0:0:
320,192,197337,1,0,0:0:0:0:
64,192,197504,1,2,0:0:0:0:
192,192,197504,1,8,0:0:0:0:
320,192,197670,1,8,0:0:0:0:
448,192,197670,1,0,0:0:0:0:
320,192,197837,1,2,0:0:0:0:
448,192,197837,1,8,0:0:0:0:
64,192,198004,1,8,0:0:0:0:
192,192,198004,1,0,0:0:0:0:
64,192,198170,1,2,0:0:0:0:
192,192,198170,1,8,0:0:0:0:
320,192,198337,1,8,0:0:0:0:
448,192,198337,1,0,0:0:0:0:
64,192,198504,1,2,0:0:0:0:
320,192,198504,1,8,0:0:0:0:
192,192,198670,1,8,0:0:0:0:
448,192,198670,1,0,0:0:0:0:
320,192,198837,1,2,0:0:0:0:
448,192,198837,1,8,0:0:0:0:
64,192,199004,1,8,0:0:0:0:
192,192,199004,1,0,0:0:0:0:
64,192,199170,1,2,0:0:0:0:
192,192,199170,1,8,0:0:0:0:
320,192,199337,1,8,0:0:0:0:
448,192,199337,1,0,0:0:0:0:
320,192,199504,1,2,0:0:0:0:
448,192,199504,1,8,0:0:0:0:
64,192,199670,1,8,0:0:0:0:
192,192,199670,1,0,0:0:0:0:
64,192,199837,1,2,0:0:0:0:
320,192,199837,1,8,0:0:0:0:
192,192,200004,1,8,0:0:0:0:
448,192,200004,1,0,0:0:0:0:
64,192,200087,1,10,0:0:0:0:
320,192,200170,1,2,0:0:0:0:
448,192,200170,1,8,0:0:0:0:
192,192,200254,1,10,0:0:0:0:
64,192,200337,1,8,0:0:0:0:
320,192,200337,1,2,0:0:0:0:
448,192,200420,1,10,0:0:0:0:
64,192,200504,1,8,0:0:0:0:
192,192,200504,1,2,0:0:0:0:
320,192,200587,1,10,0:0:0:0:
192,192,200670,1,8,0:0:0:0:
448,192,200670,1,2,0:0:0:0:
64,192,200754,1,10,0:0:0:0:
320,192,200837,1,8,0:0:0:0:
448,192,200837,1,2,0:0:0:0:
192,192,200920,1,10,0:0:0:0:
64,192,201004,1,8,0:0:0:0:
320,192,201004,1,2,0:0:0:0:
448,192,201087,1,10,0:0:0:0:
64,192,201170,1,8,0:0:0:0:
192,192,201170,1,2,0:0:0:0:
448,192,201254,1,10,0:0:0:0:
192,192,201337,1,8,0:0:0:0:
320,192,201337,1,2,0:0:0:0:
64,192,201420,1,10,0:0:0:0:
320,192,201504,1,0,0:0:0:70:Cymatics - Trap Snare 8 - A#.wav
448,192,201504,1,0,0:0:0:0:
320,192,201837,1,0,0:0:0:70:Cymatics - Trap Snare 8 - A#.wav
192,192,202170,1,0,0:0:0:70:Cymatics - Trap Snare 8 - A#.wav
448,192,202170,1,0,0:0:0:0:
64,192,202504,1,0,0:0:0:70:Cymatics - Trap Snare 8 - A#.wav
192,192,202504,1,0,0:0:0:0:
64,192,202670,1,0,0:0:0:0:
320,192,202837,1,0,0:0:0:70:LR_Chm Echo long.wav
448,192,202837,128,0,203754:0:0:0:0:
192,192,203837,1,0,0:0:0:0:
192,192,204004,1,0,0:0:0:0:
64,192,204170,128,0,205087:0:0:0:0:
448,192,205170,1,0,0:0:0:0:
64,192,205337,1,0,0:0:0:0:
192,192,205504,128,0,205837:0:0:0:0:
64,192,205670,128,0,205837:0:0:0:0:
320,192,205837,128,0,206170:0:0:0:0:
192,192,206004,128,0,206170:0:0:0:0:
448,192,206170,128,0,206420:0:0:0:0:
192,192,206504,128,0,206754:0:0:0:0:
448,192,206837,128,0,207087:0:0:0:0:
320,192,207170,128,0,207420:0:0:0:0:
192,192,207504,128,0,207670:0:0:0:0:
320,192,207670,128,0,207837:0:0:0:0:
64,192,207837,1,0,0:0:0:0:
192,192,208004,1,0,0:0:0:0:
448,192,208170,128,0,209087:0:0:0:0:
192,192,209170,1,0,0:0:0:0:
192,192,209337,1,0,0:0:0:0:
64,192,209504,128,0,210420:0:0:0:0:
64,192,210504,128,0,210670:0:0:0:0:
448,192,210837,128,0,211004:0:0:0:0:
320,192,211170,128,0,211337:0:0:0:0:
192,192,211504,128,0,211670:0:0:0:0:
192,192,211837,1,0,0:0:0:0:
192,192,212004,1,0,0:0:0:0:
448,192,212170,128,0,212670:0:0:0:0:
192,192,212837,128,0,213504:0:0:0:0:
448,192,213504,1,0,0:0:0:70:LR_Chm Echo long.wav
