osu file format v14

[General]
AudioFilename: audio.mp3
AudioLeadIn: 0
PreviewTime: 116170
Countdown: 0
SampleSet: Soft
StackLeniency: 0.7
Mode: 3
LetterboxInBreaks: 0
SpecialStyle: 0
WidescreenStoryboard: 1

[Editor]
DistanceSpacing: 2.6
BeatDivisor: 8
GridSize: 32
TimelineZoom: 1.999999

[Metadata]
Title:CROSSING DELTA
TitleUnicode:CROSSING DELTA
Artist:ginkiha x t+pazolite x Hommarju
ArtistUnicode:ginkiha x t+pazolite x Hommarju
Creator:AlexDunk
Version:Everlasting Memories
Source:OverRapid
Tags:electronic instrumental Future Bass Trap Hardcore CAFE.D seven's code [ping] TheNewBungping FAMoss PIU XX Pump It Up Dynamix Lanota Dance EDM FLUCTON CAFE-0001
BeatmapID:2227478
BeatmapSetID:1063841

[Difficulty]
HPDrainRate:8.5
CircleSize:4
OverallDifficulty:8.3
ApproachRate:5
SliderMultiplier:1.4
SliderTickRate:1

[Events]
//Background and Video events
0,0,"imagine not being lonely.jpg",0,0
//Break Periods
//Storyboard Layer 0 (Background)
//Storyboard Layer 1 (Fail)
//Storyboard Layer 2 (Pass)
//Storyboard Layer 3 (Foreground)
//Storyboard Layer 4 (Overlay)
//Storyboard Sound Samples
Sample,169837,0,"Cymatics - Trap Snare 8 - A#.wav",70
Sample,170170,0,"Cymatics - Trap Snare 8 - A#.wav",70

[TimingPoints]
171,333.333333333333,4,2,1,60,1,0
42837,-100,4,2,1,60,0,1
62837,-100,4,2,1,60,0,0
63837,-33.3333333333333,4,2,1,60,0,0
63879,-111.111111111111,4,2,1,60,0,0
63920,-200,4,2,1,60,0,0
64004,-250.000000000001,4,2,1,60,0,0
64045,-166.666666666667,4,2,1,60,0,0
64087,-111.111111111111,4,2,1,60,0,0
64129,-83.3333333333333,4,2,1,60,0,0
64170,-100,4,2,1,60,0,0
106504,-200,4,2,1,60,0,0
106545,-133.333333333333,4,2,1,60,0,0
106587,-125,4,2,1,60,0,0
106670,-95.2380952380952,4,2,1,60,0,0
106754,-83.3333333333333,4,2,1,60,0,0
106837,-100,4,2,1,60,0,1
116170,-100,4,2,1,60,0,0
117504,-100,4,2,1,60,0,1
127837,-100,4,2,1,60,0,0
128170,-100,4,2,1,60,0,1
149170,-100,4,2,1,60,0,0
171170,-100,4,2,1,60,0,1
181504,-100,4,2,1,60,0,0

[HitObjects]
192,192,1004,5,0,0:0:0:100:D#5H_Eb5H.wav
320,192,1170,1,0,0:0:0:100:F5H.wav
448,192,1337,1,0,0:0:0:100:A5H.wav
448,192,1504,1,0,0:0:0:100:A5H.wav
320,192,1670,1,0,0:0:0:100:F5H.wav
192,192,2004,1,0,0:0:0:100:D#5H_Eb5H.wav
320,192,2337,1,0,0:0:0:100:F5H.wav
64,192,2670,1,0,0:0:0:100:C#5H_Db5H.wav
320,192,5004,1,0,0:0:0:100:D#5H_Eb5H.wav
448,192,5170,1,0,0:0:0:100:F5H.wav
192,192,5337,1,0,0:0:0:100:C#5H_Db5H.wav
64,192,6337,1,0,0:0:0:100:C5H.wav
64,192,6504,1,0,0:0:0:100:C5H.wav
320,192,6670,1,0,0:0:0:100:C#5H_Db5H.wav
64,192,7670,1,0,0:0:0:100:D#5H_Eb5H.wav
192,192,7837,1,0,0:0:0:100:E5H.wav
320,192,8004,1,0,0:0:0:100:F5H.wav
448,192,9004,1,0,0:0:0:100:F#5H_Gb5H.wav
320,192,9337,1,0,0:0:0:100:F5H.wav
64,192,10504,1,2,0:0:0:0:
192,192,10504,1,0,0:0:0:0:
320,192,10587,1,2,0:0:0:0:
448,192,10587,1,0,0:0:0:0:
64,192,10670,1,2,0:0:0:0:
192,192,10670,1,0,0:0:0:0:
320,192,10754,1,2,0:0:0:0:
64,192,10837,1,2,0:0:0:0:
448,192,10837,1,8,0:0:0:0:
192,192,11087,1,2,0:0:0:0:
320,192,11087,1,8,0:0:0:0:
64,192,11170,1,2,0:0:0:0:
448,192,11170,1,0,0:0:0:0:
320,192,11337,1,2,0:0:0:0:
448,192,11337,1,8,0:0:0:0:
64,192,11420,1,0,0:0:0:0:
192,192,11504,1,2,0:0:0:0:
320,192,11504,1,8,0:0:0:0:
448,192,11587,1,0,0:0:0:0:
64,192,11670,1,0,0:0:0:0:
192,192,11754,1,2,0:0:0:0:
320,192,11754,1,8,0:0:0:0:
64,192,11837,1,2,0:0:0:0:
448,192,11837,1,0,0:0:0:0:
192,192,12004,1,2,0:0:0:0:
320,192,12004,1,8,0:0:0:0:
320,192,12170,1,2,0:0:0:0:
448,192,12170,1,8,0:0:0:0:
64,192,12254,1,0,0:0:0:0:
192,192,12337,1,0,0:0:0:0:
320,192,12420,1,8,0:0:0:0:
448,192,12420,1,0,0:0:0:0:
64,192,12504,1,2,0:0:0:0:
192,192,12504,1,0,0:0:0:0:
64,192,12670,1,8,0:0:0:0:
448,192,12670,1,0,0:0:0:0:
320,192,12754,1,0,0:0:0:0:
64,192,12837,1,2,0:0:0:0:
192,192,12837,1,8,0:0:0:0:
448,192,12920,1,0,0:0:0:0:
192,192,13004,1,8,0:0:0:0:
320,192,13004,1,0,0:0:0:0:
64,192,13087,1,8,0:0:0:0:
320,192,13170,1,2,0:0:0:0:
448,192,13170,1,8,0:0:0:0:
64,192,13254,1,2,0:0:0:0:
192,192,13254,1,8,0:0:0:0:
320,192,13337,1,2,0:0:0:0:
448,192,13337,1,8,0:0:0:0:
64,192,13420,1,2,0:0:0:0:
192,192,13420,1,8,0:0:0:0:
320,192,13504,1,2,0:0:0:0:
448,192,13504,1,8,0:0:0:0:
320,192,13754,1,2,0:0:0:0:
448,192,13754,1,8,0:0:0:0:
64,192,13837,1,2,0:0:0:0:
192,192,13837,1,0,0:0:0:0:
64,192,14004,1,2,0:0:0:0:
320,192,14004,1,8,0:0:0:0:
192,192,14087,1,0,0:0:0:0:
320,192,14170,1,2,0:0:0:0:
448,192,14170,1,8,0:0:0:0:
64,192,14254,1,0,0:0:0:0:
448,192,14337,1,0,0:0:0:0:
64,192,14420,1,2,0:0:0:0:
320,192,14420,1,8,0:0:0:0:
192,192,14504,1,2,0:0:0:0:
448,192,14504,1,0,0:0:0:0:
192,192,14670,1,2,0:0:0:0:
320,192,14670,1,8,0:0:0:0:
64,192,14837,1,2,0:0:0:0:
320,192,14837,1,8,0:0:0:0:
448,192,14920,1,0,0:0:0:0:
192,192,15004,1,0,0:0:0:0:
320,192,15087,1,8,0:0:0:0:
448,192,15087,1,0,0:0:0:0:
64,192,15170,1,2,0:0:0:0:
192,192,15170,1,0,0:0:0:0:
320,192,15337,1,8,0:0:0:0:
448,192,15420,1,0,0:0:0:0:
64,192,15504,1,2,0:0:0:0:
192,192,15504,1,8,0:0:0:0:
448,192,15587,1,8,0:0:0:0:
64,192,15670,1,8,0:0:0:0:
320,192,15670,1,0,0:0:0:0:
192,192,15837,1,2,0:0:0:0:
448,192,15837,1,0,0:0:0:0:
320,192,16004,1,2,0:0:0:0:
448,192,16004,1,8,0:0:0:0:
64,192,16170,1,2,0:0:0:0:
192,192,16170,1,8,0:0:0:0:
192,192,16337,1,2,0:0:0:0:
320,192,16337,1,8,0:0:0:0:
64,192,16504,1,2,0:0:0:0:
448,192,16504,1,8,0:0:0:0:
320,192,16670,1,2,0:0:0:0:
448,192,16670,1,8,0:0:0:0:
192,192,16754,1,0,0:0:0:0:
64,192,16837,1,2,0:0:0:0:
320,192,16837,1,8,0:0:0:0:
448,192,16920,1,0,0:0:0:0:
64,192,17004,1,2,0:0:0:0:
192,192,17004,1,8,0:0:0:0:
192,192,17170,1,2,0:0:0:0:
448,192,17170,1,8,0:0:0:0:
64,192,17337,1,2,0:0:0:0:
320,192,17337,1,8,0:0:0:0:
192,192,17504,1,2,0:0:0:0:
448,192,17504,1,8,0:0:0:0:
64,192,17587,1,0,0:0:0:0:
192,192,17670,1,2,0:0:0:0:
320,192,17670,1,8,0:0:0:0:
64,192,17837,1,2,0:0:0:0:
448,192,17837,1,8,0:0:0:0:
64,192,18004,1,2,0:0:0:0:
192,192,18004,1,8,0:0:0:0:
448,192,18087,1,0,0:0:0:0:
192,192,18170,1,2,0:0:0:0:
320,192,18170,1,8,0:0:0:0:
64,192,18254,1,0,0:0:0:0:
320,192,18337,1,2,0:0:0:0:
448,192,18337,1,8,0:0:0:0:
64,192,18504,1,2,0:0:0:0:
448,192,18504,1,8,0:0:0:0:
192,192,18670,1,2,0:0:0:0:
320,192,18670,1,8,0:0:0:0:
64,192,18754,1,10,0:0:0:0:
320,192,18837,1,2,0:0:0:0:
448,192,18837,1,8,0:0:0:0:
192,192,18920,1,10,0:0:0:0:
64,192,19004,1,8,0:0:0:0:
320,192,19004,1,2,0:0:0:0:
192,192,19087,1,10,0:0:0:0:
64,192,19170,1,8,0:0:0:0:
448,192,19170,1,2,0:0:0:0:
320,192,19254,1,10,0:0:0:0:
192,192,19337,1,8,0:0:0:0:
448,192,19337,1,2,0:0:0:0:
64,192,19420,1,10,0:0:0:0:
320,192,19504,1,8,0:0:0:0:
448,192,19504,1,2,0:0:0:0:
64,192,19587,1,8,0:0:0:0:
192,192,19587,1,2,0:0:0:0:
320,192,19670,1,8,0:0:0:0:
448,192,19670,1,2,0:0:0:0:
64,192,19754,1,2,0:0:0:0:
192,192,19754,1,8,0:0:0:0:
320,192,19837,1,8,0:0:0:0:
448,192,19837,1,2,0:0:0:0:
64,192,19920,1,8,0:0:0:0:
192,192,19920,1,2,0:0:0:0:
320,192,20004,1,8,0:0:0:0:
448,192,20004,1,2,0:0:0:0:
64,192,20087,1,2,0:0:0:0:
192,192,20087,1,8,0:0:0:0:
320,192,20170,128,2,20420:0:0:0:0:
448,192,20170,128,0,20420:0:0:0:0:
192,192,20504,128,2,20754:0:0:0:0:
448,192,20504,128,0,20754:0:0:0:0:
64,192,20837,128,2,21087:0:0:0:0:
320,192,20837,128,0,20920:0:0:0:0:
320,192,21004,1,0,0:0:0:70:LR_Drum Rpd x2.wav
320,192,21087,1,0,0:0:0:0:
192,192,21170,1,0,0:0:0:70:LR_Drum Rpd x2.wav
448,192,21170,128,0,21504:0:0:0:0:
64,192,21504,128,2,22170:0:0:0:0:
192,192,21504,128,4,22170:0:0:0:0:
448,192,22170,128,0,22337:0:0:0:0:
64,192,22337,128,2,22504:0:0:0:0:
192,192,22337,128,0,22504:0:0:0:0:
320,192,22504,128,0,22545:0:0:0:0:
448,192,22587,128,0,22629:0:0:0:0:
64,192,22670,128,0,22712:0:0:0:0:
192,192,22754,128,0,22795:0:0:0:0:
320,192,22837,1,2,0:0:0:0:
448,192,22837,128,0,23170:0:0:0:0:
64,192,22920,1,0,0:0:0:0:
320,192,23004,1,0,0:0:0:0:
64,192,23087,1,0,0:0:0:0:
192,192,23170,1,0,0:0:0:0:
448,192,23254,1,0,0:0:0:0:
64,192,23337,1,2,0:0:0:0:
320,192,23337,1,0,0:0:0:0:
192,192,23379,1,0,0:0:0:0:
448,192,23420,1,0,0:0:0:0:
320,192,23462,1,0,0:0:0:0:
64,192,23504,1,0,0:0:0:0:
448,192,23587,1,0,0:0:0:0:
320,192,23670,1,0,0:0:0:0:
192,192,23754,1,0,0:0:0:0:
320,192,23837,1,2,0:0:0:0:
448,192,23837,1,0,0:0:0:0:
64,192,24004,1,0,0:0:0:0:
192,192,24045,1,0,0:0:0:0:
320,192,24087,1,0,0:0:0:0:
448,192,24129,1,0,0:0:0:0:
64,192,24170,128,2,24337:0:0:0:0:
192,192,24170,1,0,0:0:0:0:
448,192,24337,128,0,24670:0:0:0:0:
64,192,24504,128,2,24670:0:0:0:0:
192,192,24504,1,0,0:0:0:0:
320,192,24670,128,0,25004:0:0:0:0:
64,192,25004,128,2,25170:0:0:0:0:
192,192,25004,1,0,0:0:0:0:
448,192,25170,128,0,25212:0:0:0:0:
320,192,25254,128,0,25295:0:0:0:0:
64,192,25337,128,0,25379:0:0:0:0:
192,192,25420,128,0,25462:0:0:0:0:
320,192,25504,1,2,0:0:0:0:
448,192,25504,128,0,25920:0:0:0:0:
64,192,25587,1,0,0:0:0:0:
320,192,25670,1,0,0:0:0:0:
64,192,25754,1,0,0:0:0:0:
192,192,25837,1,0,0:0:0:0:
320,192,25920,1,0,0:0:0:0:
64,192,26004,1,2,0:0:0:0:
192,192,26004,1,0,0:0:0:0:
448,192,26045,1,0,0:0:0:0:
320,192,26087,1,0,0:0:0:0:
192,192,26129,1,0,0:0:0:0:
448,192,26170,1,0,0:0:0:0:
320,192,26254,1,0,0:0:0:0:
64,192,26337,1,0,0:0:0:0:
192,192,26420,1,0,0:0:0:0:
64,192,26504,128,0,26837:0:0:0:0:
448,192,26504,128,0,26837:0:0:0:0:
192,192,26837,128,2,27504:0:0:0:0:
320,192,26837,128,4,27504:0:0:0:0:
448,192,27170,1,0,0:0:0:0:
64,192,27504,128,0,27670:0:0:0:0:
192,192,27670,128,2,27837:0:0:0:0:
320,192,27670,128,0,27837:0:0:0:0:
64,192,27837,128,0,27879:0:0:0:0:
448,192,27920,128,0,27962:0:0:0:0:
192,192,28004,128,0,28045:0:0:0:0:
320,192,28087,128,0,28129:0:0:0:0:
64,192,28170,128,2,28670:0:0:0:0:
192,192,28170,1,0,0:0:0:0:
448,192,28254,1,0,0:0:0:0:
320,192,28337,1,0,0:0:0:0:
192,192,28420,1,0,0:0:0:0:
448,192,28504,1,0,0:0:0:0:
192,192,28587,1,0,0:0:0:0:
320,192,28670,1,2,0:0:0:0:
448,192,28670,1,0,0:0:0:0:
192,192,28712,1,0,0:0:0:0:
64,192,28754,1,0,0:0:0:0:
320,192,28795,1,0,0:0:0:0:
448,192,28837,1,0,0:0:0:0:
192,192,28920,1,0,0:0:0:0:
64,192,29004,1,0,0:0:0:0:
448,192,29087,1,0,0:0:0:0:
320,192,29129,1,0,0:0:0:0:
64,192,29170,1,2,0:0:0:0:
192,192,29170,1,0,0:0:0:0:
448,192,29212,1,0,0:0:0:0:
320,192,29254,1,0,0:0:0:0:
64,192,29295,1,0,0:0:0:0:
192,192,29337,1,0,0:0:0:0:
64,192,29504,128,0,30170:0:0:0:50:Bassdrop.wav
448,192,29504,128,0,30004:0:0:0:0:
320,192,30004,128,0,30504:0:0:0:0:
192,192,30170,1,0,0:0:0:0:
448,192,30254,1,0,0:0:0:0:
192,192,30337,1,0,0:0:0:0:
64,192,30420,1,0,0:0:0:0:
448,192,30504,1,0,0:0:0:0:
192,192,30545,1,0,0:0:0:0:
320,192,30587,1,0,0:0:0:0:
64,192,30629,1,0,0:0:0:0:
448,192,30670,1,0,0:0:0:0:
192,192,30754,1,0,0:0:0:0:
448,192,30837,128,0,30920:0:0:0:0:
448,192,31004,128,0,31045:0:0:0:0:
64,192,31087,128,0,31129:0:0:0:0:
192,192,31170,1,0,0:0:0:70:LR_Tom Drop.wav
448,192,31170,128,0,31212:0:0:0:0:
64,192,31254,128,0,31295:0:0:0:0:
320,192,31337,128,0,31504:0:0:0:0:
64,192,31504,128,0,31754:0:0:0:70:Cymatics - Trap Snare 8 - A#.wav
192,192,31504,1,0,0:0:0:0:
320,192,31670,1,0,0:0:0:70:Cymatics - Trap Snare 8 - A#.wav
448,192,31670,128,0,31837:0:0:0:0:
64,192,31837,1,0,0:0:0:70:Cymatics - Trap Snare 8 - A#.wav
192,192,31837,1,0,0:0:0:0:
64,192,32170,1,2,0:0:0:0:
448,192,32170,1,4,0:0:0:0:
448,192,32337,128,0,32504:0:0:0:0:
192,192,32504,1,8,0:0:0:0:
320,192,32504,1,0,0:0:0:0:
320,192,32670,128,0,32837:0:0:0:0:
64,192,32837,1,2,0:0:0:0:
192,192,32837,1,0,0:0:0:0:
192,192,33004,128,0,33170:0:0:0:0:
64,192,33170,1,8,0:0:0:0:
448,192,33170,1,0,0:0:0:0:
320,192,33254,1,0,0:0:0:0:
192,192,33337,1,0,0:0:0:0:
320,192,33420,1,0,0:0:0:0:
64,192,33504,1,2,0:0:0:0:
448,192,33504,1,0,0:0:0:0:
192,192,33670,1,0,0:0:0:0:
320,192,33754,1,0,0:0:0:0:
64,192,33837,1,8,0:0:0:0:
448,192,33837,1,0,0:0:0:0:
192,192,33920,1,0,0:0:0:0:
320,192,34004,1,0,0:0:0:0:
64,192,34170,1,2,0:0:0:0:
448,192,34170,1,0,0:0:0:0:
192,192,34254,1,0,0:0:0:0:
448,192,34337,1,0,0:0:0:0:
320,192,34420,1,0,0:0:0:0:
64,192,34504,1,8,0:0:0:0:
192,192,34504,1,0,0:0:0:0:
64,192,34670,128,0,34837:0:0:0:0:
192,192,34837,1,2,0:0:0:0:
320,192,34837,1,0,0:0:0:0:
320,192,35004,128,0,35170:0:0:0:0:
192,192,35170,1,8,0:0:0:0:
448,192,35170,1,0,0:0:0:0:
448,192,35337,128,0,35504:0:0:0:0:
64,192,35504,1,2,0:0:0:0:
320,192,35504,1,0,0:0:0:0:
192,192,35670,1,0,0:0:0:0:
320,192,35754,1,0,0:0:0:0:
192,192,35837,1,8,0:0:0:0:
448,192,35837,1,0,0:0:0:0:
64,192,35920,1,0,0:0:0:0:
320,192,36004,1,0,0:0:0:0:
192,192,36087,1,0,0:0:0:0:
64,192,36170,1,2,0:0:0:0:
448,192,36170,1,0,0:0:0:0:
320,192,36337,1,0,0:0:0:0:
64,192,36420,1,0,0:0:0:0:
320,192,36504,1,8,0:0:0:0:
448,192,36504,1,0,0:0:0:0:
192,192,36587,1,0,0:0:0:0:
320,192,36670,128,0,36837:0:0:0:0:
64,192,36837,1,2,0:0:0:0:
448,192,36837,1,0,0:0:0:0:
192,192,37004,128,0,37170:0:0:0:0:
320,192,37170,1,8,0:0:0:0:
448,192,37170,1,0,0:0:0:0:
320,192,37337,128,0,37504:0:0:0:0:
64,192,37504,1,4,0:0:0:0:
192,192,37504,1,2,0:0:0:0:
64,192,37670,1,2,0:0:0:0:
320,192,37670,1,0,0:0:0:0:
192,192,37837,1,8,0:0:0:0:
320,192,37837,1,0,0:0:0:0:
192,192,38004,1,2,0:0:0:0:
448,192,38004,1,0,0:0:0:0:
64,192,38170,1,2,0:0:0:0:
320,192,38170,1,0,0:0:0:0:
192,192,38337,1,2,0:0:0:0:
448,192,38337,1,0,0:0:0:0:
64,192,38504,1,8,0:0:0:0:
320,192,38504,1,0,0:0:0:0:
448,192,38587,1,0,0:0:0:0:
192,192,38670,1,2,0:0:0:0:
320,192,38670,1,0,0:0:0:0:
64,192,38754,1,0,0:0:0:0:
192,192,38837,1,2,0:0:0:0:
448,192,38837,1,0,0:0:0:0:
320,192,39004,1,2,0:0:0:0:
448,192,39004,1,0,0:0:0:0:
64,192,39087,1,0,0:0:0:0:
192,192,39170,1,8,0:0:0:0:
320,192,39170,1,0,0:0:0:0:
448,192,39254,1,0,0:0:0:0:
64,192,39337,1,2,0:0:0:0:
192,192,39337,1,0,0:0:0:0:
64,192,39504,1,2,0:0:0:0:
448,192,39504,1,0,0:0:0:0:
320,192,39587,1,0,0:0:0:0:
192,192,39670,1,2,0:0:0:0:
448,192,39670,1,0,0:0:0:0:
64,192,39754,1,0,0:0:0:0:
192,192,39837,1,8,0:0:0:0:
320,192,39837,1,0,0:0:0:0:
320,192,40004,1,2,0:0:0:0:
448,192,40004,1,0,0:0:0:0:
64,192,40170,1,2,0:0:0:0:
192,192,40170,1,0,0:0:0:0:
320,192,40254,1,2,0:0:0:0:
448,192,40254,1,0,0:0:0:0:
64,192,40337,1,2,0:0:0:0:
192,192,40337,1,0,0:0:0:0:
320,192,40420,1,2,0:0:0:0:
448,192,40420,1,0,0:0:0:0:
64,192,40504,1,2,0:0:0:0:
192,192,40504,1,0,0:0:0:0:
320,192,40587,1,2,0:0:0:0:
448,192,40587,1,0,0:0:0:0:
64,192,40670,1,2,0:0:0:0:
192,192,40670,1,0,0:0:0:0:
320,192,40754,1,2,0:0:0:0:
448,192,40754,1,0,0:0:0:0:
64,192,40837,1,2,0:0:0:0:
192,192,40837,1,0,0:0:0:0:
320,192,40920,1,0,0:0:0:70:LR_Drum Rpd x2.wav
448,192,40920,1,0,0:0:0:0:
192,192,41004,1,0,0:0:0:70:LR_Drum Rpd x2.wav
320,192,41087,1,0,0:0:0:70:LR_Drum Rpd x2.wav
192,192,41170,1,0,0:0:0:70:LR_Drum Rpd x2.wav
320,192,41254,1,0,0:0:0:70:LR_Drum Rpd x2.wav
192,192,41337,1,2,0:0:0:0:
320,192,41420,1,0,0:0:0:70:LR_Drum Rpd x2.wav
64,192,41504,128,0,41587:0:0:0:0:
64,192,41670,128,0,41754:0:0:0:0:
320,192,41837,1,0,0:0:0:0:
192,192,41920,1,0,0:0:0:0:
448,192,42004,128,0,42087:0:0:0:0:
320,192,42087,1,0,0:0:0:0:
448,192,42170,128,0,42254:0:0:0:0:
64,192,42254,1,0,0:0:0:0:
320,192,42337,1,0,0:0:0:0:
192,192,42420,1,0,0:0:0:0:
448,192,42504,128,0,42587:0:0:0:0:
448,192,42670,128,0,42837:0:0:0:0:
64,192,42837,128,2,43004:0:0:0:0:
192,192,42837,128,4,43004:0:0:0:0:
320,192,42837,128,0,43004:0:0:0:0:
448,192,43087,1,0,0:0:0:0:
192,192,43170,128,2,43337:0:0:0:0:
320,192,43170,128,0,43337:0:0:0:0:
448,192,43337,128,0,43504:0:0:0:0:
64,192,43504,128,2,43670:0:0:0:0:
192,192,43504,128,0,43670:0:0:0:0:
320,192,43670,1,0,0:0:0:0:
448,192,43754,1,0,0:0:0:0:
192,192,43837,128,2,44004:0:0:0:0:
320,192,43837,128,0,44004:0:0:0:0:
448,192,44004,128,0,44170:0:0:0:0:
64,192,44170,128,2,44337:0:0:0:0:
192,192,44170,128,0,44337:0:0:0:0:
320,192,44337,1,0,0:0:0:0:
448,192,44420,1,0,0:0:0:0:
192,192,44504,128,2,44670:0:0:0:0:
320,192,44504,128,0,44670:0:0:0:0:
448,192,44670,128,0,44837:0:0:0:0:
64,192,44837,1,2,0:0:0:0:
192,192,44837,1,0,0:0:0:0:
320,192,44920,1,0,0:0:0:0:
64,192,45004,1,0,0:0:0:0:
320,192,45087,1,0,0:0:0:0:
64,192,45170,128,2,45337:0:0:0:0:
192,192,45170,128,0,45337:0:0:0:0:
448,192,45170,128,0,45337:0:0:0:0:
320,192,45337,1,0,0:0:0:0:
64,192,45504,128,2,45670:0:0:0:0:
320,192,45504,128,0,45670:0:0:0:0:
448,192,45504,128,0,45670:0:0:0:0:
192,192,45670,1,0,0:0:0:0:
320,192,45754,1,0,0:0:0:0:
192,192,45837,128,2,46004:0:0:0:0:
448,192,45837,128,0,46170:0:0:0:0:
64,192,46004,1,0,0:0:0:0:
192,192,46087,1,0,0:0:0:0:
64,192,46170,128,2,46504:0:0:0:0:
320,192,46170,128,0,46337:0:0:0:0:
448,192,46337,1,0,0:0:0:0:
320,192,46420,1,0,0:0:0:0:
192,192,46504,128,2,46670:0:0:0:0:
448,192,46504,128,0,46837:0:0:0:0:
64,192,46670,1,0,0:0:0:0:
192,192,46754,1,0,0:0:0:0:
64,192,46837,128,2,47170:0:0:0:0:
320,192,46837,128,0,47004:0:0:0:0:
448,192,47004,1,0,0:0:0:0:
320,192,47087,1,0,0:0:0:0:
192,192,47170,128,2,47337:0:0:0:0:
448,192,47170,128,0,47504:0:0:0:0:
64,192,47337,1,0,0:0:0:0:
192,192,47420,1,0,0:0:0:0:
64,192,47504,128,2,47670:0:0:0:0:
320,192,47504,128,0,47670:0:0:0:0:
448,192,47670,1,0,0:0:0:0:
192,192,47754,1,0,0:0:0:0:
64,192,47837,128,2,48004:0:0:0:0:
320,192,47837,128,0,48004:0:0:0:0:
448,192,47837,128,0,48004:0:0:0:0:
192,192,48004,1,0,0:0:0:0:
448,192,48087,1,0,0:0:0:0:
64,192,48170,128,2,48337:0:0:0:0:
192,192,48170,128,4,48337:0:0:0:0:
320,192,48170,128,0,48337:0:0:0:0:
320,192,48420,1,0,0:0:0:0:
192,192,48504,1,2,0:0:0:0:
448,192,48504,128,0,48670:0:0:0:0:
64,192,48670,128,0,48837:0:0:0:0:
320,192,48837,128,2,49087:0:0:0:0:
448,192,48837,128,0,49087:0:0:0:0:
192,192,49087,1,0,0:0:0:0:
64,192,49170,128,2,49337:0:0:0:0:
320,192,49170,1,0,0:0:0:0:
448,192,49337,128,0,49504:0:0:0:0:
64,192,49504,128,2,49754:0:0:0:0:
192,192,49504,128,0,49754:0:0:0:0:
320,192,49754,1,0,0:0:0:0:
192,192,49837,1,2,0:0:0:0:
448,192,49837,128,0,50004:0:0:0:0:
64,192,50004,128,0,50170:0:0:0:0:
320,192,50170,128,2,50420:0:0:0:0:
448,192,50170,128,0,50420:0:0:0:0:
192,192,50420,1,0,0:0:0:0:
64,192,50504,128,2,50670:0:0:0:0:
320,192,50504,128,0,50670:0:0:0:0:
448,192,50504,128,0,50670:0:0:0:0:
192,192,50670,1,0,0:0:0:0:
192,192,50837,128,2,51004:0:0:0:0:
320,192,50837,128,4,51004:0:0:0:0:
448,192,50837,128,0,51004:0:0:0:0:
64,192,51004,128,0,51087:0:0:0:0:
320,192,51087,1,0,0:0:0:0:
192,192,51170,1,2,0:0:0:0:
448,192,51170,1,0,0:0:0:0:
64,192,51254,128,0,51337:0:0:0:0:
320,192,51337,128,0,51420:0:0:0:0:
192,192,51420,1,0,0:0:0:0:
320,192,51504,1,2,0:0:0:0:
448,192,51504,1,0,0:0:0:0:
192,192,51670,128,0,51754:0:0:0:0:
64,192,51754,128,0,51837:0:0:0:0:
320,192,51837,1,2,0:0:0:0:
448,192,51837,1,0,0:0:0:0:
192,192,51920,1,0,0:0:0:0:
448,192,52004,128,0,52087:0:0:0:0:
320,192,52087,128,0,52170:0:0:0:0:
64,192,52170,128,2,52254:0:0:0:0:
192,192,52170,1,0,0:0:0:0:
64,192,52337,128,0,52420:0:0:0:0:
320,192,52504,1,0,0:0:0:0:
192,192,52587,1,0,0:0:0:0:
448,192,52670,128,0,52754:0:0:0:0:
320,192,52754,1,0,0:0:0:0:
448,192,52837,128,0,52920:0:0:0:0:
64,192,52920,1,0,0:0:0:0:
320,192,53004,1,0,0:0:0:0:
192,192,53087,1,0,0:0:0:0:
448,192,53170,128,0,53337:0:0:0:0:
64,192,53337,128,0,53504:0:0:0:0:
192,192,53504,128,4,53670:0:0:0:0:
320,192,53504,128,2,53670:0:0:0:0:
448,192,53504,128,0,53670:0:0:0:0:
320,192,53754,1,0,0:0:0:0:
64,192,53837,128,2,54004:0:0:0:0:
448,192,53837,128,0,54004:0:0:0:0:
192,192,54004,1,0,0:0:0:0:
320,192,54170,128,2,54337:0:0:0:0:
448,192,54170,128,0,54337:0:0:0:0:
192,192,54337,1,0,0:0:0:0:
320,192,54420,1,0,0:0:0:0:
64,192,54504,128,2,54670:0:0:0:0:
448,192,54504,128,0,54670:0:0:0:0:
192,192,54670,1,0,0:0:0:0:
320,192,54837,128,2,55004:0:0:0:0:
448,192,54837,128,0,55004:0:0:0:0:
192,192,55004,1,0,0:0:0:0:
320,192,55087,1,0,0:0:0:0:
64,192,55170,128,2,55337:0:0:0:0:
448,192,55170,128,0,55337:0:0:0:0:
192,192,55337,1,0,0:0:0:0:
64,192,55420,1,0,0:0:0:0:
320,192,55504,1,2,0:0:0:0:
448,192,55504,1,0,0:0:0:0:
192,192,55587,1,0,0:0:0:0:
448,192,55670,1,0,0:0:0:0:
192,192,55754,1,0,0:0:0:0:
64,192,55837,128,2,56004:0:0:0:0:
320,192,55837,128,0,56004:0:0:0:0:
448,192,55837,128,0,56004:0:0:0:0:
192,192,56004,1,0,0:0:0:0:
192,192,56170,128,2,56337:0:0:0:0:
320,192,56170,128,0,56337:0:0:0:0:
448,192,56170,128,0,56337:0:0:0:0:
64,192,56337,1,0,0:0:0:0:
320,192,56420,1,0,0:0:0:0:
192,192,56504,128,2,56670:0:0:0:0:
448,192,56504,128,0,56837:0:0:0:0:
64,192,56670,1,0,0:0:0:0:
192,192,56754,1,0,0:0:0:0:
64,192,56837,128,2,57170:0:0:0:0:
320,192,56837,128,0,57004:0:0:0:0:
448,192,57004,1,0,0:0:0:0:
320,192,57087,1,0,0:0:0:0:
192,192,57170,128,2,57337:0:0:0:0:
448,192,57170,128,0,57504:0:0:0:0:
64,192,57337,1,0,0:0:0:0:
192,192,57420,1,0,0:0:0:0:
64,192,57504,128,2,57837:0:0:0:0:
320,192,57504,128,0,57670:0:0:0:0:
448,192,57670,1,0,0:0:0:0:
320,192,57754,1,0,0:0:0:0:
192,192,57837,128,2,58004:0:0:0:0:
448,192,57837,128,0,58170:0:0:0:0:
64,192,58004,1,0,0:0:0:0:
192,192,58087,1,0,0:0:0:0:
64,192,58170,128,2,58337:0:0:0:0:
320,192,58170,128,0,58337:0:0:0:0:
448,192,58337,1,0,0:0:0:0:
192,192,58420,1,0,0:0:0:0:
64,192,58504,128,2,58670:0:0:0:0:
320,192,58504,128,0,58670:0:0:0:0:
448,192,58504,128,0,58670:0:0:0:0:
192,192,58670,1,0,0:0:0:0:
320,192,58754,1,0,0:0:0:0:
64,192,58837,1,2,0:0:0:0:
192,192,58837,1,4,0:0:0:0:
448,192,58837,128,0,59004:0:0:0:0:
320,192,58920,1,0,0:0:0:0:
192,192,59004,1,0,0:0:0:0:
320,192,59087,1,0,0:0:0:0:
64,192,59170,1,2,0:0:0:0:
448,192,59170,1,0,0:0:0:0:
192,192,59254,1,0,0:0:0:0:
320,192,59337,1,0,0:0:0:0:
448,192,59379,1,0,0:0:0:0:
192,192,59420,1,0,0:0:0:0:
64,192,59462,1,0,0:0:0:0:
320,192,59504,1,2,0:0:0:0:
448,192,59504,1,0,0:0:0:0:
192,192,59587,1,0,0:0:0:0:
320,192,59670,1,0,0:0:0:0:
192,192,59754,1,0,0:0:0:0:
64,192,59837,1,2,0:0:0:0:
448,192,59837,1,0,0:0:0:0:
320,192,59879,1,0,0:0:0:0:
192,192,59920,1,0,0:0:0:0:
448,192,60004,128,0,60170:0:0:0:0:
64,192,60170,1,2,0:0:0:0:
192,192,60170,1,0,0:0:0:0:
320,192,60254,1,0,0:0:0:0:
192,192,60337,1,0,0:0:0:0:
320,192,60420,1,0,0:0:0:0:
64,192,60504,1,2,0:0:0:0:
448,192,60504,1,0,0:0:0:0:
192,192,60587,1,0,0:0:0:0:
320,192,60670,1,0,0:0:0:0:
448,192,60712,1,0,0:0:0:0:
192,192,60754,1,0,0:0:0:0:
64,192,60795,1,0,0:0:0:0:
320,192,60837,1,2,0:0:0:0:
448,192,60837,1,0,0:0:0:0:
192,192,60920,1,0,0:0:0:0:
320,192,61004,1,0,0:0:0:0:
192,192,61087,1,0,0:0:0:0:
64,192,61170,128,2,61337:0:0:0:0:
320,192,61170,128,0,61337:0:0:0:0:
448,192,61170,1,0,0:0:0:0:
192,192,61337,128,0,61504:0:0:0:0:
64,192,61504,1,2,0:0:0:0:
320,192,61504,1,4,0:0:0:0:
448,192,61504,128,0,61670:0:0:0:0:
192,192,61587,1,0,0:0:0:0:
64,192,61670,1,0,0:0:0:0:
320,192,61754,1,0,0:0:0:0:
192,192,61837,1,2,0:0:0:0:
448,192,61837,1,0,0:0:0:0:
320,192,61920,1,0,0:0:0:0:
64,192,62004,1,0,0:0:0:0:
192,192,62045,1,0,0:0:0:0:
448,192,62087,1,0,0:0:0:0:
320,192,62129,1,0,0:0:0:0:
64,192,62170,1,2,0:0:0:0:
192,192,62170,1,0,0:0:0:0:
448,192,62254,1,0,0:0:0:0:
192,192,62337,1,0,0:0:0:0:
320,192,62420,1,0,0:0:0:0:
64,192,62504,1,2,0:0:0:0:
448,192,62504,1,0,0:0:0:0:
192,192,62545,1,0,0:0:0:0:
320,192,62587,1,0,0:0:0:0:
448,192,62670,128,0,62837:0:0:0:0:
64,192,62837,1,2,0:0:0:0:
320,192,62837,1,0,0:0:0:0:
192,192,62920,1,0,0:0:0:0:
320,192,63004,1,0,0:0:0:0:
192,192,63087,1,0,0:0:0:0:
64,192,63170,128,0,63254:0:0:0:0:
448,192,63170,128,0,63254:0:0:0:0:
320,192,63337,1,0,0:0:0:0:
448,192,63379,1,0,0:0:0:0:
192,192,63420,1,0,0:0:0:0:
64,192,63462,1,0,0:0:0:0:
320,192,63504,128,0,63587:0:0:0:0:
448,192,63504,128,0,63587:0:0:0:0:
192,192,63587,1,0,0:0:0:0:
320,192,63670,1,0,0:0:0:0:
192,192,63754,1,0,0:0:0:0:
320,192,63795,1,0,0:0:0:0:
64,192,63837,1,0,0:0:0:70:VEC4 Snares 151.wav
448,192,63837,1,0,0:0:0:0:
64,192,64170,1,2,0:0:0:0:
192,192,64170,1,4,0:0:0:0:
320,192,64337,1,0,0:0:0:0:
192,192,64420,1,0,0:0:0:0:
64,192,64504,1,8,0:0:0:0:
448,192,64504,1,0,0:0:0:0:
320,192,64587,1,0,0:0:0:0:
192,192,64670,1,0,0:0:0:0:
320,192,64837,1,0,0:0:0:0:
448,192,64920,1,0,0:0:0:0:
64,192,65004,1,2,0:0:0:0:
192,192,65004,1,0,0:0:0:0:
320,192,65087,1,0,0:0:0:0:
64,192,65170,1,8,0:0:0:0:
448,192,65170,1,0,0:0:0:0:
192,192,65337,1,0,0:0:0:0:
64,192,65420,1,0,0:0:0:0:
320,192,65504,1,2,0:0:0:0:
448,192,65504,1,0,0:0:0:0:
192,192,65670,1,0,0:0:0:0:
320,192,65754,1,0,0:0:0:0:
64,192,65837,1,8,0:0:0:0:
448,192,65837,1,0,0:0:0:0:
320,192,65920,1,0,0:0:0:0:
192,192,66004,1,0,0:0:0:0:
320,192,66170,1,0,0:0:0:0:
64,192,66254,1,0,0:0:0:0:
320,192,66337,1,2,0:0:0:0:
448,192,66337,1,0,0:0:0:0:
192,192,66420,1,0,0:0:0:0:
64,192,66504,1,8,0:0:0:0:
448,192,66504,1,0,0:0:0:0:
320,192,66670,1,0,0:0:0:0:
192,192,66754,1,0,0:0:0:0:
320,192,66837,1,2,0:0:0:0:
448,192,66837,1,0,0:0:0:0:
64,192,67004,1,0,0:0:0:0:
192,192,67087,1,0,0:0:0:0:
64,192,67170,1,8,0:0:0:0:
448,192,67170,1,0,0:0:0:0:
320,192,67254,1,0,0:0:0:0:
192,192,67337,1,0,0:0:0:0:
320,192,67504,1,0,0:0:0:0:
64,192,67587,1,0,0:0:0:0:
320,192,67670,1,2,0:0:0:0:
448,192,67670,1,0,0:0:0:0:
192,192,67754,1,0,0:0:0:0:
64,192,67837,1,8,0:0:0:0:
448,192,67837,1,0,0:0:0:0:
192,192,68004,1,0,0:0:0:0:
320,192,68087,1,0,0:0:0:0:
64,192,68170,1,2,0:0:0:0:
192,192,68170,1,0,0:0:0:0:
320,192,68337,1,0,0:0:0:0:
192,192,68420,1,0,0:0:0:0:
64,192,68504,1,8,0:0:0:0:
448,192,68504,1,0,0:0:0:0:
320,192,68587,1,0,0:0:0:0:
192,192,68670,1,0,0:0:0:0:
448,192,68837,1,0,0:0:0:0:
64,192,68920,1,0,0:0:0:0:
320,192,69004,1,2,0:0:0:0:
448,192,69004,1,0,0:0:0:0:
192,192,69087,1,0,0:0:0:0:
64,192,69170,1,8,0:0:0:0:
320,192,69170,1,0,0:0:0:0:
192,192,69337,1,0,0:0:0:0:
448,192,69420,1,0,0:0:0:0:
192,192,69504,1,2,0:0:0:0:
320,192,69504,1,0,0:0:0:0:
64,192,69670,1,0,0:0:0:0:
192,192,69754,1,0,0:0:0:0:
64,192,69837,1,8,0:0:0:0:
448,192,69837,1,0,0:0:0:0:
320,192,70004,1,0,0:0:0:0:
192,192,70170,1,0,0:0:0:0:
64,192,70254,1,0,0:0:0:0:
320,192,70337,1,2,0:0:0:0:
448,192,70337,1,0,0:0:0:0:
192,192,70420,1,0,0:0:0:0:
64,192,70504,1,8,0:0:0:0:
448,192,70504,1,0,0:0:0:0:
320,192,70670,1,0,0:0:0:0:
448,192,70754,1,0,0:0:0:0:
64,192,70837,1,2,0:0:0:0:
192,192,70837,1,0,0:0:0:0:
320,192,71004,1,0,0:0:0:0:
192,192,71087,1,0,0:0:0:0:
64,192,71170,1,8,0:0:0:0:
448,192,71170,1,0,0:0:0:0:
192,192,71254,1,0,0:0:0:0:
320,192,71337,1,0,0:0:0:0:
64,192,71504,1,0,0:0:0:0:
192,192,71587,1,0,0:0:0:0:
320,192,71670,1,2,0:0:0:0:
448,192,71670,1,0,0:0:0:0:
192,192,71754,1,0,0:0:0:0:
64,192,71837,1,8,0:0:0:0:
448,192,71837,1,0,0:0:0:0:
320,192,72004,1,0,0:0:0:0:
448,192,72087,1,0,0:0:0:0:
64,192,72170,1,2,0:0:0:0:
192,192,72170,1,0,0:0:0:0:
320,192,72337,1,0,0:0:0:0:
192,192,72420,1,0,0:0:0:0:
64,192,72504,1,8,0:0:0:0:
448,192,72504,1,0,0:0:0:0:
320,192,72587,1,0,0:0:0:0:
192,192,72670,1,0,0:0:0:0:
448,192,72837,1,0,0:0:0:0:
320,192,72920,1,0,0:0:0:0:
64,192,73004,1,2,0:0:0:0:
192,192,73004,1,0,0:0:0:0:
320,192,73087,1,0,0:0:0:0:
64,192,73170,1,8,0:0:0:0:
448,192,73170,1,0,0:0:0:0:
192,192,73337,1,0,0:0:0:0:
320,192,73420,1,0,0:0:0:0:
64,192,73504,1,2,0:0:0:0:
192,192,73504,1,0,0:0:0:0:
320,192,73670,1,0,0:0:0:0:
192,192,73754,1,0,0:0:0:0:
64,192,73837,1,8,0:0:0:0:
448,192,73837,1,0,0:0:0:0:
320,192,74004,1,0,0:0:0:0:
448,192,74087,1,0,0:0:0:0:
64,192,74170,1,0,0:0:0:0:
320,192,74337,1,2,0:0:0:0:
448,192,74337,1,0,0:0:0:0:
192,192,74420,1,0,0:0:0:0:
64,192,74504,1,8,0:0:0:0:
448,192,74504,1,0,0:0:0:0:
320,192,74587,1,2,0:0:0:0:
64,192,74670,1,2,0:0:0:0:
192,192,74670,1,0,0:0:0:0:
320,192,74754,1,2,0:0:0:0:
192,192,74837,1,8,0:0:0:0:
448,192,74837,1,0,0:0:0:0:
320,192,75004,1,0,0:0:0:0:
64,192,75087,1,8,0:0:0:0:
192,192,75087,1,0,0:0:0:0:
320,192,75170,1,2,0:0:0:0:
448,192,75170,1,0,0:0:0:0:
64,192,75337,1,8,0:0:0:0:
320,192,75337,1,0,0:0:0:0:
192,192,75504,1,8,0:0:0:0:
448,192,75504,1,0,0:0:0:0:
64,192,75670,1,0,0:0:0:0:
320,192,75754,1,8,0:0:0:0:
448,192,75754,1,0,0:0:0:0:
64,192,75837,1,2,0:0:0:0:
192,192,75837,1,0,0:0:0:0:
192,192,76004,1,8,0:0:0:0:
448,192,76004,1,0,0:0:0:0:
64,192,76170,1,8,0:0:0:0:
320,192,76170,1,0,0:0:0:0:
448,192,76337,1,0,0:0:0:0:
64,192,76420,1,8,0:0:0:0:
192,192,76420,1,0,0:0:0:0:
320,192,76504,1,2,0:0:0:0:
448,192,76504,1,0,0:0:0:0:
64,192,76670,1,8,0:0:0:0:
320,192,76670,1,0,0:0:0:0:
192,192,76837,1,8,0:0:0:0:
448,192,76837,1,0,0:0:0:0:
64,192,77004,1,8,0:0:0:0:
192,192,77004,1,0,0:0:0:0:
320,192,77087,1,2,0:0:0:0:
64,192,77170,1,8,0:0:0:0:
448,192,77170,1,0,0:0:0:0:
192,192,77254,1,8,0:0:0:0:
320,192,77254,1,0,0:0:0:0:
64,192,77337,1,8,0:0:0:0:
448,192,77337,1,0,0:0:0:0:
192,192,77420,1,8,0:0:0:0:
320,192,77420,1,0,0:0:0:0:
64,192,77504,1,8,0:0:0:0:
448,192,77504,1,0,0:0:0:0:
192,192,77670,1,0,0:0:0:0:
320,192,77754,1,8,0:0:0:0:
448,192,77754,1,0,0:0:0:0:
64,192,77837,1,2,0:0:0:0:
192,192,77837,1,0,0:0:0:0:
64,192,78004,1,8,0:0:0:0:
320,192,78004,1,0,0:0:0:0:
192,192,78170,1,8,0:0:0:0:
448,192,78170,1,0,0:0:0:0:
320,192,78337,1,0,0:0:0:0:
64,192,78420,1,8,0:0:0:0:
192,192,78420,1,0,0:0:0:0:
320,192,78504,1,2,0:0:0:0:
448,192,78504,1,0,0:0:0:0:
192,192,78670,1,8,0:0:0:0:
448,192,78670,1,0,0:0:0:0:
64,192,78837,1,8,0:0:0:0:
320,192,78837,1,0,0:0:0:0:
192,192,79004,1,0,0:0:0:0:
320,192,79087,1,8,0:0:0:0:
448,192,79087,1,0,0:0:0:0:
64,192,79170,1,2,0:0:0:0:
192,192,79170,1,0,0:0:0:0:
320,192,79337,1,8,0:0:0:0:
448,192,79337,1,0,0:0:0:0:
64,192,79504,1,8,0:0:0:0:
448,192,79504,1,0,0:0:0:0:
192,192,79587,1,8,0:0:0:0:
320,192,79587,1,0,0:0:0:0:
64,192,79670,1,8,0:0:0:0:
448,192,79670,1,0,0:0:0:0:
192,192,79837,1,8,0:0:0:0:
320,192,79837,1,0,0:0:0:0:
320,192,80004,1,8,0:0:0:0:
448,192,80004,1,0,0:0:0:0:
64,192,80170,1,8,0:0:0:0:
192,192,80170,1,0,0:0:0:0:
192,192,80337,1,8,0:0:0:0:
448,192,80337,1,0,0:0:0:0:
320,192,80420,1,2,0:0:0:0:
64,192,80504,1,8,0:0:0:0:
448,192,80504,1,0,0:0:0:0:
320,192,80670,1,8,0:0:0:0:
448,192,80670,1,0,0:0:0:0:
64,192,80837,1,8,0:0:0:0:
192,192,80837,1,0,0:0:0:0:
64,192,81004,1,8,0:0:0:0:
320,192,81004,1,0,0:0:0:0:
192,192,81087,1,2,0:0:0:0:
320,192,81170,1,8,0:0:0:0:
448,192,81170,1,0,0:0:0:0:
192,192,81337,1,8,0:0:0:0:
448,192,81337,1,0,0:0:0:0:
64,192,81504,1,8,0:0:0:0:
320,192,81504,1,0,0:0:0:0:
64,192,81670,1,8,0:0:0:0:
192,192,81670,1,0,0:0:0:0:
448,192,81754,1,2,0:0:0:0:
64,192,81837,1,8,0:0:0:0:
320,192,81837,1,0,0:0:0:0:
192,192,82004,1,8,0:0:0:0:
448,192,82004,1,0,0:0:0:0:
320,192,82170,1,8,0:0:0:0:
448,192,82170,1,0,0:0:0:0:
64,192,82337,1,8,0:0:0:0:
192,192,82337,1,0,0:0:0:0:
320,192,82420,1,2,0:0:0:0:
64,192,82504,1,8,0:0:0:0:
448,192,82504,1,0,0:0:0:0:
192,192,82670,1,8,0:0:0:0:
320,192,82670,1,0,0:0:0:0:
448,192,82754,1,2,0:0:0:0:
64,192,82837,1,8,0:0:0:0:
192,192,82837,1,0,0:0:0:0:
320,192,82920,1,2,0:0:0:0:
64,192,83004,1,8,0:0:0:0:
448,192,83004,1,0,0:0:0:0:
192,192,83087,1,2,0:0:0:0:
320,192,83170,1,8,0:0:0:0:
448,192,83170,1,0,0:0:0:0:
64,192,83254,1,2,0:0:0:0:
192,192,83337,1,8,0:0:0:0:
320,192,83337,1,0,0:0:0:0:
448,192,83420,1,2,0:0:0:0:
64,192,83504,1,8,0:0:0:0:
192,192,83504,1,0,0:0:0:0:
320,192,83587,1,2,0:0:0:0:
448,192,83587,1,0,0:0:0:0:
64,192,83670,1,8,0:0:0:0:
192,192,83670,1,0,0:0:0:0:
320,192,83754,1,2,0:0:0:0:
448,192,83754,1,0,0:0:0:0:
64,192,83837,1,8,0:0:0:0:
192,192,83837,1,0,0:0:0:0:
320,192,83920,1,2,0:0:0:0:
448,192,83920,1,0,0:0:0:0:
64,192,84004,1,8,0:0:0:0:
192,192,84004,1,0,0:0:0:0:
320,192,84087,1,2,0:0:0:0:
448,192,84087,1,0,0:0:0:0:
64,192,84170,128,2,84504:0:0:0:0:
192,192,84170,1,0,0:0:0:0:
320,192,84337,1,0,0:0:0:0:
192,192,84420,1,0,0:0:0:0:
448,192,84504,1,2,0:0:0:0:
320,192,84545,1,0,0:0:0:0:
192,192,84587,1,0,0:0:0:0:
64,192,84629,1,0,0:0:0:0:
448,192,84670,1,0,0:0:0:0:
320,192,84712,1,0,0:0:0:0:
64,192,84754,1,0,0:0:0:0:
192,192,84795,1,0,0:0:0:0:
448,192,84837,1,2,0:0:0:0:
320,192,84920,1,0,0:0:0:0:
64,192,85004,1,0,0:0:0:0:
192,192,85087,1,0,0:0:0:0:
64,192,85170,128,0,85254:0:0:0:100:LR4_DrumKickHat.wav
448,192,85170,128,0,85254:0:0:0:0:
192,192,85504,1,4,0:0:0:0:
320,192,85504,128,2,85837:0:0:0:0:
64,192,85837,128,0,85920:0:0:0:0:
192,192,85920,1,0,0:0:0:0:
64,192,86004,128,0,86087:0:0:0:0:
192,192,86087,1,0,0:0:0:0:
320,192,86170,1,0,0:0:0:70:Cymatics - Trap Snare 8 - A#.wav
448,192,86170,1,0,0:0:0:0:
192,192,86254,1,0,0:0:0:0:
64,192,86337,1,2,0:0:0:0:
320,192,86337,1,0,0:0:0:0:
192,192,86504,1,0,0:0:0:0:
320,192,86559,1,0,0:0:0:0:
64,192,86615,1,0,0:0:0:0:
448,192,86670,1,0,0:0:0:0:
320,192,86712,1,0,0:0:0:0:
192,192,86754,1,0,0:0:0:0:
64,192,86795,1,0,0:0:0:0:
320,192,86837,1,2,0:0:0:0:
448,192,86837,1,0,0:0:0:0:
192,192,87004,128,0,87087:0:0:0:0:
192,192,87170,128,0,87254:0:0:0:0:
320,192,87254,1,0,0:0:0:0:
192,192,87337,128,0,87420:0:0:0:0:
320,192,87420,1,0,0:0:0:0:
64,192,87504,1,0,0:0:0:70:Cymatics - Trap Snare 8 - A#.wav
448,192,87504,1,0,0:0:0:0:
192,192,87587,1,0,0:0:0:0:
320,192,87670,1,0,0:0:0:0:
448,192,87754,1,0,0:0:0:0:
64,192,87837,1,0,0:0:0:0:
192,192,87893,1,0,0:0:0:0:
320,192,87948,1,0,0:0:0:0:
64,192,88004,1,0,0:0:0:0:
448,192,88045,1,0,0:0:0:0:
320,192,88087,1,0,0:0:0:0:
64,192,88170,128,2,88504:0:0:0:0:
192,192,88170,1,0,0:0:0:0:
320,192,88337,1,0,0:0:0:0:
448,192,88504,128,0,88587:0:0:0:0:
320,192,88587,1,0,0:0:0:0:
448,192,88670,128,0,88754:0:0:0:0:
320,192,88754,1,0,0:0:0:0:
64,192,88837,1,0,0:0:0:70:Cymatics - Trap Snare 8 - A#.wav
192,192,88837,1,0,0:0:0:0:
320,192,88920,1,0,0:0:0:0:
192,192,89004,1,2,0:0:0:0:
448,192,89004,1,0,0:0:0:0:
64,192,89170,1,0,0:0:0:0:
320,192,89226,1,0,0:0:0:0:
192,192,89282,1,0,0:0:0:0:
448,192,89337,1,0,0:0:0:0:
320,192,89379,1,0,0:0:0:0:
192,192,89420,1,0,0:0:0:0:
64,192,89504,128,2,89587:0:0:0:0:
320,192,89504,1,0,0:0:0:0:
64,192,89670,128,0,89754:0:0:0:0:
64,192,89837,128,0,89920:0:0:0:0:
320,192,89920,1,0,0:0:0:0:
64,192,90004,128,0,90087:0:0:0:0:
192,192,90087,1,0,0:0:0:0:
320,192,90170,1,0,0:0:0:70:Cymatics - Trap Snare 8 - A#.wav
448,192,90170,1,0,0:0:0:0:
192,192,90254,1,0,0:0:0:0:
64,192,90337,1,2,0:0:0:0:
448,192,90337,1,0,0:0:0:0:
320,192,90379,1,0,0:0:0:0:
192,192,90420,1,0,0:0:0:0:
448,192,90504,1,0,0:0:0:0:
320,192,90545,1,0,0:0:0:0:
192,192,90587,1,0,0:0:0:0:
64,192,90670,1,0,0:0:0:0:
448,192,90712,1,0,0:0:0:0:
192,192,90754,1,0,0:0:0:0:
64,192,90795,1,0,0:0:0:0:
320,192,90837,1,2,0:0:0:0:
448,192,90837,128,4,91170:0:0:0:0:
192,192,91170,128,0,91254:0:0:0:0:
64,192,91254,1,0,0:0:0:0:
192,192,91337,128,0,91420:0:0:0:0:
64,192,91420,1,0,0:0:0:0:
320,192,91504,1,0,0:0:0:70:Cymatics - Trap Snare 8 - A#.wav
448,192,91504,1,0,0:0:0:0:
192,192,91587,1,0,0:0:0:0:
64,192,91670,1,2,0:0:0:0:
320,192,91670,1,0,0:0:0:0:
448,192,91837,1,0,0:0:0:0:
192,192,91893,1,0,0:0:0:0:
320,192,91948,1,0,0:0:0:0:
64,192,92004,1,0,0:0:0:0:
192,192,92045,1,0,0:0:0:0:
320,192,92087,1,0,0:0:0:0:
448,192,92129,1,0,0:0:0:0:
64,192,92170,1,2,0:0:0:0:
192,192,92170,1,0,0:0:0:0:
320,192,92337,128,0,92420:0:0:0:0:
320,192,92504,128,0,92587:0:0:0:0:
192,192,92587,1,0,0:0:0:0:
320,192,92670,128,0,92754:0:0:0:0:
192,192,92754,1,0,0:0:0:0:
64,192,92837,1,0,0:0:0:70:Cymatics - Trap Snare 8 - A#.wav
448,192,92837,1,0,0:0:0:0:
320,192,92920,1,0,0:0:0:0:
192,192,93004,1,0,0:0:0:0:
320,192,93087,1,0,0:0:0:0:
64,192,93170,1,0,0:0:0:0:
192,192,93226,1,0,0:0:0:0:
448,192,93282,1,0,0:0:0:0:
320,192,93337,1,0,0:0:0:0:
192,192,93379,1,0,0:0:0:0:
64,192,93420,1,0,0:0:0:0:
320,192,93504,1,2,0:0:0:0:
448,192,93504,128,0,93837:0:0:0:0:
64,192,93670,1,0,0:0:0:0:
192,192,93837,128,0,93920:0:0:0:0:
64,192,93920,1,0,0:0:0:0:
192,192,94004,128,0,94087:0:0:0:0:
64,192,94087,1,0,0:0:0:0:
320,192,94170,1,0,0:0:0:70:Cymatics - Trap Snare 8 - A#.wav
448,192,94170,1,0,0:0:0:0:
192,192,94254,1,0,0:0:0:0:
64,192,94337,1,2,0:0:0:0:
320,192,94337,1,0,0:0:0:0:
192,192,94504,1,0,0:0:0:0:
64,192,94559,1,0,0:0:0:0:
320,192,94615,1,0,0:0:0:0:
448,192,94670,1,0,0:0:0:0:
64,192,94712,1,0,0:0:0:0:
192,192,94754,1,0,0:0:0:0:
320,192,94837,1,2,0:0:0:0:
448,192,94837,128,0,95087:0:0:0:0:
64,192,95004,128,0,95170:0:0:0:0:
320,192,95170,1,0,0:0:0:0:
448,192,95212,1,0,0:0:0:0:
192,192,95254,1,0,0:0:0:0:
64,192,95295,1,0,0:0:0:0:
320,192,95337,1,0,0:0:0:0:
448,192,95379,1,0,0:0:0:0:
192,192,95420,1,0,0:0:0:0:
64,192,95462,1,0,0:0:0:0:
320,192,95504,1,0,0:0:0:70:Cymatics - Trap Snare 8 - A#.wav
448,192,95504,1,0,0:0:0:0:
64,192,95670,1,2,0:0:0:0:
192,192,95670,1,0,0:0:0:0:
192,192,95837,1,8,0:0:0:0:
448,192,95837,1,0,0:0:0:0:
320,192,95920,1,2,0:0:0:0:
64,192,96004,1,8,0:0:0:0:
448,192,96004,1,0,0:0:0:0:
192,192,96087,1,2,0:0:0:0:
320,192,96170,1,8,0:0:0:0:
448,192,96170,1,0,0:0:0:0:
64,192,96254,1,0,0:0:0:0:
192,192,96337,1,0,0:0:0:0:
320,192,96420,1,2,0:0:0:0:
448,192,96420,1,0,0:0:0:0:
64,192,96504,1,2,0:0:0:0:
192,192,96504,1,0,0:0:0:0:
448,192,96587,1,0,0:0:0:0:
192,192,96670,1,2,0:0:0:0:
320,192,96670,1,0,0:0:0:0:
64,192,96754,1,0,0:0:0:0:
320,192,96837,1,8,0:0:0:0:
448,192,96837,1,0,0:0:0:0:
192,192,96920,1,0,0:0:0:0:
448,192,97004,1,0,0:0:0:0:
64,192,97087,1,2,0:0:0:0:
192,192,97087,1,0,0:0:0:0:
320,192,97170,1,2,0:0:0:0:
448,192,97170,1,0,0:0:0:0:
192,192,97254,1,0,0:0:0:0:
64,192,97337,1,2,0:0:0:0:
448,192,97337,1,0,0:0:0:0:
320,192,97420,1,0,0:0:0:0:
64,192,97504,1,8,0:0:0:0:
192,192,97504,1,0,0:0:0:0:
448,192,97587,1,0,0:0:0:0:
320,192,97670,1,0,0:0:0:0:
64,192,97754,1,2,0:0:0:0:
192,192,97754,1,0,0:0:0:0:
320,192,97837,1,2,0:0:0:0:
448,192,97837,1,0,0:0:0:0:
64,192,97920,1,0,0:0:0:0:
192,192,98004,1,2,0:0:0:0:
320,192,98004,1,0,0:0:0:0:
448,192,98087,1,0,0:0:0:0:
64,192,98170,1,8,0:0:0:0:
192,192,98170,1,0,0:0:0:0:
320,192,98254,1,0,0:0:0:0:
64,192,98337,1,8,0:0:0:0:
448,192,98337,1,0,0:0:0:0:
192,192,98420,1,2,0:0:0:0:
320,192,98504,1,2,0:0:0:0:
448,192,98504,1,0,0:0:0:0:
64,192,98587,1,8,0:0:0:0:
192,192,98587,1,0,0:0:0:0:
320,192,98670,1,2,0:0:0:0:
448,192,98670,1,0,0:0:0:0:
64,192,98754,1,0,0:0:0:0:
192,192,98754,1,0,0:0:0:0:
320,192,98837,1,8,0:0:0:0:
448,192,98837,1,0,0:0:0:0:
64,192,98920,1,0,0:0:0:0:
192,192,99004,1,0,0:0:0:0:
320,192,99087,1,2,0:0:0:0:
448,192,99087,1,0,0:0:0:0:
64,192,99170,1,2,0:0:0:0:
192,192,99170,1,0,0:0:0:0:
320,192,99254,1,0,0:0:0:0:
64,192,99337,1,2,0:0:0:0:
448,192,99337,1,0,0:0:0:0:
192,192,99420,1,0,0:0:0:0:
320,192,99504,1,8,0:0:0:0:
448,192,99504,1,0,0:0:0:0:
64,192,99587,1,0,0:0:0:0:
192,192,99670,1,0,0:0:0:0:
320,192,99754,1,2,0:0:0:0:
448,192,99754,1,0,0:0:0:0:
64,192,99837,1,2,0:0:0:0:
192,192,99837,1,0,0:0:0:0:
448,192,99920,1,0,0:0:0:0:
192,192,100004,1,2,0:0:0:0:
320,192,100004,1,0,0:0:0:0:
64,192,100087,1,0,0:0:0:0:
320,192,100170,1,8,0:0:0:0:
448,192,100170,1,0,0:0:0:0:
192,192,100254,1,0,0:0:0:0:
64,192,100337,1,0,0:0:0:0:
320,192,100420,1,2,0:0:0:0:
448,192,100420,1,0,0:0:0:0:
64,192,100504,1,2,0:0:0:0:
192,192,100504,1,0,0:0:0:0:
448,192,100587,1,0,0:0:0:0:
64,192,100670,1,2,0:0:0:0:
320,192,100670,1,0,0:0:0:0:
192,192,100754,1,0,0:0:0:0:
320,192,100837,1,2,0:0:0:0:
448,192,100837,1,0,0:0:0:0:
64,192,100920,1,2,0:0:0:0:
192,192,100920,1,0,0:0:0:0:
320,192,101004,1,0,0:0:0:0:
448,192,101004,1,0,0:0:0:0:
64,192,101087,1,0,0:0:0:0:
192,192,101170,1,8,0:0:0:0:
448,192,101170,1,0,0:0:0:0:
320,192,101254,1,0,0:0:0:0:
64,192,101337,1,2,0:0:0:0:
192,192,101337,1,0,0:0:0:0:
320,192,101420,1,0,0:0:0:0:
64,192,101504,1,8,0:0:0:0:
448,192,101504,1,0,0:0:0:0:
192,192,101587,1,0,0:0:0:0:
64,192,101670,1,2,0:0:0:0:
320,192,101670,1,0,0:0:0:0:
448,192,101754,1,0,0:0:0:0:
192,192,101837,1,8,0:0:0:0:
320,192,101837,1,0,0:0:0:0:
64,192,101920,1,0,0:0:0:0:
192,192,102004,1,2,0:0:0:0:
448,192,102004,1,0,0:0:0:0:
320,192,102087,1,0,0:0:0:0:
64,192,102170,1,8,0:0:0:0:
448,192,102170,1,0,0:0:0:0:
192,192,102254,1,0,0:0:0:0:
320,192,102337,1,2,0:0:0:0:
448,192,102337,1,0,0:0:0:0:
192,192,102420,1,0,0:0:0:0:
64,192,102504,1,8,0:0:0:0:
320,192,102504,1,0,0:0:0:0:
448,192,102587,1,0,0:0:0:0:
64,192,102670,1,2,0:0:0:0:
192,192,102670,1,0,0:0:0:0:
320,192,102754,1,0,0:0:0:0:
192,192,102837,1,8,0:0:0:0:
448,192,102837,1,0,0:0:0:0:
64,192,102920,1,0,0:0:0:0:
320,192,103004,1,2,0:0:0:0:
448,192,103004,1,0,0:0:0:0:
192,192,103087,1,0,0:0:0:0:
64,192,103170,1,8,0:0:0:0:
320,192,103170,1,0,0:0:0:0:
448,192,103254,1,0,0:0:0:0:
64,192,103337,1,2,0:0:0:0:
192,192,103337,1,0,0:0:0:0:
320,192,103420,1,0,0:0:0:0:
64,192,103504,1,8,0:0:0:0:
448,192,103504,1,0,0:0:0:0:
192,192,103587,1,0,0:0:0:0:
320,192,103670,1,2,0:0:0:0:
448,192,103670,1,0,0:0:0:0:
192,192,103754,1,0,0:0:0:0:
64,192,103837,1,8,0:0:0:0:
320,192,103837,1,0,0:0:0:0:
448,192,103920,1,0,0:0:0:0:
64,192,104004,1,2,0:0:0:0:
192,192,104004,1,0,0:0:0:0:
320,192,104087,1,2,0:0:0:0:
448,192,104087,1,0,0:0:0:0:
64,192,104170,1,8,0:0:0:0:
192,192,104170,1,0,0:0:0:0:
320,192,104254,1,2,0:0:0:0:
448,192,104254,1,0,0:0:0:0:
64,192,104337,1,2,0:0:0:0:
192,192,104337,1,0,0:0:0:0:
320,192,104420,1,2,0:0:0:0:
448,192,104420,1,0,0:0:0:0:
64,192,104504,1,8,0:0:0:0:
192,192,104504,1,0,0:0:0:0:
320,192,104587,1,2,0:0:0:0:
448,192,104587,1,0,0:0:0:0:
64,192,104670,1,2,0:0:0:0:
192,192,104670,1,0,0:0:0:0:
320,192,104754,1,2,0:0:0:0:
448,192,104754,1,0,0:0:0:0:
64,192,104837,1,8,0:0:0:0:
192,192,104837,1,0,0:0:0:0:
320,192,104920,1,2,0:0:0:0:
448,192,104920,1,0,0:0:0:0:
64,192,105004,1,2,0:0:0:0:
192,192,105004,1,0,0:0:0:0:
320,192,105087,1,2,0:0:0:0:
448,192,105087,1,0,0:0:0:0:
64,192,105170,1,8,0:0:0:0:
192,192,105170,1,0,0:0:0:0:
320,192,105254,1,2,0:0:0:0:
448,192,105254,1,0,0:0:0:0:
64,192,105337,1,2,0:0:0:0:
192,192,105337,1,0,0:0:0:0:
320,192,105420,1,2,0:0:0:0:
448,192,105420,1,0,0:0:0:0:
64,192,105504,128,2,105726:0:0:0:0:
192,192,105504,128,0,105670:0:0:0:70:Cymatics - Trap Snare 8 - A#.wav
448,192,105670,1,0,0:0:0:0:
320,192,105726,1,0,0:0:0:0:
192,192,105782,1,0,0:0:0:0:
64,192,105837,1,2,0:0:0:0:
448,192,105837,1,0,0:0:0:70:Cymatics - Trap Snare 8 - A#.wav
320,192,105920,1,0,0:0:0:0:
64,192,106004,1,0,0:0:0:0:
192,192,106045,1,0,0:0:0:0:
320,192,106087,1,0,0:0:0:0:
448,192,106129,1,0,0:0:0:0:
64,192,106170,1,2,0:0:0:0:
192,192,106170,1,0,0:0:0:70:Cymatics - Trap Snare 8 - A#.wav
320,192,106254,1,0,0:0:0:0:
448,192,106337,1,0,0:0:0:0:
192,192,106420,1,0,0:0:0:0:
320,192,106462,1,0,0:0:0:0:
64,192,106504,1,2,0:0:0:0:
448,192,106504,1,0,0:0:0:70:Cymatics - Trap Snare 8 - A#.wav
320,192,106837,1,2,0:0:0:0:
448,192,106837,1,4,0:0:0:0:
192,192,106920,1,0,0:0:0:0:
448,192,107004,128,0,107087:0:0:0:0:
192,192,107087,1,0,0:0:0:0:
448,192,107170,128,0,107254:0:0:0:0:
192,192,107254,1,0,0:0:0:0:
448,192,107337,128,0,107420:0:0:0:0:
64,192,107379,1,0,0:0:0:0:
192,192,107420,1,0,0:0:0:0:
320,192,107462,1,0,0:0:0:0:
64,192,107504,128,8,107754:0:0:0:0:
448,192,107504,1,0,0:0:0:0:
320,192,107670,128,0,107754:0:0:0:0:
192,192,107837,1,0,0:0:0:0:
320,192,107920,1,0,0:0:0:0:
64,192,108004,1,0,0:0:0:0:
192,192,108087,1,0,0:0:0:0:
320,192,108170,1,2,0:0:0:0:
448,192,108170,1,4,0:0:0:0:
192,192,108337,1,0,0:0:0:0:
320,192,108420,1,0,0:0:0:0:
64,192,108504,1,8,0:0:0:0:
448,192,108504,1,0,0:0:0:0:
320,192,108587,1,0,0:0:0:0:
64,192,108670,1,2,0:0:0:0:
192,192,108670,1,0,0:0:0:0:
448,192,108712,1,0,0:0:0:0:
320,192,108754,1,0,0:0:0:0:
192,192,108795,1,0,0:0:0:0:
64,192,108837,1,0,0:0:0:0:
448,192,108920,1,0,0:0:0:0:
192,192,109004,1,2,0:0:0:0:
320,192,109004,1,0,0:0:0:0:
64,192,109087,1,0,0:0:0:0:
320,192,109170,1,8,0:0:0:0:
448,192,109170,1,0,0:0:0:0:
192,192,109254,1,0,0:0:0:0:
320,192,109337,1,2,0:0:0:0:
448,192,109379,1,0,0:0:0:0:
192,192,109420,1,2,0:0:0:0:
64,192,109462,1,0,0:0:0:0:
320,192,109504,128,2,109587:0:0:0:0:
448,192,109504,1,4,0:0:0:0:
320,192,109670,128,0,109754:0:0:0:0:
192,192,109837,1,2,0:0:0:0:
320,192,109837,128,0,109920:0:0:0:0:
320,192,110004,128,0,110087:0:0:0:0:
64,192,110170,1,8,0:0:0:0:
320,192,110170,1,0,0:0:0:0:
192,192,110254,1,0,0:0:0:0:
320,192,110337,1,0,0:0:0:0:
64,192,110420,1,2,0:0:0:0:
448,192,110420,1,0,0:0:0:0:
192,192,110504,1,0,0:0:0:0:
320,192,110587,1,0,0:0:0:0:
64,192,110670,1,2,0:0:0:0:
448,192,110670,1,0,0:0:0:0:
192,192,110754,1,0,0:0:0:0:
320,192,110837,1,2,0:0:0:0:
448,192,110837,128,4,111170:0:0:0:0:
320,192,111004,128,0,111170:0:0:0:0:
64,192,111170,128,0,111212:0:0:0:0:
192,192,111212,128,0,111254:0:0:0:0:
320,192,111254,128,0,111295:0:0:0:0:
448,192,111295,128,0,111337:0:0:0:0:
192,192,111337,1,2,0:0:0:0:
64,192,111379,1,0,0:0:0:0:
448,192,111420,1,0,0:0:0:0:
320,192,111462,1,0,0:0:0:0:
64,192,111504,128,8,111587:0:0:0:0:
192,192,111504,128,4,111587:0:0:0:0:
64,192,111670,128,0,111754:0:0:0:0:
448,192,111670,128,0,111754:0:0:0:0:
192,192,111837,128,0,112087:0:0:0:0:
448,192,111837,128,0,111920:0:0:0:0:
320,192,112004,128,0,112087:0:0:0:0:
64,192,112170,1,2,0:0:0:0:
448,192,112170,128,4,112254:0:0:0:0:
448,192,112337,128,0,112420:0:0:0:0:
64,192,112420,1,0,0:0:0:0:
320,192,112504,1,2,0:0:0:0:
448,192,112504,128,0,112587:0:0:0:0:
64,192,112587,1,0,0:0:0:0:
448,192,112670,128,0,112754:0:0:0:0:
192,192,112712,1,0,0:0:0:0:
64,192,112754,1,0,0:0:0:0:
320,192,112795,1,0,0:0:0:0:
192,192,112837,1,8,0:0:0:0:
448,192,112837,1,0,0:0:0:0:
320,192,113004,1,0,0:0:0:0:
64,192,113087,1,2,0:0:0:0:
192,192,113087,1,0,0:0:0:0:
320,192,113170,1,0,0:0:0:0:
64,192,113254,1,0,0:0:0:0:
320,192,113337,1,2,0:0:0:0:
448,192,113337,1,0,0:0:0:0:
192,192,113420,1,0,0:0:0:0:
64,192,113504,1,2,0:0:0:0:
448,192,113504,128,4,113670:0:0:0:0:
192,192,113670,1,0,0:0:0:0:
64,192,113754,1,0,0:0:0:0:
320,192,113837,1,8,0:0:0:0:
448,192,113837,1,0,0:0:0:0:
192,192,113920,1,0,0:0:0:0:
64,192,114004,1,0,0:0:0:0:
448,192,114045,1,0,0:0:0:0:
320,192,114087,1,0,0:0:0:0:
192,192,114129,1,0,0:0:0:0:
64,192,114170,1,8,0:0:0:0:
448,192,114170,1,0,0:0:0:0:
320,192,114254,1,2,0:0:0:0:
192,192,114337,1,2,0:0:0:0:
64,192,114420,1,2,0:0:0:0:
448,192,114420,1,0,0:0:0:0:
192,192,114462,1,0,0:0:0:0:
320,192,114504,1,8,0:0:0:0:
448,192,114545,1,0,0:0:0:0:
64,192,114587,1,0,0:0:0:0:
192,192,114629,1,0,0:0:0:0:
320,192,114670,1,2,0:0:0:0:
448,192,114670,1,0,0:0:0:0:
64,192,114837,128,2,114920:0:0:0:0:
192,192,114837,1,4,0:0:0:0:
64,192,115004,128,0,115087:0:0:0:0:
64,192,115170,128,2,115254:0:0:0:0:
320,192,115170,1,0,0:0:0:0:
64,192,115337,128,0,115420:0:0:0:0:
320,192,115420,1,0,0:0:0:0:
64,192,115504,1,2,0:0:0:0:
448,192,115504,1,0,0:0:0:0:
192,192,115587,1,0,0:0:0:0:
448,192,115670,1,0,0:0:0:0:
320,192,115754,1,0,0:0:0:0:
64,192,115837,1,2,0:0:0:0:
192,192,115837,1,0,0:0:0:0:
448,192,115879,1,0,0:0:0:0:
320,192,115920,1,0,0:0:0:0:
192,192,116004,1,0,0:0:0:0:
64,192,116087,1,0,0:0:0:0:
320,192,116170,1,4,0:0:0:0:
448,192,116170,1,2,0:0:0:0:
64,192,116254,1,0,0:0:0:70:Cymatics - Trap Snare 8 - A#.wav
192,192,116254,1,0,0:0:0:0:
320,192,116337,1,2,0:0:0:0:
448,192,116337,1,0,0:0:0:70:Cymatics - Trap Snare 8 - A#.wav
192,192,116504,1,2,0:0:0:0:
448,192,116504,1,0,0:0:0:70:Cymatics - Trap Snare 8 - A#.wav
64,192,116670,1,2,0:0:0:0:
320,192,116670,1,0,0:0:0:70:Cymatics - Trap Snare 8 - A#.wav
64,192,116837,1,0,0:0:0:70:Cymatics - Trap Snare 8 - A#.wav
448,192,116837,1,0,0:0:0:0:
192,192,116920,1,0,0:0:0:0:
320,192,117004,1,0,0:0:0:0:
448,192,117004,1,0,0:0:0:0:
192,192,117087,1,0,0:0:0:0:
64,192,117170,1,2,0:0:0:0:
448,192,117170,1,0,0:0:0:0:
320,192,117254,1,0,0:0:0:70:LR_Drum Rpd x2.wav
64,192,117337,1,0,0:0:0:70:LR_Drum Rpd x2.wav
192,192,117379,1,0,0:0:0:0:
320,192,117420,1,0,0:0:0:70:LR_Drum Rpd x2.wav
448,192,117462,1,0,0:0:0:0:
64,192,117504,128,4,118504:0:0:0:0:
192,192,117504,1,2,0:0:0:0:
320,192,117670,128,0,117837:0:0:0:0:
192,192,117837,1,8,0:0:0:0:
448,192,117837,1,0,0:0:0:0:
448,192,118004,128,0,118170:0:0:0:0:
192,192,118170,1,2,0:0:0:0:
320,192,118170,1,0,0:0:0:0:
192,192,118337,128,0,118504:0:0:0:0:
320,192,118504,1,8,0:0:0:0:
448,192,118504,128,0,118587:0:0:0:0:
192,192,118587,128,0,118670:0:0:0:0:
64,192,118670,128,0,118754:0:0:0:0:
320,192,118670,128,0,118754:0:0:0:0:
192,192,118754,128,0,118837:0:0:0:0:
320,192,118837,1,2,0:0:0:0:
448,192,118837,128,0,119837:0:0:0:0:
64,192,119004,128,0,119087:0:0:0:0:
192,192,119087,128,0,119170:0:0:0:0:
64,192,119170,128,8,119254:0:0:0:0:
320,192,119170,1,0,0:0:0:0:
192,192,119254,128,0,119337:0:0:0:0:
320,192,119337,128,0,119504:0:0:0:0:
64,192,119504,128,2,119587:0:0:0:0:
192,192,119504,1,0,0:0:0:0:
320,192,119587,128,0,119670:0:0:0:0:
64,192,119670,128,0,119754:0:0:0:0:
320,192,119754,128,0,119837:0:0:0:0:
64,192,119837,1,8,0:0:0:0:
192,192,119837,128,0,120004:0:0:0:0:
320,192,120004,128,0,120170:0:0:0:0:
64,192,120170,128,2,121170:0:0:0:0:
448,192,120170,1,4,0:0:0:0:
448,192,120337,128,0,120504:0:0:0:0:
192,192,120504,1,8,0:0:0:0:
320,192,120504,1,0,0:0:0:0:
320,192,120670,128,0,120837:0:0:0:0:
192,192,120837,1,2,0:0:0:0:
448,192,120837,1,0,0:0:0:0:
320,192,121004,128,0,121087:0:0:0:0:
192,192,121087,128,0,121170:0:0:0:0:
320,192,121170,128,8,121254:0:0:0:0:
448,192,121170,1,0,0:0:0:0:
64,192,121254,128,0,121337:0:0:0:0:
192,192,121337,128,0,121420:0:0:0:0:
448,192,121337,128,0,121420:0:0:0:0:
320,192,121420,128,0,121504:0:0:0:0:
64,192,121504,128,2,121837:0:0:0:0:
192,192,121504,1,4,0:0:0:0:
448,192,121670,128,0,121837:0:0:0:0:
192,192,121837,1,8,0:0:0:0:
320,192,121837,128,0,122170:0:0:0:0:
64,192,122004,128,0,122170:0:0:0:0:
192,192,122170,1,2,0:0:0:0:
448,192,122170,1,4,0:0:0:0:
192,192,122337,128,0,122504:0:0:0:0:
448,192,122337,128,0,122504:0:0:0:0:
64,192,122504,1,8,0:0:0:0:
320,192,122504,1,0,0:0:0:0:
64,192,122670,128,0,122837:0:0:0:0:
320,192,122670,128,0,122837:0:0:0:0:
192,192,122837,1,4,0:0:0:0:
448,192,122837,128,2,123837:0:0:0:0:
320,192,123004,128,0,123170:0:0:0:0:
64,192,123170,1,8,0:0:0:0:
192,192,123170,1,0,0:0:0:0:
192,192,123337,128,0,123504:0:0:0:0:
64,192,123504,1,2,0:0:0:0:
320,192,123504,1,0,0:0:0:0:
64,192,123670,128,0,123837:0:0:0:0:
192,192,123837,128,8,123920:0:0:0:0:
320,192,123837,1,0,0:0:0:0:
448,192,123920,128,0,124004:0:0:0:0:
64,192,124004,128,0,124087:0:0:0:0:
320,192,124004,128,0,124087:0:0:0:0:
192,192,124087,128,0,124170:0:0:0:0:
64,192,124170,128,2,125170:0:0:0:0:
448,192,124170,1,0,0:0:0:0:
320,192,124337,128,0,124420:0:0:0:0:
192,192,124420,128,0,124504:0:0:0:0:
320,192,124504,128,8,124587:0:0:0:0:
448,192,124504,1,0,0:0:0:0:
192,192,124587,128,0,124670:0:0:0:0:
448,192,124670,128,0,124837:0:0:0:0:
192,192,124837,128,2,124920:0:0:0:0:
320,192,124837,1,0,0:0:0:0:
448,192,124920,128,0,125004:0:0:0:0:
192,192,125004,128,0,125087:0:0:0:0:
448,192,125087,128,0,125170:0:0:0:0:
192,192,125170,1,8,0:0:0:0:
320,192,125170,1,0,0:0:0:0:
448,192,125337,128,0,125504:0:0:0:0:
64,192,125504,128,2,125670:0:0:0:0:
320,192,125504,1,4,0:0:0:0:
320,192,125670,128,0,125837:0:0:0:0:
64,192,125837,128,8,126004:0:0:0:0:
448,192,125837,1,0,0:0:0:0:
320,192,126004,128,0,126170:0:0:0:0:
64,192,126170,128,2,126337:0:0:0:0:
192,192,126170,1,0,0:0:0:0:
320,192,126337,128,0,126420:0:0:0:0:
192,192,126420,128,0,126504:0:0:0:0:
64,192,126504,128,8,126587:0:0:0:0:
448,192,126504,1,0,0:0:0:0:
320,192,126587,128,0,126670:0:0:0:0:
64,192,126670,128,0,126754:0:0:0:0:
448,192,126670,128,0,126754:0:0:0:0:
192,192,126754,128,0,126837:0:0:0:0:
320,192,126837,1,2,0:0:0:0:
448,192,126837,128,4,127337:0:0:0:0:
64,192,127004,128,0,127170:0:0:0:0:
192,192,127170,1,8,0:0:0:0:
320,192,127170,1,0,0:0:0:0:
192,192,127337,128,0,127504:0:0:0:0:
64,192,127504,1,2,0:0:0:0:
448,192,127504,1,0,0:0:0:0:
320,192,127587,1,0,0:0:0:0:
64,192,127670,1,0,0:0:0:0:
320,192,127754,1,0,0:0:0:0:
448,192,127795,1,0,0:0:0:0:
192,192,127837,1,0,0:0:0:0:
320,192,128004,128,0,128170:0:0:0:0:
64,192,128170,1,4,0:0:0:0:
192,192,128170,1,2,0:0:0:0:
448,192,128170,1,0,0:0:0:0:
320,192,128337,128,0,128504:0:0:0:0:
64,192,128504,1,8,0:0:0:0:
192,192,128504,1,0,0:0:0:0:
448,192,128504,1,0,0:0:0:0:
192,192,128670,1,0,0:0:0:0:
448,192,128670,128,0,128837:0:0:0:0:
64,192,128837,1,2,0:0:0:0:
192,192,128837,1,0,0:0:0:0:
320,192,128837,1,0,0:0:0:0:
64,192,129004,1,0,0:0:0:0:
448,192,129004,128,0,129170:0:0:0:0:
64,192,129170,1,8,0:0:0:0:
192,192,129170,1,0,0:0:0:0:
320,192,129170,1,0,0:0:0:0:
448,192,129254,1,0,0:0:0:0:
192,192,129337,1,0,0:0:0:0:
320,192,129337,1,0,0:0:0:0:
64,192,129420,1,0,0:0:0:0:
192,192,129504,1,2,0:0:0:0:
320,192,129504,1,0,0:0:0:0:
448,192,129504,1,0,0:0:0:0:
64,192,129670,1,0,0:0:0:0:
448,192,129670,1,0,0:0:0:0:
320,192,129754,1,0,0:0:0:0:
64,192,129837,1,8,0:0:0:0:
192,192,129837,1,0,0:0:0:0:
448,192,129837,1,0,0:0:0:0:
320,192,129920,1,0,0:0:0:0:
192,192,130004,128,0,130170:0:0:0:0:
64,192,130170,1,2,0:0:0:0:
320,192,130170,1,0,0:0:0:0:
448,192,130170,1,0,0:0:0:0:
192,192,130254,1,0,0:0:0:0:
64,192,130337,1,0,0:0:0:0:
448,192,130337,1,0,0:0:0:0:
320,192,130420,1,0,0:0:0:0:
64,192,130504,1,8,0:0:0:0:
192,192,130504,1,0,0:0:0:0:
448,192,130504,1,0,0:0:0:0:
192,192,130670,1,0,0:0:0:0:
320,192,130670,128,0,130837:0:0:0:0:
64,192,130837,1,2,0:0:0:0:
192,192,130837,1,4,0:0:0:0:
448,192,130837,1,0,0:0:0:0:
320,192,131004,128,0,131170:0:0:0:0:
64,192,131170,1,8,0:0:0:0:
192,192,131170,1,0,0:0:0:0:
448,192,131170,1,0,0:0:0:0:
64,192,131337,128,0,131504:0:0:0:0:
320,192,131337,1,0,0:0:0:0:
192,192,131504,1,2,0:0:0:0:
320,192,131504,1,0,0:0:0:0:
448,192,131504,1,0,0:0:0:0:
64,192,131670,1,0,0:0:0:0:
320,192,131670,1,0,0:0:0:0:
192,192,131754,1,0,0:0:0:0:
64,192,131837,1,8,0:0:0:0:
320,192,131837,1,0,0:0:0:0:
448,192,131837,1,0,0:0:0:0:
192,192,131920,1,0,0:0:0:0:
320,192,132004,1,0,0:0:0:0:
448,192,132004,1,0,0:0:0:0:
192,192,132087,1,0,0:0:0:0:
64,192,132170,128,2,132420:0:0:0:0:
320,192,132170,1,4,0:0:0:0:
448,192,132170,128,0,132420:0:0:0:0:
64,192,132504,1,8,0:0:0:0:
192,192,132504,128,0,132587:0:0:0:0:
448,192,132504,128,0,132754:0:0:0:0:
320,192,132587,128,0,132754:0:0:0:0:
192,192,132670,128,0,132754:0:0:0:0:
64,192,132837,128,2,133087:0:0:0:0:
192,192,132837,128,4,133087:0:0:0:0:
320,192,132837,128,0,133087:0:0:0:0:
64,192,133170,128,8,133420:0:0:0:0:
192,192,133170,128,0,133420:0:0:0:0:
448,192,133170,128,0,133420:0:0:0:0:
64,192,133504,1,4,0:0:0:0:
320,192,133504,1,2,0:0:0:0:
448,192,133504,1,0,0:0:0:0:
192,192,133670,128,0,133837:0:0:0:0:
64,192,133837,1,8,0:0:0:0:
320,192,133837,1,0,0:0:0:0:
448,192,133837,1,0,0:0:0:0:
192,192,134004,128,0,134170:0:0:0:0:
320,192,134004,1,0,0:0:0:0:
64,192,134170,1,2,0:0:0:0:
320,192,134170,1,0,0:0:0:0:
448,192,134170,1,0,0:0:0:0:
192,192,134337,128,0,134504:0:0:0:0:
448,192,134337,1,0,0:0:0:0:
64,192,134504,1,8,0:0:0:0:
320,192,134504,1,0,0:0:0:0:
448,192,134504,1,0,0:0:0:0:
192,192,134587,1,0,0:0:0:0:
64,192,134670,1,0,0:0:0:0:
320,192,134670,1,0,0:0:0:0:
192,192,134754,1,0,0:0:0:0:
64,192,134837,1,2,0:0:0:0:
320,192,134837,1,0,0:0:0:0:
448,192,134837,1,0,0:0:0:0:
192,192,135004,1,0,0:0:0:0:
320,192,135087,1,0,0:0:0:0:
64,192,135170,1,8,0:0:0:0:
192,192,135170,1,0,0:0:0:0:
448,192,135170,1,0,0:0:0:0:
320,192,135254,1,0,0:0:0:0:
448,192,135337,128,0,135504:0:0:0:0:
64,192,135504,1,2,0:0:0:0:
192,192,135504,1,0,0:0:0:0:
320,192,135504,1,0,0:0:0:0:
448,192,135587,1,0,0:0:0:0:
64,192,135670,1,0,0:0:0:0:
192,192,135754,1,0,0:0:0:0:
64,192,135837,1,8,0:0:0:0:
320,192,135837,1,0,0:0:0:0:
448,192,135837,1,0,0:0:0:0:
320,192,136004,128,0,136170:0:0:0:0:
64,192,136170,1,2,0:0:0:0:
448,192,136170,128,4,136254:0:0:0:0:
192,192,136337,1,0,0:0:0:0:
64,192,136504,128,8,136587:0:0:0:0:
320,192,136504,1,0,0:0:0:0:
448,192,136504,1,0,0:0:0:0:
320,192,136670,1,0,0:0:0:0:
64,192,136837,1,2,0:0:0:0:
192,192,136837,128,0,136920:0:0:0:0:
320,192,137004,1,0,0:0:0:0:
192,192,137087,1,0,0:0:0:0:
64,192,137170,1,8,0:0:0:0:
320,192,137170,1,0,0:0:0:0:
448,192,137170,128,0,137254:0:0:0:0:
192,192,137254,1,0,0:0:0:0:
448,192,137337,1,0,0:0:0:0:
320,192,137420,1,0,0:0:0:0:
64,192,137504,128,2,137754:0:0:0:0:
192,192,137504,1,4,0:0:0:0:
64,192,137837,1,8,0:0:0:0:
320,192,137837,1,0,0:0:0:0:
448,192,137837,128,0,137920:0:0:0:0:
192,192,137920,128,0,138170:0:0:0:0:
448,192,138004,128,0,138170:0:0:0:0:
64,192,138170,1,2,0:0:0:0:
320,192,138170,128,0,138504:0:0:0:0:
64,192,138504,1,8,0:0:0:0:
192,192,138504,1,0,0:0:0:0:
448,192,138504,1,0,0:0:0:0:
320,192,138587,1,2,0:0:0:0:
64,192,138670,1,2,0:0:0:0:
192,192,138670,1,0,0:0:0:0:
448,192,138754,1,2,0:0:0:0:
64,192,138837,1,2,0:0:0:0:
192,192,138837,1,4,0:0:0:0:
320,192,138837,1,0,0:0:0:0:
320,192,139004,1,0,0:0:0:70:LR_Drum Rpd x2.wav
64,192,139087,1,8,0:0:0:0:
192,192,139087,1,0,0:0:0:0:
320,192,139170,1,2,0:0:0:0:
448,192,139170,1,0,0:0:0:0:
192,192,139337,1,8,0:0:0:0:
448,192,139337,1,0,0:0:0:0:
64,192,139504,1,8,0:0:0:0:
320,192,139504,1,0,0:0:0:0:
448,192,139504,1,0,0:0:0:0:
192,192,139670,1,0,0:0:0:70:LR_Drum Rpd x2.wav
320,192,139754,1,8,0:0:0:0:
448,192,139754,1,0,0:0:0:0:
64,192,139837,1,2,0:0:0:0:
192,192,139837,1,0,0:0:0:0:
448,192,139920,1,0,0:0:0:0:
64,192,140004,1,8,0:0:0:0:
320,192,140004,1,0,0:0:0:0:
192,192,140087,1,0,0:0:0:70:LR_Drum Rpd x2.wav
64,192,140170,1,8,0:0:0:0:
320,192,140170,1,0,0:0:0:0:
448,192,140170,1,0,0:0:0:0:
448,192,140337,1,0,0:0:0:70:LR_Drum Rpd x2.wav
64,192,140420,1,0,0:0:0:70:LR_Drum Rpd x2.wav
192,192,140420,1,0,0:0:0:0:
320,192,140504,1,8,0:0:0:0:
448,192,140504,1,0,0:0:0:0:
192,192,140587,1,0,0:0:0:0:
64,192,140670,1,2,0:0:0:0:
320,192,140670,1,0,0:0:0:0:
64,192,140837,1,8,0:0:0:0:
192,192,140837,1,0,0:0:0:0:
448,192,140837,1,0,0:0:0:0:
320,192,140920,1,0,0:0:0:0:
64,192,141004,1,2,0:0:0:0:
192,192,141004,1,0,0:0:0:0:
320,192,141170,1,8,0:0:0:0:
448,192,141170,1,0,0:0:0:0:
64,192,141254,1,0,0:0:0:70:LR_Drum Rpd x2.wav
192,192,141254,1,0,0:0:0:0:
320,192,141337,1,8,0:0:0:0:
448,192,141337,1,0,0:0:0:0:
192,192,141420,1,0,0:0:0:70:LR_Drum Rpd x2.wav
64,192,141504,1,4,0:0:0:0:
320,192,141504,1,2,0:0:0:0:
448,192,141504,1,0,0:0:0:0:
192,192,141670,1,0,0:0:0:70:LR_Drum Rpd x2.wav
320,192,141754,1,8,0:0:0:0:
448,192,141754,1,0,0:0:0:0:
64,192,141837,1,2,0:0:0:0:
192,192,141837,1,0,0:0:0:0:
192,192,142004,1,8,0:0:0:0:
448,192,142004,1,0,0:0:0:0:
64,192,142170,1,8,0:0:0:0:
320,192,142170,1,0,0:0:0:0:
448,192,142170,1,0,0:0:0:0:
192,192,142337,1,0,0:0:0:70:LR_Drum Rpd x2.wav
320,192,142420,1,8,0:0:0:0:
448,192,142420,1,0,0:0:0:0:
64,192,142504,1,2,0:0:0:0:
192,192,142504,1,0,0:0:0:0:
448,192,142587,1,0,0:0:0:0:
64,192,142670,1,8,0:0:0:0:
320,192,142670,1,0,0:0:0:0:
192,192,142754,1,0,0:0:0:70:LR_Drum Rpd x2.wav
64,192,142837,1,8,0:0:0:0:
320,192,142837,1,0,0:0:0:0:
448,192,142837,1,0,0:0:0:0:
192,192,143004,1,0,0:0:0:70:LR_Drum Rpd x2.wav
64,192,143087,1,0,0:0:0:70:LR_Drum Rpd x2.wav
448,192,143087,1,0,0:0:0:0:
192,192,143170,1,8,0:0:0:0:
320,192,143170,1,0,0:0:0:0:
192,192,143337,1,2,0:0:0:0:
320,192,143337,1,0,0:0:0:0:
64,192,143504,1,8,0:0:0:0:
320,192,143504,1,0,0:0:0:0:
448,192,143504,1,0,0:0:0:0:
192,192,143587,1,0,0:0:0:0:
64,192,143670,1,2,0:0:0:0:
448,192,143670,1,0,0:0:0:0:
320,192,143837,1,8,0:0:0:0:
448,192,143837,1,0,0:0:0:0:
64,192,144004,1,2,0:0:0:0:
192,192,144004,1,0,0:0:0:0:
64,192,144170,1,8,0:0:0:0:
320,192,144170,1,4,0:0:0:0:
448,192,144170,1,0,0:0:0:0:
192,192,144337,1,2,0:0:0:0:
320,192,144337,1,0,0:0:0:0:
64,192,144504,1,8,0:0:0:0:
192,192,144504,1,0,0:0:0:0:
448,192,144504,1,0,0:0:0:0:
192,192,144670,1,2,0:0:0:0:
320,192,144670,1,0,0:0:0:0:
64,192,144837,1,8,0:0:0:0:
320,192,144837,1,0,0:0:0:0:
448,192,144837,1,0,0:0:0:0:
192,192,145004,1,2,0:0:0:0:
320,192,145004,1,0,0:0:0:0:
64,192,145170,1,8,0:0:0:0:
192,192,145170,1,0,0:0:0:0:
448,192,145170,1,0,0:0:0:0:
320,192,145254,1,0,0:0:0:0:
64,192,145337,1,2,0:0:0:0:
448,192,145337,1,0,0:0:0:0:
192,192,145504,1,8,0:0:0:0:
320,192,145504,1,0,0:0:0:0:
448,192,145504,1,0,0:0:0:0:
64,192,145670,1,2,0:0:0:0:
320,192,145670,1,0,0:0:0:0:
64,192,145837,1,8,0:0:0:0:
192,192,145837,1,0,0:0:0:0:
448,192,145837,1,0,0:0:0:0:
192,192,146004,1,2,0:0:0:0:
448,192,146004,1,0,0:0:0:0:
64,192,146170,1,8,0:0:0:0:
320,192,146170,1,0,0:0:0:0:
448,192,146170,1,0,0:0:0:0:
64,192,146337,1,2,0:0:0:0:
320,192,146337,1,0,0:0:0:0:
192,192,146504,1,8,0:0:0:0:
320,192,146504,1,0,0:0:0:0:
448,192,146504,1,0,0:0:0:0:
64,192,146670,1,2,0:0:0:0:
448,192,146670,1,0,0:0:0:0:
320,192,146754,1,2,0:0:0:0:
64,192,146837,1,0,0:0:0:0:
448,192,146837,1,0,0:0:0:0:
192,192,146920,1,0,0:0:0:0:
320,192,147004,1,0,0:0:0:0:
448,192,147087,1,0,0:0:0:0:
64,192,147170,1,0,0:0:0:0:
192,192,147170,1,0,0:0:0:0:
320,192,147254,1,0,0:0:0:0:
448,192,147337,1,0,0:0:0:0:
192,192,147420,1,0,0:0:0:0:
320,192,147504,1,0,0:0:0:0:
448,192,147504,1,0,0:0:0:0:
64,192,147587,1,0,0:0:0:0:
192,192,147670,1,0,0:0:0:0:
320,192,147754,1,0,0:0:0:0:
64,192,147837,1,0,0:0:0:70:Cymatics - Trap Snare 8 - A#.wav
448,192,147837,1,0,0:0:0:0:
192,192,147920,1,2,0:0:0:0:
320,192,147920,1,0,0:0:0:0:
64,192,148004,1,2,0:0:0:0:
448,192,148004,1,0,0:0:0:0:
192,192,148087,1,8,0:0:0:0:
320,192,148087,1,0,0:0:0:0:
64,192,148170,128,2,148670:0:0:0:0:
448,192,148170,1,0,0:0:0:70:Cymatics - Trap Snare 8 - A#.wav
192,192,148337,128,0,148670:0:0:0:0:
320,192,148504,128,2,148837:0:0:0:0:
448,192,148504,1,0,0:0:0:70:Cymatics - Trap Snare 8 - A#.wav
448,192,148670,128,0,148837:0:0:0:0:
64,192,148837,1,2,0:0:0:0:
192,192,148837,128,0,149170:0:0:0:70:Cymatics - Trap Snare 8 - A#.wav
64,192,149004,128,0,149170:0:0:0:0:
320,192,149170,128,0,149254:0:0:0:70:VEC4 Snares 151.wav
448,192,149170,1,0,0:0:0:0:
320,192,149337,128,0,149504:0:0:0:0:
64,192,149504,1,2,0:0:0:0:
192,192,149504,1,4,0:0:0:0:
448,192,149587,1,0,0:0:0:0:
320,192,149670,1,0,0:0:0:0:
192,192,149754,1,0,0:0:0:0:
64,192,149837,1,8,0:0:0:0:
320,192,149837,1,0,0:0:0:0:
448,192,149837,1,0,0:0:0:0:
192,192,149920,1,0,0:0:0:0:
320,192,150004,1,0,0:0:0:0:
448,192,150087,1,0,0:0:0:0:
64,192,150170,1,2,0:0:0:0:
192,192,150170,1,0,0:0:0:0:
320,192,150254,1,0,0:0:0:0:
448,192,150337,1,0,0:0:0:0:
192,192,150420,1,0,0:0:0:0:
64,192,150504,1,8,0:0:0:0:
320,192,150504,1,0,0:0:0:0:
448,192,150504,1,0,0:0:0:0:
192,192,150587,1,0,0:0:0:0:
320,192,150670,1,0,0:0:0:0:
448,192,150754,1,0,0:0:0:0:
64,192,150837,1,2,0:0:0:0:
192,192,150837,1,0,0:0:0:0:
320,192,150920,1,0,0:0:0:0:
448,192,151004,1,0,0:0:0:0:
192,192,151087,1,0,0:0:0:0:
64,192,151170,1,8,0:0:0:0:
320,192,151170,1,0,0:0:0:0:
448,192,151170,1,0,0:0:0:0:
192,192,151254,1,0,0:0:0:0:
320,192,151337,1,0,0:0:0:0:
64,192,151420,1,0,0:0:0:0:
192,192,151504,1,2,0:0:0:0:
448,192,151504,1,0,0:0:0:0:
320,192,151587,1,0,0:0:0:0:
64,192,151670,1,0,0:0:0:0:
192,192,151754,1,0,0:0:0:0:
64,192,151837,1,8,0:0:0:0:
320,192,151837,1,0,0:0:0:0:
448,192,151837,1,0,0:0:0:0:
192,192,151920,1,0,0:0:0:0:
320,192,152004,1,0,0:0:0:0:
448,192,152087,1,0,0:0:0:0:
64,192,152170,1,2,0:0:0:0:
192,192,152170,1,0,0:0:0:0:
320,192,152254,1,0,0:0:0:0:
448,192,152337,1,0,0:0:0:0:
192,192,152420,1,0,0:0:0:0:
64,192,152504,1,8,0:0:0:0:
320,192,152504,1,0,0:0:0:0:
448,192,152504,1,0,0:0:0:0:
192,192,152587,1,0,0:0:0:0:
448,192,152670,1,0,0:0:0:0:
320,192,152754,1,0,0:0:0:0:
64,192,152837,1,2,0:0:0:0:
192,192,152837,1,0,0:0:0:0:
448,192,152920,1,0,0:0:0:0:
320,192,153004,1,0,0:0:0:0:
192,192,153087,1,0,0:0:0:0:
64,192,153170,1,8,0:0:0:0:
320,192,153170,1,0,0:0:0:0:
448,192,153170,1,0,0:0:0:0:
192,192,153254,1,0,0:0:0:0:
448,192,153337,1,0,0:0:0:0:
320,192,153420,1,0,0:0:0:0:
64,192,153504,1,2,0:0:0:0:
448,192,153504,1,0,0:0:0:0:
192,192,153587,1,0,0:0:0:0:
320,192,153670,1,0,0:0:0:0:
192,192,153754,1,0,0:0:0:0:
64,192,153837,1,8,0:0:0:0:
320,192,153837,1,0,0:0:0:0:
448,192,153837,1,0,0:0:0:0:
192,192,153920,1,0,0:0:0:0:
448,192,154004,1,0,0:0:0:0:
320,192,154087,1,0,0:0:0:0:
64,192,154170,1,2,0:0:0:0:
192,192,154170,1,0,0:0:0:0:
320,192,154254,1,0,0:0:0:0:
64,192,154337,1,0,0:0:0:0:
192,192,154420,1,0,0:0:0:0:
64,192,154504,1,8,0:0:0:0:
320,192,154504,1,0,0:0:0:0:
448,192,154504,1,0,0:0:0:0:
192,192,154587,1,0,0:0:0:0:
320,192,154670,1,0,0:0:0:0:
448,192,154754,1,0,0:0:0:0:
64,192,154837,1,2,0:0:0:0:
192,192,154837,1,0,0:0:0:0:
320,192,154920,1,0,0:0:0:0:
448,192,155004,1,0,0:0:0:0:
192,192,155087,1,0,0:0:0:0:
64,192,155170,1,8,0:0:0:0:
320,192,155170,1,0,0:0:0:0:
448,192,155170,1,0,0:0:0:0:
192,192,155254,1,0,0:0:0:0:
320,192,155337,1,0,0:0:0:0:
192,192,155420,1,0,0:0:0:0:
64,192,155504,1,2,0:0:0:0:
448,192,155504,1,0,0:0:0:0:
320,192,155587,1,0,0:0:0:0:
192,192,155670,1,0,0:0:0:0:
320,192,155754,1,0,0:0:0:0:
64,192,155837,1,8,0:0:0:0:
192,192,155837,1,0,0:0:0:0:
448,192,155837,1,0,0:0:0:0:
320,192,155920,1,0,0:0:0:0:
64,192,156004,1,0,0:0:0:0:
192,192,156087,1,0,0:0:0:0:
320,192,156170,1,2,0:0:0:0:
448,192,156170,1,0,0:0:0:0:
64,192,156254,1,0,0:0:0:0:
320,192,156337,1,0,0:0:0:0:
192,192,156420,1,0,0:0:0:0:
64,192,156504,1,8,0:0:0:0:
320,192,156504,1,0,0:0:0:0:
448,192,156504,1,0,0:0:0:0:
192,192,156587,1,0,0:0:0:0:
64,192,156670,1,0,0:0:0:0:
320,192,156754,1,0,0:0:0:0:
192,192,156837,1,2,0:0:0:0:
448,192,156837,1,0,0:0:0:0:
64,192,156920,1,0,0:0:0:0:
320,192,157004,1,0,0:0:0:0:
192,192,157087,1,0,0:0:0:0:
64,192,157170,1,8,0:0:0:0:
320,192,157170,1,0,0:0:0:0:
448,192,157170,1,0,0:0:0:0:
192,192,157254,1,0,0:0:0:0:
320,192,157337,1,0,0:0:0:0:
448,192,157420,1,0,0:0:0:0:
64,192,157504,1,2,0:0:0:0:
192,192,157504,1,0,0:0:0:0:
320,192,157587,1,0,0:0:0:0:
192,192,157670,1,0,0:0:0:0:
448,192,157754,1,0,0:0:0:0:
64,192,157837,1,8,0:0:0:0:
192,192,157837,1,0,0:0:0:0:
320,192,157837,1,0,0:0:0:0:
448,192,157920,1,0,0:0:0:0:
64,192,158004,1,0,0:0:0:0:
192,192,158087,1,0,0:0:0:0:
320,192,158170,1,2,0:0:0:0:
448,192,158170,1,0,0:0:0:0:
192,192,158254,1,0,0:0:0:0:
64,192,158337,1,0,0:0:0:0:
320,192,158420,1,0,0:0:0:0:
64,192,158504,1,8,0:0:0:0:
192,192,158504,1,0,0:0:0:0:
448,192,158504,1,0,0:0:0:0:
320,192,158587,1,0,0:0:0:0:
192,192,158670,1,0,0:0:0:0:
64,192,158754,1,0,0:0:0:0:
320,192,158837,1,2,0:0:0:0:
448,192,158837,1,0,0:0:0:0:
448,192,159004,128,0,159170:0:0:0:0:
64,192,159170,1,2,0:0:0:0:
192,192,159212,1,0,0:0:0:0:
320,192,159254,1,0,0:0:0:0:
448,192,159295,1,0,0:0:0:0:
64,192,159337,1,0,0:0:0:0:
192,192,159379,1,0,0:0:0:0:
320,192,159420,1,0,0:0:0:0:
448,192,159462,1,0,0:0:0:0:
64,192,159504,1,2,0:0:0:0:
192,192,159587,1,0,0:0:0:0:
320,192,159670,1,0,0:0:0:0:
64,192,159837,1,0,0:0:0:70:VEC4 Snares 151.wav
192,192,159837,1,0,0:0:0:0:
448,192,159837,1,0,0:0:0:0:
320,192,159920,1,2,0:0:0:0:
64,192,160004,1,2,0:0:0:0:
192,192,160087,1,2,0:0:0:0:
320,192,160170,1,4,0:0:0:0:
448,192,160170,1,8,0:0:0:0:
64,192,160337,1,0,0:0:0:0:
320,192,160420,1,0,0:0:0:0:
448,192,160420,1,0,0:0:0:0:
64,192,160504,1,2,0:0:0:0:
192,192,160504,1,0,0:0:0:0:
192,192,160670,1,2,0:0:0:0:
320,192,160670,1,0,0:0:0:0:
320,192,160837,1,8,0:0:0:0:
448,192,160837,1,0,0:0:0:0:
64,192,161004,1,0,0:0:0:0:
320,192,161087,1,0,0:0:0:0:
448,192,161087,1,0,0:0:0:0:
64,192,161170,1,2,0:0:0:0:
192,192,161170,1,0,0:0:0:0:
320,192,161337,1,8,0:0:0:0:
448,192,161337,1,0,0:0:0:0:
64,192,161504,1,2,0:0:0:0:
192,192,161504,1,0,0:0:0:0:
448,192,161670,1,0,0:0:0:0:
64,192,161754,1,0,0:0:0:0:
192,192,161754,1,0,0:0:0:0:
320,192,161837,1,8,0:0:0:0:
448,192,161837,1,0,0:0:0:0:
192,192,162004,1,0,0:0:0:0:
320,192,162004,1,0,0:0:0:0:
64,192,162170,1,8,0:0:0:0:
192,192,162170,1,0,0:0:0:0:
448,192,162337,1,2,0:0:0:0:
192,192,162420,1,0,0:0:0:0:
320,192,162504,1,8,0:0:0:0:
448,192,162504,1,0,0:0:0:0:
64,192,162587,1,2,0:0:0:0:
192,192,162587,1,0,0:0:0:0:
320,192,162670,1,8,0:0:0:0:
448,192,162670,1,0,0:0:0:0:
64,192,162754,1,2,0:0:0:0:
192,192,162754,1,0,0:0:0:0:
320,192,162837,1,8,0:0:0:0:
448,192,162837,1,0,0:0:0:0:
64,192,163004,1,0,0:0:0:0:
320,192,163087,1,0,0:0:0:0:
448,192,163087,1,0,0:0:0:0:
64,192,163170,1,2,0:0:0:0:
192,192,163170,1,0,0:0:0:0:
192,192,163337,1,2,0:0:0:0:
320,192,163337,1,0,0:0:0:0:
320,192,163504,1,8,0:0:0:0:
448,192,163504,1,0,0:0:0:0:
64,192,163670,1,0,0:0:0:0:
320,192,163754,1,8,0:0:0:0:
448,192,163754,1,0,0:0:0:0:
64,192,163837,1,2,0:0:0:0:
192,192,163837,1,0,0:0:0:0:
320,192,164004,1,8,0:0:0:0:
448,192,164004,1,0,0:0:0:0:
192,192,164170,1,2,0:0:0:0:
320,192,164170,1,0,0:0:0:0:
64,192,164337,1,0,0:0:0:0:
320,192,164420,1,0,0:0:0:0:
448,192,164420,1,0,0:0:0:0:
64,192,164504,1,8,0:0:0:0:
192,192,164504,1,0,0:0:0:0:
192,192,164670,1,0,0:0:0:0:
320,192,164670,1,0,0:0:0:0:
320,192,164837,1,2,0:0:0:0:
448,192,164837,1,0,0:0:0:0:
64,192,164920,1,8,0:0:0:0:
192,192,164920,1,0,0:0:0:0:
320,192,165004,1,8,0:0:0:0:
448,192,165004,1,0,0:0:0:0:
64,192,165170,1,8,0:0:0:0:
448,192,165170,1,0,0:0:0:0:
192,192,165337,1,2,0:0:0:0:
320,192,165337,1,0,0:0:0:0:
64,192,165504,1,8,0:0:0:0:
192,192,165504,1,0,0:0:0:0:
64,192,165670,1,2,0:0:0:0:
320,192,165670,1,0,0:0:0:0:
192,192,165837,1,8,0:0:0:0:
448,192,165837,1,0,0:0:0:0:
64,192,166004,1,2,0:0:0:0:
448,192,166004,1,0,0:0:0:0:
192,192,166170,1,8,0:0:0:0:
320,192,166170,1,0,0:0:0:0:
320,192,166337,1,2,0:0:0:0:
448,192,166337,1,0,0:0:0:0:
192,192,166504,1,8,0:0:0:0:
448,192,166504,1,0,0:0:0:0:
64,192,166670,1,2,0:0:0:0:
320,192,166670,1,0,0:0:0:0:
64,192,166837,1,8,0:0:0:0:
192,192,166837,1,0,0:0:0:0:
192,192,167004,1,2,0:0:0:0:
448,192,167004,1,0,0:0:0:0:
64,192,167170,1,8,0:0:0:0:
320,192,167170,1,0,0:0:0:0:
64,192,167337,1,2,0:0:0:0:
448,192,167337,1,0,0:0:0:0:
320,192,167504,1,8,0:0:0:0:
448,192,167504,1,0,0:0:0:0:
64,192,167670,1,2,0:0:0:0:
320,192,167670,1,0,0:0:0:0:
64,192,167837,1,8,0:0:0:0:
192,192,167837,1,0,0:0:0:0:
320,192,168004,1,2,0:0:0:0:
448,192,168004,1,0,0:0:0:0:
192,192,168087,1,2,0:0:0:0:
64,192,168170,1,8,0:0:0:0:
320,192,168170,1,0,0:0:0:0:
448,192,168254,1,2,0:0:0:0:
64,192,168337,1,2,0:0:0:0:
192,192,168337,1,0,0:0:0:0:
448,192,168420,1,2,0:0:0:0:
192,192,168504,1,8,0:0:0:0:
320,192,168504,1,0,0:0:0:0:
64,192,168587,1,2,0:0:0:0:
192,192,168670,1,2,0:0:0:0:
448,192,168670,1,0,0:0:0:0:
320,192,168754,1,2,0:0:0:0:
64,192,168837,1,8,0:0:0:0:
448,192,168837,1,0,0:0:0:0:
192,192,168920,1,2,0:0:0:0:
320,192,169004,1,2,0:0:0:0:
448,192,169004,1,0,0:0:0:0:
64,192,169087,1,2,0:0:0:0:
192,192,169087,1,0,0:0:0:0:
320,192,169170,1,8,0:0:0:0:
448,192,169170,1,0,0:0:0:0:
64,192,169254,1,2,0:0:0:0:
192,192,169254,1,0,0:0:0:0:
320,192,169337,1,2,0:0:0:0:
448,192,169337,1,0,0:0:0:0:
64,192,169420,1,2,0:0:0:0:
192,192,169420,1,0,0:0:0:0:
320,192,169504,1,2,0:0:0:0:
448,192,169504,128,0,169837:0:0:0:70:Cymatics - Trap Snare 8 - A#.wav
64,192,169837,1,2,0:0:0:0:
192,192,169879,1,0,0:0:0:0:
448,192,169920,1,0,0:0:0:0:
320,192,169962,1,0,0:0:0:0:
64,192,170004,1,0,0:0:0:0:
192,192,170045,1,0,0:0:0:0:
448,192,170087,1,0,0:0:0:0:
320,192,170129,1,0,0:0:0:0:
64,192,170170,128,2,170337:0:0:0:0:
448,192,170254,1,0,0:0:0:0:
320,192,170337,128,0,170379:0:0:0:0:
192,192,170420,128,0,170462:0:0:0:0:
64,192,170504,128,2,170587:0:0:0:0:
448,192,170504,1,0,0:0:0:70:Cymatics - Trap Snare 8 - A#.wav
192,192,170587,128,0,170670:0:0:0:0:
320,192,170670,128,0,170754:0:0:0:0:
448,192,170754,128,0,170837:0:0:0:0:
64,192,170837,128,2,171087:0:0:0:0:
192,192,170837,1,0,0:0:0:0:
64,192,171170,1,4,0:0:0:0:
320,192,171170,128,8,171420:0:0:0:0:
448,192,171170,128,0,171420:0:0:0:0:
192,192,171504,1,2,0:0:0:0:
320,192,171504,128,0,171754:0:0:0:0:
448,192,171504,128,0,171754:0:0:0:0:
192,192,171754,1,2,0:0:0:0:
64,192,171837,1,8,0:0:0:0:
320,192,171837,128,0,171920:0:0:0:0:
448,192,171837,128,0,171920:0:0:0:0:
192,192,172004,128,2,172087:0:0:0:0:
320,192,172004,128,0,172087:0:0:0:0:
192,192,172170,1,2,0:0:0:0:
320,192,172170,128,0,172420:0:0:0:0:
448,192,172170,128,0,172420:0:0:0:0:
64,192,172504,1,8,0:0:0:0:
320,192,172504,128,0,172754:0:0:0:0:
448,192,172504,128,0,172754:0:0:0:0:
192,192,172837,1,2,0:0:0:0:
320,192,172837,128,0,173087:0:0:0:0:
448,192,172837,128,0,173087:0:0:0:0:
64,192,173170,128,8,173254:0:0:0:0:
192,192,173170,128,0,173254:0:0:0:0:
448,192,173170,1,0,0:0:0:0:
64,192,173337,128,0,173420:0:0:0:0:
320,192,173337,128,0,173420:0:0:0:0:
192,192,173504,1,2,0:0:0:0:
448,192,173504,128,0,173754:0:0:0:0:
64,192,173837,128,4,174087:0:0:0:0:
192,192,173837,128,8,174087:0:0:0:0:
448,192,173837,1,0,0:0:0:0:
64,192,174170,128,2,174420:0:0:0:0:
192,192,174170,128,0,174420:0:0:0:0:
320,192,174170,1,0,0:0:0:0:
320,192,174420,1,2,0:0:0:0:
64,192,174504,128,8,174587:0:0:0:0:
192,192,174504,128,0,174587:0:0:0:0:
448,192,174504,1,0,0:0:0:0:
192,192,174670,128,2,174754:0:0:0:0:
320,192,174670,128,0,174754:0:0:0:0:
64,192,174837,128,2,175087:0:0:0:0:
192,192,174837,128,0,175087:0:0:0:0:
320,192,174837,1,0,0:0:0:0:
64,192,175170,128,8,175420:0:0:0:0:
192,192,175170,128,0,175420:0:0:0:0:
448,192,175170,1,0,0:0:0:0:
64,192,175504,128,2,175754:0:0:0:0:
192,192,175504,128,0,175587:0:0:0:0:
320,192,175504,1,0,0:0:0:0:
320,192,175670,128,0,175754:0:0:0:0:
64,192,175837,128,8,176087:0:0:0:0:
192,192,175837,128,0,176087:0:0:0:0:
448,192,175837,1,0,0:0:0:0:
64,192,176170,128,0,176254:0:0:0:0:
448,192,176170,128,0,176254:0:0:0:0:
320,192,176254,1,0,0:0:0:0:
448,192,176337,1,0,0:0:0:0:
320,192,176420,1,0,0:0:0:0:
64,192,176504,1,8,0:0:0:0:
192,192,176504,1,4,0:0:0:0:
320,192,176587,1,0,0:0:0:0:
64,192,176670,1,0,0:0:0:0:
448,192,176712,1,0,0:0:0:0:
192,192,176754,1,0,0:0:0:0:
320,192,176795,1,0,0:0:0:0:
64,192,176837,1,2,0:0:0:0:
448,192,176837,1,0,0:0:0:0:
192,192,176920,1,0,0:0:0:0:
320,192,177004,1,0,0:0:0:0:
64,192,177087,1,2,0:0:0:0:
192,192,177087,1,0,0:0:0:0:
320,192,177170,1,8,0:0:0:0:
448,192,177170,1,0,0:0:0:0:
64,192,177254,1,0,0:0:0:0:
192,192,177337,1,2,0:0:0:0:
320,192,177337,1,0,0:0:0:0:
448,192,177420,1,0,0:0:0:0:
64,192,177504,1,2,0:0:0:0:
192,192,177504,1,0,0:0:0:0:
320,192,177587,1,0,0:0:0:0:
64,192,177670,1,0,0:0:0:0:
192,192,177754,1,0,0:0:0:0:
64,192,177837,1,8,0:0:0:0:
448,192,177837,1,0,0:0:0:0:
320,192,177920,1,0,0:0:0:0:
192,192,178004,1,0,0:0:0:0:
448,192,178045,1,0,0:0:0:0:
64,192,178087,1,0,0:0:0:0:
192,192,178129,1,0,0:0:0:0:
320,192,178170,1,2,0:0:0:0:
448,192,178170,1,0,0:0:0:0:
64,192,178254,1,0,0:0:0:0:
192,192,178337,1,0,0:0:0:0:
320,192,178420,1,0,0:0:0:0:
64,192,178504,128,8,178587:0:0:0:0:
192,192,178504,128,0,178587:0:0:0:0:
448,192,178504,128,0,178670:0:0:0:0:
320,192,178587,1,0,0:0:0:0:
64,192,178670,1,0,0:0:0:0:
192,192,178712,1,0,0:0:0:0:
320,192,178754,1,0,0:0:0:0:
64,192,178837,1,0,0:0:0:0:
448,192,178837,1,0,0:0:0:0:
192,192,178920,1,0,0:0:0:0:
64,192,179004,1,0,0:0:0:0:
192,192,179087,1,0,0:0:0:0:
320,192,179170,1,4,0:0:0:0:
448,192,179170,1,8,0:0:0:0:
192,192,179254,1,0,0:0:0:0:
448,192,179337,1,0,0:0:0:0:
64,192,179379,1,0,0:0:0:0:
320,192,179420,1,0,0:0:0:0:
192,192,179462,1,0,0:0:0:0:
64,192,179504,1,2,0:0:0:0:
448,192,179504,1,0,0:0:0:0:
320,192,179587,1,0,0:0:0:0:
192,192,179670,1,0,0:0:0:0:
320,192,179754,1,2,0:0:0:0:
448,192,179754,1,0,0:0:0:0:
64,192,179837,1,8,0:0:0:0:
192,192,179837,1,0,0:0:0:0:
320,192,179879,1,0,0:0:0:0:
448,192,179920,1,0,0:0:0:0:
64,192,180004,1,2,0:0:0:0:
192,192,180004,1,0,0:0:0:0:
320,192,180170,1,0,0:0:0:0:
192,192,180254,1,0,0:0:0:0:
320,192,180337,1,0,0:0:0:0:
192,192,180420,1,0,0:0:0:0:
64,192,180504,128,0,180587:0:0:0:0:
448,192,180504,128,0,180587:0:0:0:0:
192,192,180670,1,0,0:0:0:0:
64,192,180712,1,0,0:0:0:0:
448,192,180754,1,0,0:0:0:0:
320,192,180795,1,0,0:0:0:0:
64,192,180837,128,0,180920:0:0:0:0:
192,192,180837,128,0,180920:0:0:0:0:
448,192,180920,1,0,0:0:0:0:
320,192,181004,1,0,0:0:0:0:
64,192,181087,1,0,0:0:0:0:
192,192,181129,1,0,0:0:0:0:
320,192,181170,1,0,0:0:0:0:
448,192,181170,1,0,0:0:0:0:
64,192,181254,1,0,0:0:0:0:
192,192,181337,1,0,0:0:0:0:
320,192,181420,1,0,0:0:0:0:
64,192,181504,128,0,182837:0:0:0:70:LR_Tom Drop.wav
192,192,181504,1,0,0:0:0:0:
320,192,181837,1,8,0:0:0:0:
448,192,181837,1,0,0:0:0:0:
192,192,182004,1,0,0:0:0:0:
320,192,182504,1,8,0:0:0:0:
448,192,182504,1,0,0:0:0:0:
192,192,182837,1,0,0:0:0:0:
448,192,182837,128,0,184170:0:0:0:0:
64,192,183170,1,8,0:0:0:0:
192,192,183170,1,0,0:0:0:0:
320,192,183337,1,0,0:0:0:0:
64,192,183837,1,8,0:0:0:0:
192,192,183837,1,0,0:0:0:0:
192,192,184170,128,0,185504:0:0:0:0:
320,192,184170,1,0,0:0:0:0:
64,192,184504,1,8,0:0:0:0:
448,192,184504,1,0,0:0:0:0:
320,192,184670,1,0,0:0:0:0:
64,192,185170,1,8,0:0:0:0:
448,192,185170,1,0,0:0:0:0:
320,192,185504,128,0,186837:0:0:0:0:
448,192,185504,1,0,0:0:0:0:
64,192,185837,1,8,0:0:0:0:
192,192,185837,1,0,0:0:0:0:
448,192,186004,1,0,0:0:0:0:
64,192,186504,1,8,0:0:0:0:
192,192,186504,1,0,0:0:0:0:
448,192,186670,1,0,0:0:0:0:
192,192,186754,1,0,0:0:0:0:
64,192,186837,128,0,188170:0:0:0:0:
448,192,186837,1,0,0:0:0:0:
320,192,187170,1,8,0:0:0:0:
448,192,187170,1,0,0:0:0:0:
192,192,187337,1,0,0:0:0:0:
320,192,187837,1,8,0:0:0:0:
448,192,187837,1,0,0:0:0:0:
192,192,188170,1,0,0:0:0:0:
448,192,188170,128,0,189504:0:0:0:0:
64,192,188504,1,8,0:0:0:0:
192,192,188504,1,0,0:0:0:0:
320,192,188670,1,0,0:0:0:0:
64,192,189170,1,8,0:0:0:0:
192,192,189170,1,0,0:0:0:0:
64,192,189504,1,0,0:0:0:0:
320,192,189504,128,0,190170:0:0:0:0:
64,192,189837,1,8,0:0:0:0:
192,192,189837,1,0,0:0:0:0:
192,192,190170,128,0,190837:0:0:0:0:
448,192,190170,1,0,0:0:0:0:
320,192,190504,1,8,0:0:0:0:
448,192,190504,1,0,0:0:0:0:
64,192,190670,1,0,0:0:0:0:
448,192,190754,1,0,0:0:0:0:
64,192,190837,128,0,191504:0:0:0:0:
320,192,190837,1,0,0:0:0:0:
320,192,191170,1,8,0:0:0:0:
448,192,191170,1,0,0:0:0:0:
192,192,191504,1,0,0:0:0:0:
448,192,191504,128,0,192170:0:0:0:0:
192,192,191837,1,8,0:0:0:0:
320,192,191837,1,0,0:0:0:0:
64,192,192170,1,2,0:0:0:0:
192,192,192170,1,8,0:0:0:0:
320,192,192337,1,0,0:0:0:0:
64,192,192420,1,8,0:0:0:0:
192,192,192420,1,0,0:0:0:0:
320,192,192504,1,2,0:0:0:0:
448,192,192504,1,0,0:0:0:0:
64,192,192670,1,8,0:0:0:0:
320,192,192670,1,0,0:0:0:0:
192,192,192837,1,2,0:0:0:0:
448,192,192837,1,8,0:0:0:0:
64,192,193004,1,0,0:0:0:0:
192,192,193087,1,8,0:0:0:0:
320,192,193087,1,0,0:0:0:0:
64,192,193170,1,2,0:0:0:0:
448,192,193170,1,0,0:0:0:0:
192,192,193337,1,8,0:0:0:0:
320,192,193337,1,0,0:0:0:0:
192,192,193504,1,2,0:0:0:0:
448,192,193504,1,8,0:0:0:0:
320,192,193670,1,0,0:0:0:0:
64,192,193754,1,8,0:0:0:0:
192,192,193754,1,0,0:0:0:0:
320,192,193837,1,2,0:0:0:0:
448,192,193837,1,0,0:0:0:0:
64,192,194004,1,8,0:0:0:0:
320,192,194004,1,0,0:0:0:0:
192,192,194170,1,2,0:0:0:0:
448,192,194170,1,8,0:0:0:0:
64,192,194337,1,0,0:0:0:0:
320,192,194337,1,0,0:0:0:0:
320,192,194504,1,8,0:0:0:0:
448,192,194504,1,0,0:0:0:0:
64,192,194587,1,8,0:0:0:0:
192,192,194587,1,0,0:0:0:0:
320,192,194670,1,8,0:0:0:0:
448,192,194670,1,0,0:0:0:0:
192,192,194754,1,8,0:0:0:0:
64,192,194837,1,2,0:0:0:0:
448,192,194837,1,8,0:0:0:0:
64,192,195004,1,0,0:0:0:0:
192,192,195087,1,8,0:0:0:0:
320,192,195087,1,0,0:0:0:0:
64,192,195170,1,2,0:0:0:0:
448,192,195170,1,0,0:0:0:0:
64,192,195337,1,8,0:0:0:0:
320,192,195337,1,0,0:0:0:0:
192,192,195504,1,2,0:0:0:0:
448,192,195504,1,8,0:0:0:0:
192,192,195670,1,0,0:0:0:0:
320,192,195754,1,8,0:0:0:0:
448,192,195754,1,0,0:0:0:0:
64,192,195837,1,2,0:0:0:0:
192,192,195837,1,0,0:0:0:0:
192,192,196004,1,8,0:0:0:0:
448,192,196004,1,0,0:0:0:0:
64,192,196170,1,2,0:0:0:0:
320,192,196170,1,8,0:0:0:0:
320,192,196337,1,0,0:0:0:0:
64,192,196420,1,8,0:0:0:0:
192,192,196420,1,0,0:0:0:0:
320,192,196504,1,2,0:0:0:0:
448,192,196504,1,0,0:0:0:0:
64,192,196670,1,8,0:0:0:0:
320,192,196670,1,0,0:0:0:0:
64,192,196837,1,2,0:0:0:0:
448,192,196837,1,8,0:0:0:0:
192,192,196920,1,8,0:0:0:0:
320,192,196920,1,0,0:0:0:0:
64,192,197004,1,8,0:0:0:0:
448,192,197004,1,0,0:0:0:0:
64,192,197170,1,2,0:0:0:0:
448,192,197170,1,0,0:0:0:0:
192,192,197337,1,8,0:0:0:0:
320,192,197337,1,0,0:0:0:0:
320,192,197504,1,2,0:0:0:0:
448,192,197504,1,8,0:0:0:0:
64,192,197670,1,8,0:0:0:0:
192,192,197670,1,0,0:0:0:0:
64,192,197837,1,2,0:0:0:0:
320,192,197837,1,8,0:0:0:0:
192,192,198004,1,8,0:0:0:0:
448,192,198004,1,0,0:0:0:0:
64,192,198170,1,2,0:0:0:0:
320,192,198170,1,8,0:0:0:0:
64,192,198337,1,8,0:0:0:0:
448,192,198337,1,0,0:0:0:0:
192,192,198504,1,2,0:0:0:0:
320,192,198504,1,8,0:0:0:0:
192,192,198670,1,8,0:0:0:0:
448,192,198670,1,0,0:0:0:0:
64,192,198837,1,2,0:0:0:0:
320,192,198837,1,8,0:0:0:0:
64,192,199004,1,8,0:0:0:0:
448,192,199004,1,0,0:0:0:0:
192,192,199170,1,2,0:0:0:0:
320,192,199170,1,8,0:0:0:0:
320,192,199337,1,8,0:0:0:0:
448,192,199337,1,0,0:0:0:0:
64,192,199504,1,2,0:0:0:0:
192,192,199504,1,8,0:0:0:0:
64,192,199670,1,8,0:0:0:0:
320,192,199670,1,0,0:0:0:0:
192,192,199837,1,2,0:0:0:0:
320,192,199837,1,8,0:0:0:0:
64,192,200004,1,8,0:0:0:0:
448,192,200004,1,0,0:0:0:0:
192,192,200087,1,10,0:0:0:0:
320,192,200170,1,2,0:0:0:0:
448,192,200170,1,8,0:0:0:0:
64,192,200254,1,8,0:0:0:0:
192,192,200254,1,2,0:0:0:0:
320,192,200337,1,8,0:0:0:0:
448,192,200337,1,2,0:0:0:0:
64,192,200420,1,2,0:0:0:0:
192,192,200420,1,8,0:0:0:0:
320,192,200504,1,8,0:0:0:0:
448,192,200504,1,2,0:0:0:0:
64,192,200587,1,8,0:0:0:0:
192,192,200587,1,2,0:0:0:0:
320,192,200670,1,8,0:0:0:0:
448,192,200670,1,2,0:0:0:0:
64,192,200754,1,2,0:0:0:0:
192,192,200754,1,8,0:0:0:0:
320,192,200837,1,8,0:0:0:0:
448,192,200837,1,2,0:0:0:0:
64,192,200920,1,8,0:0:0:0:
192,192,200920,1,2,0:0:0:0:
320,192,201004,1,8,0:0:0:0:
448,192,201004,1,2,0:0:0:0:
64,192,201087,1,2,0:0:0:0:
192,192,201087,1,8,0:0:0:0:
320,192,201170,1,8,0:0:0:0:
448,192,201170,1,2,0:0:0:0:
64,192,201254,1,8,0:0:0:0:
192,192,201254,1,2,0:0:0:0:
320,192,201337,1,8,0:0:0:0:
448,192,201337,1,2,0:0:0:0:
64,192,201420,1,2,0:0:0:0:
192,192,201420,1,8,0:0:0:0:
320,192,201504,1,0,0:0:0:70:Cymatics - Trap Snare 8 - A#.wav
448,192,201504,128,0,202087:0:0:0:0:
64,192,201837,1,0,0:0:0:70:Cymatics - Trap Snare 8 - A#.wav
64,192,202170,128,0,202754:0:0:0:70:Cymatics - Trap Snare 8 - A#.wav
448,192,202170,1,0,0:0:0:0:
320,192,202504,128,0,202587:0:0:0:70:Cymatics - Trap Snare 8 - A#.wav
448,192,202504,1,0,0:0:0:0:
320,192,202670,128,0,202754:0:0:0:0:
64,192,202837,128,0,203754:0:0:0:70:LR_Chm Echo long.wav
448,192,202837,128,0,204087:0:0:0:0:
64,192,203837,128,0,203920:0:0:0:0:
64,192,204004,128,0,204087:0:0:0:0:
192,192,204170,128,0,205420:0:0:0:0:
320,192,204170,128,0,205087:0:0:0:0:
448,192,205170,128,0,205254:0:0:0:0:
320,192,205337,128,0,205420:0:0:0:0:
64,192,205504,128,0,205587:0:0:0:0:
320,192,205504,128,0,206837:0:0:0:0:
64,192,205670,128,0,205754:0:0:0:0:
192,192,205837,128,0,205920:0:0:0:0:
192,192,206004,128,0,206087:0:0:0:0:
448,192,206170,128,0,206504:0:0:0:0:
192,192,206504,128,0,206837:0:0:0:0:
64,192,206837,128,0,207504:0:0:0:0:
448,192,206837,128,0,207170:0:0:0:0:
320,192,207170,128,0,207504:0:0:0:0:
192,192,207504,128,0,207587:0:0:0:0:
448,192,207504,128,0,208170:0:0:0:0:
320,192,207670,128,0,207754:0:0:0:0:
192,192,207754,128,0,207837:0:0:0:0:
64,192,207837,128,0,207920:0:0:0:0:
192,192,208004,128,0,208087:0:0:0:0:
64,192,208170,128,0,209420:0:0:0:0:
320,192,208170,128,0,209087:0:0:0:0:
320,192,209170,128,0,209254:0:0:0:0:
320,192,209337,128,0,209420:0:0:0:0:
192,192,209504,128,0,210170:0:0:0:0:
192,192,210504,128,0,210587:0:0:0:0:
64,192,210837,128,0,211004:0:0:0:0:
64,192,211170,128,0,211337:0:0:0:0:
64,192,211504,128,0,211670:0:0:0:0:
64,192,211837,128,0,211920:0:0:0:0:
64,192,212004,128,0,212087:0:0:0:0:
448,192,212170,128,0,212670:0:0:0:0:
64,192,212670,1,0,0:0:0:0:
192,192,212837,128,0,213337:0:0:0:0:
320,192,213504,128,0,213587:0:0:0:70:LR_Chm Echo long.wav
