osu file format v14

[General]
AudioFilename: audio.mp3
AudioLeadIn: 0
PreviewTime: 114654
Countdown: 0
SampleSet: Normal
StackLeniency: 0.7
Mode: 1
LetterboxInBreaks: 0
WidescreenStoryboard: 0

[Editor]
Bookmarks: 10696,21363,32029,42696,53363,64029,64529,65196,65863,66529,67196,67863,68529,69863,70529,71196,71863,72529,73196,73863,74696,85363,96029,106696,117363,128029,138696,149363,160029,170696,181363,192029,202696
DistanceSpacing: 2.2
BeatDivisor: 4
GridSize: 32
TimelineZoom: 2

[Metadata]
Title:CROSSING DELTA
TitleUnicode:CROSSING DELTA
Artist:ginkiha x Hommarju x t+pazolite
ArtistUnicode:ginkiha × Hommarju × t+pazolite
Creator:Faputa
Version:ONI
Source:OverRapid
Tags:eiri- Ayyri tpz Video Rhythm Game Mobile FLUCTON Cafe.D Collaboration Pack Seve's code Future Bass cute instrumental electronic Trap SV full version ver. Lanota PIU XX Pump It Up Dynamix
BeatmapID:2236448
BeatmapSetID:1067200

[Difficulty]
HPDrainRate:5
CircleSize:2
OverallDifficulty:6
ApproachRate:10
SliderMultiplier:1.4
SliderTickRate:1

[Events]
//Background and Video events
0,0,"anime-girl-feathers-water-reflection-tree.jpeg",0,55
//Break Periods
//Storyboard Layer 0 (Background)
//Storyboard Layer 1 (Fail)
//Storyboard Layer 2 (Pass)
//Storyboard Layer 3 (Foreground)
//Storyboard Layer 4 (Overlay)
//Storyboard Sound Samples

[TimingPoints]
30,333.333333333333,4,1,0,90,1,0
30,-117.647058823529,4,1,0,90,0,0
10196,-117.647058823529,4,1,0,90,0,0
10279,-116.279069767442,4,1,0,100,0,0
10446,-114.942528735632,4,1,0,100,0,0
10529,-113.636363636364,4,1,0,100,0,0
10613,-112.359550561798,4,1,0,100,0,0
10696,-111.111111111111,4,1,0,100,0,0
16029,-111.111111111111,4,1,0,100,0,0
16196,-110.577880000885,4,1,0,100,0,0
16363,-110.049742483603,4,1,0,100,0,0
16529,-109.526625922762,4,1,0,100,0,0
16696,-109.008459056423,4,1,0,100,0,0
16863,-108.495171964848,4,1,0,100,0,0
17029,-107.986696039048,4,1,0,100,0,0
17196,-107.482963950214,4,1,0,100,0,0
17363,-106.983909619993,4,1,0,100,0,0
17529,-106.489468191596,4,1,0,100,0,0
17696,-105.999576001696,4,1,0,100,0,0
17863,-105.514170553105,4,1,0,100,0,0
18029,-105.033190488194,4,1,0,100,0,0
18196,-104.556575563037,4,1,0,100,0,0
18363,-104.084374957716,4,1,0,100,0,0
18529,-103.616312937844,4,1,0,100,0,0
18696,-103.152441773025,4,1,0,100,0,0
18779,-102.922060211464,4,1,0,100,0,0
18863,-102.692705429055,4,1,0,100,0,0
18946,-102.464370576741,4,1,0,100,0,0
19029,-102.237048866242,4,1,0,100,0,0
19113,-102.010733569386,4,1,0,100,0,0
19196,-101.785418017444,4,1,0,100,0,0
19279,-101.561095600475,4,1,0,100,0,0
19363,-101.33775976668,4,1,0,100,0,0
19529,-100.894021928307,4,1,0,100,0,0
19613,-100.67360710514,4,1,0,100,0,0
19696,-100.454153226738,4,1,0,100,0,0
19779,-100.235654022607,4,1,0,100,0,0
19863,-100.018103276693,4,1,0,100,0,0
20029,-86.9565217391304,4,1,0,100,0,0
21529,-100,4,1,0,100,0,0
29696,-102.040816326531,4,1,0,100,0,0
30029,-104.166666666667,4,1,0,100,0,0
30196,-105.263157894737,4,1,0,100,0,0
30696,-106.382978723404,4,1,0,100,0,0
30863,-107.52688172043,4,1,0,100,0,0
31363,-108.695652173913,4,1,0,100,0,0
31696,-111.111111111111,4,1,0,100,0,0
32029,-100,4,1,0,100,0,0
37363,-100,4,1,0,100,0,0
37529,-99.5850291833928,4,1,0,100,0,0
37696,-99.173586503665,4,1,0,100,0,0
37863,-98.7654320987654,4,1,0,100,0,0
38029,-98.3606234883202,4,1,0,100,0,0
38196,-97.959215660152,4,1,0,100,0,0
38363,-97.5609756097561,4,1,0,100,0,0
38529,-97.1659604320776,4,1,0,100,0,0
38696,-96.774224765879,4,1,0,100,0,0
38863,-96.3855421686747,4,1,0,100,0,0
39029,-95.9999692800098,4,1,0,100,0,0
39196,-95.6175603561945,4,1,0,100,0,0
39363,-95.2380952380952,4,1,0,100,0,0
39529,-94.861630083279,4,1,0,100,0,0
39696,-94.4882187364469,4,1,0,100,0,0
39863,-94.1176470588235,4,1,0,100,0,0
40029,-93.7499707031342,4,1,0,100,0,0
40113,-93.5672514619883,4,1,0,100,0,0
40196,-93.3852430771185,4,1,0,100,0,0
40279,-93.2038545386083,4,1,0,100,0,0
40363,-93.0232558139535,4,1,0,100,0,0
40446,-92.8433556188335,4,1,0,100,0,0
40529,-92.6640640419879,4,1,0,100,0,0
40613,-92.485549132948,4,1,0,100,0,0
40696,-92.3077207100679,4,1,0,100,0,0
40863,-91.9540229885058,4,1,0,100,0,0
40946,-91.7782307543345,4,1,0,100,0,0
41029,-91.6030254647251,4,1,0,100,0,0
41113,-91.4285714285714,4,1,0,100,0,0
41196,-91.2547806098192,4,1,0,100,0,0
41363,-90.9090909090909,4,1,0,100,0,0
41529,-92.1052873961283,4,1,0,100,0,0
41696,-93.3332960000149,4,1,0,100,0,0
41779,-93.9597063195419,4,1,0,100,0,0
41863,-94.594581811543,4,1,0,100,0,0
42029,-95.8904240945786,4,1,0,100,0,0
42196,-97.2222627314984,4,1,0,100,0,0
42279,-97.9020568243118,4,1,0,100,0,0
42363,-98.5915215235151,4,1,0,100,0,0
42529,-100,4,1,0,100,0,0
42696,-86.9565217391304,4,1,0,100,0,1
52029,-86.9565217391304,4,1,0,100,0,1
52196,-88.0437471770974,4,1,0,100,0,1
52363,-89.1585042056066,4,1,0,100,0,1
52446,-89.7265762043325,4,1,0,100,0,1
52529,-90.3019335450011,4,1,0,100,0,1
52696,-91.4749884512827,4,1,0,100,0,1
52863,-92.6789212914993,4,1,0,100,0,1
52946,-93.2928939735589,4,1,0,100,0,1
53029,-93.914967510117,4,1,0,100,0,0
53196,-95.1844293503092,4,1,0,100,0,0
53363,-86.9565217391304,4,1,0,100,0,1
62696,-86.9565217391304,4,1,0,100,0,1
62863,-88.2353200692118,4,1,0,100,0,1
62946,-88.8888888888889,4,1,0,100,0,1
63029,-89.5522120739665,4,1,0,100,0,1
63196,-90.9090909090909,4,1,0,100,0,1
63279,-91.6030254647251,4,1,0,100,0,1
63363,-92.3077207100679,4,1,0,100,0,1
63529,-93.7499707031342,4,1,0,100,0,1
63696,-95.2380952380952,4,1,0,100,0,1
64029,-100,4,1,0,90,0,0
74863,-101.010101010101,4,1,0,90,0,0
75029,-102.040816326531,4,1,0,90,0,0
75196,-103.092783505155,4,1,0,90,0,0
75529,-105.263157894737,4,1,0,90,0,0
75696,-106.382978723404,4,1,0,90,0,0
75863,-107.52688172043,4,1,0,90,0,0
76029,-108.695652173913,4,1,0,90,0,0
76196,-109.89010989011,4,1,0,90,0,0
76363,-111.111111111111,4,1,0,90,0,0
80029,-111.111111111111,4,1,0,90,0,0
80196,-110.577880000885,4,1,0,90,0,0
80363,-110.049742483603,4,1,0,90,0,0
80529,-109.526625922762,4,1,0,90,0,0
80696,-109.008459056423,4,1,0,90,0,0
80863,-108.495171964848,4,1,0,90,0,0
81029,-107.986696039048,4,1,0,90,0,0
81196,-107.482963950214,4,1,0,90,0,0
81363,-106.983909619993,4,1,0,90,0,0
81529,-106.489468191596,4,1,0,90,0,0
81696,-105.999576001696,4,1,0,90,0,0
81863,-105.514170553105,4,1,0,90,0,0
82029,-105.033190488194,4,1,0,90,0,0
82196,-104.556575563037,4,1,0,90,0,0
82363,-104.084374957716,4,1,0,90,0,0
82529,-103.616312937844,4,1,0,90,0,0
82696,-103.152441773025,4,1,0,90,0,0
82779,-102.922060211464,4,1,0,90,0,0
82863,-102.692705429055,4,1,0,90,0,0
82946,-102.464370576741,4,1,0,90,0,0
83029,-102.237048866242,4,1,0,90,0,0
83113,-102.010733569386,4,1,0,90,0,0
83196,-101.785418017444,4,1,0,90,0,0
83279,-101.561095600475,4,1,0,90,0,0
83363,-101.33775976668,4,1,0,90,0,0
83529,-100.894021928307,4,1,0,90,0,0
83613,-100.67360710514,4,1,0,90,0,0
83696,-100.454153226738,4,1,0,90,0,0
83779,-100.235654022607,4,1,0,90,0,0
83863,-100.018103276693,4,1,0,90,0,0
84029,-86.9565217391304,4,1,0,90,0,0
85529,-100,4,1,0,85,0,0
101529,-100,4,1,0,85,0,0
101613,-99.6755560650084,4,1,0,85,0,0
101696,-99.3532105990005,4,1,0,85,0,0
101779,-99.0329433085916,4,1,0,85,0,0
101863,-98.7147341612209,4,1,0,85,0,0
102029,-98.0844114444891,4,1,0,85,0,0
102113,-97.7722590769321,4,1,0,85,0,0
102196,-97.4620872480605,4,1,0,85,0,0
102279,-97.1538771683531,4,1,0,85,0,0
102363,-96.8476102852162,4,1,0,85,0,0
102529,-96.240833060651,4,1,0,85,0,0
102863,-95.0498060983956,4,1,0,85,0,0
102946,-94.756641256094,4,1,0,85,0,0
103029,-94.4652792865982,4,1,0,85,0,0
103113,-94.1757923009406,4,1,0,85,0,0
103196,-93.8879859994235,4,1,0,85,0,0
103363,-93.3176186463533,4,1,0,85,0,0
103446,-93.0350258265232,4,1,0,85,0,0
103529,-92.7541393853554,4,1,0,85,0,0
103613,-92.4749439139465,4,1,0,85,0,0
103696,-92.197424188363,4,1,0,85,0,0
103863,-91.6473519872354,4,1,0,85,0,0
104029,-91.1038045859833,4,1,0,85,0,0
104113,-90.8344415135198,4,1,0,85,0,0
104196,-90.5666665761,4,1,0,85,0,0
104279,-90.3004657698024,4,1,0,85,0,0
104363,-90.0358252548689,4,1,0,85,0,0
104446,-89.772731353306,4,1,0,85,0,0
104529,-89.5111705465284,4,1,0,85,0,0
104613,-89.2511294730435,4,1,0,85,0,0
104696,-88.9925949261762,4,1,0,85,0,0
104863,-88.4799933463045,4,1,0,85,0,0
104946,-88.2259006541068,4,1,0,85,0,0
105029,-87.9732631658586,4,1,0,85,0,0
105113,-87.7220684161956,4,1,0,85,0,0
105196,-87.4723040817201,4,1,0,85,0,0
105363,-86.9770180625173,4,1,0,85,0,0
106696,-100,4,1,0,90,0,0
116029,-100,4,1,0,90,0,0
116196,-101.259157625068,4,1,0,90,0,0
116363,-102.550429173546,4,1,0,90,0,0
116529,-103.875166979331,4,1,0,90,0,0
116696,-105.23446765566,4,1,0,90,0,0
116863,-106.629815402464,4,1,0,90,0,0
116946,-107.341515619264,4,1,0,90,0,0
117029,-108.062663377239,4,1,0,90,0,0
117113,-108.793684744188,4,1,0,90,0,0
117196,-109.534663887407,4,1,0,90,0,0
117363,-111.047197279788,4,1,0,90,0,0
128029,-117.647058823529,4,1,0,90,0,0
138696,-117.647058823529,4,1,0,90,0,0
139029,-116.897539306798,4,1,0,90,0,0
139196,-116.526213737042,4,1,0,90,0,0
139279,-116.341569540846,4,1,0,90,0,0
139363,-116.157374657481,4,1,0,90,0,0
139529,-115.790863174569,4,1,0,90,0,0
139696,-115.426657324803,4,1,0,90,0,0
139863,-115.064735420147,4,1,0,90,0,0
140029,-114.704944471336,4,1,0,90,0,0
140196,-114.347527291896,4,1,0,90,0,0
140279,-114.169717852376,4,1,0,90,0,0
140363,-113.992330595998,4,1,0,90,0,0
140529,-113.639333755314,4,1,0,90,0,0
140696,-113.288516396247,4,1,0,90,0,0
140863,-112.939730842033,4,1,0,90,0,0
140946,-112.766269353511,4,1,0,90,0,0
141029,-112.5932131063,4,1,0,90,0,0
141196,-112.248815213755,4,1,0,90,0,0
141363,-111.906517771315,4,1,0,90,0,0
141696,-111.228024123134,4,1,0,90,0,0
141863,-110.891914759603,4,1,0,90,0,0
142029,-110.557830590025,4,1,0,90,0,0
142196,-110.225753365468,4,1,0,90,0,0
142279,-110.06040114815,4,1,0,90,0,0
142363,-109.895544285157,4,1,0,90,0,0
142529,-109.567427795065,4,1,0,90,0,0
142696,-109.241264795364,4,1,0,90,0,0
142863,-108.917037892237,4,1,0,90,0,0
142946,-108.755585958784,4,1,0,90,0,0
143029,-108.594729897758,4,1,0,90,0,0
143196,-108.274206593683,4,1,0,90,0,0
143363,-107.955686349867,4,1,0,90,0,0
143446,-107.797186062255,4,1,0,90,0,0
143529,-107.639034650082,4,1,0,90,0,0
143696,-107.324235100176,4,1,0,90,0,0
144029,-106.700013977702,4,1,0,90,0,0
144196,-106.390675070111,4,1,0,90,0,0
144363,-106.083124614786,4,1,0,90,0,0
144529,-105.777347146445,4,1,0,90,0,0
144696,-105.473327377606,4,1,0,90,0,0
144863,-105.170939586657,4,1,0,90,0,0
145029,-104.870390684153,4,1,0,90,0,0
145196,-104.571554654846,4,1,0,90,0,0
145363,-104.274416897461,4,1,0,90,0,0
145529,-103.978854860076,4,1,0,90,0,0
145696,-103.685071112406,4,1,0,90,0,0
145863,-103.392942811295,4,1,0,90,0,0
146029,-103.102456003604,4,1,0,90,0,0
146196,-102.813596892562,4,1,0,90,0,0
146363,-102.52624671916,4,1,0,90,0,0
146529,-102.240602810594,4,1,0,90,0,0
146696,-101.956546120044,4,1,0,90,0,0
146779,-101.815057021523,4,1,0,90,0,0
146863,-101.674063454783,4,1,0,90,0,0
146946,-101.533356753694,4,1,0,90,0,0
147029,-101.393141767891,4,1,0,90,0,0
147113,-101.253210992454,4,1,0,90,0,0
147196,-101.113665916403,4,1,0,90,0,0
147279,-100.974606905855,4,1,0,90,0,0
147363,-100.835828179782,4,1,0,90,0,0
147529,-100.559513131061,4,1,0,90,0,0
147613,-100.421872285471,4,1,0,90,0,0
147696,-100.284708286826,4,1,0,90,0,0
147779,-100.147818179633,4,1,0,90,0,0
147863,-100.011401299748,4,1,0,90,0,0
148029,-86.9565217391304,4,1,0,90,0,0
149363,-95.2380952380952,4,1,0,95,0,1
160029,-100,4,1,0,90,0,0
165363,-100,4,1,0,90,0,0
165529,-99.379968377294,4,1,0,90,0,0
165696,-98.767578159723,4,1,0,90,0,0
165863,-98.1625925918655,4,1,0,90,0,0
166029,-97.565068583365,4,1,0,90,0,0
166196,-96.9747749215474,4,1,0,90,0,0
166363,-96.3915811593015,4,1,0,90,0,0
166529,-95.8153599687259,4,1,0,90,0,0
166696,-95.2459870484507,4,1,0,90,0,0
166863,-94.6832513849793,4,1,0,90,0,0
167029,-94.1272148133646,4,1,0,90,0,0
167196,-93.5776708704876,4,1,0,90,0,0
167363,-93.0345064984603,4,1,0,90,0,0
167529,-92.4976112491895,4,1,0,90,0,0
167696,-91.9668772095042,4,1,0,90,0,0
167863,-91.4421153121651,4,1,0,90,0,0
168029,-90.9233906787158,4,1,0,90,0,0
168113,-90.6662701528452,4,1,0,90,0,0
168196,-90.4105179980218,4,1,0,90,0,0
168279,-90.1562859216452,4,1,0,90,0,0
168363,-89.9033987979916,4,1,0,90,0,0
168446,-89.6519263957684,4,1,0,90,0,0
168529,-89.4019368035589,4,1,0,90,0,0
168613,-89.153258016661,4,1,0,90,0,0
168696,-88.9060378757502,4,1,0,90,0,0
168863,-88.4155317796367,4,1,0,90,0,0
168946,-88.172380530833,4,1,0,90,0,0
169029,-87.9304856752446,4,1,0,90,0,0
169113,-87.6899913274599,4,1,0,90,0,0
169196,-87.4507324436096,4,1,0,90,0,0
169363,-86.976185920295,4,1,0,90,0,0
171029,-90.9090909090909,4,1,0,100,0,1
180029,-90.9090909090909,4,1,0,100,0,1
180113,-91.4258965680547,4,1,0,100,0,1
180196,-91.9485272144654,4,1,0,100,0,1
180279,-92.477252907716,4,1,0,100,0,1
180363,-93.0120078502135,4,1,0,100,0,1
180529,-94.100465420902,4,1,0,100,0,1
180613,-94.6542139582783,4,1,0,100,0,1
180696,-95.2146089678832,4,1,0,100,0,1
180863,-96.3554514060187,4,1,0,100,0,1
180946,-96.9362334069402,4,1,0,100,0,1
181029,-97.5239640760726,4,1,0,100,0,1
181113,-98.1189613911699,4,1,0,100,0,1
181196,-98.7212634742184,4,1,0,100,0,1
181363,-100,4,1,0,90,0,0
190529,-102.040816326531,4,1,0,90,0,0
191029,-104.166666666667,4,1,0,90,0,0
191363,-106.382978723404,4,1,0,90,0,0
191696,-108.695652173913,4,1,0,90,0,0
192029,-111.111111111111,4,1,0,90,0,0
197363,-111.111111111111,4,1,0,90,0,0
197529,-110.600016147602,4,1,0,90,0,0
197696,-110.093480374186,4,1,0,90,0,0
197862,-109.591683306337,4,1,0,90,0,0
198029,-109.094320767849,4,1,0,90,0,0
198196,-108.601570161501,4,1,0,90,0,0
198362,-108.113133907847,4,1,0,90,0,0
198529,-107.629187313532,4,1,0,90,0,0
198696,-107.149439179835,4,1,0,90,0,0
198862,-106.674062735016,4,1,0,90,0,0
199029,-106.202885744811,4,1,0,90,0,0
199196,-105.735741006647,4,1,0,90,0,0
199362,-105.272798666825,4,1,0,90,0,0
199529,-104.813782593156,4,1,0,90,0,0
199696,-104.358860902161,4,1,0,90,0,0
199862,-103.907763156801,4,1,0,90,0,0
200029,-103.460655464637,4,1,0,90,0,0
200112,-103.238488134284,4,1,0,90,0,0
200196,-103.017272906148,4,1,0,90,0,0
200279,-102.797109345285,4,1,0,90,0,0
200362,-102.577779601383,4,1,0,90,0,0
200446,-102.35938379651,4,1,0,90,0,0
200529,-102.142020307876,4,1,0,90,0,0
200612,-101.925474131824,4,1,0,90,0,0
200696,-101.70984419069,4,1,0,90,0,0
200862,-101.281412430065,4,1,0,90,0,0
200946,-101.068496141205,4,1,0,90,0,0
201029,-100.856473170161,4,1,0,90,0,0
201112,-100.645337906657,4,1,0,90,0,0
201196,-100.435185659462,4,1,0,90,0,0
201363,-100.017302993418,4,1,0,90,0,0
202863,-105.263157894737,4,1,0,85,0,0
205029,-107.52688172043,4,1,0,85,0,0
206363,-108.695652173913,4,1,0,85,0,0
206696,-109.89010989011,4,1,0,85,0,0
207029,-111.111111111111,4,1,0,85,0,0
207363,-112.359550561798,4,1,0,85,0,0
209029,-114.942528735632,4,1,0,80,0,0
210363,-117.647058823529,4,1,0,80,0,0
213029,-100,4,1,0,80,0,0

[HitObjects]
256,192,30,5,0,0:0:0:0:
256,192,279,1,8,0:0:0:0:
256,192,529,1,0,0:0:0:0:
256,192,863,1,8,0:0:0:0:
256,192,1029,1,8,0:0:0:0:
256,192,1196,1,8,0:0:0:0:
256,192,1529,1,8,0:0:0:0:
256,192,1863,1,0,0:0:0:0:
256,192,2196,1,8,0:0:0:0:
256,192,2529,1,8,0:0:0:0:
256,192,2696,1,0,0:0:0:0:
256,192,2946,1,8,0:0:0:0:
256,192,3196,1,0,0:0:0:0:
256,192,3613,1,8,0:0:0:0:
256,192,3863,1,0,0:0:0:0:
256,192,4029,1,8,0:0:0:0:
256,192,4279,1,8,0:0:0:0:
256,192,4529,1,0,0:0:0:0:
256,192,4863,1,8,0:0:0:0:
256,192,5029,1,8,0:0:0:0:
256,192,5196,1,8,0:0:0:0:
256,192,5363,1,0,0:0:0:0:
256,192,5613,1,8,0:0:0:0:
256,192,5863,1,0,0:0:0:0:
256,192,6196,1,8,0:0:0:0:
256,192,6529,1,8,0:0:0:0:
256,192,6696,1,0,0:0:0:0:
256,192,6946,1,8,0:0:0:0:
256,192,7196,1,0,0:0:0:0:
256,192,7529,1,8,0:0:0:0:
256,192,7696,1,8,0:0:0:0:
256,192,7863,1,8,0:0:0:0:
256,192,8029,1,0,0:0:0:0:
256,192,8279,1,8,0:0:0:0:
256,192,8529,1,0,0:0:0:0:
256,192,8863,1,8,0:0:0:0:
256,192,9196,1,8,0:0:0:0:
256,192,9363,1,0,0:0:0:0:
256,192,9613,1,8,0:0:0:0:
256,192,9863,1,0,0:0:0:0:
256,192,10196,1,8,0:0:0:0:
256,192,10363,1,0,0:0:0:0:
256,192,10446,1,0,0:0:0:0:
256,192,10529,1,0,0:0:0:0:
256,192,10613,1,0,0:0:0:0:
256,192,10696,1,8,0:0:0:0:
256,192,10946,1,8,0:0:0:0:
256,192,11029,1,0,0:0:0:0:
256,192,11196,1,8,0:0:0:0:
256,192,11363,1,0,0:0:0:0:
256,192,11529,1,8,0:0:0:0:
256,192,11613,1,8,0:0:0:0:
256,192,11696,1,0,0:0:0:0:
256,192,11863,1,8,0:0:0:0:
256,192,12029,1,0,0:0:0:0:
256,192,12279,1,8,0:0:0:0:
256,192,12363,1,0,0:0:0:0:
256,192,12529,1,8,0:0:0:0:
256,192,12696,1,0,0:0:0:0:
256,192,12863,1,8,0:0:0:0:
256,192,12946,1,8,0:0:0:0:
256,192,13029,1,0,0:0:0:0:
256,192,13196,1,8,0:0:0:0:
256,192,13363,1,0,0:0:0:0:
256,192,13613,1,8,0:0:0:0:
256,192,13696,1,0,0:0:0:0:
256,192,13863,1,8,0:0:0:0:
256,192,14029,1,0,0:0:0:0:
256,192,14196,1,8,0:0:0:0:
256,192,14279,1,8,0:0:0:0:
256,192,14363,1,0,0:0:0:0:
256,192,14696,1,0,0:0:0:0:
256,192,14946,1,8,0:0:0:0:
256,192,15029,1,0,0:0:0:0:
256,192,15196,1,8,0:0:0:0:
256,192,15279,1,8,0:0:0:0:
256,192,15363,1,0,0:0:0:0:
256,192,15446,1,0,0:0:0:0:
256,192,15529,1,8,0:0:0:0:
256,192,15696,1,8,0:0:0:0:
256,192,15863,1,8,0:0:0:0:
256,192,16029,1,0,0:0:0:0:
256,192,16196,1,0,0:0:0:0:
256,192,16363,1,0,0:0:0:0:
256,192,16529,1,0,0:0:0:0:
256,192,16696,1,0,0:0:0:0:
256,192,16863,1,8,0:0:0:0:
256,192,17029,1,8,0:0:0:0:
256,192,17196,1,8,0:0:0:0:
256,192,17363,1,0,0:0:0:0:
256,192,17529,1,0,0:0:0:0:
256,192,17696,1,0,0:0:0:0:
256,192,17863,1,0,0:0:0:0:
256,192,18029,1,0,0:0:0:0:
256,192,18196,1,8,0:0:0:0:
256,192,18363,1,8,0:0:0:0:
256,192,18529,1,8,0:0:0:0:
256,192,18696,1,0,0:0:0:0:
256,192,18779,1,0,0:0:0:0:
256,192,18863,1,0,0:0:0:0:
256,192,18946,1,0,0:0:0:0:
256,192,19029,1,8,0:0:0:0:
256,192,19113,1,8,0:0:0:0:
256,192,19196,1,8,0:0:0:0:
256,192,19279,1,8,0:0:0:0:
256,192,19363,1,0,0:0:0:0:
256,192,19529,1,0,0:0:0:0:
256,192,19613,1,0,0:0:0:0:
256,192,19696,1,8,0:0:0:0:
256,192,19779,1,8,0:0:0:0:
256,192,19863,1,0,0:0:0:0:
256,192,20029,1,12,0:0:0:0:
256,192,20363,1,4,0:0:0:0:
256,192,20696,1,12,0:0:0:0:
256,192,20863,1,8,0:0:0:0:
256,192,20946,1,8,0:0:0:0:
256,192,21029,1,8,0:0:0:0:
256,192,21363,1,4,0:0:0:0:
256,192,22196,1,0,0:0:0:0:
256,192,22363,1,8,0:0:0:0:
256,192,22446,1,8,0:0:0:0:
256,192,22529,1,8,0:0:0:0:
256,192,22696,1,8,0:0:0:0:
256,192,22863,1,0,0:0:0:0:
256,192,22946,1,0,0:0:0:0:
256,192,23029,1,8,0:0:0:0:
256,192,23113,1,8,0:0:0:0:
256,192,23196,1,0,0:0:0:0:
256,192,23363,1,8,0:0:0:0:
256,192,23529,1,0,0:0:0:0:
256,192,23613,1,0,0:0:0:0:
256,192,23696,1,8,0:0:0:0:
256,192,23863,1,0,0:0:0:0:
256,192,23946,1,8,0:0:0:0:
256,192,24029,1,0,0:0:0:0:
256,192,24196,1,12,0:0:0:0:
256,192,24363,1,0,0:0:0:0:
256,192,24529,1,12,0:0:0:0:
256,192,24863,1,8,0:0:0:0:
256,192,25029,1,0,0:0:0:0:
256,192,25113,1,0,0:0:0:0:
256,192,25196,1,8,0:0:0:0:
256,192,25279,1,0,0:0:0:0:
256,192,25363,1,8,0:0:0:0:
256,192,25529,1,0,0:0:0:0:
256,192,25613,1,0,0:0:0:0:
256,192,25696,1,0,0:0:0:0:
256,192,25779,1,0,0:0:0:0:
256,192,25863,1,8,0:0:0:0:
256,192,26029,1,0,0:0:0:0:
256,192,26113,1,0,0:0:0:0:
256,192,26196,1,8,0:0:0:0:
256,192,26279,1,0,0:0:0:0:
256,192,26363,1,8,0:0:0:0:
256,192,26696,1,12,0:0:0:0:
256,192,27529,1,0,0:0:0:0:
256,192,27696,1,8,0:0:0:0:
256,192,27779,1,8,0:0:0:0:
256,192,27863,1,8,0:0:0:0:
256,192,28029,1,0,0:0:0:0:
256,192,28196,1,8,0:0:0:0:
256,192,28279,1,8,0:0:0:0:
256,192,28363,1,8,0:0:0:0:
256,192,28446,1,8,0:0:0:0:
256,192,28529,1,0,0:0:0:0:
256,192,28696,1,8,0:0:0:0:
256,192,28779,1,0,0:0:0:0:
256,192,28863,1,8,0:0:0:0:
256,192,29029,1,0,0:0:0:0:
256,192,29113,1,0,0:0:0:0:
256,192,29196,1,0,0:0:0:0:
256,192,29363,1,8,0:0:0:0:
256,192,29696,1,8,0:0:0:0:
256,192,30029,1,0,0:0:0:0:
256,192,30196,1,8,0:0:0:0:
256,192,30279,1,0,0:0:0:0:
256,192,30363,1,8,0:0:0:0:
256,192,30446,1,8,0:0:0:0:
256,192,30529,1,0,0:0:0:0:
256,192,30696,1,8,0:0:0:0:
256,192,30863,1,0,0:0:0:0:
256,192,30946,1,0,0:0:0:0:
256,192,31029,1,0,0:0:0:0:
256,192,31113,1,0,0:0:0:0:
256,192,31196,1,8,0:0:0:0:
256,192,31363,1,12,0:0:0:0:
256,192,31696,1,8,0:0:0:0:
256,192,32029,1,4,0:0:0:0:
256,192,32363,1,0,0:0:0:0:
256,192,32529,1,8,0:0:0:0:
256,192,32613,1,8,0:0:0:0:
256,192,32696,1,0,0:0:0:0:
256,192,32863,1,8,0:0:0:0:
256,192,33029,1,0,0:0:0:0:
256,192,33196,1,8,0:0:0:0:
256,192,33279,1,0,0:0:0:0:
256,192,33363,1,8,0:0:0:0:
256,192,33529,1,0,0:0:0:0:
256,192,33696,1,0,0:0:0:0:
256,192,33863,1,8,0:0:0:0:
256,192,34029,1,0,0:0:0:0:
256,192,34196,1,8,0:0:0:0:
256,192,34279,1,8,0:0:0:0:
256,192,34363,1,0,0:0:0:0:
256,192,34529,1,8,0:0:0:0:
256,192,34696,1,0,0:0:0:0:
256,192,35029,1,0,0:0:0:0:
256,192,35196,1,8,0:0:0:0:
256,192,35363,1,0,0:0:0:0:
256,192,35529,1,8,0:0:0:0:
256,192,35613,1,8,0:0:0:0:
256,192,35696,1,0,0:0:0:0:
256,192,35779,1,0,0:0:0:0:
256,192,35863,1,8,0:0:0:0:
256,192,36029,1,0,0:0:0:0:
256,192,36196,1,8,0:0:0:0:
256,192,36363,1,8,0:0:0:0:
256,192,36529,1,0,0:0:0:0:
256,192,36696,1,8,0:0:0:0:
256,192,36863,1,0,0:0:0:0:
256,192,36946,1,0,0:0:0:0:
256,192,37029,1,8,0:0:0:0:
256,192,37363,1,8,0:0:0:0:
256,192,37529,1,8,0:0:0:0:
256,192,37696,1,8,0:0:0:0:
256,192,37863,1,8,0:0:0:0:
256,192,38029,1,0,0:0:0:0:
256,192,38196,1,0,0:0:0:0:
256,192,38363,1,0,0:0:0:0:
256,192,38529,1,0,0:0:0:0:
256,192,38696,1,8,0:0:0:0:
256,192,38863,1,8,0:0:0:0:
256,192,39029,1,8,0:0:0:0:
256,192,39196,1,8,0:0:0:0:
256,192,39363,1,0,0:0:0:0:
256,192,39529,1,8,0:0:0:0:
256,192,39696,1,0,0:0:0:0:
256,192,39863,1,8,0:0:0:0:
256,192,40029,1,0,0:0:0:0:
256,192,40113,1,0,0:0:0:0:
256,192,40196,1,0,0:0:0:0:
256,192,40279,1,0,0:0:0:0:
256,192,40363,1,8,0:0:0:0:
256,192,40446,1,8,0:0:0:0:
256,192,40529,1,8,0:0:0:0:
256,192,40613,1,8,0:0:0:0:
256,192,40696,1,0,0:0:0:0:
256,192,40863,1,8,0:0:0:0:
256,192,40946,1,8,0:0:0:0:
256,192,41029,1,0,0:0:0:0:
256,192,41113,1,0,0:0:0:0:
256,192,41196,1,8,0:0:0:0:
256,192,41363,1,0,0:0:0:0:
256,192,41529,1,0,0:0:0:0:
256,192,41696,1,8,0:0:0:0:
256,192,41779,1,8,0:0:0:0:
256,192,41863,1,0,0:0:0:0:
256,192,42029,1,0,0:0:0:0:
256,192,42196,1,8,0:0:0:0:
256,192,42279,1,8,0:0:0:0:
256,192,42363,1,0,0:0:0:0:
256,192,42529,1,0,0:0:0:0:
256,192,42696,1,12,0:0:0:0:
256,192,43029,1,8,0:0:0:0:
256,192,43196,1,0,0:0:0:0:
256,192,43363,1,8,0:0:0:0:
256,192,43529,1,0,0:0:0:0:
256,192,43696,1,8,0:0:0:0:
256,192,43863,1,0,0:0:0:0:
256,192,44029,1,8,0:0:0:0:
256,192,44196,1,0,0:0:0:0:
256,192,44363,1,8,0:0:0:0:
256,192,44529,1,0,0:0:0:0:
256,192,44696,1,8,0:0:0:0:
256,192,44779,1,8,0:0:0:0:
256,192,44863,1,8,0:0:0:0:
256,192,45029,1,4,0:0:0:0:
256,192,45363,1,12,0:0:0:0:
256,192,45696,1,0,0:0:0:0:
256,192,45779,1,8,0:0:0:0:
256,192,46029,1,8,0:0:0:0:
256,192,46113,1,0,0:0:0:0:
256,192,46363,1,0,0:0:0:0:
256,192,46446,1,8,0:0:0:0:
256,192,46696,1,8,0:0:0:0:
256,192,46779,1,0,0:0:0:0:
256,192,47029,1,0,0:0:0:0:
256,192,47113,1,8,0:0:0:0:
256,192,47363,1,8,0:0:0:0:
256,192,47446,1,0,0:0:0:0:
256,192,47696,1,4,0:0:0:0:
256,192,48029,1,12,0:0:0:0:
256,192,48363,1,0,0:0:0:0:
256,192,48529,1,8,0:0:0:0:
256,192,48696,1,12,0:0:0:0:
256,192,49029,1,0,0:0:0:0:
256,192,49196,1,8,0:0:0:0:
256,192,49363,1,12,0:0:0:0:
256,192,49696,1,0,0:0:0:0:
256,192,49863,1,8,0:0:0:0:
256,192,50029,1,12,0:0:0:0:
256,192,50363,1,4,0:0:0:0:
256,192,50696,1,12,0:0:0:0:
256,192,50863,1,0,0:0:0:0:
256,192,51029,1,8,0:0:0:0:
256,192,51113,1,8,0:0:0:0:
256,192,51279,1,0,0:0:0:0:
256,192,51363,1,0,0:0:0:0:
256,192,51529,1,8,0:0:0:0:
256,192,51613,1,8,0:0:0:0:
256,192,51779,1,0,0:0:0:0:
256,192,51863,1,0,0:0:0:0:
256,192,52029,1,8,0:0:0:0:
256,192,52196,1,8,0:0:0:0:
256,192,52363,1,0,0:0:0:0:
256,192,52446,1,0,0:0:0:0:
256,192,52529,1,8,0:0:0:0:
256,192,52696,1,8,0:0:0:0:
256,192,52863,1,0,0:0:0:0:
256,192,52946,1,0,0:0:0:0:
256,192,53029,1,8,0:0:0:0:
256,192,53196,1,8,0:0:0:0:
256,192,53363,1,12,0:0:0:0:
256,192,53696,1,8,0:0:0:0:
256,192,53863,1,0,0:0:0:0:
256,192,54029,1,8,0:0:0:0:
256,192,54196,1,0,0:0:0:0:
256,192,54363,1,8,0:0:0:0:
256,192,54529,1,0,0:0:0:0:
256,192,54696,1,8,0:0:0:0:
256,192,54863,1,0,0:0:0:0:
256,192,55029,1,8,0:0:0:0:
256,192,55196,1,0,0:0:0:0:
256,192,55363,1,8,0:0:0:0:
256,192,55446,1,8,0:0:0:0:
256,192,55529,1,8,0:0:0:0:
256,192,55696,1,4,0:0:0:0:
256,192,56029,1,12,0:0:0:0:
256,192,56363,1,0,0:0:0:0:
256,192,56446,1,8,0:0:0:0:
256,192,56696,1,8,0:0:0:0:
256,192,56779,1,0,0:0:0:0:
256,192,57029,1,0,0:0:0:0:
256,192,57113,1,8,0:0:0:0:
256,192,57363,1,8,0:0:0:0:
256,192,57446,1,0,0:0:0:0:
256,192,57696,1,0,0:0:0:0:
256,192,57779,1,8,0:0:0:0:
256,192,58029,1,8,0:0:0:0:
256,192,58113,1,0,0:0:0:0:
256,192,58363,1,4,0:0:0:0:
256,192,58696,1,12,0:0:0:0:
256,192,58863,1,0,0:0:0:0:
256,192,58946,1,0,0:0:0:0:
256,192,59029,1,0,0:0:0:0:
256,192,59196,1,8,0:0:0:0:
256,192,59279,1,0,0:0:0:0:
256,192,59363,1,8,0:0:0:0:
256,192,59529,1,8,0:0:0:0:
256,192,59696,1,0,0:0:0:0:
256,192,59863,1,8,0:0:0:0:
256,192,59946,1,0,0:0:0:0:
256,192,60029,1,8,0:0:0:0:
256,192,60196,1,0,0:0:0:0:
256,192,60279,1,0,0:0:0:0:
256,192,60363,1,0,0:0:0:0:
256,192,60529,1,8,0:0:0:0:
256,192,60613,1,0,0:0:0:0:
256,192,60696,1,8,0:0:0:0:
256,192,60863,1,0,0:0:0:0:
256,192,61029,1,12,0:0:0:0:
256,192,61363,1,0,0:0:0:0:
256,192,61529,1,8,0:0:0:0:
256,192,61613,1,8,0:0:0:0:
256,192,61696,1,0,0:0:0:0:
256,192,61863,1,8,0:0:0:0:
256,192,61946,1,8,0:0:0:0:
256,192,62029,1,0,0:0:0:0:
256,192,62113,1,0,0:0:0:0:
256,192,62196,1,8,0:0:0:0:
256,192,62363,1,0,0:0:0:0:
256,192,62446,1,0,0:0:0:0:
256,192,62529,1,8,0:0:0:0:
256,192,62613,1,8,0:0:0:0:
256,192,62696,1,0,0:0:0:0:
256,192,62863,1,8,0:0:0:0:
256,192,62946,1,8,0:0:0:0:
256,192,63029,1,0,0:0:0:0:
256,192,63196,1,8,0:0:0:0:
256,192,63279,1,8,0:0:0:0:
256,192,63363,1,0,0:0:0:0:
256,192,63529,1,0,0:0:0:0:
256,192,63696,1,12,0:0:0:0:
256,192,64029,1,8,0:0:0:0:
256,192,64113,1,8,0:0:0:0:
256,192,64196,1,0,0:0:0:0:
256,192,64279,1,0,0:0:0:0:
256,192,64363,1,8,0:0:0:0:
256,192,64529,1,8,0:0:0:0:
256,192,64696,1,0,0:0:0:0:
256,192,64863,1,0,0:0:0:0:
256,192,65029,1,8,0:0:0:0:
256,192,65196,1,8,0:0:0:0:
256,192,65363,1,0,0:0:0:0:
256,192,65446,1,0,0:0:0:0:
256,192,65529,1,8,0:0:0:0:
256,192,65613,1,8,0:0:0:0:
256,192,65696,1,0,0:0:0:0:
256,192,65863,1,0,0:0:0:0:
256,192,66029,1,8,0:0:0:0:
256,192,66196,1,8,0:0:0:0:
256,192,66363,1,0,0:0:0:0:
256,192,66529,1,8,0:0:0:0:
256,192,66696,1,0,0:0:0:0:
256,192,66779,1,0,0:0:0:0:
256,192,66863,1,8,0:0:0:0:
256,192,66946,1,0,0:0:0:0:
256,192,67029,1,8,0:0:0:0:
256,192,67196,1,8,0:0:0:0:
256,192,67363,1,0,0:0:0:0:
256,192,67529,1,0,0:0:0:0:
256,192,67613,1,0,0:0:0:0:
256,192,67696,1,8,0:0:0:0:
256,192,68029,1,0,0:0:0:0:
256,192,68196,1,8,0:0:0:0:
256,192,68363,1,0,0:0:0:0:
256,192,68446,1,0,0:0:0:0:
256,192,68529,1,8,0:0:0:0:
256,192,68696,1,0,0:0:0:0:
256,192,68863,1,8,0:0:0:0:
256,192,68946,1,8,0:0:0:0:
256,192,69029,1,0,0:0:0:0:
256,192,69363,1,8,0:0:0:0:
256,192,69446,1,8,0:0:0:0:
256,192,69529,1,0,0:0:0:0:
256,192,69613,1,0,0:0:0:0:
256,192,69696,1,8,0:0:0:0:
256,192,69863,1,8,0:0:0:0:
256,192,70029,1,0,0:0:0:0:
256,192,70196,1,0,0:0:0:0:
256,192,70363,1,8,0:0:0:0:
256,192,70529,1,8,0:0:0:0:
256,192,70696,1,0,0:0:0:0:
256,192,70779,1,0,0:0:0:0:
256,192,70863,1,8,0:0:0:0:
256,192,70946,1,8,0:0:0:0:
256,192,71029,1,0,0:0:0:0:
256,192,71196,1,0,0:0:0:0:
256,192,71363,1,8,0:0:0:0:
256,192,71529,1,8,0:0:0:0:
256,192,71696,1,0,0:0:0:0:
256,192,71863,1,8,0:0:0:0:
256,192,72029,1,0,0:0:0:0:
256,192,72113,1,0,0:0:0:0:
256,192,72196,1,8,0:0:0:0:
256,192,72279,1,0,0:0:0:0:
256,192,72363,1,8,0:0:0:0:
256,192,72529,1,8,0:0:0:0:
256,192,72696,1,0,0:0:0:0:
256,192,72863,1,0,0:0:0:0:
256,192,72946,1,0,0:0:0:0:
256,192,73029,1,8,0:0:0:0:
256,192,73363,1,0,0:0:0:0:
256,192,73529,1,8,0:0:0:0:
256,192,73613,1,0,0:0:0:0:
256,192,73696,1,8,0:0:0:0:
256,192,73863,1,0,0:0:0:0:
256,192,73946,1,0,0:0:0:0:
256,192,74029,1,8,0:0:0:0:
256,192,74113,1,8,0:0:0:0:
256,192,74196,1,0,0:0:0:0:
256,192,74363,1,8,0:0:0:0:
256,192,74529,1,8,0:0:0:0:
256,192,74696,1,4,0:0:0:0:
256,192,74863,1,8,0:0:0:0:
256,192,75029,1,8,0:0:0:0:
256,192,75196,1,8,0:0:0:0:
256,192,75529,1,8,0:0:0:0:
256,192,75696,1,8,0:0:0:0:
256,192,75863,1,8,0:0:0:0:
256,192,76029,1,0,0:0:0:0:
256,192,76196,1,8,0:0:0:0:
256,192,76363,1,8,0:0:0:0:
256,192,76529,1,8,0:0:0:0:
256,192,76696,1,0,0:0:0:0:
256,192,76863,1,8,0:0:0:0:
256,192,76946,1,0,0:0:0:0:
256,192,77029,1,8,0:0:0:0:
256,192,77196,1,8,0:0:0:0:
256,192,77363,1,0,0:0:0:0:
256,192,77529,1,8,0:0:0:0:
256,192,77696,1,8,0:0:0:0:
256,192,77863,1,8,0:0:0:0:
256,192,78196,1,8,0:0:0:0:
256,192,78363,1,8,0:0:0:0:
256,192,78529,1,8,0:0:0:0:
256,192,78696,1,0,0:0:0:0:
256,192,78863,1,8,0:0:0:0:
256,192,79029,1,8,0:0:0:0:
256,192,79196,1,0,0:0:0:0:
256,192,79363,1,8,0:0:0:0:
256,192,79446,1,8,0:0:0:0:
256,192,79529,1,0,0:0:0:0:
256,192,79696,1,8,0:0:0:0:
256,192,79863,1,8,0:0:0:0:
256,192,80029,1,0,0:0:0:0:
256,192,80196,1,0,0:0:0:0:
256,192,80363,1,0,0:0:0:0:
256,192,80529,1,0,0:0:0:0:
256,192,80696,1,8,0:0:0:0:
256,192,80863,1,8,0:0:0:0:
256,192,81029,1,8,0:0:0:0:
256,192,81196,1,8,0:0:0:0:
256,192,81363,1,0,0:0:0:0:
256,192,81529,1,0,0:0:0:0:
256,192,81696,1,0,0:0:0:0:
256,192,81863,1,0,0:0:0:0:
256,192,82029,1,8,0:0:0:0:
256,192,82196,1,0,0:0:0:0:
256,192,82363,1,8,0:0:0:0:
256,192,82529,1,0,0:0:0:0:
256,192,82696,1,8,0:0:0:0:
256,192,82779,1,8,0:0:0:0:
256,192,82863,1,8,0:0:0:0:
256,192,82946,1,8,0:0:0:0:
256,192,83029,1,0,0:0:0:0:
256,192,83113,1,0,0:0:0:0:
256,192,83196,1,0,0:0:0:0:
256,192,83279,1,0,0:0:0:0:
256,192,83363,1,8,0:0:0:0:
256,192,83529,1,8,0:0:0:0:
256,192,83613,1,8,0:0:0:0:
256,192,83696,1,0,0:0:0:0:
256,192,83779,1,0,0:0:0:0:
256,192,83863,1,8,0:0:0:0:
256,192,84029,1,4,0:0:0:0:
256,192,84363,1,4,0:0:0:0:
256,192,84696,1,12,0:0:0:0:
256,192,85029,1,8,0:0:0:0:
256,192,85363,1,4,0:0:0:0:
256,192,85696,1,0,0:0:0:0:
256,192,85863,1,0,0:0:0:0:
256,192,86029,1,8,0:0:0:0:
256,192,86196,1,0,0:0:0:0:
256,192,86363,1,8,0:0:0:0:
256,192,86529,1,8,0:0:0:0:
256,192,86696,1,0,0:0:0:0:
256,192,86863,1,8,0:0:0:0:
256,192,87029,1,8,0:0:0:0:
256,192,87196,1,0,0:0:0:0:
256,192,87363,1,8,0:0:0:0:
256,192,87529,1,0,0:0:0:0:
256,192,87696,1,8,0:0:0:0:
256,192,88029,1,8,0:0:0:0:
256,192,88363,1,0,0:0:0:0:
256,192,88529,1,0,0:0:0:0:
256,192,88696,1,8,0:0:0:0:
256,192,88863,1,0,0:0:0:0:
256,192,89029,1,8,0:0:0:0:
256,192,89196,1,0,0:0:0:0:
256,192,89363,1,8,0:0:0:0:
256,192,89529,1,8,0:0:0:0:
256,192,89696,1,0,0:0:0:0:
256,192,89863,1,0,0:0:0:0:
256,192,90029,1,8,0:0:0:0:
256,192,90196,1,0,0:0:0:0:
256,192,90363,1,8,0:0:0:0:
256,192,90696,1,4,0:0:0:0:
256,192,91029,1,0,0:0:0:0:
256,192,91196,1,0,0:0:0:0:
256,192,91363,1,8,0:0:0:0:
256,192,91529,1,0,0:0:0:0:
256,192,91696,1,8,0:0:0:0:
256,192,91863,1,8,0:0:0:0:
256,192,92029,1,0,0:0:0:0:
256,192,92196,1,8,0:0:0:0:
256,192,92363,1,8,0:0:0:0:
256,192,92529,1,0,0:0:0:0:
256,192,92696,1,8,0:0:0:0:
256,192,92863,1,0,0:0:0:0:
256,192,93029,1,8,0:0:0:0:
256,192,93196,1,8,0:0:0:0:
256,192,93363,1,0,0:0:0:0:
256,192,93696,1,8,0:0:0:0:
256,192,93863,1,0,0:0:0:0:
256,192,94029,1,8,0:0:0:0:
256,192,94196,1,0,0:0:0:0:
256,192,94363,1,8,0:0:0:0:
256,192,94529,1,8,0:0:0:0:
256,192,94696,1,0,0:0:0:0:
256,192,94863,1,0,0:0:0:0:
256,192,94946,1,0,0:0:0:0:
256,192,95029,1,8,0:0:0:0:
256,192,95196,1,8,0:0:0:0:
256,192,95279,1,0,0:0:0:0:
256,192,95363,1,8,0:0:0:0:
256,192,95696,1,8,0:0:0:0:
256,192,95863,1,0,0:0:0:0:
256,192,95946,1,0,0:0:0:0:
256,192,96029,1,8,0:0:0:0:
256,192,96196,1,0,0:0:0:0:
256,192,96363,1,8,0:0:0:0:
256,192,96446,1,8,0:0:0:0:
256,192,96529,1,0,0:0:0:0:
256,192,96696,1,8,0:0:0:0:
256,192,96779,1,8,0:0:0:0:
256,192,96863,1,8,0:0:0:0:
256,192,97029,1,0,0:0:0:0:
256,192,97113,1,0,0:0:0:0:
256,192,97196,1,8,0:0:0:0:
256,192,97529,1,0,0:0:0:0:
256,192,97696,1,8,0:0:0:0:
256,192,97779,1,8,0:0:0:0:
256,192,97863,1,0,0:0:0:0:
256,192,98029,1,8,0:0:0:0:
256,192,98113,1,8,0:0:0:0:
256,192,98196,1,8,0:0:0:0:
256,192,98363,1,0,0:0:0:0:
256,192,98446,1,0,0:0:0:0:
256,192,98529,1,8,0:0:0:0:
256,192,98863,1,8,0:0:0:0:
256,192,99029,1,0,0:0:0:0:
256,192,99113,1,8,0:0:0:0:
256,192,99196,1,0,0:0:0:0:
256,192,99363,1,8,0:0:0:0:
256,192,99446,1,0,0:0:0:0:
256,192,99529,1,8,0:0:0:0:
256,192,99696,1,0,0:0:0:0:
256,192,99779,1,0,0:0:0:0:
256,192,99863,1,8,0:0:0:0:
256,192,100029,1,8,0:0:0:0:
256,192,100196,1,8,0:0:0:0:
256,192,100363,1,0,0:0:0:0:
256,192,100529,1,8,0:0:0:0:
256,192,100696,1,8,0:0:0:0:
256,192,100863,1,0,0:0:0:0:
256,192,101029,1,8,0:0:0:0:
256,192,101196,1,0,0:0:0:0:
256,192,101529,1,8,0:0:0:0:
256,192,101613,1,8,0:0:0:0:
256,192,101696,1,8,0:0:0:0:
256,192,101779,1,8,0:0:0:0:
256,192,101863,1,0,0:0:0:0:
256,192,102029,1,8,0:0:0:0:
256,192,102113,1,8,0:0:0:0:
256,192,102196,1,0,0:0:0:0:
256,192,102279,1,0,0:0:0:0:
256,192,102363,1,8,0:0:0:0:
256,192,102529,1,8,0:0:0:0:
256,192,102863,1,0,0:0:0:0:
256,192,102946,1,0,0:0:0:0:
256,192,103029,1,8,0:0:0:0:
256,192,103113,1,8,0:0:0:0:
256,192,103196,1,0,0:0:0:0:
256,192,103363,1,8,0:0:0:0:
256,192,103446,1,8,0:0:0:0:
256,192,103529,1,8,0:0:0:0:
256,192,103613,1,8,0:0:0:0:
256,192,103696,1,0,0:0:0:0:
256,192,103863,1,8,0:0:0:0:
256,192,104029,1,0,0:0:0:0:
256,192,104113,1,0,0:0:0:0:
256,192,104196,1,0,0:0:0:0:
256,192,104279,1,0,0:0:0:0:
256,192,104363,1,8,0:0:0:0:
256,192,104446,1,8,0:0:0:0:
256,192,104529,1,8,0:0:0:0:
256,192,104613,1,8,0:0:0:0:
256,192,104696,1,0,0:0:0:0:
256,192,104863,1,0,0:0:0:0:
256,192,104946,1,0,0:0:0:0:
256,192,105029,1,8,0:0:0:0:
256,192,105113,1,8,0:0:0:0:
256,192,105196,1,0,0:0:0:0:
256,192,105363,1,12,0:0:0:0:
256,192,105696,1,4,0:0:0:0:
256,192,106029,1,8,0:0:0:0:
256,192,106113,1,8,0:0:0:0:
256,192,106196,1,8,0:0:0:0:
256,192,106363,1,4,0:0:0:0:
256,192,106696,1,0,0:0:0:0:
256,192,106863,1,8,0:0:0:0:
256,192,107029,1,8,0:0:0:0:
256,192,107196,1,8,0:0:0:0:
256,192,107279,1,8,0:0:0:0:
256,192,107363,1,0,0:0:0:0:
256,192,107529,1,8,0:0:0:0:
256,192,107696,1,8,0:0:0:0:
256,192,107779,1,8,0:0:0:0:
256,192,107863,1,8,0:0:0:0:
256,192,107946,1,8,0:0:0:0:
256,192,108029,1,0,0:0:0:0:
256,192,108363,1,8,0:0:0:0:
256,192,108529,1,0,0:0:0:0:
256,192,108696,1,8,0:0:0:0:
256,192,108779,1,8,0:0:0:0:
256,192,108863,1,0,0:0:0:0:
256,192,108946,1,0,0:0:0:0:
256,192,109029,1,8,0:0:0:0:
256,192,109196,1,8,0:0:0:0:
256,192,109279,1,8,0:0:0:0:
256,192,109363,1,0,0:0:0:0:
256,192,109696,1,0,0:0:0:0:
256,192,110029,1,8,0:0:0:0:
256,192,110196,1,8,0:0:0:0:
256,192,110363,1,0,0:0:0:0:
256,192,110446,1,0,0:0:0:0:
256,192,110529,1,8,0:0:0:0:
256,192,110613,1,8,0:0:0:0:
256,192,110696,1,0,0:0:0:0:
256,192,110863,1,0,0:0:0:0:
256,192,111029,1,8,0:0:0:0:
256,192,111196,1,8,0:0:0:0:
256,192,111279,1,8,0:0:0:0:
256,192,111363,1,0,0:0:0:0:
256,192,111529,1,0,0:0:0:0:
256,192,111696,1,8,0:0:0:0:
256,192,112029,1,12,0:0:0:0:
256,192,112363,1,8,0:0:0:0:
256,192,112529,1,8,0:0:0:0:
256,192,112613,1,8,0:0:0:0:
256,192,112696,1,0,0:0:0:0:
256,192,112863,1,8,0:0:0:0:
256,192,113029,1,8,0:0:0:0:
256,192,113113,1,8,0:0:0:0:
256,192,113196,1,8,0:0:0:0:
256,192,113279,1,8,0:0:0:0:
256,192,113363,1,0,0:0:0:0:
256,192,113696,1,8,0:0:0:0:
256,192,113863,1,0,0:0:0:0:
256,192,114029,1,8,0:0:0:0:
256,192,114113,1,8,0:0:0:0:
256,192,114196,1,8,0:0:0:0:
256,192,114279,1,8,0:0:0:0:
256,192,114363,1,0,0:0:0:0:
256,192,114529,1,0,0:0:0:0:
256,192,114696,1,12,0:0:0:0:
256,192,114863,1,0,0:0:0:0:
256,192,115029,1,8,0:0:0:0:
256,192,115196,1,0,0:0:0:0:
256,192,115363,1,8,0:0:0:0:
256,192,115529,1,0,0:0:0:0:
256,192,115696,1,8,0:0:0:0:
256,192,115779,1,8,0:0:0:0:
256,192,115863,1,8,0:0:0:0:
256,192,115946,1,8,0:0:0:0:
256,192,116029,1,0,0:0:0:0:
256,192,116196,1,0,0:0:0:0:
256,192,116363,1,0,0:0:0:0:
256,192,116529,1,8,0:0:0:0:
256,192,116696,1,0,0:0:0:0:
256,192,116863,1,8,0:0:0:0:
256,192,116946,1,8,0:0:0:0:
256,192,117029,1,0,0:0:0:0:
256,192,117113,1,0,0:0:0:0:
256,192,117196,1,8,0:0:0:0:
256,192,117363,1,0,0:0:0:0:
256,192,117696,1,0,0:0:0:0:
256,192,118029,1,8,0:0:0:0:
256,192,118363,1,8,0:0:0:0:
256,192,118529,1,8,0:0:0:0:
256,192,118696,1,0,0:0:0:0:
256,192,119029,1,0,0:0:0:0:
256,192,119363,1,8,0:0:0:0:
256,192,119696,1,0,0:0:0:0:
256,192,119863,1,8,0:0:0:0:
256,192,120029,1,0,0:0:0:0:
256,192,120196,1,8,0:0:0:0:
256,192,120363,1,0,0:0:0:0:
256,192,120529,1,0,0:0:0:0:
256,192,120696,1,8,0:0:0:0:
256,192,120863,1,8,0:0:0:0:
256,192,121029,1,0,0:0:0:0:
256,192,121363,1,8,0:0:0:0:
256,192,121696,1,0,0:0:0:0:
256,192,122029,1,8,0:0:0:0:
256,192,122196,1,8,0:0:0:0:
256,192,122279,1,8,0:0:0:0:
256,192,122363,1,0,0:0:0:0:
256,192,122529,1,0,0:0:0:0:
256,192,122696,1,8,0:0:0:0:
256,192,123029,1,8,0:0:0:0:
256,192,123363,1,0,0:0:0:0:
256,192,123696,1,8,0:0:0:0:
256,192,123863,1,0,0:0:0:0:
256,192,124029,1,8,0:0:0:0:
256,192,124363,1,8,0:0:0:0:
256,192,124696,1,0,0:0:0:0:
256,192,125029,1,8,0:0:0:0:
256,192,125196,1,8,0:0:0:0:
256,192,125363,1,0,0:0:0:0:
256,192,125696,1,0,0:0:0:0:
256,192,126029,1,8,0:0:0:0:
256,192,126363,1,0,0:0:0:0:
256,192,126696,1,8,0:0:0:0:
256,192,126863,1,0,0:0:0:0:
256,192,126946,1,0,0:0:0:0:
256,192,127029,1,0,0:0:0:0:
256,192,127196,1,8,0:0:0:0:
256,192,127363,1,8,0:0:0:0:
256,192,127529,1,0,0:0:0:0:
256,192,127613,1,0,0:0:0:0:
256,192,127696,1,8,0:0:0:0:
256,192,128029,1,8,0:0:0:0:
256,192,128363,1,8,0:0:0:0:
256,192,128529,1,8,0:0:0:0:
256,192,128696,1,0,0:0:0:0:
256,192,128863,1,8,0:0:0:0:
256,192,129029,1,0,0:0:0:0:
256,192,129196,1,0,0:0:0:0:
256,192,129279,1,0,0:0:0:0:
256,192,129363,1,8,0:0:0:0:
256,192,129529,1,0,0:0:0:0:
256,192,129696,1,8,0:0:0:0:
256,192,130029,1,8,0:0:0:0:
256,192,130196,1,8,0:0:0:0:
256,192,130363,1,8,0:0:0:0:
256,192,130529,1,0,0:0:0:0:
256,192,130696,1,8,0:0:0:0:
256,192,130863,1,0,0:0:0:0:
256,192,130946,1,0,0:0:0:0:
256,192,131029,1,8,0:0:0:0:
256,192,131196,1,8,0:0:0:0:
256,192,131363,1,0,0:0:0:0:
256,192,131529,1,8,0:0:0:0:
256,192,131613,1,8,0:0:0:0:
256,192,131696,1,0,0:0:0:0:
256,192,131863,1,8,0:0:0:0:
256,192,132029,1,0,0:0:0:0:
256,192,132363,1,8,0:0:0:0:
256,192,132529,1,0,0:0:0:0:
256,192,132696,1,8,0:0:0:0:
256,192,133029,1,0,0:0:0:0:
256,192,133363,1,8,0:0:0:0:
256,192,133696,1,8,0:0:0:0:
256,192,133863,1,8,0:0:0:0:
256,192,134029,1,0,0:0:0:0:
256,192,134196,1,8,0:0:0:0:
256,192,134279,1,0,0:0:0:0:
256,192,134363,1,8,0:0:0:0:
256,192,134529,1,8,0:0:0:0:
256,192,134696,1,0,0:0:0:0:
256,192,135029,1,0,0:0:0:0:
256,192,135363,1,8,0:0:0:0:
256,192,135529,1,0,0:0:0:0:
256,192,135696,1,8,0:0:0:0:
256,192,136029,1,8,0:0:0:0:
256,192,136196,1,0,0:0:0:0:
256,192,136279,1,0,0:0:0:0:
256,192,136363,1,8,0:0:0:0:
256,192,136529,1,0,0:0:0:0:
256,192,136696,1,8,0:0:0:0:
256,192,137029,1,8,0:0:0:0:
256,192,137363,1,0,0:0:0:0:
256,192,137696,1,8,0:0:0:0:
256,192,137863,1,0,0:0:0:0:
256,192,138029,1,8,0:0:0:0:
256,192,138363,1,0,0:0:0:0:
256,192,138446,1,0,0:0:0:0:
256,192,138529,1,0,0:0:0:0:
256,192,138613,1,0,0:0:0:0:
256,192,138696,1,8,0:0:0:0:
256,192,139029,1,8,0:0:0:0:
256,192,139196,1,8,0:0:0:0:
256,192,139279,1,8,0:0:0:0:
256,192,139363,1,0,0:0:0:0:
256,192,139529,1,8,0:0:0:0:
256,192,139696,1,0,0:0:0:0:
256,192,139863,1,8,0:0:0:0:
256,192,140029,1,8,0:0:0:0:
256,192,140196,1,0,0:0:0:0:
256,192,140279,1,0,0:0:0:0:
256,192,140363,1,8,0:0:0:0:
256,192,140529,1,0,0:0:0:0:
256,192,140696,1,8,0:0:0:0:
256,192,140863,1,8,0:0:0:0:
256,192,140946,1,8,0:0:0:0:
256,192,141029,1,0,0:0:0:0:
256,192,141196,1,8,0:0:0:0:
256,192,141363,1,0,0:0:0:0:
256,192,141696,1,8,0:0:0:0:
256,192,141863,1,8,0:0:0:0:
256,192,142029,1,0,0:0:0:0:
256,192,142196,1,8,0:0:0:0:
256,192,142279,1,8,0:0:0:0:
256,192,142363,1,0,0:0:0:0:
256,192,142529,1,8,0:0:0:0:
256,192,142696,1,0,0:0:0:0:
256,192,142863,1,8,0:0:0:0:
256,192,142946,1,0,0:0:0:0:
256,192,143029,1,8,0:0:0:0:
256,192,143196,1,0,0:0:0:0:
256,192,143363,1,8,0:0:0:0:
256,192,143446,1,8,0:0:0:0:
256,192,143529,1,0,0:0:0:0:
256,192,143696,1,8,0:0:0:0:
256,192,144029,1,0,0:0:0:0:
256,192,144196,1,0,0:0:0:0:
256,192,144363,1,8,0:0:0:0:
256,192,144529,1,8,0:0:0:0:
256,192,144696,1,0,0:0:0:0:
256,192,144863,1,8,0:0:0:0:
256,192,145029,1,0,0:0:0:0:
256,192,145196,1,8,0:0:0:0:
256,192,145363,1,8,0:0:0:0:
256,192,145529,1,0,0:0:0:0:
256,192,145696,1,8,0:0:0:0:
256,192,145863,1,0,0:0:0:0:
256,192,146029,1,8,0:0:0:0:
256,192,146196,1,8,0:0:0:0:
256,192,146363,1,0,0:0:0:0:
256,192,146529,1,0,0:0:0:0:
256,192,146696,1,8,0:0:0:0:
256,192,146779,1,8,0:0:0:0:
256,192,146863,1,8,0:0:0:0:
256,192,146946,1,8,0:0:0:0:
256,192,147029,1,0,0:0:0:0:
256,192,147113,1,0,0:0:0:0:
256,192,147196,1,0,0:0:0:0:
256,192,147279,1,0,0:0:0:0:
256,192,147363,1,8,0:0:0:0:
256,192,147529,1,0,0:0:0:0:
256,192,147613,1,0,0:0:0:0:
256,192,147696,1,8,0:0:0:0:
256,192,147779,1,8,0:0:0:0:
256,192,147863,1,0,0:0:0:0:
256,192,148029,1,12,0:0:0:0:
256,192,148363,1,4,0:0:0:0:
256,192,148696,1,12,0:0:0:0:
256,192,148863,1,8,0:0:0:0:
256,192,149029,1,4,0:0:0:0:
256,192,149363,1,0,0:0:0:0:
256,192,149529,1,0,0:0:0:0:
256,192,149613,1,8,0:0:0:0:
256,192,149696,1,8,0:0:0:0:
256,192,149863,1,0,0:0:0:0:
256,192,150029,1,8,0:0:0:0:
256,192,150113,1,8,0:0:0:0:
256,192,150196,1,8,0:0:0:0:
256,192,150363,1,0,0:0:0:0:
256,192,150529,1,8,0:0:0:0:
256,192,150863,1,8,0:0:0:0:
256,192,150946,1,8,0:0:0:0:
256,192,151029,1,0,0:0:0:0:
256,192,151196,1,0,0:0:0:0:
256,192,151363,1,8,0:0:0:0:
256,192,151446,1,0,0:0:0:0:
256,192,151529,1,8,0:0:0:0:
256,192,151696,1,0,0:0:0:0:
256,192,151863,1,8,0:0:0:0:
256,192,152196,1,8,0:0:0:0:
256,192,152279,1,8,0:0:0:0:
256,192,152363,1,0,0:0:0:0:
256,192,152529,1,0,0:0:0:0:
256,192,152696,1,8,0:0:0:0:
256,192,152779,1,8,0:0:0:0:
256,192,152863,1,0,0:0:0:0:
256,192,152946,1,0,0:0:0:0:
256,192,153029,1,8,0:0:0:0:
256,192,153196,1,0,0:0:0:0:
256,192,153363,1,8,0:0:0:0:
256,192,153446,1,8,0:0:0:0:
256,192,153529,1,0,0:0:0:0:
256,192,153696,1,0,0:0:0:0:
256,192,153863,1,8,0:0:0:0:
256,192,153946,1,8,0:0:0:0:
256,192,154029,1,0,0:0:0:0:
256,192,154196,1,0,0:0:0:0:
256,192,154363,1,8,0:0:0:0:
256,192,154529,1,0,0:0:0:0:
256,192,154613,1,0,0:0:0:0:
256,192,154696,1,8,0:0:0:0:
256,192,155029,1,0,0:0:0:0:
256,192,155113,1,8,0:0:0:0:
256,192,155196,1,8,0:0:0:0:
256,192,155363,1,0,0:0:0:0:
256,192,155446,1,0,0:0:0:0:
256,192,155529,1,8,0:0:0:0:
256,192,155696,1,0,0:0:0:0:
256,192,155863,1,8,0:0:0:0:
256,192,156196,1,8,0:0:0:0:
256,192,156279,1,0,0:0:0:0:
256,192,156363,1,8,0:0:0:0:
256,192,156529,1,0,0:0:0:0:
256,192,156696,1,8,0:0:0:0:
256,192,156779,1,8,0:0:0:0:
256,192,156863,1,0,0:0:0:0:
256,192,157029,1,8,0:0:0:0:
256,192,157196,1,8,0:0:0:0:
256,192,157529,1,0,0:0:0:0:
256,192,157613,1,8,0:0:0:0:
256,192,157696,1,0,0:0:0:0:
256,192,157863,1,8,0:0:0:0:
256,192,158029,1,0,0:0:0:0:
256,192,158113,1,0,0:0:0:0:
256,192,158196,1,8,0:0:0:0:
256,192,158279,1,8,0:0:0:0:
256,192,158363,1,0,0:0:0:0:
256,192,158529,1,8,0:0:0:0:
256,192,158696,1,0,0:0:0:0:
256,192,158863,1,8,0:0:0:0:
256,192,158946,1,8,0:0:0:0:
256,192,159029,1,0,0:0:0:0:
256,192,159113,1,0,0:0:0:0:
256,192,159196,1,8,0:0:0:0:
256,192,159279,1,8,0:0:0:0:
256,192,159363,1,0,0:0:0:0:
256,192,159529,1,0,0:0:0:0:
256,192,159696,1,12,0:0:0:0:
256,192,160029,1,0,0:0:0:0:
256,192,160363,1,8,0:0:0:0:
256,192,160529,1,8,0:0:0:0:
256,192,160696,1,0,0:0:0:0:
256,192,160863,1,0,0:0:0:0:
256,192,161029,1,8,0:0:0:0:
256,192,161196,1,0,0:0:0:0:
256,192,161363,1,8,0:0:0:0:
256,192,161696,1,0,0:0:0:0:
256,192,161863,1,0,0:0:0:0:
256,192,162029,1,8,0:0:0:0:
256,192,162196,1,8,0:0:0:0:
256,192,162363,1,0,0:0:0:0:
256,192,162529,1,0,0:0:0:0:
256,192,162696,1,8,0:0:0:0:
256,192,163029,1,8,0:0:0:0:
256,192,163196,1,8,0:0:0:0:
256,192,163363,1,0,0:0:0:0:
256,192,163529,1,8,0:0:0:0:
256,192,163696,1,8,0:0:0:0:
256,192,163863,1,8,0:0:0:0:
256,192,164029,1,0,0:0:0:0:
256,192,164363,1,0,0:0:0:0:
256,192,164529,1,0,0:0:0:0:
256,192,164696,1,8,0:0:0:0:
256,192,164863,1,0,0:0:0:0:
256,192,165029,1,8,0:0:0:0:
256,192,165363,1,0,0:0:0:0:
256,192,165529,1,0,0:0:0:0:
256,192,165696,1,0,0:0:0:0:
256,192,165863,1,0,0:0:0:0:
256,192,166029,1,8,0:0:0:0:
256,192,166196,1,8,0:0:0:0:
256,192,166363,1,0,0:0:0:0:
256,192,166529,1,0,0:0:0:0:
256,192,166696,1,8,0:0:0:0:
256,192,166863,1,8,0:0:0:0:
256,192,167029,1,0,0:0:0:0:
256,192,167196,1,0,0:0:0:0:
256,192,167363,1,8,0:0:0:0:
256,192,167529,1,0,0:0:0:0:
256,192,167696,1,8,0:0:0:0:
256,192,167863,1,0,0:0:0:0:
256,192,168029,1,8,0:0:0:0:
256,192,168113,1,8,0:0:0:0:
256,192,168196,1,8,0:0:0:0:
256,192,168279,1,8,0:0:0:0:
256,192,168363,1,0,0:0:0:0:
256,192,168446,1,0,0:0:0:0:
256,192,168529,1,0,0:0:0:0:
256,192,168613,1,0,0:0:0:0:
256,192,168696,1,8,0:0:0:0:
256,192,168863,1,0,0:0:0:0:
256,192,168946,1,0,0:0:0:0:
256,192,169029,1,8,0:0:0:0:
256,192,169113,1,8,0:0:0:0:
256,192,169196,1,0,0:0:0:0:
256,192,169363,1,12,0:0:0:0:
256,192,169696,1,8,0:0:0:0:
256,192,169779,1,8,0:0:0:0:
256,192,169863,1,0,0:0:0:0:
256,192,169946,1,0,0:0:0:0:
256,192,170029,1,8,0:0:0:0:
256,192,170196,1,0,0:0:0:0:
256,192,170363,1,12,0:0:0:0:
256,192,170696,1,4,0:0:0:0:
256,192,171029,1,8,0:0:0:0:
256,192,171113,1,8,0:0:0:0:
256,192,171363,1,0,0:0:0:0:
256,192,171446,1,8,0:0:0:0:
256,192,171613,1,0,0:0:0:0:
256,192,171696,1,8,0:0:0:0:
256,192,171863,1,0,0:0:0:0:
256,192,172029,1,8,0:0:0:0:
256,192,172113,1,8,0:0:0:0:
256,192,172363,1,0,0:0:0:0:
256,192,172446,1,8,0:0:0:0:
256,192,172696,1,0,0:0:0:0:
256,192,172779,1,8,0:0:0:0:
256,192,173029,1,4,0:0:0:0:
256,192,173196,1,0,0:0:0:0:
256,192,173363,1,8,0:0:0:0:
256,192,173446,1,8,0:0:0:0:
256,192,173529,1,0,0:0:0:0:
256,192,173696,1,0,0:0:0:0:
256,192,173779,1,8,0:0:0:0:
256,192,174029,1,0,0:0:0:0:
256,192,174113,1,8,0:0:0:0:
256,192,174279,1,0,0:0:0:0:
256,192,174363,1,8,0:0:0:0:
256,192,174529,1,0,0:0:0:0:
256,192,174696,1,8,0:0:0:0:
256,192,174779,1,8,0:0:0:0:
256,192,175029,1,0,0:0:0:0:
256,192,175113,1,8,0:0:0:0:
256,192,175363,1,0,0:0:0:0:
256,192,175446,1,8,0:0:0:0:
256,192,175696,1,0,0:0:0:0:
256,192,175863,1,0,0:0:0:0:
256,192,176029,1,8,0:0:0:0:
256,192,176363,1,8,0:0:0:0:
256,192,176446,1,8,0:0:0:0:
256,192,176529,1,8,0:0:0:0:
256,192,176696,1,0,0:0:0:0:
256,192,176779,1,8,0:0:0:0:
256,192,176946,1,0,0:0:0:0:
256,192,177029,1,8,0:0:0:0:
256,192,177196,1,0,0:0:0:0:
256,192,177363,1,8,0:0:0:0:
256,192,177446,1,8,0:0:0:0:
256,192,177529,1,8,0:0:0:0:
256,192,177696,1,0,0:0:0:0:
256,192,177779,1,8,0:0:0:0:
256,192,178029,1,0,0:0:0:0:
256,192,178113,1,8,0:0:0:0:
256,192,178363,1,12,0:0:0:0:
256,192,178696,1,0,0:0:0:0:
256,192,178779,1,0,0:0:0:0:
256,192,178863,1,0,0:0:0:0:
256,192,179029,1,8,0:0:0:0:
256,192,179113,1,8,0:0:0:0:
256,192,179196,1,8,0:0:0:0:
256,192,179363,1,0,0:0:0:0:
256,192,179446,1,8,0:0:0:0:
256,192,179613,1,0,0:0:0:0:
256,192,179696,1,8,0:0:0:0:
256,192,179863,1,0,0:0:0:0:
256,192,180029,1,8,0:0:0:0:
256,192,180113,1,8,0:0:0:0:
256,192,180196,1,8,0:0:0:0:
256,192,180279,1,8,0:0:0:0:
256,192,180363,1,0,0:0:0:0:
256,192,180529,1,8,0:0:0:0:
256,192,180613,1,8,0:0:0:0:
256,192,180696,1,0,0:0:0:0:
256,192,180863,1,8,0:0:0:0:
256,192,180946,1,0,0:0:0:0:
256,192,181029,1,8,0:0:0:0:
256,192,181113,1,8,0:0:0:0:
256,192,181196,1,0,0:0:0:0:
256,192,181363,1,8,0:0:0:0:
256,192,181863,1,0,0:0:0:0:
256,192,182363,1,8,0:0:0:0:
256,192,182696,1,8,0:0:0:0:
256,192,183196,1,0,0:0:0:0:
256,192,184029,1,8,0:0:0:0:
256,192,184529,1,0,0:0:0:0:
256,192,185029,1,8,0:0:0:0:
256,192,185363,1,8,0:0:0:0:
256,192,185863,1,0,0:0:0:0:
256,192,186529,1,0,0:0:0:0:
256,192,186613,1,0,0:0:0:0:
256,192,186696,1,8,0:0:0:0:
256,192,187196,1,0,0:0:0:0:
256,192,187696,1,8,0:0:0:0:
256,192,188029,1,0,0:0:0:0:
256,192,188529,1,8,0:0:0:0:
256,192,189029,1,0,0:0:0:0:
256,192,189363,1,0,0:0:0:0:
256,192,190029,1,8,0:0:0:0:
256,192,190529,1,8,0:0:0:0:
256,192,190613,1,8,0:0:0:0:
256,192,190696,1,0,0:0:0:0:
256,192,191029,1,8,0:0:0:0:
256,192,191363,1,0,0:0:0:0:
256,192,191696,1,8,0:0:0:0:
256,192,192029,1,8,0:0:0:0:
256,192,192279,1,8,0:0:0:0:
256,192,192362,1,0,0:0:0:0:
256,192,192529,1,8,0:0:0:0:
256,192,192696,1,0,0:0:0:0:
256,192,192862,1,8,0:0:0:0:
256,192,193029,1,8,0:0:0:0:
256,192,193196,1,8,0:0:0:0:
256,192,193362,1,0,0:0:0:0:
256,192,193612,1,8,0:0:0:0:
256,192,193696,1,0,0:0:0:0:
256,192,193862,1,8,0:0:0:0:
256,192,194029,1,0,0:0:0:0:
256,192,194196,1,8,0:0:0:0:
256,192,194279,1,8,0:0:0:0:
256,192,194362,1,0,0:0:0:0:
256,192,194529,1,8,0:0:0:0:
256,192,194696,1,0,0:0:0:0:
256,192,194946,1,8,0:0:0:0:
256,192,195029,1,0,0:0:0:0:
256,192,195196,1,8,0:0:0:0:
256,192,195362,1,0,0:0:0:0:
256,192,195529,1,8,0:0:0:0:
256,192,195612,1,8,0:0:0:0:
256,192,195696,1,0,0:0:0:0:
256,192,196029,1,0,0:0:0:0:
256,192,196279,1,8,0:0:0:0:
256,192,196362,1,0,0:0:0:0:
256,192,196529,1,8,0:0:0:0:
256,192,196612,1,8,0:0:0:0:
256,192,196696,1,0,0:0:0:0:
256,192,196779,1,0,0:0:0:0:
256,192,196862,1,8,0:0:0:0:
256,192,197029,1,8,0:0:0:0:
256,192,197196,1,8,0:0:0:0:
256,192,197363,1,0,0:0:0:0:
256,192,197529,1,0,0:0:0:0:
256,192,197696,1,0,0:0:0:0:
256,192,197862,1,0,0:0:0:0:
256,192,198029,1,0,0:0:0:0:
256,192,198196,1,8,0:0:0:0:
256,192,198362,1,8,0:0:0:0:
256,192,198529,1,8,0:0:0:0:
256,192,198696,1,0,0:0:0:0:
256,192,198862,1,0,0:0:0:0:
256,192,199029,1,0,0:0:0:0:
256,192,199196,1,0,0:0:0:0:
256,192,199362,1,0,0:0:0:0:
256,192,199529,1,8,0:0:0:0:
256,192,199696,1,8,0:0:0:0:
256,192,199862,1,8,0:0:0:0:
256,192,200029,1,0,0:0:0:0:
256,192,200112,1,0,0:0:0:0:
256,192,200196,1,0,0:0:0:0:
256,192,200279,1,0,0:0:0:0:
256,192,200362,1,8,0:0:0:0:
256,192,200446,1,8,0:0:0:0:
256,192,200529,1,8,0:0:0:0:
256,192,200612,1,8,0:0:0:0:
256,192,200696,1,0,0:0:0:0:
256,192,200862,1,0,0:0:0:0:
256,192,200946,1,0,0:0:0:0:
256,192,201029,1,8,0:0:0:0:
256,192,201112,1,8,0:0:0:0:
256,192,201196,1,0,0:0:0:0:
256,192,201363,1,8,0:0:0:0:
256,192,201696,1,8,0:0:0:0:
256,192,202029,1,8,0:0:0:0:
256,192,202363,1,0,0:0:0:0:
256,192,202529,1,0,0:0:0:0:
256,192,202696,1,12,0:0:0:0:
256,192,203696,1,0,0:0:0:0:
256,192,203863,1,0,0:0:0:0:
256,192,204029,1,8,0:0:0:0:
256,192,205029,1,8,0:0:0:0:
256,192,205196,1,0,0:0:0:0:
256,192,205363,1,8,0:0:0:0:
256,192,205529,1,8,0:0:0:0:
256,192,205696,1,0,0:0:0:0:
256,192,205863,1,0,0:0:0:0:
256,192,206029,1,8,0:0:0:0:
256,192,206363,1,0,0:0:0:0:
256,192,206696,1,8,0:0:0:0:
256,192,207029,1,8,0:0:0:0:
256,192,207363,1,0,0:0:0:0:
256,192,207529,1,8,0:0:0:0:
256,192,207613,1,8,0:0:0:0:
256,192,207696,1,0,0:0:0:0:
256,192,207863,1,0,0:0:0:0:
256,192,208029,1,8,0:0:0:0:
256,192,209029,1,0,0:0:0:0:
256,192,209196,1,0,0:0:0:0:
256,192,209363,1,8,0:0:0:0:
256,192,210363,1,8,0:0:0:0:
256,192,210696,1,8,0:0:0:0:
256,192,211029,1,0,0:0:0:0:
256,192,211363,1,0,0:0:0:0:
256,192,211696,1,8,0:0:0:0:
256,192,211863,1,8,0:0:0:0:
256,192,212029,1,0,0:0:0:0:
256,192,212696,1,0,0:0:0:0:
256,192,213363,1,12,0:0:0:0:
