osu file format v14

[General]
AudioFilename: audio.mp3
AudioLeadIn: 0
PreviewTime: 114654
Countdown: 0
SampleSet: Normal
StackLeniency: 0.7
Mode: 1
LetterboxInBreaks: 0
WidescreenStoryboard: 0

[Editor]
Bookmarks: 10696,21363,32029,42696,53363,64029,64529,65196,65863,66529,67196,67863,68529,69863,70529,71196,71863,72529,73196,73863,74696,85363,96029,106696,117363,128029,138696,149363,160029,170696,181363,192029,202696
DistanceSpacing: 2.2
BeatDivisor: 4
GridSize: 32
TimelineZoom: 0.8

[Metadata]
Title:CROSSING DELTA
TitleUnicode:CROSSING DELTA
Artist:ginkiha x Hommarju x t+pazolite
ArtistUnicode:ginkiha × Hommarju × t+pazolite
Creator:Faputa
Version:MUZUKASHII
Source:OverRapid
Tags:eiri- Ayyri tpz Video Rhythm Game Mobile FLUCTON Cafe.D Collaboration Pack Seve's code Future Bass cute instrumental electronic Trap SV full version ver. Lanota PIU XX Pump It Up Dynamix
BeatmapID:2236595
BeatmapSetID:1067200

[Difficulty]
HPDrainRate:6
CircleSize:2
OverallDifficulty:5
ApproachRate:10
SliderMultiplier:1.4
SliderTickRate:1

[Events]
//Background and Video events
0,0,"anime-girl-feathers-water-reflection-tree.jpeg",0,55
//Break Periods
//Storyboard Layer 0 (Background)
//Storyboard Layer 1 (Fail)
//Storyboard Layer 2 (Pass)
//Storyboard Layer 3 (Foreground)
//Storyboard Layer 4 (Overlay)
//Storyboard Sound Samples

[TimingPoints]
30,333.333333333333,4,1,0,90,1,0
30,-100,4,1,0,90,0,0
10279,-100,4,1,0,100,0,0
42696,-100,4,1,0,100,0,1
53029,-100,4,1,0,100,0,0
53363,-100,4,1,0,100,0,1
64029,-100,4,1,0,90,0,0
85529,-100,4,1,0,85,0,0
106696,-100,4,1,0,90,0,0
149363,-100,4,1,0,95,0,1
160029,-100,4,1,0,90,0,0
171029,-100,4,1,0,100,0,1
181363,-100,4,1,0,90,0,0
202863,-100,4,1,0,85,0,0
209029,-100,4,1,0,80,0,0

[HitObjects]
256,192,30,5,0,0:0:0:0:
256,192,863,1,8,0:0:0:0:
256,192,1029,1,8,0:0:0:0:
256,192,1196,1,8,0:0:0:0:
256,192,1529,1,8,0:0:0:0:
256,192,1863,1,0,0:0:0:0:
256,192,2196,1,8,0:0:0:0:
256,192,2529,1,8,0:0:0:0:
256,192,2696,1,0,0:0:0:0:
256,192,4029,1,8,0:0:0:0:
256,192,4696,1,0,0:0:0:0:
256,192,4863,1,8,0:0:0:0:
256,192,5029,1,8,0:0:0:0:
256,192,5196,1,8,0:0:0:0:
256,192,5363,1,0,0:0:0:0:
256,192,6196,1,8,0:0:0:0:
256,192,6529,1,8,0:0:0:0:
256,192,6696,1,0,0:0:0:0:
256,192,7529,1,8,0:0:0:0:
256,192,7696,1,8,0:0:0:0:
256,192,7863,1,8,0:0:0:0:
256,192,8029,1,0,0:0:0:0:
256,192,8863,1,8,0:0:0:0:
256,192,9196,1,8,0:0:0:0:
256,192,9363,1,0,0:0:0:0:
256,192,10029,1,8,0:0:0:0:
256,192,10363,1,0,0:0:0:0:
256,192,10446,1,0,0:0:0:0:
256,192,10529,1,0,0:0:0:0:
256,192,10696,1,8,0:0:0:0:
256,192,11363,1,0,0:0:0:0:
256,192,11529,1,8,0:0:0:0:
256,192,11696,1,8,0:0:0:0:
256,192,11863,1,8,0:0:0:0:
256,192,12196,1,0,0:0:0:0:
256,192,12529,1,8,0:0:0:0:
256,192,12696,1,0,0:0:0:0:
256,192,12863,1,8,0:0:0:0:
256,192,13196,1,8,0:0:0:0:
256,192,13363,1,0,0:0:0:0:
256,192,14029,1,0,0:0:0:0:
256,192,14363,1,0,0:0:0:0:
256,192,14696,1,8,0:0:0:0:
256,192,15029,1,8,0:0:0:0:
256,192,15363,1,0,0:0:0:0:
256,192,15529,1,8,0:0:0:0:
256,192,15696,1,8,0:0:0:0:
256,192,15863,1,8,0:0:0:0:
256,192,16029,1,0,0:0:0:0:
256,192,16363,1,0,0:0:0:0:
256,192,16696,1,0,0:0:0:0:
256,192,16863,1,8,0:0:0:0:
256,192,17029,1,0,0:0:0:0:
256,192,17196,1,8,0:0:0:0:
256,192,17363,1,0,0:0:0:0:
256,192,17696,1,0,0:0:0:0:
256,192,18029,1,0,0:0:0:0:
256,192,18196,1,8,0:0:0:0:
256,192,18363,1,8,0:0:0:0:
256,192,18529,1,8,0:0:0:0:
256,192,18696,1,0,0:0:0:0:
256,192,18863,1,0,0:0:0:0:
256,192,19029,1,8,0:0:0:0:
256,192,19196,1,8,0:0:0:0:
256,192,19363,1,0,0:0:0:0:
256,192,19446,1,0,0:0:0:0:
256,192,19529,1,0,0:0:0:0:
256,192,19696,1,8,0:0:0:0:
256,192,19779,1,8,0:0:0:0:
256,192,19863,1,8,0:0:0:0:
256,192,20029,1,12,0:0:0:0:
256,192,20363,1,4,0:0:0:0:
256,192,20696,1,12,0:0:0:0:
256,192,20863,1,0,0:0:0:0:
256,192,21029,1,8,0:0:0:0:
256,192,21363,1,4,0:0:0:0:
256,192,22196,1,0,0:0:0:0:
256,192,22363,1,8,0:0:0:0:
256,192,22446,1,8,0:0:0:0:
256,192,22529,1,8,0:0:0:0:
256,192,22696,1,8,0:0:0:0:
256,192,23196,1,0,0:0:0:0:
256,192,23363,1,8,0:0:0:0:
256,192,23529,1,8,0:0:0:0:
256,192,23696,1,0,0:0:0:0:
256,192,23863,1,0,0:0:0:0:
256,192,24029,1,8,0:0:0:0:
256,192,24363,1,0,0:0:0:0:
256,192,24529,1,8,0:0:0:0:
256,192,24863,1,8,0:0:0:0:
256,192,25029,1,0,0:0:0:0:
256,192,25113,1,0,0:0:0:0:
256,192,25196,1,0,0:0:0:0:
256,192,25363,1,8,0:0:0:0:
256,192,25696,1,0,0:0:0:0:
256,192,25863,1,8,0:0:0:0:
256,192,26196,1,8,0:0:0:0:
256,192,26363,1,0,0:0:0:0:
256,192,26696,1,12,0:0:0:0:
256,192,27529,1,0,0:0:0:0:
256,192,27696,1,8,0:0:0:0:
256,192,27779,1,8,0:0:0:0:
256,192,27863,1,8,0:0:0:0:
256,192,28029,1,0,0:0:0:0:
256,192,28529,1,0,0:0:0:0:
256,192,28696,1,8,0:0:0:0:
256,192,28863,1,8,0:0:0:0:
256,192,29029,1,0,0:0:0:0:
256,192,29196,1,8,0:0:0:0:
256,192,29363,1,0,0:0:0:0:
256,192,29696,1,0,0:0:0:0:
256,192,30029,1,0,0:0:0:0:
256,192,30363,1,8,0:0:0:0:
256,192,30529,1,0,0:0:0:0:
256,192,30696,1,8,0:0:0:0:
256,192,30863,1,0,0:0:0:0:
256,192,30946,1,0,0:0:0:0:
256,192,31029,1,0,0:0:0:0:
256,192,31196,1,0,0:0:0:0:
256,192,31363,1,12,0:0:0:0:
256,192,31696,1,8,0:0:0:0:
256,192,32029,1,4,0:0:0:0:
256,192,32696,1,0,0:0:0:0:
256,192,33029,1,0,0:0:0:0:
256,192,33363,1,8,0:0:0:0:
256,192,33696,1,0,0:0:0:0:
256,192,33863,1,8,0:0:0:0:
256,192,34029,1,0,0:0:0:0:
256,192,34196,1,8,0:0:0:0:
256,192,34363,1,0,0:0:0:0:
256,192,34696,1,8,0:0:0:0:
256,192,35029,1,0,0:0:0:0:
256,192,35363,1,0,0:0:0:0:
256,192,35696,1,0,0:0:0:0:
256,192,35863,1,8,0:0:0:0:
256,192,36029,1,0,0:0:0:0:
256,192,36363,1,8,0:0:0:0:
256,192,36529,1,8,0:0:0:0:
256,192,36696,1,0,0:0:0:0:
256,192,37363,1,0,0:0:0:0:
256,192,37696,1,0,0:0:0:0:
256,192,38029,1,8,0:0:0:0:
256,192,38363,1,8,0:0:0:0:
256,192,38696,1,0,0:0:0:0:
256,192,38863,1,0,0:0:0:0:
256,192,39029,1,0,0:0:0:0:
256,192,39363,1,8,0:0:0:0:
256,192,39529,1,8,0:0:0:0:
256,192,39696,1,8,0:0:0:0:
256,192,40029,1,0,0:0:0:0:
256,192,40196,1,0,0:0:0:0:
256,192,40363,1,8,0:0:0:0:
256,192,40529,1,8,0:0:0:0:
256,192,40696,1,0,0:0:0:0:
256,192,40779,1,0,0:0:0:0:
256,192,40863,1,0,0:0:0:0:
256,192,41029,1,8,0:0:0:0:
256,192,41113,1,8,0:0:0:0:
256,192,41196,1,8,0:0:0:0:
256,192,41363,1,0,0:0:0:0:
256,192,42029,1,8,0:0:0:0:
256,192,42363,1,0,0:0:0:0:
256,192,42529,1,0,0:0:0:0:
256,192,42696,1,12,0:0:0:0:
256,192,43029,1,8,0:0:0:0:
256,192,43196,1,0,0:0:0:0:
256,192,43363,1,8,0:0:0:0:
256,192,43529,1,0,0:0:0:0:
256,192,43696,1,8,0:0:0:0:
256,192,43863,1,0,0:0:0:0:
256,192,44029,1,8,0:0:0:0:
256,192,44196,1,0,0:0:0:0:
256,192,44363,1,8,0:0:0:0:
256,192,44529,1,0,0:0:0:0:
256,192,44696,1,8,0:0:0:0:
256,192,44779,1,8,0:0:0:0:
256,192,44863,1,8,0:0:0:0:
256,192,45029,1,4,0:0:0:0:
256,192,45363,1,12,0:0:0:0:
256,192,45696,1,0,0:0:0:0:
256,192,45779,1,0,0:0:0:0:
256,192,46029,1,8,0:0:0:0:
256,192,46113,1,8,0:0:0:0:
256,192,46363,1,0,0:0:0:0:
256,192,46446,1,0,0:0:0:0:
256,192,46696,1,8,0:0:0:0:
256,192,46779,1,8,0:0:0:0:
256,192,47029,1,0,0:0:0:0:
256,192,47113,1,0,0:0:0:0:
256,192,47363,1,8,0:0:0:0:
256,192,47446,1,8,0:0:0:0:
256,192,47696,1,4,0:0:0:0:
256,192,48029,1,12,0:0:0:0:
256,192,48529,1,0,0:0:0:0:
256,192,48696,1,12,0:0:0:0:
256,192,49196,1,0,0:0:0:0:
256,192,49363,1,12,0:0:0:0:
256,192,49863,1,0,0:0:0:0:
256,192,50029,1,12,0:0:0:0:
256,192,50363,1,4,0:0:0:0:
256,192,50696,1,12,0:0:0:0:
256,192,50863,1,0,0:0:0:0:
256,192,51029,1,8,0:0:0:0:
256,192,51279,1,0,0:0:0:0:
256,192,51529,1,8,0:0:0:0:
256,192,51779,1,0,0:0:0:0:
256,192,52029,1,8,0:0:0:0:
256,192,52696,1,8,0:0:0:0:
256,192,53029,1,0,0:0:0:0:
256,192,53196,1,0,0:0:0:0:
256,192,53363,1,12,0:0:0:0:
256,192,53696,1,8,0:0:0:0:
256,192,53863,1,0,0:0:0:0:
256,192,54029,1,8,0:0:0:0:
256,192,54196,1,0,0:0:0:0:
256,192,54363,1,8,0:0:0:0:
256,192,54529,1,0,0:0:0:0:
256,192,54696,1,8,0:0:0:0:
256,192,54863,1,0,0:0:0:0:
256,192,55029,1,8,0:0:0:0:
256,192,55196,1,0,0:0:0:0:
256,192,55363,1,8,0:0:0:0:
256,192,55446,1,8,0:0:0:0:
256,192,55529,1,8,0:0:0:0:
256,192,55696,1,4,0:0:0:0:
256,192,56029,1,12,0:0:0:0:
256,192,56363,1,0,0:0:0:0:
256,192,56446,1,0,0:0:0:0:
256,192,56696,1,8,0:0:0:0:
256,192,56779,1,8,0:0:0:0:
256,192,57029,1,0,0:0:0:0:
256,192,57113,1,0,0:0:0:0:
256,192,57363,1,8,0:0:0:0:
256,192,57446,1,8,0:0:0:0:
256,192,57696,1,0,0:0:0:0:
256,192,57779,1,0,0:0:0:0:
256,192,58029,1,8,0:0:0:0:
256,192,58113,1,8,0:0:0:0:
256,192,58363,1,4,0:0:0:0:
256,192,58696,1,12,0:0:0:0:
256,192,59196,1,8,0:0:0:0:
256,192,59279,1,8,0:0:0:0:
256,192,59363,1,8,0:0:0:0:
256,192,59863,1,8,0:0:0:0:
256,192,59946,1,8,0:0:0:0:
256,192,60029,1,8,0:0:0:0:
256,192,60529,1,8,0:0:0:0:
256,192,60613,1,8,0:0:0:0:
256,192,60696,1,8,0:0:0:0:
256,192,60863,1,0,0:0:0:0:
256,192,61029,1,12,0:0:0:0:
256,192,61363,1,0,0:0:0:0:
256,192,61529,1,8,0:0:0:0:
256,192,61696,1,0,0:0:0:0:
256,192,61863,1,8,0:0:0:0:
256,192,62029,1,0,0:0:0:0:
256,192,62196,1,8,0:0:0:0:
256,192,62363,1,0,0:0:0:0:
256,192,62529,1,8,0:0:0:0:
256,192,62696,1,0,0:0:0:0:
256,192,62863,1,8,0:0:0:0:
256,192,62946,1,8,0:0:0:0:
256,192,63029,1,8,0:0:0:0:
256,192,63196,1,0,0:0:0:0:
256,192,63279,1,0,0:0:0:0:
256,192,63363,1,0,0:0:0:0:
256,192,63529,1,0,0:0:0:0:
256,192,63696,1,12,0:0:0:0:
256,192,64029,1,8,0:0:0:0:
256,192,64363,1,0,0:0:0:0:
256,192,64529,1,8,0:0:0:0:
256,192,65029,1,0,0:0:0:0:
256,192,65196,1,8,0:0:0:0:
256,192,65363,1,0,0:0:0:0:
256,192,65529,1,8,0:0:0:0:
256,192,65613,1,8,0:0:0:0:
256,192,65696,1,8,0:0:0:0:
256,192,65863,1,0,0:0:0:0:
256,192,66363,1,0,0:0:0:0:
256,192,66529,1,8,0:0:0:0:
256,192,66696,1,0,0:0:0:0:
256,192,67029,1,8,0:0:0:0:
256,192,67196,1,8,0:0:0:0:
256,192,67363,1,0,0:0:0:0:
256,192,67696,1,8,0:0:0:0:
256,192,68029,1,0,0:0:0:0:
256,192,68363,1,8,0:0:0:0:
256,192,68696,1,0,0:0:0:0:
256,192,68863,1,8,0:0:0:0:
256,192,68946,1,8,0:0:0:0:
256,192,69029,1,8,0:0:0:0:
256,192,69363,1,8,0:0:0:0:
256,192,69696,1,0,0:0:0:0:
256,192,69863,1,8,0:0:0:0:
256,192,70363,1,8,0:0:0:0:
256,192,70529,1,8,0:0:0:0:
256,192,70696,1,0,0:0:0:0:
256,192,71029,1,8,0:0:0:0:
256,192,71196,1,0,0:0:0:0:
256,192,71363,1,8,0:0:0:0:
256,192,71446,1,8,0:0:0:0:
256,192,71529,1,8,0:0:0:0:
256,192,71696,1,0,0:0:0:0:
256,192,71863,1,0,0:0:0:0:
256,192,72029,1,8,0:0:0:0:
256,192,72363,1,0,0:0:0:0:
256,192,72529,1,8,0:0:0:0:
256,192,72696,1,0,0:0:0:0:
256,192,73029,1,8,0:0:0:0:
256,192,73363,1,0,0:0:0:0:
256,192,73696,1,0,0:0:0:0:
256,192,74029,1,8,0:0:0:0:
256,192,74696,1,4,0:0:0:0:
256,192,75029,1,8,0:0:0:0:
256,192,75196,1,0,0:0:0:0:
256,192,75529,1,8,0:0:0:0:
256,192,75696,1,8,0:0:0:0:
256,192,75863,1,0,0:0:0:0:
256,192,76196,1,8,0:0:0:0:
256,192,76363,1,8,0:0:0:0:
256,192,76529,1,8,0:0:0:0:
256,192,76696,1,0,0:0:0:0:
256,192,77029,1,8,0:0:0:0:
256,192,77363,1,0,0:0:0:0:
256,192,77696,1,8,0:0:0:0:
256,192,77863,1,0,0:0:0:0:
256,192,78196,1,0,0:0:0:0:
256,192,78363,1,8,0:0:0:0:
256,192,78529,1,8,0:0:0:0:
256,192,78863,1,0,0:0:0:0:
256,192,79029,1,8,0:0:0:0:
256,192,79196,1,0,0:0:0:0:
256,192,79363,1,8,0:0:0:0:
256,192,80029,1,0,0:0:0:0:
256,192,80363,1,0,0:0:0:0:
256,192,80696,1,8,0:0:0:0:
256,192,81029,1,8,0:0:0:0:
256,192,81363,1,0,0:0:0:0:
256,192,81696,1,0,0:0:0:0:
256,192,81863,1,0,0:0:0:0:
256,192,82029,1,8,0:0:0:0:
256,192,82196,1,0,0:0:0:0:
256,192,82363,1,8,0:0:0:0:
256,192,82696,1,8,0:0:0:0:
256,192,82863,1,8,0:0:0:0:
256,192,83029,1,0,0:0:0:0:
256,192,83196,1,0,0:0:0:0:
256,192,83363,1,8,0:0:0:0:
256,192,83446,1,8,0:0:0:0:
256,192,83529,1,8,0:0:0:0:
256,192,83696,1,0,0:0:0:0:
256,192,83779,1,0,0:0:0:0:
256,192,83863,1,0,0:0:0:0:
256,192,84029,1,4,0:0:0:0:
256,192,84363,1,4,0:0:0:0:
256,192,84696,1,12,0:0:0:0:
256,192,85029,1,8,0:0:0:0:
256,192,85363,1,4,0:0:0:0:
256,192,86029,1,8,0:0:0:0:
256,192,86363,1,8,0:0:0:0:
256,192,86696,1,0,0:0:0:0:
256,192,87029,1,8,0:0:0:0:
256,192,87363,1,8,0:0:0:0:
256,192,87696,1,0,0:0:0:0:
256,192,88029,1,8,0:0:0:0:
256,192,88363,1,0,0:0:0:0:
256,192,88696,1,8,0:0:0:0:
256,192,89029,1,8,0:0:0:0:
256,192,89363,1,0,0:0:0:0:
256,192,89696,1,0,0:0:0:0:
256,192,90029,1,8,0:0:0:0:
256,192,90363,1,8,0:0:0:0:
256,192,90696,1,4,0:0:0:0:
256,192,91363,1,8,0:0:0:0:
256,192,91696,1,8,0:0:0:0:
256,192,92029,1,0,0:0:0:0:
256,192,92363,1,0,0:0:0:0:
256,192,92696,1,8,0:0:0:0:
256,192,93029,1,8,0:0:0:0:
256,192,93363,1,0,0:0:0:0:
256,192,93696,1,8,0:0:0:0:
256,192,94029,1,0,0:0:0:0:
256,192,94363,1,8,0:0:0:0:
256,192,94696,1,0,0:0:0:0:
256,192,94863,1,0,0:0:0:0:
256,192,95029,1,8,0:0:0:0:
256,192,95196,1,0,0:0:0:0:
256,192,95363,1,8,0:0:0:0:
256,192,95696,1,8,0:0:0:0:
256,192,95863,1,0,0:0:0:0:
256,192,95946,1,0,0:0:0:0:
256,192,96029,1,0,0:0:0:0:
256,192,96696,1,8,0:0:0:0:
256,192,96863,1,8,0:0:0:0:
256,192,97029,1,0,0:0:0:0:
256,192,97196,1,8,0:0:0:0:
256,192,97529,1,0,0:0:0:0:
256,192,97696,1,8,0:0:0:0:
256,192,98029,1,8,0:0:0:0:
256,192,98196,1,8,0:0:0:0:
256,192,98363,1,0,0:0:0:0:
256,192,98529,1,8,0:0:0:0:
256,192,98863,1,8,0:0:0:0:
256,192,99029,1,0,0:0:0:0:
256,192,99363,1,8,0:0:0:0:
256,192,99529,1,8,0:0:0:0:
256,192,99696,1,0,0:0:0:0:
256,192,99863,1,8,0:0:0:0:
256,192,100029,1,8,0:0:0:0:
256,192,100363,1,0,0:0:0:0:
256,192,100696,1,8,0:0:0:0:
256,192,101029,1,8,0:0:0:0:
256,192,101363,1,0,0:0:0:0:
256,192,102029,1,8,0:0:0:0:
256,192,102196,1,8,0:0:0:0:
256,192,102363,1,0,0:0:0:0:
256,192,102529,1,8,0:0:0:0:
256,192,102863,1,0,0:0:0:0:
256,192,103029,1,8,0:0:0:0:
256,192,103363,1,8,0:0:0:0:
256,192,103529,1,8,0:0:0:0:
256,192,103696,1,0,0:0:0:0:
256,192,103863,1,8,0:0:0:0:
256,192,104029,1,0,0:0:0:0:
256,192,104196,1,0,0:0:0:0:
256,192,104363,1,8,0:0:0:0:
256,192,104529,1,8,0:0:0:0:
256,192,104696,1,0,0:0:0:0:
256,192,104779,1,0,0:0:0:0:
256,192,104863,1,0,0:0:0:0:
256,192,105029,1,8,0:0:0:0:
256,192,105113,1,8,0:0:0:0:
256,192,105196,1,8,0:0:0:0:
256,192,105363,1,12,0:0:0:0:
256,192,105696,1,4,0:0:0:0:
256,192,106029,1,8,0:0:0:0:
256,192,106196,1,8,0:0:0:0:
256,192,106363,1,4,0:0:0:0:
256,192,106696,1,0,0:0:0:0:
256,192,107196,1,8,0:0:0:0:
256,192,107363,1,0,0:0:0:0:
256,192,107696,1,8,0:0:0:0:
256,192,107779,1,8,0:0:0:0:
256,192,107863,1,8,0:0:0:0:
256,192,108029,1,0,0:0:0:0:
256,192,108363,1,0,0:0:0:0:
256,192,108529,1,0,0:0:0:0:
256,192,108696,1,8,0:0:0:0:
256,192,108863,1,8,0:0:0:0:
256,192,109029,1,0,0:0:0:0:
256,192,109196,1,8,0:0:0:0:
256,192,109279,1,8,0:0:0:0:
256,192,109363,1,8,0:0:0:0:
256,192,109696,1,0,0:0:0:0:
256,192,110029,1,8,0:0:0:0:
256,192,110363,1,0,0:0:0:0:
256,192,110529,1,8,0:0:0:0:
256,192,110696,1,0,0:0:0:0:
256,192,111029,1,8,0:0:0:0:
256,192,111196,1,8,0:0:0:0:
256,192,111363,1,0,0:0:0:0:
256,192,111696,1,8,0:0:0:0:
256,192,112029,1,12,0:0:0:0:
256,192,112529,1,8,0:0:0:0:
256,192,112696,1,0,0:0:0:0:
256,192,113029,1,8,0:0:0:0:
256,192,113113,1,8,0:0:0:0:
256,192,113196,1,8,0:0:0:0:
256,192,113363,1,0,0:0:0:0:
256,192,113696,1,8,0:0:0:0:
256,192,113863,1,0,0:0:0:0:
256,192,114196,1,0,0:0:0:0:
256,192,114363,1,8,0:0:0:0:
256,192,114529,1,0,0:0:0:0:
256,192,114696,1,12,0:0:0:0:
256,192,115029,1,8,0:0:0:0:
256,192,115363,1,0,0:0:0:0:
256,192,115696,1,8,0:0:0:0:
256,192,116029,1,0,0:0:0:0:
256,192,116696,1,0,0:0:0:0:
256,192,117029,1,8,0:0:0:0:
256,192,117113,1,8,0:0:0:0:
256,192,117196,1,8,0:0:0:0:
256,192,117363,1,0,0:0:0:0:
256,192,118029,1,0,0:0:0:0:
256,192,118363,1,8,0:0:0:0:
256,192,118529,1,0,0:0:0:0:
256,192,118696,1,8,0:0:0:0:
256,192,119363,1,0,0:0:0:0:
256,192,119696,1,8,0:0:0:0:
256,192,119863,1,8,0:0:0:0:
256,192,120029,1,0,0:0:0:0:
256,192,120196,1,0,0:0:0:0:
256,192,120363,1,8,0:0:0:0:
256,192,120529,1,0,0:0:0:0:
256,192,120696,1,8,0:0:0:0:
256,192,121029,1,0,0:0:0:0:
256,192,121363,1,8,0:0:0:0:
256,192,121696,1,8,0:0:0:0:
256,192,122029,1,0,0:0:0:0:
256,192,122196,1,8,0:0:0:0:
256,192,122279,1,8,0:0:0:0:
256,192,122363,1,8,0:0:0:0:
256,192,122529,1,0,0:0:0:0:
256,192,122696,1,8,0:0:0:0:
256,192,123363,1,8,0:0:0:0:
256,192,123696,1,0,0:0:0:0:
256,192,123863,1,0,0:0:0:0:
256,192,124029,1,8,0:0:0:0:
256,192,124696,1,8,0:0:0:0:
256,192,125029,1,8,0:0:0:0:
256,192,125363,1,0,0:0:0:0:
256,192,125696,1,0,0:0:0:0:
256,192,126029,1,8,0:0:0:0:
256,192,126363,1,0,0:0:0:0:
256,192,126696,1,8,0:0:0:0:
256,192,127196,1,8,0:0:0:0:
256,192,127363,1,0,0:0:0:0:
256,192,128029,1,8,0:0:0:0:
256,192,128363,1,8,0:0:0:0:
256,192,128529,1,8,0:0:0:0:
256,192,128863,1,8,0:0:0:0:
256,192,129196,1,0,0:0:0:0:
256,192,129363,1,8,0:0:0:0:
256,192,129529,1,0,0:0:0:0:
256,192,129696,1,8,0:0:0:0:
256,192,130029,1,8,0:0:0:0:
256,192,130196,1,8,0:0:0:0:
256,192,130363,1,8,0:0:0:0:
256,192,130529,1,0,0:0:0:0:
256,192,130696,1,8,0:0:0:0:
256,192,131029,1,8,0:0:0:0:
256,192,131196,1,8,0:0:0:0:
256,192,131529,1,8,0:0:0:0:
256,192,131863,1,8,0:0:0:0:
256,192,132029,1,0,0:0:0:0:
256,192,132363,1,0,0:0:0:0:
256,192,132696,1,8,0:0:0:0:
256,192,133363,1,8,0:0:0:0:
256,192,133696,1,8,0:0:0:0:
256,192,133863,1,8,0:0:0:0:
256,192,134196,1,8,0:0:0:0:
256,192,134529,1,8,0:0:0:0:
256,192,134696,1,0,0:0:0:0:
256,192,135029,1,0,0:0:0:0:
256,192,135363,1,8,0:0:0:0:
256,192,135696,1,8,0:0:0:0:
256,192,136029,1,0,0:0:0:0:
256,192,136363,1,8,0:0:0:0:
256,192,136696,1,0,0:0:0:0:
256,192,137029,1,8,0:0:0:0:
256,192,137363,1,0,0:0:0:0:
256,192,138029,1,8,0:0:0:0:
256,192,138363,1,0,0:0:0:0:
256,192,138446,1,0,0:0:0:0:
256,192,138529,1,0,0:0:0:0:
256,192,138696,1,8,0:0:0:0:
256,192,139029,1,8,0:0:0:0:
256,192,139196,1,8,0:0:0:0:
256,192,139529,1,0,0:0:0:0:
256,192,139863,1,8,0:0:0:0:
256,192,140029,1,8,0:0:0:0:
256,192,140196,1,0,0:0:0:0:
256,192,140363,1,8,0:0:0:0:
256,192,140696,1,8,0:0:0:0:
256,192,140863,1,8,0:0:0:0:
256,192,141029,1,0,0:0:0:0:
256,192,141196,1,8,0:0:0:0:
256,192,141363,1,0,0:0:0:0:
256,192,141696,1,8,0:0:0:0:
256,192,141863,1,8,0:0:0:0:
256,192,142196,1,0,0:0:0:0:
256,192,142529,1,8,0:0:0:0:
256,192,142696,1,0,0:0:0:0:
256,192,143029,1,8,0:0:0:0:
256,192,143363,1,0,0:0:0:0:
256,192,144029,1,0,0:0:0:0:
256,192,144363,1,8,0:0:0:0:
256,192,144529,1,8,0:0:0:0:
256,192,144863,1,0,0:0:0:0:
256,192,145196,1,8,0:0:0:0:
256,192,145363,1,8,0:0:0:0:
256,192,145696,1,0,0:0:0:0:
256,192,146029,1,8,0:0:0:0:
256,192,146196,1,0,0:0:0:0:
256,192,146363,1,8,0:0:0:0:
256,192,146696,1,8,0:0:0:0:
256,192,146863,1,8,0:0:0:0:
256,192,147029,1,0,0:0:0:0:
256,192,147196,1,0,0:0:0:0:
256,192,147363,1,8,0:0:0:0:
256,192,147446,1,8,0:0:0:0:
256,192,147529,1,8,0:0:0:0:
256,192,147696,1,0,0:0:0:0:
256,192,147779,1,0,0:0:0:0:
256,192,147863,1,0,0:0:0:0:
256,192,148029,1,12,0:0:0:0:
256,192,148363,1,4,0:0:0:0:
256,192,149029,1,12,0:0:0:0:
256,192,149363,1,0,0:0:0:0:
256,192,150029,1,8,0:0:0:0:
256,192,150113,1,8,0:0:0:0:
256,192,150196,1,8,0:0:0:0:
256,192,150363,1,0,0:0:0:0:
256,192,150529,1,8,0:0:0:0:
256,192,150863,1,0,0:0:0:0:
256,192,150946,1,0,0:0:0:0:
256,192,151029,1,0,0:0:0:0:
256,192,151363,1,0,0:0:0:0:
256,192,151446,1,0,0:0:0:0:
256,192,151529,1,0,0:0:0:0:
256,192,151696,1,8,0:0:0:0:
256,192,152196,1,8,0:0:0:0:
256,192,152279,1,8,0:0:0:0:
256,192,152363,1,8,0:0:0:0:
256,192,152696,1,8,0:0:0:0:
256,192,152779,1,8,0:0:0:0:
256,192,152863,1,8,0:0:0:0:
256,192,153029,1,0,0:0:0:0:
256,192,153196,1,0,0:0:0:0:
256,192,153363,1,8,0:0:0:0:
256,192,153696,1,0,0:0:0:0:
256,192,153863,1,8,0:0:0:0:
256,192,154029,1,0,0:0:0:0:
256,192,154196,1,0,0:0:0:0:
256,192,154363,1,8,0:0:0:0:
256,192,154696,1,0,0:0:0:0:
256,192,155363,1,8,0:0:0:0:
256,192,155529,1,8,0:0:0:0:
256,192,155696,1,0,0:0:0:0:
256,192,155863,1,8,0:0:0:0:
256,192,156196,1,8,0:0:0:0:
256,192,156279,1,8,0:0:0:0:
256,192,156363,1,8,0:0:0:0:
256,192,156529,1,0,0:0:0:0:
256,192,156696,1,8,0:0:0:0:
256,192,156863,1,8,0:0:0:0:
256,192,157029,1,0,0:0:0:0:
256,192,157196,1,8,0:0:0:0:
256,192,157529,1,0,0:0:0:0:
256,192,157613,1,0,0:0:0:0:
256,192,157696,1,0,0:0:0:0:
256,192,157863,1,8,0:0:0:0:
256,192,158029,1,0,0:0:0:0:
256,192,158196,1,0,0:0:0:0:
256,192,158363,1,8,0:0:0:0:
256,192,158529,1,8,0:0:0:0:
256,192,158696,1,0,0:0:0:0:
256,192,159029,1,0,0:0:0:0:
256,192,159363,1,8,0:0:0:0:
256,192,159529,1,0,0:0:0:0:
256,192,159696,1,12,0:0:0:0:
256,192,160029,1,0,0:0:0:0:
256,192,160696,1,0,0:0:0:0:
256,192,161029,1,8,0:0:0:0:
256,192,161363,1,8,0:0:0:0:
256,192,161696,1,0,0:0:0:0:
256,192,162029,1,8,0:0:0:0:
256,192,162363,1,0,0:0:0:0:
256,192,162696,1,8,0:0:0:0:
256,192,163029,1,8,0:0:0:0:
256,192,163363,1,0,0:0:0:0:
256,192,163696,1,8,0:0:0:0:
256,192,164029,1,0,0:0:0:0:
256,192,164363,1,0,0:0:0:0:
256,192,164696,1,8,0:0:0:0:
256,192,165029,1,8,0:0:0:0:
256,192,165363,1,0,0:0:0:0:
256,192,166029,1,8,0:0:0:0:
256,192,166363,1,8,0:0:0:0:
256,192,166696,1,0,0:0:0:0:
256,192,167029,1,0,0:0:0:0:
256,192,167363,1,8,0:0:0:0:
256,192,167696,1,0,0:0:0:0:
256,192,168029,1,8,0:0:0:0:
256,192,168196,1,8,0:0:0:0:
256,192,168363,1,0,0:0:0:0:
256,192,168529,1,0,0:0:0:0:
256,192,168696,1,8,0:0:0:0:
256,192,168779,1,8,0:0:0:0:
256,192,168863,1,8,0:0:0:0:
256,192,169029,1,0,0:0:0:0:
256,192,169113,1,0,0:0:0:0:
256,192,169196,1,0,0:0:0:0:
256,192,169363,1,12,0:0:0:0:
256,192,169696,1,0,0:0:0:0:
256,192,169779,1,0,0:0:0:0:
256,192,169863,1,0,0:0:0:0:
256,192,170029,1,8,0:0:0:0:
256,192,170196,1,0,0:0:0:0:
256,192,170363,1,12,0:0:0:0:
256,192,171029,1,8,0:0:0:0:
256,192,171363,1,0,0:0:0:0:
256,192,171613,1,0,0:0:0:0:
256,192,171863,1,0,0:0:0:0:
256,192,172029,1,8,0:0:0:0:
256,192,172363,1,0,0:0:0:0:
256,192,172696,1,8,0:0:0:0:
256,192,173029,1,4,0:0:0:0:
256,192,173363,1,8,0:0:0:0:
256,192,173696,1,8,0:0:0:0:
256,192,174029,1,0,0:0:0:0:
256,192,174279,1,0,0:0:0:0:
256,192,174529,1,0,0:0:0:0:
256,192,174696,1,8,0:0:0:0:
256,192,175029,1,0,0:0:0:0:
256,192,175363,1,8,0:0:0:0:
256,192,175696,1,0,0:0:0:0:
256,192,176363,1,8,0:0:0:0:
256,192,176696,1,0,0:0:0:0:
256,192,176946,1,0,0:0:0:0:
256,192,177196,1,0,0:0:0:0:
256,192,177363,1,8,0:0:0:0:
256,192,177529,1,0,0:0:0:0:
256,192,177696,1,8,0:0:0:0:
256,192,178029,1,0,0:0:0:0:
256,192,178363,1,12,0:0:0:0:
256,192,178696,1,0,0:0:0:0:
256,192,179029,1,8,0:0:0:0:
256,192,179196,1,8,0:0:0:0:
256,192,179363,1,0,0:0:0:0:
256,192,179613,1,0,0:0:0:0:
256,192,179863,1,0,0:0:0:0:
256,192,180029,1,8,0:0:0:0:
256,192,180196,1,8,0:0:0:0:
256,192,180363,1,0,0:0:0:0:
256,192,180529,1,8,0:0:0:0:
256,192,180696,1,0,0:0:0:0:
256,192,180863,1,8,0:0:0:0:
256,192,181029,1,8,0:0:0:0:
256,192,181363,1,8,0:0:0:0:
256,192,181863,1,0,0:0:0:0:
256,192,182363,1,8,0:0:0:0:
256,192,182696,1,8,0:0:0:0:
256,192,183196,1,0,0:0:0:0:
256,192,184029,1,8,0:0:0:0:
256,192,184529,1,0,0:0:0:0:
256,192,185029,1,8,0:0:0:0:
256,192,185363,1,8,0:0:0:0:
256,192,185863,1,0,0:0:0:0:
256,192,186529,1,8,0:0:0:0:
256,192,186613,1,8,0:0:0:0:
256,192,186696,1,8,0:0:0:0:
256,192,187196,1,0,0:0:0:0:
256,192,187696,1,8,0:0:0:0:
256,192,188029,1,0,0:0:0:0:
256,192,188529,1,8,0:0:0:0:
256,192,189029,1,0,0:0:0:0:
256,192,189363,1,0,0:0:0:0:
256,192,190029,1,8,0:0:0:0:
256,192,190529,1,0,0:0:0:0:
256,192,190613,1,0,0:0:0:0:
256,192,190696,1,0,0:0:0:0:
256,192,191029,1,8,0:0:0:0:
256,192,191363,1,0,0:0:0:0:
256,192,191696,1,8,0:0:0:0:
256,192,192029,1,8,0:0:0:0:
256,192,192696,1,0,0:0:0:0:
256,192,192862,1,8,0:0:0:0:
256,192,193029,1,8,0:0:0:0:
256,192,193196,1,8,0:0:0:0:
256,192,193529,1,0,0:0:0:0:
256,192,193862,1,8,0:0:0:0:
256,192,194029,1,0,0:0:0:0:
256,192,194196,1,8,0:0:0:0:
256,192,194529,1,8,0:0:0:0:
256,192,194696,1,0,0:0:0:0:
256,192,195362,1,0,0:0:0:0:
256,192,195696,1,0,0:0:0:0:
256,192,196029,1,8,0:0:0:0:
256,192,196362,1,8,0:0:0:0:
256,192,196696,1,0,0:0:0:0:
256,192,196862,1,8,0:0:0:0:
256,192,197029,1,8,0:0:0:0:
256,192,197196,1,8,0:0:0:0:
256,192,197362,1,0,0:0:0:0:
256,192,197696,1,0,0:0:0:0:
256,192,198029,1,0,0:0:0:0:
256,192,198196,1,8,0:0:0:0:
256,192,198363,1,0,0:0:0:0:
256,192,198529,1,8,0:0:0:0:
256,192,198696,1,0,0:0:0:0:
256,192,199029,1,0,0:0:0:0:
256,192,199362,1,0,0:0:0:0:
256,192,199529,1,8,0:0:0:0:
256,192,199696,1,8,0:0:0:0:
256,192,199862,1,8,0:0:0:0:
256,192,200029,1,0,0:0:0:0:
256,192,200196,1,0,0:0:0:0:
256,192,200362,1,8,0:0:0:0:
256,192,200529,1,8,0:0:0:0:
256,192,200696,1,0,0:0:0:0:
256,192,200779,1,0,0:0:0:0:
256,192,200862,1,0,0:0:0:0:
256,192,201029,1,8,0:0:0:0:
256,192,201112,1,8,0:0:0:0:
256,192,201196,1,8,0:0:0:0:
256,192,201363,1,8,0:0:0:0:
256,192,201696,1,8,0:0:0:0:
256,192,202029,1,0,0:0:0:0:
256,192,202363,1,8,0:0:0:0:
256,192,202529,1,8,0:0:0:0:
256,192,202696,1,12,0:0:0:0:
256,192,203696,1,0,0:0:0:0:
256,192,203863,1,0,0:0:0:0:
256,192,204029,1,8,0:0:0:0:
256,192,205029,1,0,0:0:0:0:
256,192,205363,1,8,0:0:0:0:
256,192,205529,1,8,0:0:0:0:
256,192,205696,1,0,0:0:0:0:
256,192,205863,1,0,0:0:0:0:
256,192,206029,1,8,0:0:0:0:
256,192,206363,1,0,0:0:0:0:
256,192,206696,1,8,0:0:0:0:
256,192,207029,1,8,0:0:0:0:
256,192,207363,1,0,0:0:0:0:
256,192,207529,1,8,0:0:0:0:
256,192,207613,1,8,0:0:0:0:
256,192,207696,1,8,0:0:0:0:
256,192,207863,1,0,0:0:0:0:
256,192,208029,1,8,0:0:0:0:
256,192,209029,1,0,0:0:0:0:
256,192,209196,1,0,0:0:0:0:
256,192,209363,1,8,0:0:0:0:
256,192,210363,1,8,0:0:0:0:
256,192,210696,1,8,0:0:0:0:
256,192,211029,1,0,0:0:0:0:
256,192,211363,1,0,0:0:0:0:
256,192,211696,1,8,0:0:0:0:
256,192,211863,1,8,0:0:0:0:
256,192,212029,1,0,0:0:0:0:
256,192,212696,1,0,0:0:0:0:
256,192,213363,1,12,0:0:0:0:
