osu file format v14

[General]
AudioFilename: audio.mp3
AudioLeadIn: 0
PreviewTime: 114654
Countdown: 0
SampleSet: Normal
StackLeniency: 0.7
Mode: 1
LetterboxInBreaks: 0
WidescreenStoryboard: 0

[Editor]
Bookmarks: 10696,21363,32029,42696,53363,64029,64529,65196,65863,66529,67196,67863,68529,69863,70529,71196,71863,72529,73196,73863,74696,85363,96029,106696,117363,128029,138696,149363,160029,170696,181363,192029,202696
DistanceSpacing: 2.2
BeatDivisor: 6
GridSize: 32
TimelineZoom: 2.2

[Metadata]
Title:CROSSING DELTA
TitleUnicode:CROSSING DELTA
Artist:ginkiha x Hommarju x t+pazolite
ArtistUnicode:ginkiha × Hommarju × t+pazolite
Creator:Faputa
Version:MELLIFLUOUS
Source:OverRapid
Tags:eiri- Ayyri tpz Video Rhythm Game Mobile FLUCTON Cafe.D Collaboration Pack Seve's code Future Bass cute instrumental electronic Trap SV full version ver. Lanota PIU XX Pump It Up Dynamix
BeatmapID:2234328
BeatmapSetID:1067200

[Difficulty]
HPDrainRate:6
CircleSize:2
OverallDifficulty:7
ApproachRate:10
SliderMultiplier:1.4
SliderTickRate:1

[Events]
//Background and Video events
0,0,"anime-girl-feathers-water-reflection-tree.jpeg",0,55
//Break Periods
//Storyboard Layer 0 (Background)
//Storyboard Layer 1 (Fail)
//Storyboard Layer 2 (Pass)
//Storyboard Layer 3 (Foreground)
//Storyboard Layer 4 (Overlay)
//Storyboard Sound Samples

[TimingPoints]
30,333.333333333333,4,1,0,90,1,0
30,-133.333333333333,4,1,0,90,0,0
10196,-129.87012987013,4,1,0,90,0,0
10279,-126.582278481013,4,1,0,100,0,0
10363,-123.456790123457,4,1,0,100,0,0
10446,-120.481927710843,4,1,0,100,0,0
10529,-117.647058823529,4,1,0,100,0,0
10613,-114.942528735632,4,1,0,100,0,0
10696,-111.111111111111,4,1,0,100,0,0
16029,-111.111111111111,4,1,0,100,0,0
16196,-110.294077097766,4,1,0,100,0,0
16363,-109.489091054413,4,1,0,100,0,0
16529,-108.695652173913,4,1,0,100,0,0
16696,-107.913630246896,4,1,0,100,0,0
16863,-107.142895408177,4,1,0,100,0,0
17029,-106.382978723404,4,1,0,100,0,0
17196,-105.633765621914,4,1,0,100,0,0
17363,-104.895141571728,4,1,0,100,0,0
17529,-104.166666666667,4,1,0,100,0,0
17696,-103.448240190262,4,1,0,100,0,0
17863,-102.739761212247,4,1,0,100,0,0
17946,-102.389043553227,4,1,0,100,0,0
18029,-102.040816326531,4,1,0,100,0,0
18196,-101.351317111042,4,1,0,100,0,0
18363,-100.671174721871,4,1,0,100,0,0
18529,-100,4,1,0,100,0,0
18613,-98.2742066568982,4,1,0,100,0,0
18696,-96.6069699996715,4,1,0,100,0,0
18779,-94.9953594766896,4,1,0,100,0,0
18863,-93.4366368790668,4,1,0,100,0,0
18946,-91.9282408152197,4,1,0,100,0,0
19029,-90.4677726653434,4,1,0,100,0,0
19113,-89.0529838538035,4,1,0,100,0,0
19196,-87.6817642973885,4,1,0,100,0,0
19279,-86.3521319046085,4,1,0,100,0,0
19363,-85.0622230161363,4,1,0,100,0,0
19446,-83.8102836894293,4,1,0,100,0,0
19529,-82.5946617418223,4,1,0,100,0,0
19613,-81.4137994761836,4,1,0,100,0,0
19696,-80.2662270217859,4,1,0,100,0,0
19779,-79.1505562305339,4,1,0,100,0,0
19863,-78.0654750752551,4,1,0,100,0,0
19946,-77.009742502524,4,1,0,100,0,0
20029,-66.6666666666667,4,1,0,100,0,0
20363,-68.9655172413793,4,1,0,100,0,0
20696,-71.4285714285714,4,1,0,100,0,0
21696,-83.3333333333333,4,1,0,100,0,0
24196,-71.4285714285714,4,1,0,100,0,0
24363,-74.0740740740741,4,1,0,100,0,0
24529,-76.9230769230769,4,1,0,100,0,0
24696,-83.3333333333333,4,1,0,100,0,0
26696,-71.4285714285714,4,1,0,100,0,0
27029,-83.3333333333333,4,1,0,100,0,0
29363,-83.3333333333333,4,1,0,100,0,0
29696,-85.9375268554771,4,1,0,100,0,0
30029,-88.7096559573413,4,1,0,100,0,0
30196,-90.1639270357437,4,1,0,100,0,0
30279,-90.9090909090909,4,1,0,100,0,0
30363,-91.6666743055562,4,1,0,100,0,0
30418,-92.1788121469552,4,1,0,100,0,0
30474,-92.6966187981327,4,1,0,100,0,0
30529,-93.2203626831431,4,1,0,100,0,0
30613,-94.0171261597012,4,1,0,100,0,0
30696,-94.8276270808737,4,1,0,100,0,0
30863,-96.4911942136161,4,1,0,100,0,0
30946,-97.3451068995291,4,1,0,100,0,0
31029,-98.2142681760236,4,1,0,100,0,0
31113,-99.0990901712531,4,1,0,100,0,0
31196,-100,4,1,0,100,0,0
31363,-66.6666666666667,4,1,0,100,0,0
31696,-80,4,1,0,100,0,0
31863,-74.0740740740741,4,1,0,100,0,0
32029,-66.6666666666667,4,1,0,100,0,0
32196,-83.6596757852925,4,1,0,100,0,0
32363,-83.9886548125079,4,1,0,100,0,0
32529,-84.3201602757607,4,1,0,100,0,0
32613,-84.4869319837954,4,1,0,100,0,0
32696,-84.6543646943893,4,1,0,100,0,0
32863,-84.9911566701485,4,1,0,100,0,0
33029,-85.3306391606196,4,1,0,100,0,0
33113,-85.5014359966176,4,1,0,100,0,0
33196,-85.6729179339119,4,1,0,100,0,0
33279,-85.8450891029102,4,1,0,100,0,0
33363,-86.0178796764695,4,1,0,100,0,0
33529,-86.3657052148477,4,1,0,100,0,0
33613,-86.5406000898291,4,1,0,100,0,0
33696,-86.7162799409636,4,1,0,100,0,0
33863,-87.0697123652052,4,1,0,100,0,0
34029,-87.4261140054012,4,1,0,100,0,0
34196,-87.7853682859556,4,1,0,100,0,0
34279,-87.9661435906548,4,1,0,100,0,0
34363,-88.147664968355,4,1,0,100,0,0
34529,-88.5128861485299,4,1,0,100,0,0
34696,-88.8811463534732,4,1,0,100,0,0
34863,-89.2525633336189,4,1,0,100,0,0
35029,-89.6270171680551,4,1,0,100,0,0
35113,-89.8154651453124,4,1,0,100,0,0
35196,-90.004707246189,4,1,0,100,0,0
35363,-90.3855122870065,4,1,0,100,0,0
35529,-90.7695533502588,4,1,0,100,0,0
35613,-90.962841679174,4,1,0,100,0,0
35696,-91.1569549566139,4,1,0,100,0,0
35779,-91.3518984751541,4,1,0,100,0,0
35863,-91.5475937630455,4,1,0,100,0,0
35946,-91.7442134630963,4,1,0,100,0,0
36029,-91.9416795538254,4,1,0,100,0,0
36196,-92.3390875974755,4,1,0,100,0,0
36279,-92.5391255422793,4,1,0,100,0,0
36363,-92.7400320695031,4,1,0,100,0,0
36529,-93.1443868398159,4,1,0,100,0,0
36696,-93.5522830966928,4,1,0,100,0,0
36863,-93.9638558632037,4,1,0,100,0,0
36946,-94.1709145596709,4,1,0,100,0,0
37029,-94.3789768941389,4,1,0,100,0,0
37196,-94.7978719773699,4,1,0,100,0,0
37363,-95.2204114473979,4,1,0,100,0,0
37529,-94.6745562130178,4,1,0,100,0,0
37696,-94.1176470588235,4,1,0,100,0,0
37863,-93.5672514619883,4,1,0,100,0,0
38029,-93.0232558139535,4,1,0,100,0,0
38196,-92.485549132948,4,1,0,100,0,0
38363,-91.9540229885058,4,1,0,100,0,0
38446,-91.6905444126075,4,1,0,100,0,0
38529,-91.4285714285714,4,1,0,100,0,0
38696,-90.9090909090909,4,1,0,100,0,0
38863,-90.3954802259887,4,1,0,100,0,0
38946,-90.1408450704225,4,1,0,100,0,0
39029,-89.8876404494382,4,1,0,100,0,0
39196,-89.3854748603352,4,1,0,100,0,0
39363,-88.8888888888889,4,1,0,100,0,0
39446,-88.6426592797784,4,1,0,100,0,0
39529,-88.3977900552486,4,1,0,100,0,0
39613,-88.1542699724518,4,1,0,100,0,0
39696,-87.9120879120879,4,1,0,100,0,0
39863,-87.431693989071,4,1,0,100,0,0
40029,-86.9565217391304,4,1,0,100,0,0
40113,-86.2570148517328,4,1,0,100,0,0
40196,-85.5685990623393,4,1,0,100,0,0
40279,-84.8911568033046,4,1,0,100,0,0
40363,-84.224285904392,4,1,0,100,0,0
40446,-83.5678805179872,4,1,0,100,0,0
40529,-82.9215586931231,4,1,0,100,0,0
40613,-82.2852252763755,4,1,0,100,0,0
40696,-81.6585838278441,4,1,0,100,0,0
40779,-81.0413489170445,4,1,0,100,0,0
40863,-80.4334397199629,4,1,0,100,0,0
40946,-79.8345190089981,4,1,0,100,0,0
41029,-79.2445144965953,4,1,0,100,0,0
41113,-78.6631048012813,4,1,0,100,0,0
41196,-78.0902254464809,4,1,0,100,0,0
41279,-77.5256299732692,4,1,0,100,0,0
41363,-76.9690807505717,4,1,0,100,0,0
42696,-66.6666666666667,4,1,0,100,0,1
44696,-71.4285714285714,4,1,0,100,0,1
44779,-74.0740740740741,4,1,0,100,0,1
44863,-76.9230769230769,4,1,0,100,0,1
44946,-80,4,1,0,100,0,1
45029,-83.3333333333333,4,1,0,100,0,1
45363,-66.6666666666667,4,1,0,100,0,1
47696,-83.3333333333333,4,1,0,100,0,1
48029,-66.6666666666667,4,1,0,100,0,1
48363,-74.0740740740741,4,1,0,100,0,1
48696,-66.6666666666667,4,1,0,100,0,1
48946,-76.9230769230769,4,1,0,100,0,1
49363,-66.6666666666667,4,1,0,100,0,1
49613,-80,4,1,0,100,0,1
50029,-66.6666666666667,4,1,0,100,0,1
50279,-83.3333333333333,4,1,0,100,0,1
50696,-66.6666666666667,4,1,0,100,0,1
50863,-83.3333333333333,4,1,0,100,0,1
51029,-82.3529217993125,4,1,0,100,0,1
51113,-81.8713163024621,4,1,0,100,0,1
51279,-80.9248742022831,4,1,0,100,0,1
51363,-80.459779363193,4,1,0,100,0,1
51446,-80,4,1,0,100,0,1
51529,-79.5454455061994,4,1,0,100,0,1
51613,-79.0960273229317,4,1,0,100,0,1
51779,-78.2123167192123,4,1,0,100,0,1
51863,-77.7777950617322,4,1,0,100,0,1
51946,-77.3480748450911,4,1,0,100,0,1
52029,-76.9230769230769,4,1,0,100,0,1
52446,-77.5193798449612,4,1,0,100,0,1
52529,-78.125,4,1,0,100,0,1
52613,-78.7401574803149,4,1,0,100,0,1
52696,-79.3650793650794,4,1,0,100,0,1
52863,-80.6451612903226,4,1,0,100,0,1
53029,-81.9672131147541,4,1,0,100,0,0
53196,-83.3333333333333,4,1,0,100,0,0
53363,-66.6666666666667,4,1,0,100,0,1
55363,-71.4285714285714,4,1,0,100,0,1
55446,-74.0740740740741,4,1,0,100,0,1
55529,-76.9230769230769,4,1,0,100,0,1
55613,-80,4,1,0,100,0,1
55696,-83.3333333333333,4,1,0,100,0,1
56029,-66.6666666666667,4,1,0,100,0,1
58363,-83.3333333333333,4,1,0,100,0,1
58696,-66.6666666666667,4,1,0,100,0,1
58863,-71.4285714285714,4,1,0,100,0,1
58946,-72.2891740455841,4,1,0,100,0,1
59029,-73.1707138608015,4,1,0,100,0,1
59113,-74.0740740740741,4,1,0,100,0,1
59196,-75.0000187500047,4,1,0,100,0,1
59252,-75.6302648118092,4,1,0,100,0,1
59307,-76.2711929043384,4,1,0,100,0,1
59363,-76.9230769230769,4,1,0,100,0,1
59446,-77.9220981615839,4,1,0,100,0,1
59529,-78.9473476454348,4,1,0,100,0,1
59613,-80,4,1,0,100,0,1
59696,-81.0811029948927,4,1,0,100,0,1
59752,-81.8181966942176,4,1,0,100,0,1
59807,-82.5688149145702,4,1,0,100,0,1
59863,-83.3333333333333,4,1,0,100,0,1
60029,-83.3333333333333,4,1,0,100,0,1
60113,-82.1917583036279,4,1,0,100,0,1
60196,-81.0811029948927,4,1,0,100,0,1
60279,-80,4,1,0,100,0,1
60363,-78.9473476454348,4,1,0,100,0,1
60446,-77.9220981615839,4,1,0,100,0,1
60529,-76.9230769230769,4,1,0,100,0,1
60585,-76.2711929043384,4,1,0,100,0,1
60641,-75.6302648118092,4,1,0,100,0,1
60696,-75.0000187500047,4,1,0,100,0,1
60779,-74.0740740740741,4,1,0,100,0,1
60863,-73.1707138608015,4,1,0,100,0,1
60946,-72.2891740455841,4,1,0,100,0,1
61029,-71.4285714285714,4,1,0,100,0,1
61363,-100,4,1,0,100,0,1
61446,-98.159509202454,4,1,0,100,0,1
61529,-96.3855421686747,4,1,0,100,0,1
61613,-94.6745562130178,4,1,0,100,0,1
61696,-93.0232558139535,4,1,0,100,0,1
61779,-91.4285714285714,4,1,0,100,0,1
61863,-89.8876404494382,4,1,0,100,0,1
61918,-88.8888888888889,4,1,0,100,0,1
61974,-87.9120879120879,4,1,0,100,0,1
62029,-86.9565217391304,4,1,0,100,0,1
62113,-85.5614973262032,4,1,0,100,0,1
62196,-84.2105263157895,4,1,0,100,0,1
62279,-82.9015544041451,4,1,0,100,0,1
62363,-81.6326530612245,4,1,0,100,0,1
62418,-80.8080808080808,4,1,0,100,0,1
62474,-80,4,1,0,100,0,1
62529,-79.2079207920792,4,1,0,100,0,1
62613,-78.0487804878049,4,1,0,100,0,1
62696,-76.9230769230769,4,1,0,100,0,1
64029,-76.9230769230769,4,1,0,90,0,0
64113,-78.125,4,1,0,90,0,0
64196,-79.3650793650794,4,1,0,90,0,0
64279,-80.6451612903226,4,1,0,90,0,0
64363,-81.9672131147541,4,1,0,90,0,0
64446,-83.3333333333333,4,1,0,90,0,0
64529,-76.9230769230769,4,1,0,90,0,0
64613,-78.7401574803149,4,1,0,90,0,0
64696,-80.6451612903226,4,1,0,90,0,0
64779,-82.6446280991736,4,1,0,90,0,0
64863,-84.7457627118644,4,1,0,90,0,0
64946,-86.9565217391304,4,1,0,90,0,0
65029,-89.2857142857143,4,1,0,90,0,0
65113,-91.743119266055,4,1,0,90,0,0
65196,-74.6268656716418,4,1,0,90,0,0
65279,-75.7575757575758,4,1,0,90,0,0
65363,-76.9230769230769,4,1,0,90,0,0
65446,-78.125,4,1,0,90,0,0
65529,-79.3650793650794,4,1,0,90,0,0
65613,-80.6451612903226,4,1,0,90,0,0
65696,-81.9672131147541,4,1,0,90,0,0
65779,-83.3333333333333,4,1,0,90,0,0
65863,-76.9230769230769,4,1,0,90,0,0
65946,-78.7401574803149,4,1,0,90,0,0
66029,-80.6451612903226,4,1,0,90,0,0
66113,-82.6446280991736,4,1,0,90,0,0
66196,-84.7457627118644,4,1,0,90,0,0
66279,-86.9565217391304,4,1,0,90,0,0
66363,-89.2857142857143,4,1,0,90,0,0
66446,-91.743119266055,4,1,0,90,0,0
66529,-74.6268656716418,4,1,0,90,0,0
66613,-75.7575757575758,4,1,0,90,0,0
66696,-76.9230769230769,4,1,0,90,0,0
66779,-78.125,4,1,0,90,0,0
66863,-79.3650793650794,4,1,0,90,0,0
66946,-80.6451612903226,4,1,0,90,0,0
67029,-81.9672131147541,4,1,0,90,0,0
67113,-83.3333333333333,4,1,0,90,0,0
67196,-76.9230769230769,4,1,0,90,0,0
67279,-78.7401574803149,4,1,0,90,0,0
67363,-80.6451612903226,4,1,0,90,0,0
67446,-82.6446280991736,4,1,0,90,0,0
67529,-84.7457627118644,4,1,0,90,0,0
67613,-86.9565217391304,4,1,0,90,0,0
67696,-89.2857142857143,4,1,0,90,0,0
67779,-91.743119266055,4,1,0,90,0,0
67863,-74.6268656716418,4,1,0,90,0,0
67946,-75.7575757575758,4,1,0,90,0,0
68029,-76.9230769230769,4,1,0,90,0,0
68113,-78.125,4,1,0,90,0,0
68196,-79.3650793650794,4,1,0,90,0,0
68279,-80.6451612903226,4,1,0,90,0,0
68363,-81.9672131147541,4,1,0,90,0,0
68446,-83.3333333333333,4,1,0,90,0,0
68529,-76.9230769230769,4,1,0,90,0,0
68613,-78.7401574803149,4,1,0,90,0,0
68696,-80.6451612903226,4,1,0,90,0,0
68779,-82.6446280991736,4,1,0,90,0,0
68863,-84.7457627118644,4,1,0,90,0,0
68946,-86.9565217391304,4,1,0,90,0,0
69029,-89.2857142857143,4,1,0,90,0,0
69196,-94.3396226415094,4,1,0,90,0,0
69363,-76.9230769230769,4,1,0,90,0,0
69446,-78.125,4,1,0,90,0,0
69529,-79.3650793650794,4,1,0,90,0,0
69613,-80.6451612903226,4,1,0,90,0,0
69696,-81.9672131147541,4,1,0,90,0,0
69779,-83.3333333333333,4,1,0,90,0,0
69863,-76.9230769230769,4,1,0,90,0,0
69946,-78.7401574803149,4,1,0,90,0,0
70029,-80.6451612903226,4,1,0,90,0,0
70113,-82.6446280991736,4,1,0,90,0,0
70196,-84.7457627118644,4,1,0,90,0,0
70279,-86.9565217391304,4,1,0,90,0,0
70363,-89.2857142857143,4,1,0,90,0,0
70446,-91.743119266055,4,1,0,90,0,0
70529,-74.6268656716418,4,1,0,90,0,0
70613,-75.7575757575758,4,1,0,90,0,0
70696,-76.9230769230769,4,1,0,90,0,0
70779,-78.125,4,1,0,90,0,0
70863,-79.3650793650794,4,1,0,90,0,0
70946,-80.6451612903226,4,1,0,90,0,0
71029,-81.9672131147541,4,1,0,90,0,0
71113,-83.3333333333333,4,1,0,90,0,0
71196,-76.9230769230769,4,1,0,90,0,0
71279,-78.7401574803149,4,1,0,90,0,0
71363,-80.6451612903226,4,1,0,90,0,0
71446,-82.6446280991736,4,1,0,90,0,0
71529,-84.7457627118644,4,1,0,90,0,0
71613,-86.9565217391304,4,1,0,90,0,0
71696,-89.2857142857143,4,1,0,90,0,0
71779,-91.743119266055,4,1,0,90,0,0
71863,-74.6268656716418,4,1,0,90,0,0
71946,-75.7575757575758,4,1,0,90,0,0
72029,-76.9230769230769,4,1,0,90,0,0
72113,-78.125,4,1,0,90,0,0
72196,-79.3650793650794,4,1,0,90,0,0
72279,-80.6451612903226,4,1,0,90,0,0
72363,-81.9672131147541,4,1,0,90,0,0
72446,-83.3333333333333,4,1,0,90,0,0
72529,-76.9230769230769,4,1,0,90,0,0
72613,-78.7401574803149,4,1,0,90,0,0
72696,-80.6451612903226,4,1,0,90,0,0
72779,-82.6446280991736,4,1,0,90,0,0
72863,-84.7457627118644,4,1,0,90,0,0
72946,-86.9565217391304,4,1,0,90,0,0
73029,-89.2857142857143,4,1,0,90,0,0
73113,-91.743119266055,4,1,0,90,0,0
73196,-74.6268656716418,4,1,0,90,0,0
73279,-75.7575757575758,4,1,0,90,0,0
73363,-76.9230769230769,4,1,0,90,0,0
73446,-78.125,4,1,0,90,0,0
73529,-79.3650793650794,4,1,0,90,0,0
73613,-80.6451612903226,4,1,0,90,0,0
73696,-81.9672131147541,4,1,0,90,0,0
73779,-83.3333333333333,4,1,0,90,0,0
73863,-76.9230769230769,4,1,0,90,0,0
73946,-78.7401574803149,4,1,0,90,0,0
74029,-80.6451612903226,4,1,0,90,0,0
74113,-81.9672131147541,4,1,0,90,0,0
74196,-83.3333333333333,4,1,0,90,0,0
74279,-84.0336134453781,4,1,0,90,0,0
74363,-84.7457627118644,4,1,0,90,0,0
74446,-83.3333333333333,4,1,0,90,0,0
74529,-81.3008130081301,4,1,0,90,0,0
74613,-79.3650793650794,4,1,0,90,0,0
74696,-76.9230769230769,4,1,0,90,0,0
74946,-77.7642467988348,4,1,0,90,0,0
75029,-78.0487804878049,4,1,0,90,0,0
75196,-78.6240786240786,4,1,0,90,0,0
75363,-79.2079207920792,4,1,0,90,0,0
75529,-79.8004987531172,4,1,0,90,0,0
75613,-80.1000930763082,4,1,0,90,0,0
75696,-80.4020100502513,4,1,0,90,0,0
75863,-81.0126582278481,4,1,0,90,0,0
76029,-81.6326530612245,4,1,0,90,0,0
76279,-82.5806110634896,4,1,0,90,0,0
76363,-82.9015544041451,4,1,0,90,0,0
76529,-83.5509138381201,4,1,0,90,0,0
76696,-84.2105263157895,4,1,0,90,0,0
76863,-84.8806366047745,4,1,0,90,0,0
76946,-85.2196707452801,4,1,0,90,0,0
77029,-85.5614973262032,4,1,0,90,0,0
77113,-85.906077167711,4,1,0,90,0,0
77196,-86.2533692722372,4,1,0,90,0,0
77279,-86.603480767099,4,1,0,90,0,0
77363,-86.9565217391304,4,1,0,90,0,0
77613,-88.0329736306031,4,1,0,90,0,0
77696,-88.3977900552486,4,1,0,90,0,0
77863,-89.1364902506964,4,1,0,90,0,0
78029,-89.8876404494382,4,1,0,90,0,0
78196,-90.6515580736544,4,1,0,90,0,0
78279,-91.0383653879418,4,1,0,90,0,0
78363,-91.4285714285714,4,1,0,90,0,0
78529,-92.2190201729107,4,1,0,90,0,0
78696,-93.0232558139535,4,1,0,90,0,0
78946,-94.2562147835218,4,1,0,90,0,0
79029,-94.6745562130178,4,1,0,90,0,0
79196,-95.5223880597015,4,1,0,90,0,0
79279,-95.9519779540736,4,1,0,90,0,0
79363,-96.3855421686747,4,1,0,90,0,0
79446,-96.823042334907,4,1,0,90,0,0
79529,-97.2644376899696,4,1,0,90,0,0
79696,-98.159509202454,4,1,0,90,0,0
79863,-99.0712074303406,4,1,0,90,0,0
80029,-100,4,1,0,90,0,0
80196,-99.2390350790141,4,1,0,90,0,0
80363,-98.4896610478315,4,1,0,90,0,0
80529,-97.751423993869,4,1,0,90,0,0
80696,-97.0241716318787,4,1,0,90,0,0
80863,-96.3076606002471,4,1,0,90,0,0
80946,-95.9533589912615,4,1,0,90,0,0
81029,-95.6017460702902,4,1,0,90,0,0
81196,-94.9060145737676,4,1,0,90,0,0
81363,-94.2203361404712,4,1,0,90,0,0
81529,-93.5444944387798,4,1,0,90,0,0
81613,-93.2102833312982,4,1,0,90,0,0
81696,-92.8783655636742,4,1,0,90,0,0
81863,-92.2215715478008,4,1,0,90,0,0
82029,-91.5740014084082,4,1,0,90,0,0
82196,-90.9090909090909,4,1,0,90,0,0
82279,-90.1318268098921,4,1,0,90,0,0
82363,-89.3677411052287,4,1,0,90,0,0
82446,-88.6165014559691,4,1,0,90,0,0
82529,-87.8777093796273,4,1,0,90,0,0
82613,-87.1512099638235,4,1,0,90,0,0
82696,-86.4366242349278,4,1,0,90,0,0
82779,-85.7336615217896,4,1,0,90,0,0
82863,-85.0420405327374,4,1,0,90,0,0
82946,-84.3614889802805,4,1,0,90,0,0
83029,-83.6916731806686,4,1,0,90,0,0
83113,-83.0324789844796,4,1,0,90,0,0
83196,-82.3835878711587,4,1,0,90,0,0
83279,-81.7447601608737,4,1,0,90,0,0
83363,-81.1157635507939,4,1,0,90,0,0
83446,-80.4963728334401,4,1,0,90,0,0
83529,-79.8863058095718,4,1,0,90,0,0
83613,-79.2854792609008,4,1,0,90,0,0
83696,-78.6936229048807,4,1,0,90,0,0
83779,-78.1105373458196,4,1,0,90,0,0
83863,-77.5360290543008,4,1,0,90,0,0
83946,-76.9699101530239,4,1,0,90,0,0
84029,-66.6666666666667,4,1,0,90,0,0
84363,-68.9655172413793,4,1,0,90,0,0
84696,-71.4285714285714,4,1,0,90,0,0
85029,-90.9090909090909,4,1,0,90,0,0
85363,-66.6666666666667,4,1,0,90,0,0
85529,-95.2380952380952,4,1,0,85,0,0
94696,-95.2380952380952,4,1,0,85,0,0
94863,-93.0455867547746,4,1,0,85,0,0
94946,-91.9867575863779,4,1,0,85,0,0
95029,-90.9516728286425,4,1,0,85,0,0
95085,-90.2745429399891,4,1,0,85,0,0
95141,-89.6074209281716,4,1,0,85,0,0
95196,-88.9500074273256,4,1,0,85,0,0
95279,-87.9818546223027,4,1,0,85,0,0
95363,-87.0345501053553,4,1,0,85,0,0
95696,-94.3396226415094,4,1,0,85,0,0
95779,-93.4579439252336,4,1,0,85,0,0
95863,-92.5925925925926,4,1,0,85,0,0
95946,-91.743119266055,4,1,0,85,0,0
96029,-90.9090909090909,4,1,0,85,0,0
101363,-90.9090909090909,4,1,0,85,0,0
101529,-90.2111030021353,4,1,0,85,0,0
101613,-89.8661533511987,4,1,0,85,0,0
101696,-89.5238316916155,4,1,0,85,0,0
101779,-89.184028567428,4,1,0,85,0,0
101863,-88.8468741892723,4,1,0,85,0,0
101946,-88.5122593904869,4,1,0,85,0,0
102029,-88.1800778277367,4,1,0,85,0,0
102113,-87.8504574373319,4,1,0,85,0,0
102196,-87.5232921361197,4,1,0,85,0,0
102279,-87.1984785609461,4,1,0,85,0,0
102363,-86.8761424212728,4,1,0,85,0,0
102446,-86.5561805873529,4,1,0,85,0,0
102529,-86.2385669219903,4,1,0,85,0,0
102613,-85.9232018421935,4,1,0,85,0,0
102696,-85.6102081612211,4,1,0,85,0,0
102863,-84.9909399657997,4,1,0,85,0,0
102946,-84.6846892622355,4,1,0,85,0,0
103029,-84.3806376813551,4,1,0,85,0,0
103113,-84.0786909284137,4,1,0,85,0,0
103196,-83.7789676252935,4,1,0,85,0,0
103279,-83.4813736359144,4,1,0,85,0,0
103363,-83.185817150919,4,1,0,85,0,0
103446,-82.8924147638022,4,1,0,85,0,0
103529,-82.6010748051854,4,1,0,85,0,0
103613,-82.3117078527016,4,1,0,85,0,0
103696,-82.0244285153004,4,1,0,85,0,0
103779,-81.7391474933873,4,1,0,85,0,0
103863,-81.4557776583093,4,1,0,85,0,0
103946,-81.1744316775102,4,1,0,85,0,0
104029,-80.8950225292638,4,1,0,85,0,0
104113,-80.6174652901503,4,1,0,85,0,0
104196,-80.3418707283232,4,1,0,85,0,0
104279,-80.0681540126956,4,1,0,85,0,0
104363,-79.7962960155316,4,1,0,85,0,0
104446,-79.5262146237575,4,1,0,85,0,0
104529,-79.2580181374049,4,1,0,85,0,0
104613,-78.9916245180523,4,1,0,85,0,0
104696,-78.7269536684005,4,1,0,85,0,0
104779,-78.4641120844148,4,1,0,85,0,0
104863,-78.2030197314039,4,1,0,85,0,0
104946,-77.9435984532872,4,1,0,85,0,0
105029,-77.6859529813538,4,1,0,85,0,0
105113,-77.4300052110393,4,1,0,85,0,0
105196,-77.1756788565651,4,1,0,85,0,0
105279,-76.9230769230769,4,1,0,85,0,0
105363,-66.6666666666667,4,1,0,85,0,0
105696,-68.9655172413793,4,1,0,85,0,0
106029,-71.4285714285714,4,1,0,85,0,0
106113,-73.5294117647059,4,1,0,85,0,0
106196,-75.7575757575758,4,1,0,85,0,0
106279,-78.125,4,1,0,85,0,0
106363,-80.6451612903226,4,1,0,85,0,0
106696,-100,4,1,0,90,0,0
116696,-101.010101010101,4,1,0,90,0,0
116779,-102.040816326531,4,1,0,90,0,0
116863,-103.092783505155,4,1,0,90,0,0
116946,-104.166666666667,4,1,0,90,0,0
117029,-105.263157894737,4,1,0,90,0,0
117113,-106.382978723404,4,1,0,90,0,0
117196,-108.695652173913,4,1,0,90,0,0
117307,-109.89010989011,4,1,0,90,0,0
117363,-111.111111111111,4,1,0,90,0,0
117446,-117.647058823529,4,1,0,90,0,0
122696,-117.647058823529,4,1,0,90,0,0
122863,-116.732834728485,4,1,0,90,0,0
122946,-116.280962713346,4,1,0,90,0,0
123029,-115.832575595235,4,1,0,90,0,0
123196,-114.946228154469,4,1,0,90,0,0
123279,-114.508056214295,4,1,0,90,0,0
123363,-114.073212187582,4,1,0,90,0,0
123529,-113.213485537543,4,1,0,90,0,0
123613,-112.788399938643,4,1,0,90,0,0
123696,-112.366494558653,4,1,0,90,0,0
123863,-111.53220715546,4,1,0,90,0,0
124029,-110.710217113807,4,1,0,90,0,0
124196,-109.900133748463,4,1,0,90,0,0
124279,-109.499641388674,4,1,0,90,0,0
124363,-109.101938305036,4,1,0,90,0,0
124529,-108.31513639042,4,1,0,90,0,0
124613,-107.926092212053,4,1,0,90,0,0
124696,-107.53971710602,4,1,0,90,0,0
124779,-107.156098575038,4,1,0,90,0,0
124863,-106.775321233554,4,1,0,90,0,0
124946,-106.397127277563,4,1,0,90,0,0
125029,-106.021602961819,4,1,0,90,0,0
125196,-105.278561810623,4,1,0,90,0,0
125363,-104.545753926477,4,1,0,90,0,0
125529,-103.82318496308,4,1,0,90,0,0
125613,-103.46557958831,4,1,0,90,0,0
125696,-103.110429207473,4,1,0,90,0,0
125863,-102.407497867364,4,1,0,90,0,0
125946,-102.05956196036,4,1,0,90,0,0
126029,-101.714085773454,4,1,0,90,0,0
126113,-101.370837840112,4,1,0,90,0,0
126196,-101.029898788247,4,1,0,90,0,0
126363,-100.354955477524,4,1,0,90,0,0
126446,-100.0208043273,4,1,0,90,0,0
126529,-99.6888710335044,4,1,0,90,0,0
126613,-99.3592323108275,4,1,0,90,0,0
126696,-99.031668346904,4,1,0,90,0,0
126863,-98.3829773837212,4,1,0,90,0,0
126946,-98.0619045190848,4,1,0,90,0,0
127029,-97.742824943578,4,1,0,90,0,0
127196,-97.110949259529,4,1,0,90,0,0
127363,-96.4870977452895,4,1,0,90,0,0
127446,-96.1782606353921,4,1,0,90,0,0
127529,-95.871302363707,4,1,0,90,0,0
127585,-95.6677802396286,4,1,0,90,0,0
127641,-95.4651203862901,4,1,0,90,0,0
127696,-95.2632265845371,4,1,0,90,0,0
128029,-105.263157894737,4,1,0,90,0,0
133363,-105.263157894737,4,1,0,90,0,0
133529,-104.496811279804,4,1,0,90,0,0
133613,-104.117861419126,4,1,0,90,0,0
133696,-103.741650093938,4,1,0,90,0,0
133863,-102.997219075085,4,1,0,90,0,0
134029,-102.263500315994,4,1,0,90,0,0
134196,-101.540058060605,4,1,0,90,0,0
134279,-101.182212976416,4,1,0,90,0,0
134363,-100.82677959266,4,1,0,90,0,0
134446,-100.473935554008,4,1,0,90,0,0
134529,-100.12355246374,4,1,0,90,0,0
134613,-99.7755051134946,4,1,0,90,0,0
134696,-99.4299679934933,4,1,0,90,0,0
134863,-98.7459267305224,4,1,0,90,0,0
134946,-98.4074718825251,4,1,0,90,0,0
135029,-98.0713292391822,4,1,0,90,0,0
135196,-97.4057915535542,4,1,0,90,0,0
135363,-96.7493196104098,4,1,0,90,0,0
135446,-96.4242977659455,4,1,0,90,0,0
135529,-96.1015447362301,4,1,0,90,0,0
135613,-95.7809451472105,4,1,0,90,0,0
135696,-95.4623863878274,4,1,0,90,0,0
135863,-94.831763709591,4,1,0,90,0,0
136029,-94.209329361468,4,1,0,90,0,0
136113,-93.9012102926995,4,1,0,90,0,0
136196,-93.5950125089734,4,1,0,90,0,0
136279,-93.2908921967766,4,1,0,90,0,0
136363,-92.9887418530239,4,1,0,90,0,0
136529,-92.3901896401033,4,1,0,90,0,0
136696,-91.7993779674149,4,1,0,90,0,0
136863,-91.2159912578594,4,1,0,90,0,0
136946,-90.9271110092728,4,1,0,90,0,0
137029,-90.6399725904723,4,1,0,90,0,0
137113,-90.3547236094182,4,1,0,90,0,0
137196,-90.0712643843809,4,1,0,90,0,0
137279,-89.7894975020562,4,1,0,90,0,0
137363,-89.5095681252847,4,1,0,90,0,0
137613,-88.6800768678906,4,1,0,90,0,0
137696,-88.4070117369149,4,1,0,90,0,0
137863,-87.8658183514791,4,1,0,90,0,0
138029,-87.3312868701777,4,1,0,90,0,0
138085,-87.1544760795825,4,1,0,90,0,0
138141,-86.9784554365884,4,1,0,90,0,0
138363,-91.743119266055,4,1,0,90,0,0
138446,-92.5925925925926,4,1,0,90,0,0
138529,-93.4579439252336,4,1,0,90,0,0
138613,-94.3396226415094,4,1,0,90,0,0
138696,-95.2380952380952,4,1,0,90,0,0
144029,-95.2380952380952,4,1,0,90,0,0
144196,-94.9375500795577,4,1,0,90,0,0
144279,-94.7879877078938,4,1,0,90,0,0
144363,-94.6388958290746,4,1,0,90,0,0
144529,-94.3421146973694,4,1,0,90,0,0
144696,-94.0471891176117,4,1,0,90,0,0
144863,-93.7541017419512,4,1,0,90,0,0
144946,-93.6081543935455,4,1,0,90,0,0
145029,-93.462748085182,4,1,0,90,0,0
145196,-93.1732864733818,4,1,0,90,0,0
145363,-92.885612297312,4,1,0,90,0,0
145529,-92.5997090517142,4,1,0,90,0,0
145696,-92.3155604339201,4,1,0,90,0,0
145863,-92.0331503407527,4,1,0,90,0,0
145946,-91.8925922624599,4,1,0,90,0,0
146029,-91.7524628654845,4,1,0,90,0,0
146113,-91.6127601916905,4,1,0,90,0,0
146196,-91.4734822948501,4,1,0,90,0,0
146279,-91.3346272405526,4,1,0,90,0,0
146363,-91.196193106115,4,1,0,90,0,0
146529,-90.9090909090909,4,1,0,90,0,0
146613,-89.9517588717171,4,1,0,90,0,0
146696,-89.0143001473187,4,1,0,90,0,0
146779,-88.0962574947891,4,1,0,90,0,0
146863,-87.1969578725337,4,1,0,90,0,0
146946,-86.3157585817285,4,1,0,90,0,0
147029,-85.4522646559179,4,1,0,90,0,0
147113,-84.6058762165267,4,1,0,90,0,0
147196,-83.7760197845448,4,1,0,90,0,0
147279,-82.9623533432999,4,1,0,90,0,0
147363,-82.1643401833744,4,1,0,90,0,0
147446,-81.3815329025538,4,1,0,90,0,0
147529,-80.6134360026054,4,1,0,90,0,0
147613,-79.8597662504642,4,1,0,90,0,0
147696,-79.120058358955,4,1,0,90,0,0
147779,-78.3938664638879,4,1,0,90,0,0
147863,-77.6809441652678,4,1,0,90,0,0
147946,-76.9808717929769,4,1,0,90,0,0
148029,-66.6666666666667,4,1,0,90,0,0
148363,-68.9655172413793,4,1,0,90,0,0
148696,-71.4285714285714,4,1,0,90,0,0
148863,-74.0740740740741,4,1,0,90,0,0
149029,-76.9230769230769,4,1,0,90,0,0
149196,-80,4,1,0,90,0,0
149363,-83.3333333333333,4,1,0,95,0,1
149529,-83.7696335078534,4,1,0,95,0,1
149613,-82.6446280991736,4,1,0,95,0,1
149696,-81.3008130081301,4,1,0,95,0,1
149779,-80,4,1,0,95,0,1
149946,-84.8806366047745,4,1,0,95,0,1
150029,-83.3333333333333,4,1,0,95,0,1
150113,-81.9672131147541,4,1,0,95,0,1
150196,-80.6451612903226,4,1,0,95,0,1
150279,-79.3650793650794,4,1,0,95,0,1
150446,-86.2533692722372,4,1,0,95,0,1
150529,-84.7457627118644,4,1,0,95,0,1
150613,-83.3333333333333,4,1,0,95,0,1
150779,-87.1934604904632,4,1,0,95,0,1
150863,-85.4700854700855,4,1,0,95,0,1
150946,-84.0336134453781,4,1,0,95,0,1
151029,-81.3008130081301,4,1,0,95,0,1
151113,-80,4,1,0,95,0,1
151279,-88.6426592797784,4,1,0,95,0,1
151363,-86.9565217391304,4,1,0,95,0,1
151446,-85.4700854700855,4,1,0,95,0,1
151529,-84.0336134453781,4,1,0,95,0,1
151613,-82.6446280991736,4,1,0,95,0,1
151779,-90.1408450704225,4,1,0,95,0,1
151863,-88.4955752212389,4,1,0,95,0,1
151946,-86.9565217391304,4,1,0,95,0,1
152029,-85.4700854700855,4,1,0,95,0,1
152113,-84.0336134453781,4,1,0,95,0,1
152196,-82.6446280991736,4,1,0,95,0,1
152279,-81.3008130081301,4,1,0,95,0,1
152446,-92.2190201729107,4,1,0,95,0,1
152529,-90.9090909090909,4,1,0,95,0,1
152613,-89.2857142857143,4,1,0,95,0,1
152696,-87.719298245614,4,1,0,95,0,1
152779,-86.2068965517241,4,1,0,95,0,1
152863,-84.7457627118644,4,1,0,95,0,1
152946,-83.3333333333333,4,1,0,95,0,1
153113,-95.2380952380952,4,1,0,95,0,1
153196,-93.4579439252336,4,1,0,95,0,1
153279,-91.743119266055,4,1,0,95,0,1
153363,-90.0900900900901,4,1,0,95,0,1
153446,-90.9090909090909,4,1,0,95,0,1
153529,-91.743119266055,4,1,0,95,0,1
153613,-92.5925925925926,4,1,0,95,0,1
153696,-93.4579439252336,4,1,0,95,0,1
153779,-94.3396226415094,4,1,0,95,0,1
153863,-95.2380952380952,4,1,0,95,0,1
153946,-96.1538461538461,4,1,0,95,0,1
154029,-97.0873786407767,4,1,0,95,0,1
154113,-98.0392156862745,4,1,0,95,0,1
154196,-99.009900990099,4,1,0,95,0,1
154279,-100,4,1,0,95,0,1
154363,-101.010101010101,4,1,0,95,0,1
154446,-102.040816326531,4,1,0,95,0,1
154529,-103.092783505155,4,1,0,95,0,1
154613,-104.166666666667,4,1,0,95,0,1
154696,-105.263157894737,4,1,0,95,0,1
154863,-103.092783505155,4,1,0,95,0,1
154946,-101.010101010101,4,1,0,95,0,1
155029,-99.009900990099,4,1,0,95,0,1
155113,-97.0873786407767,4,1,0,95,0,1
155279,-98.2800982800983,4,1,0,95,0,1
155363,-96.1538461538461,4,1,0,95,0,1
155446,-94.3396226415094,4,1,0,95,0,1
155529,-92.5925925925926,4,1,0,95,0,1
155613,-90.9090909090909,4,1,0,95,0,1
155779,-96.8523002421308,4,1,0,95,0,1
155863,-95.2380952380952,4,1,0,95,0,1
155946,-93.4579439252336,4,1,0,95,0,1
156113,-95.9232613908873,4,1,0,95,0,1
156196,-94.3396226415094,4,1,0,95,0,1
156279,-92.5925925925926,4,1,0,95,0,1
156363,-90.9090909090909,4,1,0,95,0,1
156446,-89.2857142857143,4,1,0,95,0,1
156613,-94.5626477541371,4,1,0,95,0,1
156696,-92.5925925925926,4,1,0,95,0,1
156779,-90.9090909090909,4,1,0,95,0,1
156863,-89.2857142857143,4,1,0,95,0,1
156946,-87.719298245614,4,1,0,95,0,1
157113,-93.2400932400932,4,1,0,95,0,1
157196,-92.5925925925926,4,1,0,95,0,1
157279,-91.743119266055,4,1,0,95,0,1
157363,-90.9090909090909,4,1,0,95,0,1
157446,-90.0900900900901,4,1,0,95,0,1
157529,-89.2857142857143,4,1,0,95,0,1
157613,-88.4955752212389,4,1,0,95,0,1
157696,-87.719298245614,4,1,0,95,0,1
157863,-91.324200913242,4,1,0,95,0,1
158029,-90.9090909090909,4,1,0,95,0,1
158113,-90.0511490526619,4,1,0,95,0,1
158196,-89.2091696321281,4,1,0,95,0,1
158279,-88.3828675114301,4,1,0,95,0,1
158363,-87.5717321951343,4,1,0,95,0,1
158446,-86.7752746003565,4,1,0,95,0,1
158529,-85.9932478101819,4,1,0,95,0,1
158613,-85.2251905209134,4,1,0,95,0,1
158696,-84.4706603831758,4,1,0,95,0,1
158863,-83.0011213451494,4,1,0,95,0,1
158918,-82.5225492865926,4,1,0,95,0,1
158974,-82.049464340072,4,1,0,95,0,1
159029,-81.5817726740221,4,1,0,95,0,1
159113,-80.890114823518,4,1,0,95,0,1
159196,-80.2101505945577,4,1,0,95,0,1
159252,-79.7631353931366,4,1,0,95,0,1
159307,-79.3210750543944,4,1,0,95,0,1
159363,-78.8838876504119,4,1,0,95,0,1
159446,-78.237099093545,4,1,0,95,0,1
159529,-77.6008306392912,4,1,0,95,0,1
159613,-76.9747684406528,4,1,0,95,0,1
159696,-66.6666666666667,4,1,0,95,0,1
160029,-90.9090909090909,4,1,0,90,0,0
167863,-90.9090909090909,4,1,0,90,0,0
167946,-89.9470661515698,4,1,0,90,0,0
168029,-89.005268221826,4,1,0,90,0,0
168113,-88.0829106821669,4,1,0,90,0,0
168196,-87.1794737672604,4,1,0,90,0,0
168279,-86.2943812002513,4,1,0,90,0,0
168363,-85.427152849679,4,1,0,90,0,0
168446,-84.5771102200443,4,1,0,90,0,0
168529,-83.7438176126647,4,1,0,90,0,0
168613,-82.9268535395669,4,1,0,90,0,0
168696,-82.125607832155,4,1,0,90,0,0
168779,-81.3396973512541,4,1,0,90,0,0
168863,-80.5687509265406,4,1,0,90,0,0
168946,-79.8122178139274,4,1,0,90,0,0
169029,-79.0697600865339,4,1,0,90,0,0
169113,-78.3409885535982,4,1,0,90,0,0
169196,-77.6255884989928,4,1,0,90,0,0
169279,-76.9230769230769,4,1,0,90,0,0
169363,-66.6666666666667,4,1,0,90,0,0
169696,-68.9655172413793,4,1,0,90,0,0
169752,-69.7674580854554,4,1,0,90,0,0
169807,-70.588218685125,4,1,0,90,0,0
169863,-71.4285714285714,4,1,0,90,0,0
169946,-72.7272727272727,4,1,0,90,0,0
170029,-74.0740740740741,4,1,0,90,0,0
170196,-71.9424460431655,4,1,0,90,0,0
170279,-70.4225352112676,4,1,0,90,0,0
170363,-66.6666666666667,4,1,0,90,0,0
170696,-83.3333333333333,4,1,0,90,0,0
171029,-66.6666666666667,4,1,0,100,0,1
173363,-68.9655172413793,4,1,0,100,0,1
173418,-71.4285714285714,4,1,0,100,0,1
173474,-74.0740740740741,4,1,0,100,0,1
173529,-76.9230769230769,4,1,0,100,0,1
173585,-80,4,1,0,100,0,1
173696,-66.6666666666667,4,1,0,100,0,1
176029,-68.9655172413793,4,1,0,100,0,1
176113,-71.4285714285714,4,1,0,100,0,1
176196,-74.0740740740741,4,1,0,100,0,1
176279,-76.9230769230769,4,1,0,100,0,1
176363,-66.6666666666667,4,1,0,100,0,1
178696,-68.9655172413793,4,1,0,100,0,1
178779,-71.4285714285714,4,1,0,100,0,1
178863,-74.0740740740741,4,1,0,100,0,1
178946,-76.9230769230769,4,1,0,100,0,1
179029,-66.6666666666667,4,1,0,100,0,1
180029,-66.6666666666667,4,1,0,100,0,1
180113,-67.7906354016256,4,1,0,100,0,1
180196,-68.9532007731033,4,1,0,100,0,1
180279,-70.1562871609083,4,1,0,100,0,1
180363,-71.4021526320976,4,1,0,100,0,1
180404,-71.9424460431655,4,1,0,100,0,1
180446,-72.463768115942,4,1,0,100,0,1
180529,-74.0314648531919,4,1,0,100,0,1
180613,-75.4200709401187,4,1,0,100,0,1
180696,-76.8618239618273,4,1,0,100,0,1
180738,-77.6035405839356,4,1,0,100,0,1
180779,-78.3597118243238,4,1,0,100,0,1
180863,-79.9172057748173,4,1,0,100,0,1
180918,-80.9903499997975,4,1,0,100,0,1
180974,-82.0927072943475,4,1,0,100,0,1
181029,-83.2255562380051,4,1,0,100,0,1
181113,-84.9845837964993,4,1,0,100,0,1
181196,-86.8196486756097,4,1,0,100,0,1
181279,-88.735632591888,4,1,0,100,0,1
181363,-90.7380908524208,4,1,0,90,0,0
181696,-91.4285714285714,4,1,0,90,0,0
181863,-91.6905444126075,4,1,0,90,0,0
182363,-92.485549132948,4,1,0,90,0,0
182696,-93.0232558139535,4,1,0,90,0,0
183029,-93.5672514619883,4,1,0,90,0,0
183196,-93.841642228739,4,1,0,90,0,0
183279,-93.9793978364063,4,1,0,90,0,0
183529,-94.3952802359882,4,1,0,90,0,0
183696,-94.6745562130178,4,1,0,90,0,0
184029,-95.2380952380952,4,1,0,90,0,0
184363,-95.8083832335329,4,1,0,90,0,0
184529,-96.0960960960961,4,1,0,90,0,0
184863,-96.6767371601208,4,1,0,90,0,0
185029,-96.969696969697,4,1,0,90,0,0
185363,-97.5609756097561,4,1,0,90,0,0
185696,-98.159509202454,4,1,0,90,0,0
185863,-98.4615384615385,4,1,0,90,0,0
185946,-98.6132025327815,4,1,0,90,0,0
186196,-99.0712074303406,4,1,0,90,0,0
186363,-99.3788819875776,4,1,0,90,0,0
186529,-99.6884735202492,4,1,0,90,0,0
186613,-99.8440436038907,4,1,0,90,0,0
186696,-100,4,1,0,90,0,0
187029,-100.62893081761,4,1,0,90,0,0
187196,-100.946372239748,4,1,0,90,0,0
187279,-101.105794069741,4,1,0,90,0,0
187529,-101.587301587302,4,1,0,90,0,0
187696,-101.910828025478,4,1,0,90,0,0
187946,-102.400052428827,4,1,0,90,0,0
188029,-102.564102564103,4,1,0,90,0,0
188363,-103.225806451613,4,1,0,90,0,0
188529,-103.559870550162,4,1,0,90,0,0
188613,-103.727768546006,4,1,0,90,0,0
188863,-104.234527687296,4,1,0,90,0,0
189029,-104.575163398693,4,1,0,90,0,0
189363,-105.263157894737,4,1,0,90,0,0
189696,-105.960264900662,4,1,0,90,0,0
189863,-106.312292358804,4,1,0,90,0,0
190029,-106.666666666667,4,1,0,90,0,0
190363,-107.38255033557,4,1,0,90,0,0
190529,-107.744107744108,4,1,0,90,0,0
190613,-107.925859251728,4,1,0,90,0,0
190696,-108.108108108108,4,1,0,90,0,0
191029,-108.843537414966,4,1,0,90,0,0
191363,-109.58904109589,4,1,0,90,0,0
191696,-110.344827586207,4,1,0,90,0,0
192029,-111.111111111111,4,1,0,90,0,0
197363,-111.111111111111,4,1,0,90,0,0
197529,-110.294077097766,4,1,0,90,0,0
197696,-109.489091054413,4,1,0,90,0,0
197862,-108.695652173913,4,1,0,90,0,0
198029,-107.913630246896,4,1,0,90,0,0
198196,-107.142895408177,4,1,0,90,0,0
198362,-106.382978723404,4,1,0,90,0,0
198529,-105.633765621914,4,1,0,90,0,0
198696,-104.895141571728,4,1,0,90,0,0
198862,-104.166666666667,4,1,0,90,0,0
199029,-103.448240190262,4,1,0,90,0,0
199196,-102.739761212247,4,1,0,90,0,0
199279,-102.389043553227,4,1,0,90,0,0
199362,-102.040816326531,4,1,0,90,0,0
199529,-101.351317111042,4,1,0,90,0,0
199696,-100.671174721871,4,1,0,90,0,0
199862,-100,4,1,0,90,0,0
199946,-98.842846792599,4,1,0,90,0,0
200029,-97.7120718379152,4,1,0,90,0,0
200112,-96.6069699996715,4,1,0,90,0,0
200196,-95.5265855263849,4,1,0,90,0,0
200279,-94.4700090785679,4,1,0,90,0,0
200362,-93.4366368790668,4,1,0,90,0,0
200446,-92.4256274082652,4,1,0,90,0,0
200529,-91.4361789186575,4,1,0,90,0,0
200612,-90.4677726653434,4,1,0,90,0,0
200696,-89.5196643370666,4,1,0,90,0,0
200779,-88.5912223816864,4,1,0,90,0,0
200862,-87.6817642973885,4,1,0,90,0,0
200946,-86.7908643936139,4,1,0,90,0,0
201029,-85.9178865574593,4,1,0,90,0,0
201112,-85.0622230161363,4,1,0,90,0,0
201196,-84.2235056012842,4,1,0,90,0,0
201279,-83.4011662819093,4,1,0,90,0,0
201696,-84.7457627118644,4,1,0,90,0,0
202029,-86.2068965517241,4,1,0,90,0,0
202363,-87.719298245614,4,1,0,90,0,0
202529,-88.4955752212389,4,1,0,90,0,0
202613,-89.2857142857143,4,1,0,90,0,0
202863,-100,4,1,0,85,0,0
203863,-100.464749933191,4,1,0,85,0,0
204029,-100.933839886631,4,1,0,85,0,0
205029,-103.843022579627,4,1,0,85,0,0
205196,-104.344378185764,4,1,0,85,0,0
205363,-104.850488446,4,1,0,85,0,0
205529,-105.361532293836,4,1,0,85,0,0
205696,-105.877582221883,4,1,0,85,0,0
205863,-106.398712149988,4,1,0,85,0,0
206029,-106.924997460531,4,1,0,85,0,0
206363,-107.99334329032,4,1,0,85,0,0
206696,-109.08325342985,4,1,0,85,0,0
207029,-110.195387441472,4,1,0,85,0,0
207363,-111.330432062274,4,1,0,85,0,0
207529,-111.90676823325,4,1,0,85,0,0
207613,-112.197179811688,4,1,0,85,0,0
207696,-112.489102618184,4,1,0,85,0,0
207863,-113.077657211867,4,1,0,85,0,0
208029,-113.672273741023,4,1,0,85,0,0
209029,-117.375576020639,4,1,0,80,0,0
209196,-118.016380673637,4,1,0,80,0,0
209363,-118.664220601533,4,1,0,80,0,0
210363,-122.705709987509,4,1,0,80,0,0
210696,-124.114905579586,4,1,0,80,0,0
211029,-125.556686960813,4,1,0,80,0,0
211363,-127.032358952796,4,1,0,80,0,0
211696,-128.543130719366,4,1,0,80,0,0
211863,-129.31207270442,4,1,0,80,0,0
212029,-130.090269638102,4,1,0,80,0,0
212696,-133.299031049343,4,1,0,80,0,0
213029,-100,4,1,0,80,0,0

[HitObjects]
256,192,30,5,0,0:0:0:0:
256,192,196,1,0,0:0:0:0:
256,192,279,1,8,0:0:0:0:
256,192,529,1,0,0:0:0:0:
256,192,696,1,0,0:0:0:0:
256,192,863,1,8,0:0:0:0:
256,192,1029,1,8,0:0:0:0:
256,192,1196,1,8,0:0:0:0:
256,192,1529,1,8,0:0:0:0:
256,192,1696,1,0,0:0:0:0:
256,192,1863,1,8,0:0:0:0:
256,192,1946,1,8,0:0:0:0:
256,192,2029,1,0,0:0:0:0:
256,192,2196,1,8,0:0:0:0:
256,192,2529,1,8,0:0:0:0:
256,192,2696,1,0,0:0:0:0:
256,192,2863,1,0,0:0:0:0:
256,192,2946,1,8,0:0:0:0:
256,192,3196,1,8,0:0:0:0:
256,192,3363,1,0,0:0:0:0:
256,192,3529,1,0,0:0:0:0:
256,192,3613,1,0,0:0:0:0:
256,192,3696,1,8,0:0:0:0:
256,192,3863,1,0,0:0:0:0:
256,192,4029,1,8,0:0:0:0:
256,192,4196,1,0,0:0:0:0:
256,192,4279,1,8,0:0:0:0:
256,192,4529,1,0,0:0:0:0:
256,192,4696,1,0,0:0:0:0:
256,192,4863,1,8,0:0:0:0:
256,192,5029,1,8,0:0:0:0:
256,192,5196,1,8,0:0:0:0:
256,192,5363,1,0,0:0:0:0:
256,192,5529,1,0,0:0:0:0:
256,192,5613,1,8,0:0:0:0:
256,192,5863,1,0,0:0:0:0:
256,192,6029,1,0,0:0:0:0:
256,192,6196,1,8,0:0:0:0:
256,192,6279,1,8,0:0:0:0:
256,192,6363,1,0,0:0:0:0:
256,192,6529,1,8,0:0:0:0:
256,192,6696,1,0,0:0:0:0:
256,192,6863,1,0,0:0:0:0:
256,192,6946,1,8,0:0:0:0:
256,192,7196,1,0,0:0:0:0:
256,192,7279,1,0,0:0:0:0:
256,192,7363,1,0,0:0:0:0:
256,192,7529,1,8,0:0:0:0:
256,192,7696,1,8,0:0:0:0:
256,192,7863,1,0,0:0:0:0:
256,192,8029,1,8,0:0:0:0:
256,192,8196,1,0,0:0:0:0:
256,192,8279,1,8,0:0:0:0:
256,192,8529,1,0,0:0:0:0:
256,192,8696,1,8,0:0:0:0:
256,192,8863,1,8,0:0:0:0:
256,192,8946,1,0,0:0:0:0:
256,192,9029,1,0,0:0:0:0:
256,192,9196,1,8,0:0:0:0:
256,192,9363,1,0,0:0:0:0:
256,192,9529,1,8,0:0:0:0:
256,192,9613,1,8,0:0:0:0:
256,192,9863,1,0,0:0:0:0:
256,192,10029,1,0,0:0:0:0:
256,192,10196,1,8,0:0:0:0:
256,192,10279,1,8,0:0:0:0:
256,192,10363,1,0,0:0:0:0:
256,192,10446,1,0,0:0:0:0:
256,192,10529,1,0,0:0:0:0:
256,192,10613,1,0,0:0:0:0:
256,192,10696,1,8,0:0:0:0:
256,192,10946,1,8,0:0:0:0:
256,192,11029,1,0,0:0:0:0:
256,192,11196,1,8,0:0:0:0:
256,192,11279,1,8,0:0:0:0:
256,192,11363,1,0,0:0:0:0:
256,192,11529,1,8,0:0:0:0:
256,192,11613,1,0,0:0:0:0:
256,192,11779,1,0,0:0:0:0:
256,192,11863,1,8,0:0:0:0:
256,192,12029,1,0,0:0:0:0:
256,192,12196,1,8,0:0:0:0:
256,192,12279,1,8,0:0:0:0:
256,192,12363,1,0,0:0:0:0:
256,192,12529,1,8,0:0:0:0:
256,192,12613,1,8,0:0:0:0:
256,192,12696,1,0,0:0:0:0:
256,192,12779,1,8,0:0:0:0:
256,192,12946,1,8,0:0:0:0:
256,192,13029,1,0,0:0:0:0:
256,192,13113,1,0,0:0:0:0:
256,192,13196,1,8,0:0:0:0:
256,192,13279,1,8,0:0:0:0:
256,192,13363,1,0,0:0:0:0:
256,192,13613,1,8,0:0:0:0:
256,192,13696,1,0,0:0:0:0:
256,192,13863,1,8,0:0:0:0:
256,192,13946,1,0,0:0:0:0:
256,192,14029,1,0,0:0:0:0:
256,192,14113,1,8,0:0:0:0:
256,192,14279,1,8,0:0:0:0:
256,192,14363,1,0,0:0:0:0:
256,192,14529,1,8,0:0:0:0:
256,192,14696,1,0,0:0:0:0:
256,192,14863,1,8,0:0:0:0:
256,192,14946,1,8,0:0:0:0:
256,192,15029,1,0,0:0:0:0:
256,192,15196,1,8,0:0:0:0:
256,192,15279,1,0,0:0:0:0:
256,192,15363,1,8,0:0:0:0:
256,192,15446,1,8,0:0:0:0:
256,192,15529,1,8,0:0:0:0:
256,192,15696,1,0,0:0:0:0:
256,192,15863,1,8,0:0:0:0:
256,192,16029,1,0,0:0:0:0:
256,192,16196,1,0,0:0:0:0:
256,192,16363,1,8,0:0:0:0:
256,192,16529,1,0,0:0:0:0:
256,192,16696,1,0,0:0:0:0:
256,192,16863,1,8,0:0:0:0:
256,192,17029,1,8,0:0:0:0:
256,192,17196,1,8,0:0:0:0:
256,192,17363,1,0,0:0:0:0:
256,192,17529,1,0,0:0:0:0:
256,192,17696,1,8,0:0:0:0:
256,192,17863,1,0,0:0:0:0:
256,192,17946,1,8,0:0:0:0:
256,192,18029,1,0,0:0:0:0:
256,192,18196,1,8,0:0:0:0:
256,192,18363,1,8,0:0:0:0:
256,192,18529,1,8,0:0:0:0:
256,192,18613,1,0,0:0:0:0:
256,192,18696,1,8,0:0:0:0:
256,192,18779,1,8,0:0:0:0:
256,192,18863,1,8,0:0:0:0:
256,192,18946,1,8,0:0:0:0:
256,192,19029,1,0,0:0:0:0:
256,192,19113,1,0,0:0:0:0:
256,192,19196,1,0,0:0:0:0:
256,192,19279,1,0,0:0:0:0:
256,192,19363,1,8,0:0:0:0:
256,192,19446,1,8,0:0:0:0:
256,192,19529,1,0,0:0:0:0:
256,192,19613,1,8,0:0:0:0:
256,192,19696,1,0,0:0:0:0:
256,192,19779,1,0,0:0:0:0:
256,192,19863,1,8,0:0:0:0:
256,192,19946,1,0,0:0:0:0:
256,192,20029,1,12,0:0:0:0:
256,192,20363,1,4,0:0:0:0:
256,192,20696,1,12,0:0:0:0:
256,192,20863,1,8,0:0:0:0:
256,192,20946,1,8,0:0:0:0:
256,192,21029,1,8,0:0:0:0:
256,192,21363,1,4,0:0:0:0:
256,192,22196,1,0,0:0:0:0:
256,192,22363,1,8,0:0:0:0:
256,192,22446,1,8,0:0:0:0:
256,192,22529,1,8,0:0:0:0:
256,192,22613,1,0,0:0:0:0:
256,192,22696,1,8,0:0:0:0:
256,192,22863,1,8,0:0:0:0:
256,192,22946,1,8,0:0:0:0:
256,192,23029,1,8,0:0:0:0:
256,192,23113,1,8,0:0:0:0:
256,192,23196,1,0,0:0:0:0:
256,192,23252,1,0,0:0:0:0:
256,192,23307,1,0,0:0:0:0:
256,192,23363,1,8,0:0:0:0:
256,192,23446,1,8,0:0:0:0:
256,192,23529,1,0,0:0:0:0:
256,192,23613,1,0,0:0:0:0:
256,192,23696,1,8,0:0:0:0:
256,192,23863,1,0,0:0:0:0:
256,192,23918,1,8,0:0:0:0:
256,192,23974,1,8,0:0:0:0:
256,192,24029,1,0,0:0:0:0:
256,192,24196,1,12,0:0:0:0:
256,192,24363,1,0,0:0:0:0:
256,192,24529,1,12,0:0:0:0:
256,192,24863,1,8,0:0:0:0:
256,192,25029,1,0,0:0:0:0:
256,192,25113,1,0,0:0:0:0:
256,192,25196,1,8,0:0:0:0:
256,192,25279,1,0,0:0:0:0:
256,192,25363,1,8,0:0:0:0:
256,192,25446,1,8,0:0:0:0:
256,192,25529,1,0,0:0:0:0:
256,192,25613,1,0,0:0:0:0:
256,192,25696,1,0,0:0:0:0:
256,192,25779,1,0,0:0:0:0:
256,192,25863,1,8,0:0:0:0:
256,192,25918,1,8,0:0:0:0:
256,192,25974,1,8,0:0:0:0:
256,192,26029,1,0,0:0:0:0:
256,192,26113,1,0,0:0:0:0:
256,192,26196,1,8,0:0:0:0:
256,192,26252,1,0,0:0:0:0:
256,192,26307,1,0,0:0:0:0:
256,192,26363,1,8,0:0:0:0:
256,192,26696,1,12,0:0:0:0:
256,192,27529,1,0,0:0:0:0:
256,192,27696,1,8,0:0:0:0:
256,192,27779,1,0,0:0:0:0:
256,192,27863,1,8,0:0:0:0:
256,192,27946,1,0,0:0:0:0:
256,192,28029,1,8,0:0:0:0:
256,192,28196,1,0,0:0:0:0:
256,192,28279,1,8,0:0:0:0:
256,192,28363,1,8,0:0:0:0:
256,192,28446,1,8,0:0:0:0:
256,192,28529,1,0,0:0:0:0:
256,192,28585,1,0,0:0:0:0:
256,192,28641,1,0,0:0:0:0:
256,192,28696,1,8,0:0:0:0:
256,192,28779,1,0,0:0:0:0:
256,192,28863,1,8,0:0:0:0:
256,192,28918,1,0,0:0:0:0:
256,192,28974,1,0,0:0:0:0:
256,192,29029,1,8,0:0:0:0:
256,192,29113,1,8,0:0:0:0:
256,192,29196,1,0,0:0:0:0:
256,192,29363,1,8,0:0:0:0:
256,192,29696,1,8,0:0:0:0:
256,192,30029,1,0,0:0:0:0:
256,192,30196,1,8,0:0:0:0:
256,192,30279,1,0,0:0:0:0:
256,192,30363,1,8,0:0:0:0:
256,192,30418,1,8,0:0:0:0:
256,192,30474,1,8,0:0:0:0:
256,192,30529,1,0,0:0:0:0:
256,192,30613,1,0,0:0:0:0:
256,192,30696,1,8,0:0:0:0:
256,192,30863,1,0,0:0:0:0:
256,192,30946,1,0,0:0:0:0:
256,192,31029,1,0,0:0:0:0:
256,192,31113,1,0,0:0:0:0:
256,192,31196,1,8,0:0:0:0:
256,192,31363,1,12,0:0:0:0:
256,192,31696,1,8,0:0:0:0:
256,192,31863,1,8,0:0:0:0:
256,192,32029,1,4,0:0:0:0:
256,192,32196,1,8,0:0:0:0:
256,192,32363,1,0,0:0:0:0:
256,192,32529,1,8,0:0:0:0:
256,192,32613,1,8,0:0:0:0:
256,192,32696,1,0,0:0:0:0:
256,192,32863,1,8,0:0:0:0:
256,192,33029,1,0,0:0:0:0:
256,192,33113,1,0,0:0:0:0:
256,192,33196,1,8,0:0:0:0:
256,192,33279,1,0,0:0:0:0:
256,192,33363,1,8,0:0:0:0:
256,192,33529,1,0,0:0:0:0:
256,192,33613,1,8,0:0:0:0:
256,192,33696,1,0,0:0:0:0:
256,192,33863,1,8,0:0:0:0:
256,192,34029,1,0,0:0:0:0:
256,192,34196,1,8,0:0:0:0:
256,192,34279,1,8,0:0:0:0:
256,192,34363,1,0,0:0:0:0:
256,192,34529,1,8,0:0:0:0:
256,192,34696,1,0,0:0:0:0:
256,192,34863,1,8,0:0:0:0:
256,192,35029,1,0,0:0:0:0:
256,192,35113,1,0,0:0:0:0:
256,192,35196,1,8,0:0:0:0:
256,192,35363,1,0,0:0:0:0:
256,192,35529,1,8,0:0:0:0:
256,192,35613,1,8,0:0:0:0:
256,192,35696,1,0,0:0:0:0:
256,192,35779,1,0,0:0:0:0:
256,192,35863,1,8,0:0:0:0:
256,192,35946,1,8,0:0:0:0:
256,192,36029,1,0,0:0:0:0:
256,192,36196,1,8,0:0:0:0:
256,192,36279,1,0,0:0:0:0:
256,192,36363,1,8,0:0:0:0:
256,192,36529,1,0,0:0:0:0:
256,192,36696,1,8,0:0:0:0:
256,192,36863,1,0,0:0:0:0:
256,192,36946,1,0,0:0:0:0:
256,192,37029,1,8,0:0:0:0:
256,192,37196,1,0,0:0:0:0:
256,192,37363,1,8,0:0:0:0:
256,192,37529,1,8,0:0:0:0:
256,192,37696,1,8,0:0:0:0:
256,192,37863,1,0,0:0:0:0:
256,192,38029,1,8,0:0:0:0:
256,192,38196,1,8,0:0:0:0:
256,192,38363,1,8,0:0:0:0:
256,192,38446,1,8,0:0:0:0:
256,192,38529,1,8,0:0:0:0:
256,192,38696,1,0,0:0:0:0:
256,192,38863,1,8,0:0:0:0:
256,192,38946,1,0,0:0:0:0:
256,192,39029,1,8,0:0:0:0:
256,192,39196,1,8,0:0:0:0:
256,192,39363,1,0,0:0:0:0:
256,192,39446,1,0,0:0:0:0:
256,192,39529,1,8,0:0:0:0:
256,192,39613,1,0,0:0:0:0:
256,192,39696,1,8,0:0:0:0:
256,192,39863,1,8,0:0:0:0:
256,192,40029,1,0,0:0:0:0:
256,192,40113,1,0,0:0:0:0:
256,192,40196,1,0,0:0:0:0:
256,192,40279,1,0,0:0:0:0:
256,192,40363,1,8,0:0:0:0:
256,192,40446,1,8,0:0:0:0:
256,192,40529,1,8,0:0:0:0:
256,192,40613,1,8,0:0:0:0:
256,192,40696,1,0,0:0:0:0:
256,192,40779,1,0,0:0:0:0:
256,192,40863,1,8,0:0:0:0:
256,192,40946,1,0,0:0:0:0:
256,192,41029,1,8,0:0:0:0:
256,192,41113,1,8,0:0:0:0:
256,192,41196,1,0,0:0:0:0:
256,192,41279,1,8,0:0:0:0:
256,192,41363,1,0,0:0:0:0:
256,192,41529,1,0,0:0:0:0:
256,192,41696,1,8,0:0:0:0:
256,192,41779,1,8,0:0:0:0:
256,192,41863,1,0,0:0:0:0:
256,192,41946,1,8,0:0:0:0:
256,192,42029,1,0,0:0:0:0:
256,192,42196,1,8,0:0:0:0:
256,192,42279,1,8,0:0:0:0:
256,192,42363,1,0,0:0:0:0:
256,192,42529,1,0,0:0:0:0:
256,192,42696,1,12,0:0:0:0:
256,192,43029,1,8,0:0:0:0:
256,192,43071,1,8,0:0:0:0:
256,192,43196,1,0,0:0:0:0:
256,192,43238,1,0,0:0:0:0:
256,192,43363,1,8,0:0:0:0:
256,192,43404,1,8,0:0:0:0:
256,192,43529,1,0,0:0:0:0:
256,192,43571,1,0,0:0:0:0:
256,192,43696,1,8,0:0:0:0:
256,192,43738,1,8,0:0:0:0:
256,192,43863,1,0,0:0:0:0:
256,192,43904,1,0,0:0:0:0:
256,192,44029,1,8,0:0:0:0:
256,192,44071,1,8,0:0:0:0:
256,192,44196,1,0,0:0:0:0:
256,192,44238,1,0,0:0:0:0:
256,192,44363,1,8,0:0:0:0:
256,192,44404,1,8,0:0:0:0:
256,192,44529,1,0,0:0:0:0:
256,192,44571,1,0,0:0:0:0:
256,192,44696,1,8,0:0:0:0:
256,192,44779,1,8,0:0:0:0:
256,192,44863,1,8,0:0:0:0:
256,192,44946,1,8,0:0:0:0:
256,192,45029,1,4,0:0:0:0:
256,192,45363,1,12,0:0:0:0:
256,192,45696,1,0,0:0:0:0:
256,192,45752,1,8,0:0:0:0:
256,192,45807,1,8,0:0:0:0:
256,192,45863,1,8,0:0:0:0:
256,192,46029,1,8,0:0:0:0:
256,192,46085,1,0,0:0:0:0:
256,192,46141,1,0,0:0:0:0:
256,192,46196,1,8,0:0:0:0:
256,192,46363,1,0,0:0:0:0:
256,192,46418,1,8,0:0:0:0:
256,192,46474,1,8,0:0:0:0:
256,192,46529,1,8,0:0:0:0:
256,192,46696,1,8,0:0:0:0:
256,192,46752,1,0,0:0:0:0:
256,192,46807,1,0,0:0:0:0:
256,192,46863,1,8,0:0:0:0:
256,192,47029,1,0,0:0:0:0:
256,192,47085,1,8,0:0:0:0:
256,192,47141,1,8,0:0:0:0:
256,192,47196,1,8,0:0:0:0:
256,192,47363,1,8,0:0:0:0:
256,192,47418,1,0,0:0:0:0:
256,192,47474,1,0,0:0:0:0:
256,192,47529,1,8,0:0:0:0:
256,192,47696,1,4,0:0:0:0:
256,192,48029,1,12,0:0:0:0:
256,192,48363,1,0,0:0:0:0:
256,192,48529,1,8,0:0:0:0:
256,192,48571,1,0,0:0:0:0:
256,192,48696,1,12,0:0:0:0:
256,192,48946,1,0,0:0:0:0:
256,192,49029,1,0,0:0:0:0:
256,192,49196,1,8,0:0:0:0:
256,192,49238,1,0,0:0:0:0:
256,192,49363,1,12,0:0:0:0:
256,192,49613,1,0,0:0:0:0:
256,192,49696,1,0,0:0:0:0:
256,192,49863,1,8,0:0:0:0:
256,192,49904,1,0,0:0:0:0:
256,192,50029,1,12,0:0:0:0:
256,192,50279,1,8,0:0:0:0:
256,192,50363,1,4,0:0:0:0:
256,192,50696,1,12,0:0:0:0:
256,192,50863,1,8,0:0:0:0:
256,192,51029,1,0,0:0:0:0:
256,192,51113,1,8,0:0:0:0:
256,192,51279,1,0,0:0:0:0:
256,192,51363,1,8,0:0:0:0:
256,192,51446,1,0,0:0:0:0:
256,192,51529,1,8,0:0:0:0:
256,192,51613,1,8,0:0:0:0:
256,192,51779,1,8,0:0:0:0:
256,192,51863,1,0,0:0:0:0:
256,192,51946,1,0,0:0:0:0:
256,192,52029,1,8,0:0:0:0:
256,192,52196,1,8,0:0:0:0:
256,192,52363,1,0,0:0:0:0:
256,192,52446,1,0,0:0:0:0:
256,192,52529,1,8,0:0:0:0:
256,192,52613,1,0,0:0:0:0:
256,192,52696,1,8,0:0:0:0:
256,192,52863,1,8,0:0:0:0:
256,192,53029,1,0,0:0:0:0:
256,192,53196,1,8,0:0:0:0:
256,192,53363,1,12,0:0:0:0:
256,192,53696,1,8,0:0:0:0:
256,192,53738,1,8,0:0:0:0:
256,192,53863,1,0,0:0:0:0:
256,192,53904,1,0,0:0:0:0:
256,192,54029,1,8,0:0:0:0:
256,192,54071,1,8,0:0:0:0:
256,192,54196,1,0,0:0:0:0:
256,192,54238,1,0,0:0:0:0:
256,192,54363,1,8,0:0:0:0:
256,192,54404,1,8,0:0:0:0:
256,192,54529,1,0,0:0:0:0:
256,192,54571,1,0,0:0:0:0:
256,192,54696,1,8,0:0:0:0:
256,192,54738,1,8,0:0:0:0:
256,192,54863,1,0,0:0:0:0:
256,192,54904,1,0,0:0:0:0:
256,192,55029,1,8,0:0:0:0:
256,192,55071,1,8,0:0:0:0:
256,192,55196,1,0,0:0:0:0:
256,192,55238,1,0,0:0:0:0:
256,192,55363,1,8,0:0:0:0:
256,192,55446,1,8,0:0:0:0:
256,192,55529,1,8,0:0:0:0:
256,192,55613,1,8,0:0:0:0:
256,192,55696,1,4,0:0:0:0:
256,192,56029,1,12,0:0:0:0:
256,192,56363,1,0,0:0:0:0:
256,192,56418,1,8,0:0:0:0:
256,192,56474,1,8,0:0:0:0:
256,192,56529,1,8,0:0:0:0:
256,192,56696,1,8,0:0:0:0:
256,192,56752,1,0,0:0:0:0:
256,192,56807,1,0,0:0:0:0:
256,192,56863,1,8,0:0:0:0:
256,192,57029,1,0,0:0:0:0:
256,192,57085,1,8,0:0:0:0:
256,192,57141,1,8,0:0:0:0:
256,192,57196,1,8,0:0:0:0:
256,192,57363,1,8,0:0:0:0:
256,192,57418,1,0,0:0:0:0:
256,192,57474,1,0,0:0:0:0:
256,192,57529,1,8,0:0:0:0:
256,192,57696,1,0,0:0:0:0:
256,192,57752,1,8,0:0:0:0:
256,192,57807,1,8,0:0:0:0:
256,192,57863,1,8,0:0:0:0:
256,192,58029,1,8,0:0:0:0:
256,192,58085,1,0,0:0:0:0:
256,192,58141,1,0,0:0:0:0:
256,192,58196,1,8,0:0:0:0:
256,192,58363,1,4,0:0:0:0:
256,192,58696,1,12,0:0:0:0:
256,192,58863,1,0,0:0:0:0:
256,192,58946,1,8,0:0:0:0:
256,192,59029,1,0,0:0:0:0:
256,192,59113,1,0,0:0:0:0:
256,192,59196,1,8,0:0:0:0:
256,192,59252,1,8,0:0:0:0:
256,192,59307,1,8,0:0:0:0:
256,192,59363,1,0,0:0:0:0:
256,192,59446,1,0,0:0:0:0:
256,192,59529,1,8,0:0:0:0:
256,192,59613,1,8,0:0:0:0:
256,192,59696,1,0,0:0:0:0:
256,192,59752,1,0,0:0:0:0:
256,192,59807,1,0,0:0:0:0:
256,192,59863,1,8,0:0:0:0:
256,192,60029,1,0,0:0:0:0:
256,192,60113,1,0,0:0:0:0:
256,192,60196,1,8,0:0:0:0:
256,192,60279,1,0,0:0:0:0:
256,192,60363,1,8,0:0:0:0:
256,192,60446,1,0,0:0:0:0:
256,192,60529,1,8,0:0:0:0:
256,192,60585,1,8,0:0:0:0:
256,192,60641,1,8,0:0:0:0:
256,192,60696,1,0,0:0:0:0:
256,192,60779,1,0,0:0:0:0:
256,192,60863,1,8,0:0:0:0:
256,192,60946,1,0,0:0:0:0:
256,192,61029,1,12,0:0:0:0:
256,192,61363,1,0,0:0:0:0:
256,192,61446,1,0,0:0:0:0:
256,192,61529,1,8,0:0:0:0:
256,192,61613,1,8,0:0:0:0:
256,192,61696,1,0,0:0:0:0:
256,192,61779,1,0,0:0:0:0:
256,192,61863,1,8,0:0:0:0:
256,192,61918,1,8,0:0:0:0:
256,192,61974,1,8,0:0:0:0:
256,192,62029,1,0,0:0:0:0:
256,192,62113,1,0,0:0:0:0:
256,192,62196,1,8,0:0:0:0:
256,192,62279,1,8,0:0:0:0:
256,192,62363,1,0,0:0:0:0:
256,192,62418,1,0,0:0:0:0:
256,192,62474,1,0,0:0:0:0:
256,192,62529,1,8,0:0:0:0:
256,192,62613,1,8,0:0:0:0:
256,192,62696,1,0,0:0:0:0:
256,192,62863,1,8,0:0:0:0:
256,192,62946,1,8,0:0:0:0:
256,192,63029,1,0,0:0:0:0:
256,192,63071,1,0,0:0:0:0:
256,192,63113,1,0,0:0:0:0:
256,192,63196,1,8,0:0:0:0:
256,192,63279,1,8,0:0:0:0:
256,192,63363,1,0,0:0:0:0:
256,192,63404,1,0,0:0:0:0:
256,192,63446,1,0,0:0:0:0:
256,192,63529,1,8,0:0:0:0:
256,192,63585,1,0,0:0:0:0:
256,192,63641,1,0,0:0:0:0:
256,192,63696,1,12,0:0:0:0:
256,192,64029,1,8,0:0:0:0:
256,192,64113,1,8,0:0:0:0:
256,192,64196,1,0,0:0:0:0:
256,192,64279,1,0,0:0:0:0:
256,192,64363,1,8,0:0:0:0:
256,192,64446,1,0,0:0:0:0:
256,192,64529,1,8,0:0:0:0:
256,192,64613,1,0,0:0:0:0:
256,192,64696,1,0,0:0:0:0:
256,192,64779,1,8,0:0:0:0:
256,192,64863,1,0,0:0:0:0:
256,192,64946,1,0,0:0:0:0:
256,192,65029,1,8,0:0:0:0:
256,192,65113,1,0,0:0:0:0:
256,192,65196,1,8,0:0:0:0:
256,192,65279,1,8,0:0:0:0:
256,192,65363,1,0,0:0:0:0:
256,192,65446,1,0,0:0:0:0:
256,192,65529,1,8,0:0:0:0:
256,192,65613,1,0,0:0:0:0:
256,192,65696,1,8,0:0:0:0:
256,192,65779,1,8,0:0:0:0:
256,192,65863,1,0,0:0:0:0:
256,192,65946,1,0,0:0:0:0:
256,192,66029,1,8,0:0:0:0:
256,192,66113,1,8,0:0:0:0:
256,192,66196,1,0,0:0:0:0:
256,192,66279,1,8,0:0:0:0:
256,192,66363,1,0,0:0:0:0:
256,192,66446,1,0,0:0:0:0:
256,192,66529,1,8,0:0:0:0:
256,192,66613,1,8,0:0:0:0:
256,192,66696,1,0,0:0:0:0:
256,192,66779,1,0,0:0:0:0:
256,192,66863,1,8,0:0:0:0:
256,192,66946,1,0,0:0:0:0:
256,192,67029,1,8,0:0:0:0:
256,192,67113,1,8,0:0:0:0:
256,192,67196,1,0,0:0:0:0:
256,192,67279,1,0,0:0:0:0:
256,192,67363,1,8,0:0:0:0:
256,192,67446,1,0,0:0:0:0:
256,192,67529,1,8,0:0:0:0:
256,192,67613,1,8,0:0:0:0:
256,192,67696,1,0,0:0:0:0:
256,192,67779,1,0,0:0:0:0:
256,192,67863,1,8,0:0:0:0:
256,192,67946,1,8,0:0:0:0:
256,192,68029,1,0,0:0:0:0:
256,192,68113,1,0,0:0:0:0:
256,192,68196,1,8,0:0:0:0:
256,192,68279,1,8,0:0:0:0:
256,192,68363,1,0,0:0:0:0:
256,192,68446,1,8,0:0:0:0:
256,192,68529,1,0,0:0:0:0:
256,192,68613,1,0,0:0:0:0:
256,192,68696,1,8,0:0:0:0:
256,192,68779,1,0,0:0:0:0:
256,192,68863,1,8,0:0:0:0:
256,192,68946,1,8,0:0:0:0:
256,192,69029,1,0,0:0:0:0:
256,192,69196,1,0,0:0:0:0:
256,192,69363,1,8,0:0:0:0:
256,192,69446,1,8,0:0:0:0:
256,192,69529,1,0,0:0:0:0:
256,192,69613,1,0,0:0:0:0:
256,192,69696,1,8,0:0:0:0:
256,192,69779,1,0,0:0:0:0:
256,192,69863,1,8,0:0:0:0:
256,192,69946,1,8,0:0:0:0:
256,192,70029,1,0,0:0:0:0:
256,192,70113,1,0,0:0:0:0:
256,192,70196,1,8,0:0:0:0:
256,192,70279,1,0,0:0:0:0:
256,192,70363,1,8,0:0:0:0:
256,192,70446,1,0,0:0:0:0:
256,192,70529,1,8,0:0:0:0:
256,192,70613,1,8,0:0:0:0:
256,192,70696,1,0,0:0:0:0:
256,192,70779,1,0,0:0:0:0:
256,192,70863,1,8,0:0:0:0:
256,192,70946,1,0,0:0:0:0:
256,192,71029,1,8,0:0:0:0:
256,192,71113,1,8,0:0:0:0:
256,192,71196,1,0,0:0:0:0:
256,192,71279,1,8,0:0:0:0:
256,192,71363,1,0,0:0:0:0:
256,192,71446,1,8,0:0:0:0:
256,192,71529,1,8,0:0:0:0:
256,192,71613,1,0,0:0:0:0:
256,192,71696,1,8,0:0:0:0:
256,192,71779,1,0,0:0:0:0:
256,192,71863,1,8,0:0:0:0:
256,192,71946,1,8,0:0:0:0:
256,192,72029,1,0,0:0:0:0:
256,192,72113,1,0,0:0:0:0:
256,192,72196,1,8,0:0:0:0:
256,192,72279,1,8,0:0:0:0:
256,192,72363,1,0,0:0:0:0:
256,192,72446,1,0,0:0:0:0:
256,192,72529,1,8,0:0:0:0:
256,192,72613,1,0,0:0:0:0:
256,192,72696,1,8,0:0:0:0:
256,192,72779,1,8,0:0:0:0:
256,192,72863,1,0,0:0:0:0:
256,192,72946,1,0,0:0:0:0:
256,192,73029,1,8,0:0:0:0:
256,192,73113,1,0,0:0:0:0:
256,192,73196,1,8,0:0:0:0:
256,192,73279,1,8,0:0:0:0:
256,192,73363,1,0,0:0:0:0:
256,192,73446,1,8,0:0:0:0:
256,192,73529,1,0,0:0:0:0:
256,192,73613,1,0,0:0:0:0:
256,192,73696,1,8,0:0:0:0:
256,192,73779,1,0,0:0:0:0:
256,192,73863,1,8,0:0:0:0:
256,192,73946,1,8,0:0:0:0:
256,192,74029,1,0,0:0:0:0:
256,192,74113,1,8,0:0:0:0:
256,192,74196,1,8,0:0:0:0:
256,192,74279,1,0,0:0:0:0:
256,192,74363,1,8,0:0:0:0:
256,192,74446,1,8,0:0:0:0:
256,192,74529,1,0,0:0:0:0:
256,192,74613,1,8,0:0:0:0:
256,192,74696,1,4,0:0:0:0:
256,192,74946,1,8,0:0:0:0:
256,192,75029,1,0,0:0:0:0:
256,192,75196,1,8,0:0:0:0:
256,192,75363,1,0,0:0:0:0:
256,192,75529,1,8,0:0:0:0:
256,192,75613,1,0,0:0:0:0:
256,192,75696,1,8,0:0:0:0:
256,192,75863,1,0,0:0:0:0:
256,192,76029,1,0,0:0:0:0:
256,192,76279,1,8,0:0:0:0:
256,192,76363,1,0,0:0:0:0:
256,192,76529,1,8,0:0:0:0:
256,192,76696,1,0,0:0:0:0:
256,192,76863,1,8,0:0:0:0:
256,192,76946,1,8,0:0:0:0:
256,192,77029,1,8,0:0:0:0:
256,192,77113,1,0,0:0:0:0:
256,192,77196,1,8,0:0:0:0:
256,192,77279,1,8,0:0:0:0:
256,192,77363,1,0,0:0:0:0:
256,192,77613,1,8,0:0:0:0:
256,192,77696,1,0,0:0:0:0:
256,192,77863,1,8,0:0:0:0:
256,192,78029,1,0,0:0:0:0:
256,192,78196,1,8,0:0:0:0:
256,192,78279,1,8,0:0:0:0:
256,192,78363,1,0,0:0:0:0:
256,192,78529,1,8,0:0:0:0:
256,192,78696,1,0,0:0:0:0:
256,192,78946,1,8,0:0:0:0:
256,192,79029,1,0,0:0:0:0:
256,192,79196,1,8,0:0:0:0:
256,192,79279,1,0,0:0:0:0:
256,192,79363,1,8,0:0:0:0:
256,192,79446,1,8,0:0:0:0:
256,192,79529,1,0,0:0:0:0:
256,192,79696,1,8,0:0:0:0:
256,192,79863,1,8,0:0:0:0:
256,192,80029,1,0,0:0:0:0:
256,192,80196,1,8,0:0:0:0:
256,192,80363,1,8,0:0:0:0:
256,192,80529,1,0,0:0:0:0:
256,192,80696,1,0,0:0:0:0:
256,192,80863,1,8,0:0:0:0:
256,192,80946,1,0,0:0:0:0:
256,192,81029,1,8,0:0:0:0:
256,192,81196,1,0,0:0:0:0:
256,192,81363,1,0,0:0:0:0:
256,192,81529,1,8,0:0:0:0:
256,192,81613,1,8,0:0:0:0:
256,192,81696,1,8,0:0:0:0:
256,192,81863,1,0,0:0:0:0:
256,192,82029,1,8,0:0:0:0:
256,192,82196,1,0,0:0:0:0:
256,192,82279,1,0,0:0:0:0:
256,192,82363,1,8,0:0:0:0:
256,192,82446,1,8,0:0:0:0:
256,192,82529,1,0,0:0:0:0:
256,192,82613,1,8,0:0:0:0:
256,192,82696,1,0,0:0:0:0:
256,192,82779,1,0,0:0:0:0:
256,192,82863,1,0,0:0:0:0:
256,192,82946,1,0,0:0:0:0:
256,192,83029,1,8,0:0:0:0:
256,192,83113,1,8,0:0:0:0:
256,192,83196,1,8,0:0:0:0:
256,192,83279,1,8,0:0:0:0:
256,192,83363,1,0,0:0:0:0:
256,192,83446,1,0,0:0:0:0:
256,192,83529,1,8,0:0:0:0:
256,192,83613,1,0,0:0:0:0:
256,192,83696,1,8,0:0:0:0:
256,192,83779,1,8,0:0:0:0:
256,192,83863,1,0,0:0:0:0:
256,192,83946,1,8,0:0:0:0:
256,192,84029,1,4,0:0:0:0:
256,192,84363,1,4,0:0:0:0:
256,192,84696,1,12,0:0:0:0:
256,192,85029,1,8,0:0:0:0:
256,192,85363,1,4,0:0:0:0:
256,192,85696,1,0,0:0:0:0:
256,192,85863,1,0,0:0:0:0:
256,192,86029,1,8,0:0:0:0:
256,192,86071,1,8,0:0:0:0:
256,192,86196,1,0,0:0:0:0:
256,192,86363,1,8,0:0:0:0:
256,192,86446,1,8,0:0:0:0:
256,192,86529,1,8,0:0:0:0:
256,192,86696,1,0,0:0:0:0:
256,192,86863,1,8,0:0:0:0:
256,192,87029,1,8,0:0:0:0:
256,192,87196,1,0,0:0:0:0:
256,192,87363,1,8,0:0:0:0:
256,192,87404,1,8,0:0:0:0:
256,192,87529,1,0,0:0:0:0:
256,192,87696,1,8,0:0:0:0:
256,192,87779,1,8,0:0:0:0:
256,192,87863,1,0,0:0:0:0:
256,192,87946,1,0,0:0:0:0:
256,192,88029,1,8,0:0:0:0:
256,192,88363,1,0,0:0:0:0:
256,192,88529,1,0,0:0:0:0:
256,192,88696,1,8,0:0:0:0:
256,192,88738,1,8,0:0:0:0:
256,192,88863,1,0,0:0:0:0:
256,192,88946,1,0,0:0:0:0:
256,192,89029,1,8,0:0:0:0:
256,192,89196,1,8,0:0:0:0:
256,192,89279,1,0,0:0:0:0:
256,192,89363,1,8,0:0:0:0:
256,192,89529,1,8,0:0:0:0:
256,192,89696,1,0,0:0:0:0:
256,192,89863,1,0,0:0:0:0:
256,192,90029,1,8,0:0:0:0:
256,192,90071,1,8,0:0:0:0:
256,192,90196,1,0,0:0:0:0:
256,192,90363,1,8,0:0:0:0:
256,192,90696,1,4,0:0:0:0:
256,192,91029,1,0,0:0:0:0:
256,192,91196,1,0,0:0:0:0:
256,192,91363,1,8,0:0:0:0:
256,192,91404,1,8,0:0:0:0:
256,192,91529,1,0,0:0:0:0:
256,192,91696,1,8,0:0:0:0:
256,192,91779,1,0,0:0:0:0:
256,192,91863,1,8,0:0:0:0:
256,192,91946,1,8,0:0:0:0:
256,192,92029,1,0,0:0:0:0:
256,192,92196,1,8,0:0:0:0:
256,192,92279,1,0,0:0:0:0:
256,192,92363,1,8,0:0:0:0:
256,192,92529,1,0,0:0:0:0:
256,192,92696,1,8,0:0:0:0:
256,192,92738,1,8,0:0:0:0:
256,192,92863,1,0,0:0:0:0:
256,192,93029,1,8,0:0:0:0:
256,192,93196,1,8,0:0:0:0:
256,192,93363,1,0,0:0:0:0:
256,192,93529,1,0,0:0:0:0:
256,192,93696,1,8,0:0:0:0:
256,192,93863,1,0,0:0:0:0:
256,192,94029,1,8,0:0:0:0:
256,192,94071,1,8,0:0:0:0:
256,192,94196,1,0,0:0:0:0:
256,192,94363,1,8,0:0:0:0:
256,192,94446,1,0,0:0:0:0:
256,192,94529,1,8,0:0:0:0:
256,192,94613,1,0,0:0:0:0:
256,192,94696,1,8,0:0:0:0:
256,192,94863,1,0,0:0:0:0:
256,192,94946,1,0,0:0:0:0:
256,192,95029,1,8,0:0:0:0:
256,192,95085,1,0,0:0:0:0:
256,192,95141,1,0,0:0:0:0:
256,192,95196,1,8,0:0:0:0:
256,192,95279,1,0,0:0:0:0:
256,192,95363,1,8,0:0:0:0:
256,192,95404,1,8,0:0:0:0:
256,192,95696,1,8,0:0:0:0:
256,192,95779,1,0,0:0:0:0:
256,192,95863,1,8,0:0:0:0:
256,192,95946,1,8,0:0:0:0:
256,192,96029,1,8,0:0:0:0:
256,192,96196,1,0,0:0:0:0:
256,192,96279,1,0,0:0:0:0:
256,192,96363,1,8,0:0:0:0:
256,192,96446,1,8,0:0:0:0:
256,192,96529,1,0,0:0:0:0:
256,192,96613,1,0,0:0:0:0:
256,192,96696,1,8,0:0:0:0:
256,192,96779,1,8,0:0:0:0:
256,192,96863,1,8,0:0:0:0:
256,192,96946,1,8,0:0:0:0:
256,192,97029,1,0,0:0:0:0:
256,192,97113,1,8,0:0:0:0:
256,192,97196,1,0,0:0:0:0:
256,192,97279,1,8,0:0:0:0:
256,192,97363,1,0,0:0:0:0:
256,192,97529,1,0,0:0:0:0:
256,192,97613,1,0,0:0:0:0:
256,192,97696,1,8,0:0:0:0:
256,192,97779,1,8,0:0:0:0:
256,192,97863,1,0,0:0:0:0:
256,192,97946,1,0,0:0:0:0:
256,192,98029,1,8,0:0:0:0:
256,192,98113,1,8,0:0:0:0:
256,192,98196,1,8,0:0:0:0:
256,192,98279,1,8,0:0:0:0:
256,192,98363,1,0,0:0:0:0:
256,192,98446,1,8,0:0:0:0:
256,192,98529,1,0,0:0:0:0:
256,192,98613,1,8,0:0:0:0:
256,192,98696,1,0,0:0:0:0:
256,192,98779,1,0,0:0:0:0:
256,192,98863,1,8,0:0:0:0:
256,192,98946,1,8,0:0:0:0:
256,192,99029,1,0,0:0:0:0:
256,192,99113,1,8,0:0:0:0:
256,192,99196,1,0,0:0:0:0:
256,192,99279,1,0,0:0:0:0:
256,192,99363,1,8,0:0:0:0:
256,192,99446,1,8,0:0:0:0:
256,192,99529,1,8,0:0:0:0:
256,192,99613,1,8,0:0:0:0:
256,192,99696,1,0,0:0:0:0:
256,192,99779,1,0,0:0:0:0:
256,192,99863,1,8,0:0:0:0:
256,192,99946,1,0,0:0:0:0:
256,192,100029,1,8,0:0:0:0:
256,192,100113,1,8,0:0:0:0:
256,192,100196,1,0,0:0:0:0:
256,192,100279,1,0,0:0:0:0:
256,192,100363,1,8,0:0:0:0:
256,192,100446,1,0,0:0:0:0:
256,192,100529,1,8,0:0:0:0:
256,192,100613,1,8,0:0:0:0:
256,192,100696,1,8,0:0:0:0:
256,192,100779,1,8,0:0:0:0:
256,192,100863,1,0,0:0:0:0:
256,192,100946,1,0,0:0:0:0:
256,192,101029,1,8,0:0:0:0:
256,192,101113,1,8,0:0:0:0:
256,192,101196,1,0,0:0:0:0:
256,192,101279,1,0,0:0:0:0:
256,192,101363,1,8,0:0:0:0:
256,192,101529,1,0,0:0:0:0:
256,192,101613,1,0,0:0:0:0:
256,192,101696,1,8,0:0:0:0:
256,192,101779,1,8,0:0:0:0:
256,192,101863,1,0,0:0:0:0:
256,192,101946,1,0,0:0:0:0:
256,192,102029,1,8,0:0:0:0:
256,192,102113,1,8,0:0:0:0:
256,192,102196,1,8,0:0:0:0:
256,192,102279,1,8,0:0:0:0:
256,192,102363,1,0,0:0:0:0:
256,192,102446,1,8,0:0:0:0:
256,192,102529,1,0,0:0:0:0:
256,192,102613,1,8,0:0:0:0:
256,192,102696,1,0,0:0:0:0:
256,192,102863,1,0,0:0:0:0:
256,192,102946,1,0,0:0:0:0:
256,192,103029,1,8,0:0:0:0:
256,192,103113,1,8,0:0:0:0:
256,192,103196,1,0,0:0:0:0:
256,192,103279,1,0,0:0:0:0:
256,192,103363,1,8,0:0:0:0:
256,192,103446,1,8,0:0:0:0:
256,192,103529,1,8,0:0:0:0:
256,192,103613,1,8,0:0:0:0:
256,192,103696,1,0,0:0:0:0:
256,192,103779,1,8,0:0:0:0:
256,192,103863,1,0,0:0:0:0:
256,192,103946,1,8,0:0:0:0:
256,192,104029,1,0,0:0:0:0:
256,192,104113,1,0,0:0:0:0:
256,192,104196,1,8,0:0:0:0:
256,192,104279,1,0,0:0:0:0:
256,192,104363,1,8,0:0:0:0:
256,192,104446,1,8,0:0:0:0:
256,192,104529,1,0,0:0:0:0:
256,192,104613,1,8,0:0:0:0:
256,192,104696,1,0,0:0:0:0:
256,192,104779,1,0,0:0:0:0:
256,192,104863,1,8,0:0:0:0:
256,192,104946,1,8,0:0:0:0:
256,192,105029,1,0,0:0:0:0:
256,192,105113,1,8,0:0:0:0:
256,192,105196,1,0,0:0:0:0:
256,192,105279,1,0,0:0:0:0:
256,192,105363,1,12,0:0:0:0:
256,192,105696,1,4,0:0:0:0:
256,192,106029,1,8,0:0:0:0:
256,192,106113,1,8,0:0:0:0:
256,192,106196,1,8,0:0:0:0:
256,192,106279,1,8,0:0:0:0:
256,192,106363,1,4,0:0:0:0:
256,192,106696,1,0,0:0:0:0:
256,192,106863,1,8,0:0:0:0:
256,192,107029,1,8,0:0:0:0:
256,192,107196,1,8,0:0:0:0:
256,192,107252,1,8,0:0:0:0:
256,192,107307,1,8,0:0:0:0:
256,192,107363,1,0,0:0:0:0:
256,192,107529,1,8,0:0:0:0:
256,192,107696,1,8,0:0:0:0:
256,192,107779,1,8,0:0:0:0:
256,192,107863,1,8,0:0:0:0:
256,192,107946,1,8,0:0:0:0:
256,192,108029,1,0,0:0:0:0:
256,192,108196,1,8,0:0:0:0:
256,192,108279,1,8,0:0:0:0:
256,192,108363,1,0,0:0:0:0:
256,192,108529,1,8,0:0:0:0:
256,192,108585,1,8,0:0:0:0:
256,192,108641,1,8,0:0:0:0:
256,192,108696,1,0,0:0:0:0:
256,192,108779,1,8,0:0:0:0:
256,192,108863,1,8,0:0:0:0:
256,192,108946,1,8,0:0:0:0:
256,192,109029,1,0,0:0:0:0:
256,192,109196,1,8,0:0:0:0:
256,192,109252,1,8,0:0:0:0:
256,192,109307,1,8,0:0:0:0:
256,192,109363,1,0,0:0:0:0:
256,192,109696,1,0,0:0:0:0:
256,192,109863,1,0,0:0:0:0:
256,192,110029,1,8,0:0:0:0:
256,192,110196,1,0,0:0:0:0:
256,192,110279,1,0,0:0:0:0:
256,192,110363,1,8,0:0:0:0:
256,192,110446,1,8,0:0:0:0:
256,192,110529,1,8,0:0:0:0:
256,192,110613,1,8,0:0:0:0:
256,192,110696,1,0,0:0:0:0:
256,192,110863,1,0,0:0:0:0:
256,192,110918,1,0,0:0:0:0:
256,192,110974,1,0,0:0:0:0:
256,192,111029,1,8,0:0:0:0:
256,192,111113,1,0,0:0:0:0:
256,192,111196,1,8,0:0:0:0:
256,192,111252,1,8,0:0:0:0:
256,192,111307,1,8,0:0:0:0:
256,192,111363,1,0,0:0:0:0:
256,192,111529,1,8,0:0:0:0:
256,192,111571,1,0,0:0:0:0:
256,192,111696,1,8,0:0:0:0:
256,192,111863,1,0,0:0:0:0:
256,192,111904,1,0,0:0:0:0:
256,192,112029,1,12,0:0:0:0:
256,192,112196,1,0,0:0:0:0:
256,192,112363,1,8,0:0:0:0:
256,192,112446,1,0,0:0:0:0:
256,192,112529,1,8,0:0:0:0:
256,192,112585,1,8,0:0:0:0:
256,192,112641,1,8,0:0:0:0:
256,192,112696,1,0,0:0:0:0:
256,192,112863,1,8,0:0:0:0:
256,192,112946,1,0,0:0:0:0:
256,192,113029,1,8,0:0:0:0:
256,192,113113,1,8,0:0:0:0:
256,192,113196,1,8,0:0:0:0:
256,192,113279,1,8,0:0:0:0:
256,192,113363,1,0,0:0:0:0:
256,192,113446,1,0,0:0:0:0:
256,192,113529,1,8,0:0:0:0:
256,192,113613,1,8,0:0:0:0:
256,192,113696,1,0,0:0:0:0:
256,192,113779,1,0,0:0:0:0:
256,192,113863,1,8,0:0:0:0:
256,192,113918,1,8,0:0:0:0:
256,192,113974,1,8,0:0:0:0:
256,192,114029,1,0,0:0:0:0:
256,192,114113,1,8,0:0:0:0:
256,192,114196,1,8,0:0:0:0:
256,192,114279,1,8,0:0:0:0:
256,192,114363,1,0,0:0:0:0:
256,192,114418,1,0,0:0:0:0:
256,192,114474,1,0,0:0:0:0:
256,192,114529,1,8,0:0:0:0:
256,192,114613,1,0,0:0:0:0:
256,192,114696,1,12,0:0:0:0:
256,192,114863,1,0,0:0:0:0:
256,192,115029,1,8,0:0:0:0:
256,192,115196,1,0,0:0:0:0:
256,192,115279,1,8,0:0:0:0:
256,192,115363,1,8,0:0:0:0:
256,192,115529,1,0,0:0:0:0:
256,192,115613,1,0,0:0:0:0:
256,192,115696,1,8,0:0:0:0:
256,192,115779,1,8,0:0:0:0:
256,192,115863,1,8,0:0:0:0:
256,192,115946,1,8,0:0:0:0:
256,192,116029,1,0,0:0:0:0:
256,192,116113,1,8,0:0:0:0:
256,192,116196,1,0,0:0:0:0:
256,192,116363,1,0,0:0:0:0:
256,192,116529,1,8,0:0:0:0:
256,192,116696,1,0,0:0:0:0:
256,192,116779,1,0,0:0:0:0:
256,192,116863,1,8,0:0:0:0:
256,192,116946,1,8,0:0:0:0:
256,192,117029,1,8,0:0:0:0:
256,192,117113,1,0,0:0:0:0:
256,192,117196,1,8,0:0:0:0:
256,192,117252,1,8,0:0:0:0:
256,192,117307,1,8,0:0:0:0:
256,192,117363,1,0,0:0:0:0:
256,192,117529,1,8,0:0:0:0:
256,192,117613,1,0,0:0:0:0:
256,192,117696,1,0,0:0:0:0:
256,192,117863,1,8,0:0:0:0:
256,192,117946,1,0,0:0:0:0:
256,192,118029,1,8,0:0:0:0:
256,192,118196,1,0,0:0:0:0:
256,192,118279,1,0,0:0:0:0:
256,192,118363,1,8,0:0:0:0:
256,192,118529,1,8,0:0:0:0:
256,192,118696,1,0,0:0:0:0:
256,192,118863,1,8,0:0:0:0:
256,192,118946,1,8,0:0:0:0:
256,192,119029,1,0,0:0:0:0:
256,192,119196,1,8,0:0:0:0:
256,192,119279,1,0,0:0:0:0:
256,192,119363,1,0,0:0:0:0:
256,192,119446,1,8,0:0:0:0:
256,192,119529,1,8,0:0:0:0:
256,192,119613,1,8,0:0:0:0:
256,192,119696,1,0,0:0:0:0:
256,192,119863,1,8,0:0:0:0:
256,192,120029,1,0,0:0:0:0:
256,192,120196,1,8,0:0:0:0:
256,192,120279,1,8,0:0:0:0:
256,192,120363,1,0,0:0:0:0:
256,192,120529,1,8,0:0:0:0:
256,192,120613,1,0,0:0:0:0:
256,192,120696,1,8,0:0:0:0:
256,192,120779,1,0,0:0:0:0:
256,192,120863,1,8,0:0:0:0:
256,192,120946,1,8,0:0:0:0:
256,192,121029,1,0,0:0:0:0:
256,192,121196,1,0,0:0:0:0:
256,192,121279,1,0,0:0:0:0:
256,192,121363,1,8,0:0:0:0:
256,192,121529,1,8,0:0:0:0:
256,192,121613,1,0,0:0:0:0:
256,192,121696,1,8,0:0:0:0:
256,192,121863,1,0,0:0:0:0:
256,192,121946,1,8,0:0:0:0:
256,192,122029,1,0,0:0:0:0:
256,192,122113,1,0,0:0:0:0:
256,192,122196,1,8,0:0:0:0:
256,192,122279,1,8,0:0:0:0:
256,192,122363,1,0,0:0:0:0:
256,192,122529,1,0,0:0:0:0:
256,192,122613,1,0,0:0:0:0:
256,192,122696,1,8,0:0:0:0:
256,192,122863,1,0,0:0:0:0:
256,192,122946,1,8,0:0:0:0:
256,192,123029,1,8,0:0:0:0:
256,192,123196,1,0,0:0:0:0:
256,192,123279,1,8,0:0:0:0:
256,192,123363,1,0,0:0:0:0:
256,192,123529,1,8,0:0:0:0:
256,192,123613,1,8,0:0:0:0:
256,192,123696,1,0,0:0:0:0:
256,192,123863,1,0,0:0:0:0:
256,192,124029,1,8,0:0:0:0:
256,192,124196,1,0,0:0:0:0:
256,192,124279,1,8,0:0:0:0:
256,192,124363,1,0,0:0:0:0:
256,192,124529,1,8,0:0:0:0:
256,192,124613,1,8,0:0:0:0:
256,192,124696,1,0,0:0:0:0:
256,192,124779,1,0,0:0:0:0:
256,192,124863,1,8,0:0:0:0:
256,192,124946,1,8,0:0:0:0:
256,192,125029,1,0,0:0:0:0:
256,192,125196,1,8,0:0:0:0:
256,192,125363,1,0,0:0:0:0:
256,192,125529,1,8,0:0:0:0:
256,192,125613,1,0,0:0:0:0:
256,192,125696,1,0,0:0:0:0:
256,192,125863,1,8,0:0:0:0:
256,192,125946,1,0,0:0:0:0:
256,192,126029,1,8,0:0:0:0:
256,192,126113,1,8,0:0:0:0:
256,192,126196,1,8,0:0:0:0:
256,192,126363,1,0,0:0:0:0:
256,192,126446,1,0,0:0:0:0:
256,192,126529,1,8,0:0:0:0:
256,192,126613,1,8,0:0:0:0:
256,192,126696,1,0,0:0:0:0:
256,192,126863,1,8,0:0:0:0:
256,192,126946,1,0,0:0:0:0:
256,192,127029,1,8,0:0:0:0:
256,192,127196,1,0,0:0:0:0:
256,192,127363,1,8,0:0:0:0:
256,192,127446,1,8,0:0:0:0:
256,192,127529,1,0,0:0:0:0:
256,192,127585,1,0,0:0:0:0:
256,192,127641,1,0,0:0:0:0:
256,192,127696,1,8,0:0:0:0:
256,192,128029,1,0,0:0:0:0:
256,192,128363,1,8,0:0:0:0:
256,192,128529,1,8,0:0:0:0:
256,192,128696,1,0,0:0:0:0:
256,192,128863,1,8,0:0:0:0:
256,192,129029,1,0,0:0:0:0:
256,192,129113,1,0,0:0:0:0:
256,192,129196,1,0,0:0:0:0:
256,192,129279,1,0,0:0:0:0:
256,192,129363,1,8,0:0:0:0:
256,192,129529,1,0,0:0:0:0:
256,192,129613,1,0,0:0:0:0:
256,192,129696,1,8,0:0:0:0:
256,192,129863,1,0,0:0:0:0:
256,192,130029,1,8,0:0:0:0:
256,192,130113,1,0,0:0:0:0:
256,192,130196,1,8,0:0:0:0:
256,192,130363,1,8,0:0:0:0:
256,192,130529,1,0,0:0:0:0:
256,192,130696,1,8,0:0:0:0:
256,192,130863,1,0,0:0:0:0:
256,192,130946,1,0,0:0:0:0:
256,192,131029,1,8,0:0:0:0:
256,192,131196,1,8,0:0:0:0:
256,192,131363,1,0,0:0:0:0:
256,192,131529,1,8,0:0:0:0:
256,192,131613,1,8,0:0:0:0:
256,192,131696,1,0,0:0:0:0:
256,192,131779,1,0,0:0:0:0:
256,192,131863,1,8,0:0:0:0:
256,192,131946,1,8,0:0:0:0:
256,192,132029,1,0,0:0:0:0:
256,192,132279,1,0,0:0:0:0:
256,192,132363,1,8,0:0:0:0:
256,192,132529,1,0,0:0:0:0:
256,192,132696,1,8,0:0:0:0:
256,192,132752,1,8,0:0:0:0:
256,192,132807,1,8,0:0:0:0:
256,192,133029,1,0,0:0:0:0:
256,192,133085,1,0,0:0:0:0:
256,192,133141,1,0,0:0:0:0:
256,192,133363,1,8,0:0:0:0:
256,192,133529,1,0,0:0:0:0:
256,192,133613,1,0,0:0:0:0:
256,192,133696,1,8,0:0:0:0:
256,192,133863,1,8,0:0:0:0:
256,192,134029,1,0,0:0:0:0:
256,192,134196,1,8,0:0:0:0:
256,192,134279,1,0,0:0:0:0:
256,192,134363,1,8,0:0:0:0:
256,192,134446,1,8,0:0:0:0:
256,192,134529,1,8,0:0:0:0:
256,192,134613,1,8,0:0:0:0:
256,192,134696,1,0,0:0:0:0:
256,192,134863,1,8,0:0:0:0:
256,192,134946,1,8,0:0:0:0:
256,192,135029,1,0,0:0:0:0:
256,192,135196,1,8,0:0:0:0:
256,192,135363,1,0,0:0:0:0:
256,192,135446,1,0,0:0:0:0:
256,192,135529,1,8,0:0:0:0:
256,192,135613,1,8,0:0:0:0:
256,192,135696,1,0,0:0:0:0:
256,192,135863,1,0,0:0:0:0:
256,192,136029,1,8,0:0:0:0:
256,192,136113,1,0,0:0:0:0:
256,192,136196,1,8,0:0:0:0:
256,192,136279,1,0,0:0:0:0:
256,192,136363,1,8,0:0:0:0:
256,192,136529,1,0,0:0:0:0:
256,192,136696,1,8,0:0:0:0:
256,192,136863,1,0,0:0:0:0:
256,192,136946,1,8,0:0:0:0:
256,192,137029,1,0,0:0:0:0:
256,192,137113,1,8,0:0:0:0:
256,192,137196,1,8,0:0:0:0:
256,192,137279,1,8,0:0:0:0:
256,192,137363,1,0,0:0:0:0:
256,192,137613,1,8,0:0:0:0:
256,192,137696,1,0,0:0:0:0:
256,192,137863,1,0,0:0:0:0:
256,192,138029,1,8,0:0:0:0:
256,192,138085,1,8,0:0:0:0:
256,192,138141,1,8,0:0:0:0:
256,192,138363,1,0,0:0:0:0:
256,192,138446,1,0,0:0:0:0:
256,192,138529,1,0,0:0:0:0:
256,192,138613,1,0,0:0:0:0:
256,192,138696,1,8,0:0:0:0:
256,192,138863,1,0,0:0:0:0:
256,192,138946,1,0,0:0:0:0:
256,192,139029,1,8,0:0:0:0:
256,192,139196,1,8,0:0:0:0:
256,192,139279,1,8,0:0:0:0:
256,192,139363,1,0,0:0:0:0:
256,192,139529,1,0,0:0:0:0:
256,192,139613,1,8,0:0:0:0:
256,192,139779,1,8,0:0:0:0:
256,192,139863,1,0,0:0:0:0:
256,192,140029,1,8,0:0:0:0:
256,192,140196,1,0,0:0:0:0:
256,192,140279,1,0,0:0:0:0:
256,192,140363,1,8,0:0:0:0:
256,192,140529,1,0,0:0:0:0:
256,192,140613,1,0,0:0:0:0:
256,192,140696,1,8,0:0:0:0:
256,192,140779,1,0,0:0:0:0:
256,192,140863,1,8,0:0:0:0:
256,192,140946,1,8,0:0:0:0:
256,192,141029,1,0,0:0:0:0:
256,192,141196,1,8,0:0:0:0:
256,192,141279,1,8,0:0:0:0:
256,192,141363,1,0,0:0:0:0:
256,192,141529,1,0,0:0:0:0:
256,192,141613,1,8,0:0:0:0:
256,192,141696,1,0,0:0:0:0:
256,192,141863,1,8,0:0:0:0:
256,192,141946,1,0,0:0:0:0:
256,192,142113,1,0,0:0:0:0:
256,192,142196,1,8,0:0:0:0:
256,192,142279,1,8,0:0:0:0:
256,192,142363,1,0,0:0:0:0:
256,192,142529,1,8,0:0:0:0:
256,192,142696,1,0,0:0:0:0:
256,192,142779,1,0,0:0:0:0:
256,192,142863,1,8,0:0:0:0:
256,192,142946,1,8,0:0:0:0:
256,192,143029,1,0,0:0:0:0:
256,192,143196,1,8,0:0:0:0:
256,192,143279,1,0,0:0:0:0:
256,192,143363,1,8,0:0:0:0:
256,192,143446,1,8,0:0:0:0:
256,192,143529,1,0,0:0:0:0:
256,192,143613,1,0,0:0:0:0:
256,192,143696,1,8,0:0:0:0:
256,192,143863,1,8,0:0:0:0:
256,192,144029,1,0,0:0:0:0:
256,192,144196,1,0,0:0:0:0:
256,192,144279,1,0,0:0:0:0:
256,192,144363,1,8,0:0:0:0:
256,192,144529,1,0,0:0:0:0:
256,192,144696,1,0,0:0:0:0:
256,192,144863,1,8,0:0:0:0:
256,192,144946,1,8,0:0:0:0:
256,192,145029,1,8,0:0:0:0:
256,192,145196,1,0,0:0:0:0:
256,192,145363,1,8,0:0:0:0:
256,192,145529,1,0,0:0:0:0:
256,192,145696,1,8,0:0:0:0:
256,192,145863,1,0,0:0:0:0:
256,192,145946,1,0,0:0:0:0:
256,192,146029,1,8,0:0:0:0:
256,192,146113,1,0,0:0:0:0:
256,192,146196,1,8,0:0:0:0:
256,192,146279,1,8,0:0:0:0:
256,192,146363,1,8,0:0:0:0:
256,192,146529,1,0,0:0:0:0:
256,192,146613,1,0,0:0:0:0:
256,192,146696,1,8,0:0:0:0:
256,192,146779,1,8,0:0:0:0:
256,192,146863,1,8,0:0:0:0:
256,192,146946,1,8,0:0:0:0:
256,192,147029,1,0,0:0:0:0:
256,192,147113,1,0,0:0:0:0:
256,192,147196,1,0,0:0:0:0:
256,192,147279,1,0,0:0:0:0:
256,192,147363,1,8,0:0:0:0:
256,192,147446,1,8,0:0:0:0:
256,192,147529,1,0,0:0:0:0:
256,192,147613,1,8,0:0:0:0:
256,192,147696,1,0,0:0:0:0:
256,192,147779,1,0,0:0:0:0:
256,192,147863,1,8,0:0:0:0:
256,192,147946,1,0,0:0:0:0:
256,192,148029,1,12,0:0:0:0:
256,192,148363,1,4,0:0:0:0:
256,192,148696,1,12,0:0:0:0:
256,192,148863,1,8,0:0:0:0:
256,192,149029,1,4,0:0:0:0:
256,192,149196,1,8,0:0:0:0:
256,192,149363,1,0,0:0:0:0:
256,192,149529,1,0,0:0:0:0:
256,192,149613,1,8,0:0:0:0:
256,192,149696,1,8,0:0:0:0:
256,192,149779,1,8,0:0:0:0:
256,192,149946,1,0,0:0:0:0:
256,192,150029,1,8,0:0:0:0:
256,192,150113,1,8,0:0:0:0:
256,192,150196,1,8,0:0:0:0:
256,192,150279,1,8,0:0:0:0:
256,192,150446,1,0,0:0:0:0:
256,192,150529,1,8,0:0:0:0:
256,192,150613,1,8,0:0:0:0:
256,192,150779,1,0,0:0:0:0:
256,192,150863,1,8,0:0:0:0:
256,192,150946,1,8,0:0:0:0:
256,192,151029,1,0,0:0:0:0:
256,192,151113,1,8,0:0:0:0:
256,192,151279,1,8,0:0:0:0:
256,192,151363,1,0,0:0:0:0:
256,192,151446,1,0,0:0:0:0:
256,192,151529,1,8,0:0:0:0:
256,192,151613,1,8,0:0:0:0:
256,192,151779,1,0,0:0:0:0:
256,192,151863,1,8,0:0:0:0:
256,192,151946,1,8,0:0:0:0:
256,192,152029,1,0,0:0:0:0:
256,192,152113,1,0,0:0:0:0:
256,192,152196,1,8,0:0:0:0:
256,192,152279,1,8,0:0:0:0:
256,192,152446,1,8,0:0:0:0:
256,192,152529,1,0,0:0:0:0:
256,192,152613,1,0,0:0:0:0:
256,192,152696,1,8,0:0:0:0:
256,192,152779,1,8,0:0:0:0:
256,192,152863,1,0,0:0:0:0:
256,192,152946,1,8,0:0:0:0:
256,192,153113,1,0,0:0:0:0:
256,192,153196,1,8,0:0:0:0:
256,192,153279,1,0,0:0:0:0:
256,192,153363,1,8,0:0:0:0:
256,192,153446,1,8,0:0:0:0:
256,192,153529,1,0,0:0:0:0:
256,192,153613,1,0,0:0:0:0:
256,192,153696,1,8,0:0:0:0:
256,192,153779,1,0,0:0:0:0:
256,192,153863,1,8,0:0:0:0:
256,192,153946,1,8,0:0:0:0:
256,192,154029,1,0,0:0:0:0:
256,192,154113,1,0,0:0:0:0:
256,192,154196,1,8,0:0:0:0:
256,192,154279,1,0,0:0:0:0:
256,192,154363,1,8,0:0:0:0:
256,192,154446,1,8,0:0:0:0:
256,192,154529,1,0,0:0:0:0:
256,192,154613,1,0,0:0:0:0:
256,192,154696,1,8,0:0:0:0:
256,192,154863,1,0,0:0:0:0:
256,192,154946,1,8,0:0:0:0:
256,192,155029,1,8,0:0:0:0:
256,192,155113,1,8,0:0:0:0:
256,192,155279,1,0,0:0:0:0:
256,192,155363,1,8,0:0:0:0:
256,192,155446,1,8,0:0:0:0:
256,192,155529,1,8,0:0:0:0:
256,192,155613,1,8,0:0:0:0:
256,192,155779,1,0,0:0:0:0:
256,192,155863,1,8,0:0:0:0:
256,192,155946,1,8,0:0:0:0:
256,192,156113,1,0,0:0:0:0:
256,192,156196,1,0,0:0:0:0:
256,192,156279,1,8,0:0:0:0:
256,192,156363,1,8,0:0:0:0:
256,192,156446,1,8,0:0:0:0:
256,192,156613,1,0,0:0:0:0:
256,192,156696,1,0,0:0:0:0:
256,192,156779,1,8,0:0:0:0:
256,192,156863,1,0,0:0:0:0:
256,192,156946,1,8,0:0:0:0:
256,192,157113,1,0,0:0:0:0:
256,192,157196,1,8,0:0:0:0:
256,192,157279,1,8,0:0:0:0:
256,192,157363,1,0,0:0:0:0:
256,192,157446,1,0,0:0:0:0:
256,192,157529,1,8,0:0:0:0:
256,192,157613,1,8,0:0:0:0:
256,192,157696,1,0,0:0:0:0:
256,192,157863,1,8,0:0:0:0:
256,192,158029,1,0,0:0:0:0:
256,192,158113,1,0,0:0:0:0:
256,192,158196,1,8,0:0:0:0:
256,192,158279,1,8,0:0:0:0:
256,192,158363,1,0,0:0:0:0:
256,192,158446,1,8,0:0:0:0:
256,192,158529,1,8,0:0:0:0:
256,192,158613,1,8,0:0:0:0:
256,192,158696,1,0,0:0:0:0:
256,192,158863,1,0,0:0:0:0:
256,192,158918,1,0,0:0:0:0:
256,192,158974,1,0,0:0:0:0:
256,192,159029,1,8,0:0:0:0:
256,192,159113,1,8,0:0:0:0:
256,192,159196,1,0,0:0:0:0:
256,192,159252,1,0,0:0:0:0:
256,192,159307,1,0,0:0:0:0:
256,192,159363,1,8,0:0:0:0:
256,192,159446,1,8,0:0:0:0:
256,192,159529,1,0,0:0:0:0:
256,192,159613,1,0,0:0:0:0:
256,192,159696,1,12,0:0:0:0:
256,192,160029,1,0,0:0:0:0:
256,192,160196,1,8,0:0:0:0:
256,192,160279,1,8,0:0:0:0:
256,192,160363,1,8,0:0:0:0:
256,192,160529,1,8,0:0:0:0:
256,192,160696,1,0,0:0:0:0:
256,192,160863,1,8,0:0:0:0:
256,192,160946,1,8,0:0:0:0:
256,192,161029,1,0,0:0:0:0:
256,192,161196,1,8,0:0:0:0:
256,192,161363,1,0,0:0:0:0:
256,192,161529,1,8,0:0:0:0:
256,192,161613,1,0,0:0:0:0:
256,192,161696,1,8,0:0:0:0:
256,192,161863,1,8,0:0:0:0:
256,192,162029,1,0,0:0:0:0:
256,192,162113,1,0,0:0:0:0:
256,192,162196,1,8,0:0:0:0:
256,192,162279,1,8,0:0:0:0:
256,192,162363,1,0,0:0:0:0:
256,192,162446,1,0,0:0:0:0:
256,192,162529,1,0,0:0:0:0:
256,192,162613,1,0,0:0:0:0:
256,192,162696,1,8,0:0:0:0:
256,192,162863,1,0,0:0:0:0:
256,192,162946,1,8,0:0:0:0:
256,192,163029,1,8,0:0:0:0:
256,192,163196,1,8,0:0:0:0:
256,192,163363,1,0,0:0:0:0:
256,192,163529,1,8,0:0:0:0:
256,192,163613,1,0,0:0:0:0:
256,192,163696,1,8,0:0:0:0:
256,192,163863,1,8,0:0:0:0:
256,192,164029,1,0,0:0:0:0:
256,192,164196,1,8,0:0:0:0:
256,192,164279,1,8,0:0:0:0:
256,192,164363,1,0,0:0:0:0:
256,192,164529,1,0,0:0:0:0:
256,192,164696,1,8,0:0:0:0:
256,192,164779,1,8,0:0:0:0:
256,192,164863,1,0,0:0:0:0:
256,192,164946,1,0,0:0:0:0:
256,192,165029,1,8,0:0:0:0:
256,192,165196,1,8,0:0:0:0:
256,192,165363,1,0,0:0:0:0:
256,192,165529,1,8,0:0:0:0:
256,192,165696,1,8,0:0:0:0:
256,192,165863,1,8,0:0:0:0:
256,192,166029,1,0,0:0:0:0:
256,192,166196,1,8,0:0:0:0:
256,192,166279,1,8,0:0:0:0:
256,192,166363,1,8,0:0:0:0:
256,192,166529,1,0,0:0:0:0:
256,192,166696,1,8,0:0:0:0:
256,192,166863,1,8,0:0:0:0:
256,192,167029,1,0,0:0:0:0:
256,192,167196,1,0,0:0:0:0:
256,192,167363,1,8,0:0:0:0:
256,192,167529,1,0,0:0:0:0:
256,192,167613,1,0,0:0:0:0:
256,192,167696,1,8,0:0:0:0:
256,192,167863,1,8,0:0:0:0:
256,192,167946,1,8,0:0:0:0:
256,192,168029,1,0,0:0:0:0:
256,192,168113,1,0,0:0:0:0:
256,192,168196,1,8,0:0:0:0:
256,192,168279,1,0,0:0:0:0:
256,192,168363,1,8,0:0:0:0:
256,192,168446,1,8,0:0:0:0:
256,192,168529,1,0,0:0:0:0:
256,192,168613,1,0,0:0:0:0:
256,192,168696,1,8,0:0:0:0:
256,192,168779,1,8,0:0:0:0:
256,192,168863,1,8,0:0:0:0:
256,192,168946,1,8,0:0:0:0:
256,192,169029,1,0,0:0:0:0:
256,192,169113,1,0,0:0:0:0:
256,192,169196,1,0,0:0:0:0:
256,192,169279,1,0,0:0:0:0:
256,192,169363,1,12,0:0:0:0:
256,192,169696,1,8,0:0:0:0:
256,192,169752,1,8,0:0:0:0:
256,192,169807,1,8,0:0:0:0:
256,192,169863,1,0,0:0:0:0:
256,192,169946,1,0,0:0:0:0:
256,192,170029,1,8,0:0:0:0:
256,192,170196,1,0,0:0:0:0:
256,192,170279,1,0,0:0:0:0:
256,192,170363,1,12,0:0:0:0:
256,192,170696,1,4,0:0:0:0:
256,192,171029,1,8,0:0:0:0:
256,192,171085,1,0,0:0:0:0:
256,192,171141,1,0,0:0:0:0:
256,192,171196,1,8,0:0:0:0:
256,192,171363,1,0,0:0:0:0:
256,192,171418,1,0,0:0:0:0:
256,192,171474,1,0,0:0:0:0:
256,192,171529,1,8,0:0:0:0:
256,192,171613,1,0,0:0:0:0:
256,192,171668,1,0,0:0:0:0:
256,192,171724,1,0,0:0:0:0:
256,192,171779,1,8,0:0:0:0:
256,192,171863,1,0,0:0:0:0:
256,192,171918,1,8,0:0:0:0:
256,192,172029,1,8,0:0:0:0:
256,192,172085,1,0,0:0:0:0:
256,192,172141,1,0,0:0:0:0:
256,192,172196,1,8,0:0:0:0:
256,192,172363,1,0,0:0:0:0:
256,192,172418,1,0,0:0:0:0:
256,192,172474,1,0,0:0:0:0:
256,192,172529,1,8,0:0:0:0:
256,192,172696,1,8,0:0:0:0:
256,192,172752,1,0,0:0:0:0:
256,192,172807,1,0,0:0:0:0:
256,192,172863,1,8,0:0:0:0:
256,192,173029,1,0,0:0:0:0:
256,192,173071,1,0,0:0:0:0:
256,192,173196,1,8,0:0:0:0:
256,192,173238,1,0,0:0:0:0:
256,192,173363,1,8,0:0:0:0:
256,192,173418,1,8,0:0:0:0:
256,192,173474,1,8,0:0:0:0:
256,192,173529,1,8,0:0:0:0:
256,192,173585,1,0,0:0:0:0:
256,192,173696,1,8,0:0:0:0:
256,192,173752,1,0,0:0:0:0:
256,192,173807,1,0,0:0:0:0:
256,192,173863,1,8,0:0:0:0:
256,192,174029,1,0,0:0:0:0:
256,192,174085,1,0,0:0:0:0:
256,192,174141,1,0,0:0:0:0:
256,192,174196,1,8,0:0:0:0:
256,192,174279,1,0,0:0:0:0:
256,192,174335,1,0,0:0:0:0:
256,192,174391,1,0,0:0:0:0:
256,192,174446,1,8,0:0:0:0:
256,192,174529,1,0,0:0:0:0:
256,192,174585,1,8,0:0:0:0:
256,192,174696,1,8,0:0:0:0:
256,192,174752,1,0,0:0:0:0:
256,192,174807,1,0,0:0:0:0:
256,192,174863,1,8,0:0:0:0:
256,192,175029,1,0,0:0:0:0:
256,192,175085,1,0,0:0:0:0:
256,192,175141,1,0,0:0:0:0:
256,192,175196,1,8,0:0:0:0:
256,192,175363,1,8,0:0:0:0:
256,192,175418,1,0,0:0:0:0:
256,192,175474,1,0,0:0:0:0:
256,192,175529,1,8,0:0:0:0:
256,192,175696,1,0,0:0:0:0:
256,192,175738,1,0,0:0:0:0:
256,192,175863,1,0,0:0:0:0:
256,192,175904,1,0,0:0:0:0:
256,192,176029,1,8,0:0:0:0:
256,192,176113,1,0,0:0:0:0:
256,192,176196,1,8,0:0:0:0:
256,192,176279,1,0,0:0:0:0:
256,192,176363,1,8,0:0:0:0:
256,192,176418,1,0,0:0:0:0:
256,192,176474,1,0,0:0:0:0:
256,192,176529,1,8,0:0:0:0:
256,192,176613,1,0,0:0:0:0:
256,192,176696,1,8,0:0:0:0:
256,192,176752,1,8,0:0:0:0:
256,192,176807,1,8,0:0:0:0:
256,192,176863,1,0,0:0:0:0:
256,192,176946,1,8,0:0:0:0:
256,192,177002,1,8,0:0:0:0:
256,192,177057,1,8,0:0:0:0:
256,192,177113,1,0,0:0:0:0:
256,192,177196,1,8,0:0:0:0:
256,192,177252,1,0,0:0:0:0:
256,192,177363,1,8,0:0:0:0:
256,192,177418,1,0,0:0:0:0:
256,192,177474,1,0,0:0:0:0:
256,192,177529,1,8,0:0:0:0:
256,192,177613,1,0,0:0:0:0:
256,192,177696,1,8,0:0:0:0:
256,192,177752,1,8,0:0:0:0:
256,192,177807,1,8,0:0:0:0:
256,192,177863,1,0,0:0:0:0:
256,192,177946,1,0,0:0:0:0:
256,192,178029,1,8,0:0:0:0:
256,192,178085,1,0,0:0:0:0:
256,192,178141,1,0,0:0:0:0:
256,192,178196,1,8,0:0:0:0:
256,192,178279,1,0,0:0:0:0:
256,192,178363,1,8,0:0:0:0:
256,192,178404,1,8,0:0:0:0:
256,192,178529,1,8,0:0:0:0:
256,192,178696,1,0,0:0:0:0:
256,192,178779,1,0,0:0:0:0:
256,192,178863,1,0,0:0:0:0:
256,192,178946,1,0,0:0:0:0:
256,192,179029,1,8,0:0:0:0:
256,192,179085,1,0,0:0:0:0:
256,192,179141,1,0,0:0:0:0:
256,192,179196,1,8,0:0:0:0:
256,192,179279,1,0,0:0:0:0:
256,192,179363,1,8,0:0:0:0:
256,192,179418,1,8,0:0:0:0:
256,192,179474,1,8,0:0:0:0:
256,192,179529,1,0,0:0:0:0:
256,192,179613,1,8,0:0:0:0:
256,192,179668,1,8,0:0:0:0:
256,192,179724,1,8,0:0:0:0:
256,192,179779,1,0,0:0:0:0:
256,192,179863,1,8,0:0:0:0:
256,192,179918,1,0,0:0:0:0:
256,192,180029,1,8,0:0:0:0:
256,192,180113,1,8,0:0:0:0:
256,192,180196,1,8,0:0:0:0:
256,192,180279,1,8,0:0:0:0:
256,192,180363,1,0,0:0:0:0:
256,192,180404,1,0,0:0:0:0:
256,192,180446,1,0,0:0:0:0:
256,192,180529,1,8,0:0:0:0:
256,192,180613,1,8,0:0:0:0:
256,192,180696,1,0,0:0:0:0:
256,192,180738,1,0,0:0:0:0:
256,192,180779,1,0,0:0:0:0:
256,192,180863,1,8,0:0:0:0:
256,192,180918,1,0,0:0:0:0:
256,192,180974,1,0,0:0:0:0:
256,192,181029,1,8,0:0:0:0:
256,192,181113,1,8,0:0:0:0:
256,192,181196,1,0,0:0:0:0:
256,192,181279,1,0,0:0:0:0:
256,192,181363,1,8,0:0:0:0:
256,192,181696,1,8,0:0:0:0:
256,192,181863,1,0,0:0:0:0:
256,192,182363,1,8,0:0:0:0:
256,192,182696,1,0,0:0:0:0:
256,192,183029,1,8,0:0:0:0:
256,192,183196,1,0,0:0:0:0:
256,192,183279,1,0,0:0:0:0:
256,192,183529,1,0,0:0:0:0:
256,192,183696,1,8,0:0:0:0:
256,192,184029,1,0,0:0:0:0:
256,192,184363,1,8,0:0:0:0:
256,192,184529,1,0,0:0:0:0:
256,192,184863,1,0,0:0:0:0:
256,192,185029,1,8,0:0:0:0:
256,192,185363,1,0,0:0:0:0:
256,192,185696,1,8,0:0:0:0:
256,192,185863,1,0,0:0:0:0:
256,192,185946,1,0,0:0:0:0:
256,192,186196,1,0,0:0:0:0:
256,192,186363,1,8,0:0:0:0:
256,192,186529,1,0,0:0:0:0:
256,192,186613,1,0,0:0:0:0:
256,192,186696,1,8,0:0:0:0:
256,192,187029,1,8,0:0:0:0:
256,192,187196,1,0,0:0:0:0:
256,192,187279,1,0,0:0:0:0:
256,192,187529,1,0,0:0:0:0:
256,192,187696,1,8,0:0:0:0:
256,192,187946,1,0,0:0:0:0:
256,192,188029,1,8,0:0:0:0:
256,192,188363,1,8,0:0:0:0:
256,192,188529,1,0,0:0:0:0:
256,192,188613,1,0,0:0:0:0:
256,192,188863,1,0,0:0:0:0:
256,192,189029,1,8,0:0:0:0:
256,192,189363,1,0,0:0:0:0:
256,192,189696,1,8,0:0:0:0:
256,192,189863,1,0,0:0:0:0:
256,192,190029,1,8,0:0:0:0:
256,192,190363,1,0,0:0:0:0:
256,192,190529,1,8,0:0:0:0:
256,192,190613,1,8,0:0:0:0:
256,192,190696,1,0,0:0:0:0:
256,192,191029,1,8,0:0:0:0:
256,192,191363,1,0,0:0:0:0:
256,192,191696,1,8,0:0:0:0:
256,192,192029,1,8,0:0:0:0:
256,192,192279,1,8,0:0:0:0:
256,192,192362,1,0,0:0:0:0:
256,192,192529,1,8,0:0:0:0:
256,192,192612,1,8,0:0:0:0:
256,192,192696,1,0,0:0:0:0:
256,192,192862,1,8,0:0:0:0:
256,192,192946,1,0,0:0:0:0:
256,192,193112,1,0,0:0:0:0:
256,192,193196,1,8,0:0:0:0:
256,192,193362,1,0,0:0:0:0:
256,192,193529,1,8,0:0:0:0:
256,192,193612,1,8,0:0:0:0:
256,192,193696,1,0,0:0:0:0:
256,192,193862,1,8,0:0:0:0:
256,192,193946,1,8,0:0:0:0:
256,192,194029,1,0,0:0:0:0:
256,192,194112,1,8,0:0:0:0:
256,192,194279,1,8,0:0:0:0:
256,192,194362,1,0,0:0:0:0:
256,192,194446,1,0,0:0:0:0:
256,192,194529,1,8,0:0:0:0:
256,192,194612,1,8,0:0:0:0:
256,192,194696,1,0,0:0:0:0:
256,192,194946,1,8,0:0:0:0:
256,192,195029,1,0,0:0:0:0:
256,192,195196,1,8,0:0:0:0:
256,192,195279,1,0,0:0:0:0:
256,192,195363,1,0,0:0:0:0:
256,192,195446,1,8,0:0:0:0:
256,192,195613,1,8,0:0:0:0:
256,192,195696,1,0,0:0:0:0:
256,192,195863,1,8,0:0:0:0:
256,192,196029,1,0,0:0:0:0:
256,192,196196,1,8,0:0:0:0:
256,192,196279,1,8,0:0:0:0:
256,192,196362,1,0,0:0:0:0:
256,192,196529,1,8,0:0:0:0:
256,192,196612,1,0,0:0:0:0:
256,192,196696,1,8,0:0:0:0:
256,192,196779,1,8,0:0:0:0:
256,192,196862,1,8,0:0:0:0:
256,192,197029,1,0,0:0:0:0:
256,192,197196,1,8,0:0:0:0:
256,192,197363,1,0,0:0:0:0:
256,192,197529,1,0,0:0:0:0:
256,192,197696,1,8,0:0:0:0:
256,192,197862,1,0,0:0:0:0:
256,192,198029,1,0,0:0:0:0:
256,192,198196,1,8,0:0:0:0:
256,192,198362,1,8,0:0:0:0:
256,192,198529,1,8,0:0:0:0:
256,192,198696,1,0,0:0:0:0:
256,192,198862,1,0,0:0:0:0:
256,192,199029,1,8,0:0:0:0:
256,192,199196,1,0,0:0:0:0:
256,192,199279,1,8,0:0:0:0:
256,192,199362,1,0,0:0:0:0:
256,192,199529,1,8,0:0:0:0:
256,192,199696,1,8,0:0:0:0:
256,192,199862,1,8,0:0:0:0:
256,192,199946,1,0,0:0:0:0:
256,192,200029,1,8,0:0:0:0:
256,192,200112,1,8,0:0:0:0:
256,192,200196,1,8,0:0:0:0:
256,192,200279,1,8,0:0:0:0:
256,192,200362,1,0,0:0:0:0:
256,192,200446,1,0,0:0:0:0:
256,192,200529,1,0,0:0:0:0:
256,192,200612,1,0,0:0:0:0:
256,192,200696,1,8,0:0:0:0:
256,192,200779,1,8,0:0:0:0:
256,192,200862,1,0,0:0:0:0:
256,192,200946,1,8,0:0:0:0:
256,192,201029,1,0,0:0:0:0:
256,192,201112,1,0,0:0:0:0:
256,192,201196,1,8,0:0:0:0:
256,192,201279,1,0,0:0:0:0:
256,192,201363,1,8,0:0:0:0:
256,192,201696,1,8,0:0:0:0:
256,192,202029,1,0,0:0:0:0:
256,192,202363,1,8,0:0:0:0:
256,192,202529,1,0,0:0:0:0:
256,192,202696,1,12,0:0:0:0:
256,192,203696,1,0,0:0:0:0:
256,192,203863,1,0,0:0:0:0:
256,192,204029,1,8,0:0:0:0:
256,192,205029,1,8,0:0:0:0:
256,192,205196,1,0,0:0:0:0:
256,192,205363,1,8,0:0:0:0:
256,192,205529,1,0,0:0:0:0:
256,192,205696,1,8,0:0:0:0:
256,192,205863,1,8,0:0:0:0:
256,192,206029,1,0,0:0:0:0:
256,192,206363,1,0,0:0:0:0:
256,192,206696,1,8,0:0:0:0:
256,192,207029,1,8,0:0:0:0:
256,192,207363,1,0,0:0:0:0:
256,192,207529,1,8,0:0:0:0:
256,192,207613,1,8,0:0:0:0:
256,192,207696,1,0,0:0:0:0:
256,192,207863,1,0,0:0:0:0:
256,192,208029,1,8,0:0:0:0:
256,192,209029,1,0,0:0:0:0:
256,192,209196,1,0,0:0:0:0:
256,192,209363,1,8,0:0:0:0:
256,192,210363,1,8,0:0:0:0:
256,192,210696,1,8,0:0:0:0:
256,192,211029,1,0,0:0:0:0:
256,192,211363,1,0,0:0:0:0:
256,192,211696,1,8,0:0:0:0:
256,192,211863,1,8,0:0:0:0:
256,192,212029,1,0,0:0:0:0:
256,192,212696,1,0,0:0:0:0:
256,192,213363,1,12,0:0:0:0:
