osu file format v14

[General]
AudioFilename: audio.mp3
AudioLeadIn: 0
PreviewTime: 114654
Countdown: 0
SampleSet: Normal
StackLeniency: 0.7
Mode: 1
LetterboxInBreaks: 0
WidescreenStoryboard: 1

[Editor]
Bookmarks: 30,10696,21363,32029,42696,52029,53363,62696,64029,74696,85363,96029,106696,117363,128029,138696,149363,160029,170696,181363,192029,202696,213363
DistanceSpacing: 2.2
BeatDivisor: 8
GridSize: 32
TimelineZoom: 2.2

[Metadata]
Title:CROSSING DELTA
TitleUnicode:CROSSING DELTA
Artist:ginkiha x Hommarju x t+pazolite
ArtistUnicode:ginkiha × Hommarju × t+pazolite
Creator:Faputa
Version:AYYRI'S INNER ONI
Source:OverRapid
Tags:eiri- Ayyri tpz Video Rhythm Game Mobile FLUCTON Cafe.D Collaboration Pack Seve's code Future Bass cute instrumental electronic Trap SV full version ver. Lanota PIU XX Pump It Up Dynamix
BeatmapID:2287734
BeatmapSetID:1067200

[Difficulty]
HPDrainRate:5
CircleSize:2
OverallDifficulty:6.5
ApproachRate:10
SliderMultiplier:1.4
SliderTickRate:1

[Events]
//Background and Video events
0,0,"anime-girl-feathers-water-reflection-tree.jpeg",0,55
//Break Periods
//Storyboard Layer 0 (Background)
//Storyboard Layer 1 (Fail)
//Storyboard Layer 2 (Pass)
//Storyboard Layer 3 (Foreground)
//Storyboard Layer 4 (Overlay)
//Storyboard Sound Samples

[TimingPoints]
30,333.333333333333,4,1,0,85,1,0
19988,-100,4,1,0,90,0,0
42696,-100,4,1,0,90,0,1
52029,-100,4,1,0,90,0,0
53363,-100,4,1,0,90,0,1
62696,-100,4,1,0,90,0,0
149363,-100,4,1,0,90,0,1
160029,-100,4,1,0,90,0,0
170696,-100,4,1,0,90,0,1
181321,-100,4,1,0,85,0,1
181363,-100,4,1,0,85,0,0

[HitObjects]
256,192,30,5,0,0:0:0:0:
256,192,863,1,0,0:0:0:0:
256,192,1029,1,8,0:0:0:0:
256,192,1196,1,0,0:0:0:0:
256,192,1529,1,0,0:0:0:0:
256,192,1863,1,8,0:0:0:0:
256,192,2196,1,0,0:0:0:0:
256,192,2529,1,8,0:0:0:0:
256,192,2696,1,0,0:0:0:0:
256,192,4029,1,8,0:0:0:0:
256,192,4696,1,0,0:0:0:0:
256,192,4863,1,8,0:0:0:0:
256,192,5029,1,0,0:0:0:0:
256,192,5196,1,8,0:0:0:0:
256,192,5363,1,0,0:0:0:0:
256,192,6196,1,0,0:0:0:0:
256,192,6529,1,8,0:0:0:0:
256,192,6696,1,0,0:0:0:0:
256,192,7529,1,0,0:0:0:0:
256,192,7696,1,8,0:0:0:0:
256,192,7863,1,8,0:0:0:0:
256,192,8029,1,0,0:0:0:0:
256,192,8863,1,0,0:0:0:0:
256,192,9196,1,8,0:0:0:0:
256,192,9363,1,0,0:0:0:0:
256,192,10029,1,0,0:0:0:0:
256,192,10363,1,0,0:0:0:0:
256,192,10446,1,0,0:0:0:0:
256,192,10529,1,0,0:0:0:0:
256,192,10613,1,0,0:0:0:0:
256,192,10696,1,8,0:0:0:0:
256,192,10946,1,0,0:0:0:0:
256,192,11029,1,8,0:0:0:0:
256,192,11196,1,0,0:0:0:0:
256,192,11279,1,8,0:0:0:0:
256,192,11363,1,0,0:0:0:0:
256,192,11529,1,0,0:0:0:0:
256,192,11613,1,0,0:0:0:0:
256,192,11696,1,8,0:0:0:0:
256,192,11863,1,0,0:0:0:0:
256,192,12029,1,0,0:0:0:0:
256,192,12113,1,8,0:0:0:0:
256,192,12279,1,8,0:0:0:0:
256,192,12363,1,0,0:0:0:0:
256,192,12529,1,0,0:0:0:0:
256,192,12613,1,8,0:0:0:0:
256,192,12696,1,0,0:0:0:0:
256,192,12863,1,0,0:0:0:0:
256,192,12946,1,0,0:0:0:0:
256,192,13029,1,8,0:0:0:0:
256,192,13113,1,0,0:0:0:0:
256,192,13196,1,0,0:0:0:0:
256,192,13279,1,0,0:0:0:0:
256,192,13363,1,8,0:0:0:0:
256,192,13613,1,0,0:0:0:0:
256,192,13696,1,8,0:0:0:0:
256,192,13863,1,0,0:0:0:0:
256,192,13946,1,8,0:0:0:0:
256,192,14030,1,0,0:0:0:0:
256,192,14196,1,0,0:0:0:0:
256,192,14280,1,0,0:0:0:0:
256,192,14363,1,8,0:0:0:0:
256,192,14530,1,0,0:0:0:0:
256,192,14696,1,0,0:0:0:0:
256,192,14780,1,8,0:0:0:0:
256,192,14946,1,8,0:0:0:0:
256,192,15030,1,0,0:0:0:0:
256,192,15196,1,8,0:0:0:0:
256,192,15280,1,0,0:0:0:0:
256,192,15363,1,8,0:0:0:0:
256,192,15446,1,0,0:0:0:0:
256,192,15529,1,0,0:0:0:0:
256,192,15696,1,8,0:0:0:0:
256,192,15863,1,8,0:0:0:0:
256,192,15946,1,0,0:0:0:0:
256,192,16029,1,8,0:0:0:0:
256,192,16196,1,0,0:0:0:0:
256,192,16363,1,8,0:0:0:0:
256,192,16529,1,0,0:0:0:0:
256,192,16613,1,0,0:0:0:0:
256,192,16696,1,8,0:0:0:0:
256,192,16863,1,0,0:0:0:0:
256,192,17029,1,8,0:0:0:0:
256,192,17196,1,0,0:0:0:0:
256,192,17363,1,8,0:0:0:0:
256,192,17446,1,8,0:0:0:0:
256,192,17529,1,0,0:0:0:0:
256,192,17696,1,8,0:0:0:0:
256,192,17863,1,0,0:0:0:0:
256,192,17946,1,8,0:0:0:0:
256,192,18029,1,8,0:0:0:0:
256,192,18196,1,0,0:0:0:0:
256,192,18363,1,8,0:0:0:0:
256,192,18529,1,0,0:0:0:0:
256,192,18613,1,0,0:0:0:0:
256,192,18696,1,8,0:0:0:0:
256,192,18779,1,0,0:0:0:0:
256,192,18863,1,0,0:0:0:0:
256,192,18946,1,0,0:0:0:0:
256,192,19029,1,8,0:0:0:0:
256,192,19113,1,8,0:0:0:0:
256,192,19196,1,0,0:0:0:0:
256,192,19279,1,0,0:0:0:0:
256,192,19363,1,8,0:0:0:0:
256,192,19446,1,0,0:0:0:0:
256,192,19529,1,0,0:0:0:0:
256,192,19613,1,0,0:0:0:0:
256,192,19696,1,8,0:0:0:0:
256,192,19779,1,8,0:0:0:0:
256,192,19863,1,0,0:0:0:0:
256,192,19946,1,0,0:0:0:0:
256,192,20029,1,12,0:0:0:0:
256,192,20363,1,4,0:0:0:0:
256,192,20696,1,12,0:0:0:0:
256,192,20863,1,0,0:0:0:0:
256,192,20946,1,0,0:0:0:0:
256,192,21029,1,12,0:0:0:0:
256,192,21363,1,4,0:0:0:0:
256,192,21529,1,8,0:0:0:0:
256,192,21863,1,0,0:0:0:0:
256,192,22029,1,12,0:0:0:0:
256,192,22196,1,0,0:0:0:0:
256,192,22363,1,8,0:0:0:0:
256,192,22446,1,0,0:0:0:0:
256,192,22529,1,8,0:0:0:0:
256,192,22613,1,0,0:0:0:0:
256,192,22696,1,12,0:0:0:0:
256,192,22863,1,0,0:0:0:0:
256,192,22946,1,0,0:0:0:0:
256,192,23029,1,8,0:0:0:0:
256,192,23113,1,8,0:0:0:0:
256,192,23196,1,4,0:0:0:0:
256,192,23363,1,0,0:0:0:0:
256,192,23446,1,8,0:0:0:0:
256,192,23529,1,0,0:0:0:0:
256,192,23613,1,0,0:0:0:0:
256,192,23696,1,12,0:0:0:0:
256,192,23863,1,8,0:0:0:0:
256,192,23918,1,8,0:0:0:0:
256,192,23974,1,8,0:0:0:0:
256,192,24029,1,0,0:0:0:0:
256,192,24363,1,0,0:0:0:0:
256,192,24529,1,8,0:0:0:0:
256,192,24863,1,0,0:0:0:0:
256,192,25029,1,8,0:0:0:0:
256,192,25113,1,0,0:0:0:0:
256,192,25196,1,8,0:0:0:0:
256,192,25279,1,8,0:0:0:0:
256,192,25363,1,4,0:0:0:0:
256,192,25529,1,8,0:0:0:0:
256,192,25613,1,0,0:0:0:0:
256,192,25696,1,8,0:0:0:0:
256,192,25779,1,0,0:0:0:0:
256,192,25863,1,8,0:0:0:0:
256,192,25918,1,8,0:0:0:0:
256,192,25974,1,8,0:0:0:0:
256,192,26029,1,0,0:0:0:0:
256,192,26196,1,0,0:0:0:0:
256,192,26363,1,8,0:0:0:0:
256,192,26696,1,4,0:0:0:0:
256,192,26863,1,8,0:0:0:0:
256,192,27196,1,0,0:0:0:0:
256,192,27362,1,12,0:0:0:0:
256,192,27529,1,0,0:0:0:0:
256,192,27696,1,8,0:0:0:0:
256,192,27779,1,0,0:0:0:0:
256,192,27862,1,8,0:0:0:0:
256,192,27946,1,0,0:0:0:0:
256,192,28029,1,12,0:0:0:0:
256,192,28196,1,0,0:0:0:0:
256,192,28279,1,0,0:0:0:0:
256,192,28362,1,8,0:0:0:0:
256,192,28446,1,8,0:0:0:0:
256,192,28529,1,4,0:0:0:0:
256,192,28696,1,0,0:0:0:0:
256,192,28779,1,8,0:0:0:0:
256,192,28862,1,0,0:0:0:0:
256,192,28946,1,0,0:0:0:0:
256,192,29029,1,12,0:0:0:0:
256,192,29363,1,4,0:0:0:0:
256,192,29696,1,0,0:0:0:0:
256,192,30029,1,8,0:0:0:0:
256,192,30113,1,8,0:0:0:0:
256,192,30196,1,0,0:0:0:0:
256,192,30279,1,0,0:0:0:0:
256,192,30363,1,8,0:0:0:0:
256,192,30446,1,8,0:0:0:0:
256,192,30529,1,0,0:0:0:0:
256,192,30613,1,0,0:0:0:0:
256,192,30696,1,8,0:0:0:0:
256,192,30863,1,0,0:0:0:0:
256,192,30946,1,0,0:0:0:0:
256,192,31029,1,8,0:0:0:0:
256,192,31196,1,0,0:0:0:0:
256,192,31363,1,12,0:0:0:0:
256,192,31696,1,0,0:0:0:0:
256,192,32029,1,12,0:0:0:0:
256,192,32196,1,0,0:0:0:0:
256,192,32363,1,8,0:0:0:0:
256,192,32529,1,0,0:0:0:0:
256,192,32696,1,8,0:0:0:0:
256,192,32779,1,8,0:0:0:0:
256,192,32863,1,0,0:0:0:0:
256,192,33029,1,0,0:0:0:0:
256,192,33113,1,0,0:0:0:0:
256,192,33196,1,8,0:0:0:0:
256,192,33279,1,0,0:0:0:0:
256,192,33363,1,8,0:0:0:0:
256,192,33529,1,0,0:0:0:0:
256,192,33613,1,0,0:0:0:0:
256,192,33696,1,8,0:0:0:0:
256,192,33863,1,0,0:0:0:0:
256,192,34029,1,8,0:0:0:0:
256,192,34196,1,8,0:0:0:0:
256,192,34279,1,8,0:0:0:0:
256,192,34363,1,0,0:0:0:0:
256,192,34446,1,0,0:0:0:0:
256,192,34529,1,8,0:0:0:0:
256,192,34696,1,0,0:0:0:0:
256,192,34863,1,8,0:0:0:0:
256,192,35029,1,0,0:0:0:0:
256,192,35196,1,8,0:0:0:0:
256,192,35279,1,8,0:0:0:0:
256,192,35363,1,0,0:0:0:0:
256,192,35529,1,0,0:0:0:0:
256,192,35696,1,8,0:0:0:0:
256,192,35779,1,0,0:0:0:0:
256,192,35863,1,8,0:0:0:0:
256,192,35946,1,8,0:0:0:0:
256,192,36029,1,0,0:0:0:0:
256,192,36196,1,0,0:0:0:0:
256,192,36279,1,0,0:0:0:0:
256,192,36363,1,8,0:0:0:0:
256,192,36529,1,8,0:0:0:0:
256,192,36613,1,8,0:0:0:0:
256,192,36696,1,0,0:0:0:0:
256,192,36863,1,0,0:0:0:0:
256,192,37029,1,8,0:0:0:0:
256,192,37363,1,0,0:0:0:0:
256,192,37529,1,0,0:0:0:0:
256,192,37696,1,0,0:0:0:0:
256,192,37863,1,0,0:0:0:0:
256,192,38029,1,8,0:0:0:0:
256,192,38196,1,0,0:0:0:0:
256,192,38363,1,0,0:0:0:0:
256,192,38446,1,0,0:0:0:0:
256,192,38529,1,0,0:0:0:0:
256,192,38613,1,0,0:0:0:0:
256,192,38696,1,8,0:0:0:0:
256,192,38863,1,0,0:0:0:0:
256,192,38946,1,0,0:0:0:0:
256,192,39029,1,0,0:0:0:0:
256,192,39196,1,8,0:0:0:0:
256,192,39363,1,0,0:0:0:0:
256,192,39529,1,8,0:0:0:0:
256,192,39696,1,0,0:0:0:0:
256,192,39863,1,8,0:0:0:0:
256,192,40029,1,0,0:0:0:0:
256,192,40113,1,0,0:0:0:0:
256,192,40196,1,0,0:0:0:0:
256,192,40279,1,0,0:0:0:0:
256,192,40363,1,8,0:0:0:0:
256,192,40446,1,8,0:0:0:0:
256,192,40529,1,8,0:0:0:0:
256,192,40613,1,8,0:0:0:0:
256,192,40696,1,0,0:0:0:0:
256,192,40779,1,0,0:0:0:0:
256,192,40863,1,0,0:0:0:0:
256,192,40946,1,0,0:0:0:0:
256,192,41029,1,8,0:0:0:0:
256,192,41113,1,8,0:0:0:0:
256,192,41196,1,0,0:0:0:0:
256,192,41279,1,0,0:0:0:0:
256,192,41363,1,8,0:0:0:0:
256,192,41529,1,8,0:0:0:0:
256,192,41696,1,8,0:0:0:0:
256,192,41779,1,8,0:0:0:0:
256,192,41863,1,0,0:0:0:0:
256,192,41946,1,8,0:0:0:0:
256,192,42029,1,0,0:0:0:0:
256,192,42196,1,8,0:0:0:0:
256,192,42279,1,0,0:0:0:0:
256,192,42363,1,8,0:0:0:0:
256,192,42529,1,8,0:0:0:0:
256,192,42696,1,4,0:0:0:0:
256,192,43029,1,8,0:0:0:0:
256,192,43085,1,8,0:0:0:0:
256,192,43196,1,0,0:0:0:0:
256,192,43252,1,0,0:0:0:0:
256,192,43363,1,8,0:0:0:0:
256,192,43419,1,8,0:0:0:0:
256,192,43530,1,0,0:0:0:0:
256,192,43585,1,0,0:0:0:0:
256,192,43696,1,8,0:0:0:0:
256,192,43752,1,8,0:0:0:0:
256,192,43863,1,0,0:0:0:0:
256,192,43918,1,0,0:0:0:0:
256,192,44029,1,8,0:0:0:0:
256,192,44085,1,8,0:0:0:0:
256,192,44196,1,0,0:0:0:0:
256,192,44252,1,0,0:0:0:0:
256,192,44363,1,8,0:0:0:0:
256,192,44419,1,8,0:0:0:0:
256,192,44530,1,0,0:0:0:0:
256,192,44585,1,0,0:0:0:0:
256,192,44696,1,8,0:0:0:0:
256,192,44779,1,8,0:0:0:0:
256,192,44863,1,8,0:0:0:0:
256,192,44946,1,8,0:0:0:0:
256,192,45029,1,4,0:0:0:0:
256,192,45363,1,4,0:0:0:0:
256,192,45696,1,8,0:0:0:0:
256,192,45752,1,8,0:0:0:0:
256,192,45807,1,8,0:0:0:0:
256,192,45863,1,0,0:0:0:0:
256,192,46029,1,8,0:0:0:0:
256,192,46085,1,8,0:0:0:0:
256,192,46140,1,8,0:0:0:0:
256,192,46196,1,0,0:0:0:0:
256,192,46363,1,8,0:0:0:0:
256,192,46419,1,8,0:0:0:0:
256,192,46474,1,8,0:0:0:0:
256,192,46530,1,0,0:0:0:0:
256,192,46696,1,8,0:0:0:0:
256,192,46752,1,8,0:0:0:0:
256,192,46807,1,8,0:0:0:0:
256,192,46863,1,0,0:0:0:0:
256,192,47029,1,8,0:0:0:0:
256,192,47085,1,8,0:0:0:0:
256,192,47140,1,8,0:0:0:0:
256,192,47196,1,0,0:0:0:0:
256,192,47363,1,8,0:0:0:0:
256,192,47419,1,8,0:0:0:0:
256,192,47474,1,8,0:0:0:0:
256,192,47530,1,0,0:0:0:0:
256,192,47696,1,4,0:0:0:0:
256,192,48029,1,4,0:0:0:0:
256,192,48363,1,0,0:0:0:0:
256,192,48474,1,8,0:0:0:0:
256,192,48529,1,0,0:0:0:0:
256,192,48696,1,12,0:0:0:0:
256,192,49029,1,0,0:0:0:0:
256,192,49140,1,8,0:0:0:0:
256,192,49195,1,0,0:0:0:0:
256,192,49362,1,12,0:0:0:0:
256,192,49696,1,0,0:0:0:0:
256,192,49807,1,8,0:0:0:0:
256,192,49862,1,0,0:0:0:0:
256,192,50029,1,12,0:0:0:0:
256,192,50363,1,4,0:0:0:0:
256,192,50696,1,4,0:0:0:0:
256,192,50863,1,0,0:0:0:0:
256,192,50946,1,8,0:0:0:0:
256,192,51029,1,0,0:0:0:0:
256,192,51113,1,8,0:0:0:0:
256,192,51196,1,8,0:0:0:0:
256,192,51279,1,0,0:0:0:0:
256,192,51363,1,8,0:0:0:0:
256,192,51529,1,0,0:0:0:0:
256,192,51613,1,8,0:0:0:0:
256,192,51779,1,8,0:0:0:0:
256,192,51863,1,8,0:0:0:0:
256,192,51946,1,0,0:0:0:0:
256,192,52029,1,8,0:0:0:0:
256,192,52196,1,8,0:0:0:0:
256,192,52363,1,8,0:0:0:0:
256,192,52446,1,8,0:0:0:0:
256,192,52530,1,0,0:0:0:0:
256,192,52613,1,8,0:0:0:0:
256,192,52696,1,0,0:0:0:0:
256,192,52863,1,8,0:0:0:0:
256,192,52946,1,0,0:0:0:0:
256,192,53030,1,8,0:0:0:0:
256,192,53196,1,12,0:0:0:0:
256,192,53363,1,4,0:0:0:0:
256,192,53696,1,8,0:0:0:0:
256,192,53752,1,8,0:0:0:0:
256,192,53863,1,0,0:0:0:0:
256,192,53919,1,0,0:0:0:0:
256,192,54030,1,8,0:0:0:0:
256,192,54086,1,8,0:0:0:0:
256,192,54197,1,0,0:0:0:0:
256,192,54252,1,0,0:0:0:0:
256,192,54363,1,8,0:0:0:0:
256,192,54419,1,8,0:0:0:0:
256,192,54530,1,0,0:0:0:0:
256,192,54585,1,0,0:0:0:0:
256,192,54696,1,8,0:0:0:0:
256,192,54752,1,8,0:0:0:0:
256,192,54863,1,0,0:0:0:0:
256,192,54919,1,0,0:0:0:0:
256,192,55030,1,8,0:0:0:0:
256,192,55086,1,8,0:0:0:0:
256,192,55197,1,0,0:0:0:0:
256,192,55252,1,0,0:0:0:0:
256,192,55363,1,8,0:0:0:0:
256,192,55446,1,8,0:0:0:0:
256,192,55530,1,8,0:0:0:0:
256,192,55613,1,8,0:0:0:0:
256,192,55696,1,4,0:0:0:0:
256,192,56030,1,4,0:0:0:0:
256,192,56363,1,8,0:0:0:0:
256,192,56419,1,8,0:0:0:0:
256,192,56474,1,8,0:0:0:0:
256,192,56530,1,0,0:0:0:0:
256,192,56696,1,8,0:0:0:0:
256,192,56752,1,8,0:0:0:0:
256,192,56807,1,8,0:0:0:0:
256,192,56863,1,0,0:0:0:0:
256,192,57030,1,8,0:0:0:0:
256,192,57086,1,8,0:0:0:0:
256,192,57141,1,8,0:0:0:0:
256,192,57197,1,0,0:0:0:0:
256,192,57363,1,8,0:0:0:0:
256,192,57419,1,8,0:0:0:0:
256,192,57474,1,8,0:0:0:0:
256,192,57530,1,0,0:0:0:0:
256,192,57696,1,8,0:0:0:0:
256,192,57752,1,8,0:0:0:0:
256,192,57807,1,8,0:0:0:0:
256,192,57863,1,0,0:0:0:0:
256,192,58030,1,8,0:0:0:0:
256,192,58086,1,8,0:0:0:0:
256,192,58141,1,8,0:0:0:0:
256,192,58197,1,0,0:0:0:0:
256,192,58363,1,4,0:0:0:0:
256,192,58696,1,4,0:0:0:0:
256,192,58863,1,0,0:0:0:0:
256,192,58946,1,0,0:0:0:0:
256,192,59029,1,8,0:0:0:0:
256,192,59113,1,0,0:0:0:0:
256,192,59196,1,8,0:0:0:0:
256,192,59252,1,8,0:0:0:0:
256,192,59307,1,8,0:0:0:0:
256,192,59363,1,0,0:0:0:0:
256,192,59446,1,0,0:0:0:0:
256,192,59529,1,0,0:0:0:0:
256,192,59613,1,0,0:0:0:0:
256,192,59696,1,8,0:0:0:0:
256,192,59779,1,0,0:0:0:0:
256,192,59863,1,8,0:0:0:0:
256,192,60029,1,0,0:0:0:0:
256,192,60113,1,8,0:0:0:0:
256,192,60196,1,0,0:0:0:0:
256,192,60279,1,0,0:0:0:0:
256,192,60363,1,8,0:0:0:0:
256,192,60446,1,0,0:0:0:0:
256,192,60529,1,8,0:0:0:0:
256,192,60585,1,8,0:0:0:0:
256,192,60641,1,8,0:0:0:0:
256,192,60696,1,0,0:0:0:0:
256,192,60779,1,0,0:0:0:0:
256,192,60863,1,0,0:0:0:0:
256,192,60946,1,0,0:0:0:0:
256,192,61029,1,12,0:0:0:0:
256,192,61363,1,0,0:0:0:0:
256,192,61446,1,0,0:0:0:0:
256,192,61529,1,8,0:0:0:0:
256,192,61613,1,8,0:0:0:0:
256,192,61696,1,8,0:0:0:0:
256,192,61779,1,0,0:0:0:0:
256,192,61863,1,8,0:0:0:0:
256,192,61918,1,8,0:0:0:0:
256,192,61974,1,8,0:0:0:0:
256,192,62029,1,0,0:0:0:0:
256,192,62113,1,0,0:0:0:0:
256,192,62196,1,8,0:0:0:0:
256,192,62279,1,0,0:0:0:0:
256,192,62363,1,8,0:0:0:0:
256,192,62446,1,8,0:0:0:0:
256,192,62529,1,0,0:0:0:0:
256,192,62696,1,0,0:0:0:0:
256,192,62779,1,8,0:0:0:0:
256,192,62863,1,0,0:0:0:0:
256,192,62946,1,0,0:0:0:0:
256,192,63029,1,8,0:0:0:0:
256,192,63085,1,8,0:0:0:0:
256,192,63196,1,0,0:0:0:0:
256,192,63279,1,0,0:0:0:0:
256,192,63363,1,8,0:0:0:0:
256,192,63418,1,8,0:0:0:0:
256,192,63529,1,0,0:0:0:0:
256,192,63613,1,0,0:0:0:0:
256,192,63696,1,12,0:0:0:0:
256,192,64029,1,8,0:0:0:0:
256,192,64113,1,8,0:0:0:0:
256,192,64196,1,0,0:0:0:0:
256,192,64279,1,0,0:0:0:0:
256,192,64363,1,8,0:0:0:0:
256,192,64529,1,8,0:0:0:0:
256,192,64613,1,8,0:0:0:0:
256,192,64696,1,0,0:0:0:0:
256,192,64779,1,8,0:0:0:0:
256,192,64863,1,0,0:0:0:0:
256,192,64946,1,0,0:0:0:0:
256,192,65029,1,8,0:0:0:0:
256,192,65196,1,4,0:0:0:0:
256,192,65363,1,8,0:0:0:0:
256,192,65446,1,8,0:0:0:0:
256,192,65529,1,8,0:0:0:0:
256,192,65613,1,0,0:0:0:0:
256,192,65696,1,0,0:0:0:0:
256,192,65863,1,8,0:0:0:0:
256,192,65946,1,8,0:0:0:0:
256,192,66029,1,0,0:0:0:0:
256,192,66113,1,0,0:0:0:0:
256,192,66196,1,8,0:0:0:0:
256,192,66279,1,0,0:0:0:0:
256,192,66363,1,8,0:0:0:0:
256,192,66529,1,4,0:0:0:0:
256,192,66696,1,0,0:0:0:0:
256,192,66779,1,8,0:0:0:0:
256,192,66863,1,0,0:0:0:0:
256,192,66946,1,0,0:0:0:0:
256,192,67029,1,8,0:0:0:0:
256,192,67196,1,0,0:0:0:0:
256,192,67279,1,0,0:0:0:0:
256,192,67363,1,8,0:0:0:0:
256,192,67446,1,8,0:0:0:0:
256,192,67529,1,0,0:0:0:0:
256,192,67613,1,0,0:0:0:0:
256,192,67696,1,8,0:0:0:0:
256,192,67863,1,4,0:0:0:0:
256,192,68029,1,8,0:0:0:0:
256,192,68113,1,8,0:0:0:0:
256,192,68196,1,8,0:0:0:0:
256,192,68279,1,0,0:0:0:0:
256,192,68363,1,0,0:0:0:0:
256,192,68529,1,0,0:0:0:0:
256,192,68613,1,0,0:0:0:0:
256,192,68696,1,8,0:0:0:0:
256,192,68821,1,0,0:0:0:0:
256,192,68946,1,0,0:0:0:0:
256,192,69029,1,8,0:0:0:0:
256,192,69196,1,0,0:0:0:0:
256,192,69363,1,0,0:0:0:0:
256,192,69446,1,8,0:0:0:0:
256,192,69529,1,0,0:0:0:0:
256,192,69613,1,0,0:0:0:0:
256,192,69696,1,8,0:0:0:0:
256,192,69863,1,0,0:0:0:0:
256,192,69946,1,0,0:0:0:0:
256,192,70029,1,8,0:0:0:0:
256,192,70113,1,8,0:0:0:0:
256,192,70196,1,0,0:0:0:0:
256,192,70279,1,0,0:0:0:0:
256,192,70363,1,8,0:0:0:0:
256,192,70529,1,4,0:0:0:0:
256,192,70696,1,0,0:0:0:0:
256,192,70779,1,8,0:0:0:0:
256,192,70863,1,8,0:0:0:0:
256,192,70946,1,0,0:0:0:0:
256,192,71029,1,8,0:0:0:0:
256,192,71196,1,8,0:0:0:0:
256,192,71279,1,8,0:0:0:0:
256,192,71363,1,0,0:0:0:0:
256,192,71446,1,8,0:0:0:0:
256,192,71529,1,0,0:0:0:0:
256,192,71613,1,0,0:0:0:0:
256,192,71696,1,8,0:0:0:0:
256,192,71863,1,4,0:0:0:0:
256,192,72029,1,0,0:0:0:0:
256,192,72113,1,0,0:0:0:0:
256,192,72196,1,0,0:0:0:0:
256,192,72279,1,0,0:0:0:0:
256,192,72363,1,8,0:0:0:0:
256,192,72529,1,0,0:0:0:0:
256,192,72613,1,0,0:0:0:0:
256,192,72696,1,8,0:0:0:0:
256,192,72779,1,8,0:0:0:0:
256,192,72863,1,0,0:0:0:0:
256,192,72946,1,0,0:0:0:0:
256,192,73029,1,8,0:0:0:0:
256,192,73196,1,4,0:0:0:0:
256,192,73363,1,0,0:0:0:0:
256,192,73446,1,8,0:0:0:0:
256,192,73529,1,0,0:0:0:0:
256,192,73613,1,0,0:0:0:0:
256,192,73696,1,8,0:0:0:0:
256,192,73863,1,0,0:0:0:0:
256,192,73946,1,0,0:0:0:0:
256,192,74029,1,8,0:0:0:0:
256,192,74154,1,0,0:0:0:0:
256,192,74279,1,0,0:0:0:0:
256,192,74363,1,8,0:0:0:0:
256,192,74446,1,8,0:0:0:0:
256,192,74529,1,8,0:0:0:0:
256,192,74613,1,8,0:0:0:0:
256,192,74696,1,0,0:0:0:0:
256,192,74946,1,8,0:0:0:0:
256,192,75029,1,0,0:0:0:0:
256,192,75196,1,8,0:0:0:0:
256,192,75363,1,0,0:0:0:0:
256,192,75613,1,8,0:0:0:0:
256,192,75696,1,0,0:0:0:0:
256,192,75863,1,8,0:0:0:0:
256,192,76029,1,0,0:0:0:0:
256,192,76279,1,8,0:0:0:0:
256,192,76363,1,0,0:0:0:0:
256,192,76529,1,8,0:0:0:0:
256,192,76696,1,8,0:0:0:0:
256,192,76863,1,0,0:0:0:0:
256,192,76946,1,0,0:0:0:0:
256,192,77029,1,8,0:0:0:0:
256,192,77113,1,8,0:0:0:0:
256,192,77196,1,8,0:0:0:0:
256,192,77279,1,8,0:0:0:0:
256,192,77363,1,0,0:0:0:0:
256,192,77613,1,8,0:0:0:0:
256,192,77696,1,0,0:0:0:0:
256,192,77863,1,8,0:0:0:0:
256,192,78030,1,0,0:0:0:0:
256,192,78280,1,8,0:0:0:0:
256,192,78363,1,0,0:0:0:0:
256,192,78530,1,8,0:0:0:0:
256,192,78696,1,0,0:0:0:0:
256,192,78946,1,8,0:0:0:0:
256,192,79030,1,0,0:0:0:0:
256,192,79196,1,8,0:0:0:0:
256,192,79363,1,8,0:0:0:0:
256,192,79446,1,8,0:0:0:0:
256,192,79530,1,0,0:0:0:0:
256,192,79613,1,0,0:0:0:0:
256,192,79696,1,8,0:0:0:0:
256,192,79863,1,8,0:0:0:0:
256,192,80030,1,0,0:0:0:0:
256,192,80196,1,0,0:0:0:0:
256,192,80363,1,0,0:0:0:0:
256,192,80529,1,0,0:0:0:0:
256,192,80696,1,0,0:0:0:0:
256,192,80863,1,0,0:0:0:0:
256,192,81029,1,0,0:0:0:0:
256,192,81196,1,0,0:0:0:0:
256,192,81363,1,0,0:0:0:0:
256,192,81529,1,0,0:0:0:0:
256,192,81696,1,0,0:0:0:0:
256,192,81863,1,0,0:0:0:0:
256,192,82029,1,0,0:0:0:0:
256,192,82196,1,0,0:0:0:0:
256,192,82363,1,0,0:0:0:0:
256,192,82529,1,0,0:0:0:0:
256,192,82613,1,0,0:0:0:0:
256,192,82696,1,8,0:0:0:0:
256,192,82779,1,8,0:0:0:0:
256,192,82863,1,0,0:0:0:0:
256,192,82946,1,0,0:0:0:0:
256,192,83029,1,8,0:0:0:0:
256,192,83113,1,0,0:0:0:0:
256,192,83196,1,8,0:0:0:0:
256,192,83279,1,0,0:0:0:0:
256,192,83363,1,8,0:0:0:0:
256,192,83446,1,8,0:0:0:0:
256,192,83529,1,0,0:0:0:0:
256,192,83613,1,0,0:0:0:0:
256,192,83696,1,8,0:0:0:0:
256,192,83779,1,8,0:0:0:0:
256,192,83863,1,0,0:0:0:0:
256,192,83946,1,0,0:0:0:0:
256,192,84029,1,12,0:0:0:0:
256,192,84363,1,4,0:0:0:0:
256,192,84696,1,12,0:0:0:0:
256,192,84863,1,0,0:0:0:0:
256,192,85029,1,12,0:0:0:0:
256,192,85363,1,4,0:0:0:0:
256,192,85696,1,0,0:0:0:0:
256,192,85863,1,0,0:0:0:0:
256,192,86029,1,8,0:0:0:0:
256,192,86196,1,0,0:0:0:0:
256,192,86363,1,8,0:0:0:0:
256,192,86446,1,8,0:0:0:0:
256,192,86529,1,8,0:0:0:0:
256,192,86696,1,0,0:0:0:0:
256,192,86863,1,0,0:0:0:0:
256,192,87029,1,8,0:0:0:0:
256,192,87196,1,0,0:0:0:0:
256,192,87363,1,8,0:0:0:0:
256,192,87529,1,8,0:0:0:0:
256,192,87696,1,8,0:0:0:0:
256,192,87779,1,8,0:0:0:0:
256,192,87863,1,0,0:0:0:0:
256,192,88029,1,8,0:0:0:0:
256,192,88196,1,0,0:0:0:0:
256,192,88363,1,8,0:0:0:0:
256,192,88446,1,0,0:0:0:0:
256,192,88529,1,8,0:0:0:0:
256,192,88696,1,8,0:0:0:0:
256,192,88863,1,0,0:0:0:0:
256,192,89029,1,8,0:0:0:0:
256,192,89113,1,8,0:0:0:0:
256,192,89196,1,8,0:0:0:0:
256,192,89363,1,0,0:0:0:0:
256,192,89529,1,0,0:0:0:0:
256,192,89696,1,8,0:0:0:0:
256,192,89779,1,8,0:0:0:0:
256,192,89863,1,8,0:0:0:0:
256,192,90029,1,8,0:0:0:0:
256,192,90196,1,0,0:0:0:0:
256,192,90363,1,8,0:0:0:0:
256,192,90696,1,4,0:0:0:0:
256,192,91029,1,0,0:0:0:0:
256,192,91196,1,0,0:0:0:0:
256,192,91362,1,8,0:0:0:0:
256,192,91529,1,0,0:0:0:0:
256,192,91696,1,8,0:0:0:0:
256,192,91779,1,8,0:0:0:0:
256,192,91862,1,8,0:0:0:0:
256,192,92029,1,0,0:0:0:0:
256,192,92196,1,0,0:0:0:0:
256,192,92362,1,8,0:0:0:0:
256,192,92529,1,0,0:0:0:0:
256,192,92696,1,8,0:0:0:0:
256,192,92862,1,8,0:0:0:0:
256,192,93029,1,8,0:0:0:0:
256,192,93112,1,8,0:0:0:0:
256,192,93196,1,0,0:0:0:0:
256,192,93362,1,8,0:0:0:0:
256,192,93529,1,0,0:0:0:0:
256,192,93696,1,8,0:0:0:0:
256,192,93779,1,0,0:0:0:0:
256,192,93862,1,8,0:0:0:0:
256,192,94029,1,8,0:0:0:0:
256,192,94196,1,0,0:0:0:0:
256,192,94362,1,8,0:0:0:0:
256,192,94446,1,8,0:0:0:0:
256,192,94529,1,8,0:0:0:0:
256,192,94696,1,0,0:0:0:0:
256,192,94752,1,0,0:0:0:0:
256,192,94807,1,0,0:0:0:0:
256,192,94863,1,8,0:0:0:0:
256,192,94946,1,0,0:0:0:0:
256,192,95029,1,8,0:0:0:0:
256,192,95112,1,8,0:0:0:0:
256,192,95196,1,0,0:0:0:0:
256,192,95279,1,0,0:0:0:0:
256,192,95362,1,8,0:0:0:0:
256,192,95696,1,8,0:0:0:0:
256,192,95779,1,0,0:0:0:0:
256,192,95863,1,8,0:0:0:0:
256,192,95946,1,8,0:0:0:0:
256,192,96029,1,0,0:0:0:0:
256,192,96196,1,0,0:0:0:0:
256,192,96279,1,8,0:0:0:0:
256,192,96363,1,0,0:0:0:0:
256,192,96446,1,0,0:0:0:0:
256,192,96529,1,8,0:0:0:0:
256,192,96613,1,0,0:0:0:0:
256,192,96696,1,8,0:0:0:0:
256,192,96779,1,8,0:0:0:0:
256,192,96863,1,8,0:0:0:0:
256,192,96946,1,0,0:0:0:0:
256,192,97029,1,8,0:0:0:0:
256,192,97113,1,0,0:0:0:0:
256,192,97196,1,8,0:0:0:0:
256,192,97363,1,8,0:0:0:0:
256,192,97446,1,8,0:0:0:0:
256,192,97529,1,0,0:0:0:0:
256,192,97613,1,0,0:0:0:0:
256,192,97696,1,8,0:0:0:0:
256,192,97779,1,0,0:0:0:0:
256,192,97863,1,8,0:0:0:0:
256,192,97946,1,0,0:0:0:0:
256,192,98029,1,8,0:0:0:0:
256,192,98113,1,8,0:0:0:0:
256,192,98196,1,0,0:0:0:0:
256,192,98279,1,8,0:0:0:0:
256,192,98363,1,0,0:0:0:0:
256,192,98446,1,0,0:0:0:0:
256,192,98529,1,8,0:0:0:0:
256,192,98613,1,8,0:0:0:0:
256,192,98696,1,0,0:0:0:0:
256,192,98863,1,0,0:0:0:0:
256,192,98946,1,0,0:0:0:0:
256,192,99029,1,8,0:0:0:0:
256,192,99113,1,8,0:0:0:0:
256,192,99196,1,8,0:0:0:0:
256,192,99279,1,0,0:0:0:0:
256,192,99363,1,0,0:0:0:0:
256,192,99446,1,8,0:0:0:0:
256,192,99529,1,8,0:0:0:0:
256,192,99613,1,0,0:0:0:0:
256,192,99696,1,8,0:0:0:0:
256,192,99779,1,0,0:0:0:0:
256,192,99863,1,8,0:0:0:0:
256,192,100029,1,8,0:0:0:0:
256,192,100113,1,8,0:0:0:0:
256,192,100196,1,0,0:0:0:0:
256,192,100279,1,0,0:0:0:0:
256,192,100363,1,8,0:0:0:0:
256,192,100446,1,0,0:0:0:0:
256,192,100529,1,8,0:0:0:0:
256,192,100613,1,0,0:0:0:0:
256,192,100696,1,8,0:0:0:0:
256,192,100779,1,8,0:0:0:0:
256,192,100863,1,0,0:0:0:0:
256,192,100946,1,0,0:0:0:0:
256,192,101029,1,8,0:0:0:0:
256,192,101113,1,8,0:0:0:0:
256,192,101196,1,0,0:0:0:0:
256,192,101279,1,8,0:0:0:0:
256,192,101363,1,0,0:0:0:0:
256,192,101530,1,0,0:0:0:0:
256,192,101613,1,8,0:0:0:0:
256,192,101697,1,0,0:0:0:0:
256,192,101780,1,0,0:0:0:0:
256,192,101863,1,8,0:0:0:0:
256,192,101947,1,0,0:0:0:0:
256,192,102030,1,8,0:0:0:0:
256,192,102113,1,8,0:0:0:0:
256,192,102197,1,8,0:0:0:0:
256,192,102280,1,0,0:0:0:0:
256,192,102363,1,8,0:0:0:0:
256,192,102447,1,0,0:0:0:0:
256,192,102530,1,8,0:0:0:0:
256,192,102696,1,8,0:0:0:0:
256,192,102779,1,8,0:0:0:0:
256,192,102862,1,0,0:0:0:0:
256,192,102946,1,0,0:0:0:0:
256,192,103029,1,8,0:0:0:0:
256,192,103112,1,0,0:0:0:0:
256,192,103196,1,8,0:0:0:0:
256,192,103279,1,0,0:0:0:0:
256,192,103362,1,8,0:0:0:0:
256,192,103446,1,8,0:0:0:0:
256,192,103529,1,0,0:0:0:0:
256,192,103612,1,8,0:0:0:0:
256,192,103696,1,0,0:0:0:0:
256,192,103779,1,0,0:0:0:0:
256,192,103862,1,8,0:0:0:0:
256,192,104029,1,0,0:0:0:0:
256,192,104113,1,0,0:0:0:0:
256,192,104196,1,0,0:0:0:0:
256,192,104279,1,0,0:0:0:0:
256,192,104363,1,8,0:0:0:0:
256,192,104446,1,0,0:0:0:0:
256,192,104529,1,8,0:0:0:0:
256,192,104613,1,0,0:0:0:0:
256,192,104696,1,8,0:0:0:0:
256,192,104779,1,8,0:0:0:0:
256,192,104863,1,0,0:0:0:0:
256,192,104946,1,0,0:0:0:0:
256,192,105029,1,8,0:0:0:0:
256,192,105113,1,8,0:0:0:0:
256,192,105196,1,0,0:0:0:0:
256,192,105279,1,0,0:0:0:0:
256,192,105363,1,12,0:0:0:0:
256,192,105696,1,0,0:0:0:0:
256,192,105779,1,0,0:0:0:0:
256,192,105863,1,0,0:0:0:0:
256,192,105946,1,0,0:0:0:0:
256,192,106029,1,8,0:0:0:0:
256,192,106113,1,0,0:0:0:0:
256,192,106196,1,8,0:0:0:0:
256,192,106252,1,8,0:0:0:0:
256,192,106307,1,8,0:0:0:0:
256,192,106363,1,0,0:0:0:0:
256,192,106696,1,4,0:0:0:0:
256,192,106863,1,0,0:0:0:0:
256,192,106946,1,0,0:0:0:0:
256,192,107029,1,8,0:0:0:0:
256,192,107196,1,8,0:0:0:0:
256,192,107363,1,0,0:0:0:0:
256,192,107529,1,0,0:0:0:0:
256,192,107696,1,8,0:0:0:0:
256,192,107779,1,8,0:0:0:0:
256,192,107863,1,8,0:0:0:0:
256,192,107946,1,8,0:0:0:0:
256,192,108029,1,0,0:0:0:0:
256,192,108196,1,0,0:0:0:0:
256,192,108279,1,0,0:0:0:0:
256,192,108363,1,8,0:0:0:0:
256,192,108446,1,0,0:0:0:0:
256,192,108529,1,8,0:0:0:0:
256,192,108585,1,8,0:0:0:0:
256,192,108641,1,8,0:0:0:0:
256,192,108696,1,0,0:0:0:0:
256,192,108779,1,0,0:0:0:0:
256,192,108863,1,8,0:0:0:0:
256,192,108946,1,0,0:0:0:0:
256,192,109029,1,8,0:0:0:0:
256,192,109196,1,0,0:0:0:0:
256,192,109252,1,0,0:0:0:0:
256,192,109307,1,0,0:0:0:0:
256,192,109363,1,8,0:0:0:0:
256,192,109529,1,0,0:0:0:0:
256,192,109696,1,8,0:0:0:0:
256,192,109863,1,0,0:0:0:0:
256,192,110029,1,8,0:0:0:0:
256,192,110196,1,0,0:0:0:0:
256,192,110279,1,0,0:0:0:0:
256,192,110363,1,8,0:0:0:0:
256,192,110446,1,0,0:0:0:0:
256,192,110529,1,8,0:0:0:0:
256,192,110613,1,8,0:0:0:0:
256,192,110696,1,4,0:0:0:0:
256,192,111029,1,0,0:0:0:0:
256,192,111113,1,0,0:0:0:0:
256,192,111196,1,8,0:0:0:0:
256,192,111252,1,8,0:0:0:0:
256,192,111307,1,8,0:0:0:0:
256,192,111363,1,0,0:0:0:0:
256,192,111529,1,0,0:0:0:0:
256,192,111585,1,0,0:0:0:0:
256,192,111696,1,8,0:0:0:0:
256,192,111752,1,8,0:0:0:0:
256,192,111863,1,0,0:0:0:0:
256,192,111918,1,0,0:0:0:0:
256,192,112029,1,8,0:0:0:0:
256,192,112196,1,0,0:0:0:0:
256,192,112279,1,0,0:0:0:0:
256,192,112363,1,8,0:0:0:0:
256,192,112529,1,8,0:0:0:0:
256,192,112585,1,8,0:0:0:0:
256,192,112641,1,8,0:0:0:0:
256,192,112696,1,0,0:0:0:0:
256,192,112863,1,8,0:0:0:0:
256,192,113029,1,0,0:0:0:0:
256,192,113113,1,0,0:0:0:0:
256,192,113196,1,0,0:0:0:0:
256,192,113279,1,0,0:0:0:0:
256,192,113363,1,8,0:0:0:0:
256,192,113529,1,0,0:0:0:0:
256,192,113613,1,0,0:0:0:0:
256,192,113696,1,8,0:0:0:0:
256,192,113779,1,0,0:0:0:0:
256,192,113863,1,8,0:0:0:0:
256,192,113918,1,8,0:0:0:0:
256,192,113974,1,8,0:0:0:0:
256,192,114029,1,0,0:0:0:0:
256,192,114113,1,0,0:0:0:0:
256,192,114196,1,0,0:0:0:0:
256,192,114279,1,8,0:0:0:0:
256,192,114363,1,0,0:0:0:0:
256,192,114529,1,8,0:0:0:0:
256,192,114696,1,0,0:0:0:0:
256,192,114863,1,0,0:0:0:0:
256,192,115029,1,8,0:0:0:0:
256,192,115196,1,8,0:0:0:0:
256,192,115279,1,8,0:0:0:0:
256,192,115363,1,0,0:0:0:0:
256,192,115446,1,8,0:0:0:0:
256,192,115529,1,0,0:0:0:0:
256,192,115613,1,0,0:0:0:0:
256,192,115696,1,8,0:0:0:0:
256,192,115779,1,0,0:0:0:0:
256,192,115863,1,8,0:0:0:0:
256,192,115946,1,8,0:0:0:0:
256,192,116029,1,0,0:0:0:0:
256,192,116196,1,0,0:0:0:0:
256,192,116363,1,0,0:0:0:0:
256,192,116529,1,0,0:0:0:0:
256,192,116696,1,12,0:0:0:0:
256,192,116863,1,0,0:0:0:0:
256,192,116946,1,0,0:0:0:0:
256,192,117029,1,8,0:0:0:0:
256,192,117113,1,0,0:0:0:0:
256,192,117196,1,8,0:0:0:0:
256,192,117363,1,4,0:0:0:0:
256,192,117613,1,0,0:0:0:0:
256,192,117696,1,8,0:0:0:0:
256,192,117863,1,0,0:0:0:0:
256,192,118029,1,8,0:0:0:0:
256,192,118113,1,0,0:0:0:0:
256,192,118196,1,8,0:0:0:0:
256,192,118363,1,0,0:0:0:0:
256,192,118446,1,8,0:0:0:0:
256,192,118529,1,8,0:0:0:0:
256,192,118613,1,8,0:0:0:0:
256,192,118696,1,0,0:0:0:0:
256,192,118863,1,8,0:0:0:0:
256,192,118946,1,8,0:0:0:0:
256,192,119029,1,0,0:0:0:0:
256,192,119113,1,8,0:0:0:0:
256,192,119196,1,0,0:0:0:0:
256,192,119363,1,0,0:0:0:0:
256,192,119446,1,8,0:0:0:0:
256,192,119529,1,0,0:0:0:0:
256,192,119613,1,0,0:0:0:0:
256,192,119696,1,8,0:0:0:0:
256,192,119863,1,0,0:0:0:0:
256,192,120029,1,8,0:0:0:0:
256,192,120113,1,0,0:0:0:0:
256,192,120196,1,8,0:0:0:0:
256,192,120363,1,0,0:0:0:0:
256,192,120446,1,0,0:0:0:0:
256,192,120529,1,8,0:0:0:0:
256,192,120696,1,0,0:0:0:0:
256,192,120863,1,8,0:0:0:0:
256,192,120946,1,8,0:0:0:0:
256,192,121029,1,0,0:0:0:0:
256,192,121113,1,8,0:0:0:0:
256,192,121196,1,0,0:0:0:0:
256,192,121363,1,4,0:0:0:0:
256,192,121613,1,0,0:0:0:0:
256,192,121696,1,8,0:0:0:0:
256,192,121863,1,8,0:0:0:0:
256,192,122029,1,4,0:0:0:0:
256,192,122279,1,8,0:0:0:0:
256,192,122363,1,0,0:0:0:0:
256,192,122529,1,8,0:0:0:0:
256,192,122696,1,4,0:0:0:0:
256,192,122946,1,0,0:0:0:0:
256,192,123029,1,8,0:0:0:0:
256,192,123196,1,0,0:0:0:0:
256,192,123362,1,0,0:0:0:0:
256,192,123446,1,8,0:0:0:0:
256,192,123529,1,8,0:0:0:0:
256,192,123696,1,0,0:0:0:0:
256,192,123779,1,8,0:0:0:0:
256,192,123862,1,0,0:0:0:0:
256,192,123946,1,0,0:0:0:0:
256,192,124029,1,8,0:0:0:0:
256,192,124196,1,8,0:0:0:0:
256,192,124279,1,8,0:0:0:0:
256,192,124362,1,0,0:0:0:0:
256,192,124446,1,8,0:0:0:0:
256,192,124529,1,0,0:0:0:0:
256,192,124696,1,0,0:0:0:0:
256,192,124779,1,8,0:0:0:0:
256,192,124862,1,8,0:0:0:0:
256,192,124946,1,0,0:0:0:0:
256,192,125029,1,8,0:0:0:0:
256,192,125196,1,0,0:0:0:0:
256,192,125363,1,0,0:0:0:0:
256,192,125446,1,8,0:0:0:0:
256,192,125529,1,8,0:0:0:0:
256,192,125696,1,0,0:0:0:0:
256,192,125779,1,0,0:0:0:0:
256,192,125862,1,8,0:0:0:0:
256,192,126029,1,0,0:0:0:0:
256,192,126196,1,8,0:0:0:0:
256,192,126279,1,8,0:0:0:0:
256,192,126362,1,0,0:0:0:0:
256,192,126446,1,8,0:0:0:0:
256,192,126529,1,0,0:0:0:0:
256,192,126696,1,4,0:0:0:0:
256,192,126946,1,0,0:0:0:0:
256,192,127029,1,8,0:0:0:0:
256,192,127196,1,0,0:0:0:0:
256,192,127363,1,8,0:0:0:0:
256,192,127446,1,8,0:0:0:0:
256,192,127529,1,8,0:0:0:0:
256,192,127613,1,8,0:0:0:0:
256,192,127696,1,0,0:0:0:0:
256,192,128029,1,4,0:0:0:0:
256,192,128279,1,0,0:0:0:0:
256,192,128363,1,8,0:0:0:0:
256,192,128529,1,8,0:0:0:0:
256,192,128696,1,0,0:0:0:0:
256,192,128863,1,0,0:0:0:0:
256,192,128946,1,0,0:0:0:0:
256,192,129029,1,8,0:0:0:0:
256,192,129113,1,0,0:0:0:0:
256,192,129196,1,8,0:0:0:0:
256,192,129279,1,8,0:0:0:0:
256,192,129363,1,0,0:0:0:0:
256,192,129529,1,0,0:0:0:0:
256,192,129613,1,8,0:0:0:0:
256,192,129696,1,0,0:0:0:0:
256,192,129779,1,8,0:0:0:0:
256,192,129863,1,8,0:0:0:0:
256,192,130029,1,0,0:0:0:0:
256,192,130113,1,8,0:0:0:0:
256,192,130196,1,0,0:0:0:0:
256,192,130279,1,0,0:0:0:0:
256,192,130363,1,8,0:0:0:0:
256,192,130529,1,8,0:0:0:0:
256,192,130696,1,4,0:0:0:0:
256,192,130946,1,8,0:0:0:0:
256,192,131029,1,0,0:0:0:0:
256,192,131196,1,8,0:0:0:0:
256,192,131363,1,0,0:0:0:0:
256,192,131446,1,8,0:0:0:0:
256,192,131529,1,0,0:0:0:0:
256,192,131613,1,0,0:0:0:0:
256,192,131696,1,8,0:0:0:0:
256,192,131779,1,8,0:0:0:0:
256,192,131863,1,0,0:0:0:0:
256,192,131946,1,0,0:0:0:0:
256,192,132029,1,8,0:0:0:0:
256,192,132279,1,8,0:0:0:0:
256,192,132363,1,0,0:0:0:0:
256,192,132529,1,8,0:0:0:0:
256,192,132696,1,0,0:0:0:0:
256,192,132779,1,8,0:0:0:0:
256,192,132946,1,8,0:0:0:0:
256,192,133029,1,0,0:0:0:0:
256,192,133363,1,4,0:0:0:0:
256,192,133613,1,0,0:0:0:0:
256,192,133697,1,8,0:0:0:0:
256,192,133863,1,8,0:0:0:0:
256,192,134030,1,0,0:0:0:0:
256,192,134197,1,0,0:0:0:0:
256,192,134280,1,0,0:0:0:0:
256,192,134363,1,8,0:0:0:0:
256,192,134447,1,8,0:0:0:0:
256,192,134530,1,0,0:0:0:0:
256,192,134613,1,8,0:0:0:0:
256,192,134697,1,0,0:0:0:0:
256,192,134863,1,0,0:0:0:0:
256,192,134947,1,0,0:0:0:0:
256,192,135030,1,8,0:0:0:0:
256,192,135113,1,8,0:0:0:0:
256,192,135197,1,8,0:0:0:0:
256,192,135363,1,0,0:0:0:0:
256,192,135447,1,8,0:0:0:0:
256,192,135530,1,8,0:0:0:0:
256,192,135613,1,0,0:0:0:0:
256,192,135697,1,8,0:0:0:0:
256,192,135863,1,8,0:0:0:0:
256,192,136030,1,4,0:0:0:0:
256,192,136363,1,8,0:0:0:0:
256,192,136530,1,0,0:0:0:0:
256,192,136697,1,8,0:0:0:0:
256,192,136863,1,0,0:0:0:0:
256,192,136947,1,0,0:0:0:0:
256,192,137030,1,8,0:0:0:0:
256,192,137113,1,8,0:0:0:0:
256,192,137197,1,0,0:0:0:0:
256,192,137280,1,0,0:0:0:0:
256,192,137363,1,8,0:0:0:0:
256,192,137697,1,8,0:0:0:0:
256,192,137863,1,0,0:0:0:0:
256,192,137946,1,8,0:0:0:0:
256,192,138030,1,0,0:0:0:0:
256,192,138363,1,0,0:0:0:0:
256,192,138446,1,0,0:0:0:0:
256,192,138529,1,8,0:0:0:0:
256,192,138613,1,8,0:0:0:0:
256,192,138696,1,0,0:0:0:0:
256,192,138946,1,8,0:0:0:0:
256,192,139029,1,0,0:0:0:0:
256,192,139196,1,8,0:0:0:0:
256,192,139363,1,0,0:0:0:0:
256,192,139529,1,0,0:0:0:0:
256,192,139613,1,8,0:0:0:0:
256,192,139696,1,0,0:0:0:0:
256,192,139779,1,0,0:0:0:0:
256,192,139863,1,8,0:0:0:0:
256,192,139946,1,0,0:0:0:0:
256,192,140029,1,8,0:0:0:0:
256,192,140196,1,0,0:0:0:0:
256,192,140279,1,8,0:0:0:0:
256,192,140363,1,8,0:0:0:0:
256,192,140446,1,0,0:0:0:0:
256,192,140529,1,8,0:0:0:0:
256,192,140696,1,0,0:0:0:0:
256,192,140863,1,8,0:0:0:0:
256,192,140946,1,0,0:0:0:0:
256,192,141029,1,8,0:0:0:0:
256,192,141113,1,8,0:0:0:0:
256,192,141196,1,0,0:0:0:0:
256,192,141279,1,0,0:0:0:0:
256,192,141363,1,8,0:0:0:0:
256,192,141613,1,8,0:0:0:0:
256,192,141696,1,0,0:0:0:0:
256,192,141863,1,8,0:0:0:0:
256,192,142029,1,0,0:0:0:0:
256,192,142196,1,8,0:0:0:0:
256,192,142279,1,8,0:0:0:0:
256,192,142363,1,0,0:0:0:0:
256,192,142446,1,8,0:0:0:0:
256,192,142529,1,0,0:0:0:0:
256,192,142613,1,8,0:0:0:0:
256,192,142696,1,0,0:0:0:0:
256,192,142946,1,0,0:0:0:0:
256,192,143029,1,8,0:0:0:0:
256,192,143196,1,0,0:0:0:0:
256,192,143363,1,0,0:0:0:0:
256,192,143446,1,8,0:0:0:0:
256,192,143529,1,8,0:0:0:0:
256,192,143613,1,0,0:0:0:0:
256,192,143696,1,8,0:0:0:0:
256,192,143863,1,0,0:0:0:0:
256,192,144029,1,8,0:0:0:0:
256,192,144196,1,0,0:0:0:0:
256,192,144363,1,8,0:0:0:0:
256,192,144529,1,8,0:0:0:0:
256,192,144613,1,8,0:0:0:0:
256,192,144696,1,0,0:0:0:0:
256,192,144863,1,8,0:0:0:0:
256,192,145029,1,0,0:0:0:0:
256,192,145113,1,8,0:0:0:0:
256,192,145196,1,8,0:0:0:0:
256,192,145279,1,0,0:0:0:0:
256,192,145363,1,8,0:0:0:0:
256,192,145529,1,0,0:0:0:0:
256,192,145613,1,0,0:0:0:0:
256,192,145696,1,8,0:0:0:0:
256,192,145863,1,0,0:0:0:0:
256,192,146029,1,8,0:0:0:0:
256,192,146113,1,8,0:0:0:0:
256,192,146196,1,0,0:0:0:0:
256,192,146279,1,8,0:0:0:0:
256,192,146363,1,0,0:0:0:0:
256,192,146529,1,8,0:0:0:0:
256,192,146613,1,0,0:0:0:0:
256,192,146696,1,8,0:0:0:0:
256,192,146779,1,8,0:0:0:0:
256,192,146863,1,0,0:0:0:0:
256,192,146946,1,0,0:0:0:0:
256,192,147029,1,8,0:0:0:0:
256,192,147113,1,0,0:0:0:0:
256,192,147196,1,8,0:0:0:0:
256,192,147279,1,0,0:0:0:0:
256,192,147363,1,8,0:0:0:0:
256,192,147446,1,8,0:0:0:0:
256,192,147529,1,0,0:0:0:0:
256,192,147613,1,0,0:0:0:0:
256,192,147696,1,8,0:0:0:0:
256,192,147779,1,8,0:0:0:0:
256,192,147863,1,8,0:0:0:0:
256,192,147946,1,8,0:0:0:0:
256,192,148029,1,4,0:0:0:0:
256,192,148363,1,8,0:0:0:0:
256,192,148418,1,8,0:0:0:0:
256,192,148474,1,8,0:0:0:0:
256,192,148529,1,8,0:0:0:0:
256,192,148585,1,8,0:0:0:0:
256,192,148641,1,8,0:0:0:0:
256,192,148696,1,0,0:0:0:0:
256,192,148863,1,0,0:0:0:0:
256,192,149029,1,12,0:0:0:0:
256,192,149363,1,4,0:0:0:0:
256,192,149529,1,0,0:0:0:0:
256,192,149613,1,0,0:0:0:0:
256,192,149696,1,8,0:0:0:0:
256,192,149779,1,8,0:0:0:0:
256,192,149946,1,0,0:0:0:0:
256,192,150029,1,8,0:0:0:0:
256,192,150113,1,0,0:0:0:0:
256,192,150196,1,8,0:0:0:0:
256,192,150279,1,8,0:0:0:0:
256,192,150446,1,0,0:0:0:0:
256,192,150529,1,0,0:0:0:0:
256,192,150613,1,8,0:0:0:0:
256,192,150696,1,0,0:0:0:0:
256,192,150863,1,0,0:0:0:0:
256,192,151029,1,8,0:0:0:0:
256,192,151113,1,0,0:0:0:0:
256,192,151279,1,0,0:0:0:0:
256,192,151363,1,8,0:0:0:0:
256,192,151446,1,0,0:0:0:0:
256,192,151529,1,8,0:0:0:0:
256,192,151613,1,8,0:0:0:0:
256,192,151779,1,0,0:0:0:0:
256,192,151863,1,8,0:0:0:0:
256,192,151946,1,8,0:0:0:0:
256,192,152113,1,8,0:0:0:0:
256,192,152196,1,0,0:0:0:0:
256,192,152279,1,0,0:0:0:0:
256,192,152363,1,8,0:0:0:0:
256,192,152446,1,8,0:0:0:0:
256,192,152613,1,0,0:0:0:0:
256,192,152696,1,8,0:0:0:0:
256,192,152779,1,0,0:0:0:0:
256,192,152863,1,0,0:0:0:0:
256,192,152946,1,8,0:0:0:0:
256,192,153113,1,0,0:0:0:0:
256,192,153196,1,8,0:0:0:0:
256,192,153279,1,0,0:0:0:0:
256,192,153363,1,8,0:0:0:0:
256,192,153446,1,8,0:0:0:0:
256,192,153529,1,8,0:0:0:0:
256,192,153613,1,8,0:0:0:0:
256,192,153696,1,0,0:0:0:0:
256,192,153863,1,8,0:0:0:0:
256,192,153946,1,8,0:0:0:0:
256,192,154029,1,0,0:0:0:0:
256,192,154113,1,8,0:0:0:0:
256,192,154196,1,0,0:0:0:0:
256,192,154279,1,8,0:0:0:0:
256,192,154363,1,0,0:0:0:0:
256,192,154446,1,8,0:0:0:0:
256,192,154529,1,8,0:0:0:0:
256,192,154696,1,0,0:0:0:0:
256,192,154862,1,0,0:0:0:0:
256,192,154946,1,0,0:0:0:0:
256,192,155029,1,8,0:0:0:0:
256,192,155112,1,8,0:0:0:0:
256,192,155279,1,0,0:0:0:0:
256,192,155362,1,8,0:0:0:0:
256,192,155446,1,0,0:0:0:0:
256,192,155529,1,8,0:0:0:0:
256,192,155612,1,8,0:0:0:0:
256,192,155779,1,0,0:0:0:0:
256,192,155862,1,0,0:0:0:0:
256,192,155946,1,8,0:0:0:0:
256,192,156029,1,0,0:0:0:0:
256,192,156196,1,0,0:0:0:0:
256,192,156362,1,8,0:0:0:0:
256,192,156446,1,0,0:0:0:0:
256,192,156612,1,0,0:0:0:0:
256,192,156696,1,8,0:0:0:0:
256,192,156779,1,0,0:0:0:0:
256,192,156862,1,8,0:0:0:0:
256,192,156946,1,8,0:0:0:0:
256,192,157112,1,0,0:0:0:0:
256,192,157196,1,8,0:0:0:0:
256,192,157279,1,8,0:0:0:0:
256,192,157446,1,8,0:0:0:0:
256,192,157529,1,0,0:0:0:0:
256,192,157612,1,0,0:0:0:0:
256,192,157696,1,8,0:0:0:0:
256,192,157779,1,8,0:0:0:0:
256,192,157946,1,0,0:0:0:0:
256,192,158029,1,8,0:0:0:0:
256,192,158112,1,0,0:0:0:0:
256,192,158196,1,0,0:0:0:0:
256,192,158279,1,8,0:0:0:0:
256,192,158446,1,0,0:0:0:0:
256,192,158529,1,8,0:0:0:0:
256,192,158612,1,0,0:0:0:0:
256,192,158696,1,8,0:0:0:0:
256,192,158779,1,8,0:0:0:0:
256,192,158862,1,0,0:0:0:0:
256,192,158918,1,0,0:0:0:0:
256,192,158974,1,0,0:0:0:0:
256,192,159029,1,8,0:0:0:0:
256,192,159196,1,0,0:0:0:0:
256,192,159279,1,0,0:0:0:0:
256,192,159362,1,8,0:0:0:0:
256,192,159446,1,8,0:0:0:0:
256,192,159529,1,0,0:0:0:0:
256,192,159613,1,0,0:0:0:0:
256,192,159696,1,12,0:0:0:0:
256,192,159863,1,0,0:0:0:0:
256,192,160029,1,12,0:0:0:0:
256,192,160196,1,0,0:0:0:0:
256,192,160279,1,0,0:0:0:0:
256,192,160363,1,8,0:0:0:0:
256,192,160529,1,0,0:0:0:0:
256,192,160696,1,8,0:0:0:0:
256,192,160863,1,0,0:0:0:0:
256,192,160946,1,8,0:0:0:0:
256,192,161029,1,0,0:0:0:0:
256,192,161196,1,8,0:0:0:0:
256,192,161363,1,0,0:0:0:0:
256,192,161529,1,0,0:0:0:0:
256,192,161613,1,0,0:0:0:0:
256,192,161696,1,8,0:0:0:0:
256,192,161863,1,0,0:0:0:0:
256,192,162029,1,8,0:0:0:0:
256,192,162196,1,0,0:0:0:0:
256,192,162279,1,0,0:0:0:0:
256,192,162363,1,8,0:0:0:0:
256,192,162446,1,8,0:0:0:0:
256,192,162529,1,8,0:0:0:0:
256,192,162613,1,8,0:0:0:0:
256,192,162696,1,0,0:0:0:0:
256,192,162863,1,0,0:0:0:0:
256,192,162946,1,8,0:0:0:0:
256,192,163029,1,0,0:0:0:0:
256,192,163196,1,8,0:0:0:0:
256,192,163363,1,0,0:0:0:0:
256,192,163529,1,8,0:0:0:0:
256,192,163613,1,8,0:0:0:0:
256,192,163696,1,0,0:0:0:0:
256,192,163863,1,8,0:0:0:0:
256,192,164029,1,0,0:0:0:0:
256,192,164196,1,0,0:0:0:0:
256,192,164279,1,0,0:0:0:0:
256,192,164363,1,8,0:0:0:0:
256,192,164529,1,0,0:0:0:0:
256,192,164696,1,8,0:0:0:0:
256,192,164779,1,8,0:0:0:0:
256,192,164863,1,0,0:0:0:0:
256,192,164946,1,0,0:0:0:0:
256,192,165029,1,8,0:0:0:0:
256,192,165196,1,8,0:0:0:0:
256,192,165363,1,0,0:0:0:0:
256,192,165529,1,0,0:0:0:0:
256,192,165613,1,8,0:0:0:0:
256,192,165696,1,0,0:0:0:0:
256,192,165779,1,0,0:0:0:0:
256,192,165863,1,8,0:0:0:0:
256,192,166029,1,0,0:0:0:0:
256,192,166196,1,8,0:0:0:0:
256,192,166363,1,0,0:0:0:0:
256,192,166529,1,0,0:0:0:0:
256,192,166613,1,0,0:0:0:0:
256,192,166696,1,8,0:0:0:0:
256,192,166863,1,0,0:0:0:0:
256,192,167029,1,8,0:0:0:0:
256,192,167113,1,0,0:0:0:0:
256,192,167196,1,8,0:0:0:0:
256,192,167279,1,8,0:0:0:0:
256,192,167363,1,0,0:0:0:0:
256,192,167529,1,8,0:0:0:0:
256,192,167696,1,0,0:0:0:0:
256,192,167863,1,0,0:0:0:0:
256,192,167946,1,0,0:0:0:0:
256,192,168029,1,8,0:0:0:0:
256,192,168113,1,8,0:0:0:0:
256,192,168196,1,0,0:0:0:0:
256,192,168279,1,0,0:0:0:0:
256,192,168363,1,8,0:0:0:0:
256,192,168446,1,0,0:0:0:0:
256,192,168529,1,8,0:0:0:0:
256,192,168613,1,0,0:0:0:0:
256,192,168696,1,8,0:0:0:0:
256,192,168779,1,8,0:0:0:0:
256,192,168863,1,8,0:0:0:0:
256,192,168946,1,8,0:0:0:0:
256,192,169029,1,0,0:0:0:0:
256,192,169113,1,0,0:0:0:0:
256,192,169196,1,0,0:0:0:0:
256,192,169279,1,0,0:0:0:0:
256,192,169363,1,12,0:0:0:0:
256,192,169696,1,0,0:0:0:0:
256,192,169752,1,0,0:0:0:0:
256,192,169807,1,0,0:0:0:0:
256,192,169863,1,0,0:0:0:0:
256,192,169918,1,0,0:0:0:0:
256,192,169974,1,0,0:0:0:0:
256,192,170029,1,8,0:0:0:0:
256,192,170113,1,8,0:0:0:0:
256,192,170196,1,0,0:0:0:0:
256,192,170279,1,0,0:0:0:0:
256,192,170363,1,12,0:0:0:0:
256,192,170696,1,4,0:0:0:0:
256,192,171029,1,8,0:0:0:0:
256,192,171196,1,0,0:0:0:0:
256,192,171279,1,0,0:0:0:0:
256,192,171363,1,8,0:0:0:0:
256,192,171613,1,0,0:0:0:0:
256,192,171696,1,8,0:0:0:0:
256,192,171863,1,0,0:0:0:0:
256,192,172029,1,8,0:0:0:0:
256,192,172363,1,8,0:0:0:0:
256,192,172530,1,0,0:0:0:0:
256,192,172613,1,0,0:0:0:0:
256,192,172697,1,8,0:0:0:0:
256,192,172779,1,0,0:0:0:0:
256,192,172863,1,0,0:0:0:0:
256,192,173030,1,12,0:0:0:0:
256,192,173197,1,4,0:0:0:0:
256,192,173363,1,12,0:0:0:0:
256,192,173696,1,8,0:0:0:0:
256,192,173863,1,0,0:0:0:0:
256,192,173946,1,0,0:0:0:0:
256,192,174030,1,8,0:0:0:0:
256,192,174280,1,0,0:0:0:0:
256,192,174363,1,8,0:0:0:0:
256,192,174530,1,0,0:0:0:0:
256,192,174696,1,8,0:0:0:0:
256,192,175029,1,8,0:0:0:0:
256,192,175196,1,0,0:0:0:0:
256,192,175279,1,0,0:0:0:0:
256,192,175363,1,8,0:0:0:0:
256,192,175529,1,0,0:0:0:0:
256,192,175696,1,8,0:0:0:0:
256,192,175863,1,8,0:0:0:0:
256,192,176029,1,4,0:0:0:0:
256,192,176362,1,8,0:0:0:0:
256,192,176529,1,0,0:0:0:0:
256,192,176612,1,0,0:0:0:0:
256,192,176696,1,8,0:0:0:0:
256,192,176946,1,0,0:0:0:0:
256,192,177029,1,8,0:0:0:0:
256,192,177196,1,0,0:0:0:0:
256,192,177362,1,8,0:0:0:0:
256,192,177696,1,8,0:0:0:0:
256,192,177863,1,0,0:0:0:0:
256,192,177946,1,0,0:0:0:0:
256,192,178030,1,8,0:0:0:0:
256,192,178112,1,0,0:0:0:0:
256,192,178196,1,0,0:0:0:0:
256,192,178363,1,12,0:0:0:0:
256,192,178696,1,4,0:0:0:0:
256,192,179029,1,8,0:0:0:0:
256,192,179196,1,0,0:0:0:0:
256,192,179279,1,0,0:0:0:0:
256,192,179363,1,8,0:0:0:0:
256,192,179613,1,0,0:0:0:0:
256,192,179696,1,8,0:0:0:0:
256,192,179863,1,0,0:0:0:0:
256,192,180029,1,8,0:0:0:0:
256,192,180112,1,0,0:0:0:0:
256,192,180196,1,8,0:0:0:0:
256,192,180279,1,0,0:0:0:0:
256,192,180362,1,8,0:0:0:0:
256,192,180418,1,8,0:0:0:0:
256,192,180529,1,0,0:0:0:0:
256,192,180612,1,0,0:0:0:0:
256,192,180696,1,8,0:0:0:0:
256,192,180751,1,8,0:0:0:0:
256,192,180862,1,0,0:0:0:0:
256,192,180946,1,0,0:0:0:0:
256,192,181029,1,8,0:0:0:0:
256,192,181196,1,8,0:0:0:0:
256,192,181363,1,4,0:0:0:0:
256,192,181696,1,8,0:0:0:0:
256,192,181863,1,0,0:0:0:0:
256,192,182363,1,8,0:0:0:0:
256,192,182696,1,0,0:0:0:0:
256,192,183029,1,8,0:0:0:0:
256,192,183196,1,0,0:0:0:0:
256,192,183696,1,8,0:0:0:0:
256,192,184029,1,0,0:0:0:0:
256,192,184363,1,8,0:0:0:0:
256,192,184529,1,0,0:0:0:0:
256,192,185029,1,8,0:0:0:0:
256,192,185363,1,0,0:0:0:0:
256,192,185696,1,8,0:0:0:0:
256,192,185863,1,0,0:0:0:0:
256,192,186363,1,8,0:0:0:0:
256,192,186529,1,0,0:0:0:0:
256,192,186613,1,0,0:0:0:0:
256,192,186696,1,0,0:0:0:0:
256,192,187029,1,8,0:0:0:0:
256,192,187196,1,0,0:0:0:0:
256,192,187696,1,8,0:0:0:0:
256,192,188029,1,0,0:0:0:0:
256,192,188363,1,8,0:0:0:0:
256,192,188529,1,0,0:0:0:0:
256,192,189029,1,8,0:0:0:0:
256,192,189363,1,0,0:0:0:0:
256,192,189696,1,8,0:0:0:0:
256,192,190029,1,0,0:0:0:0:
256,192,190363,1,8,0:0:0:0:
256,192,190529,1,0,0:0:0:0:
256,192,190613,1,0,0:0:0:0:
256,192,190696,1,0,0:0:0:0:
256,192,191029,1,8,0:0:0:0:
256,192,191363,1,0,0:0:0:0:
256,192,191696,1,8,0:0:0:0:
256,192,192029,1,0,0:0:0:0:
256,192,192279,1,8,0:0:0:0:
256,192,192363,1,0,0:0:0:0:
256,192,192529,1,8,0:0:0:0:
256,192,192696,1,0,0:0:0:0:
256,192,192946,1,8,0:0:0:0:
256,192,193029,1,0,0:0:0:0:
256,192,193196,1,8,0:0:0:0:
256,192,193363,1,0,0:0:0:0:
256,192,193613,1,8,0:0:0:0:
256,192,193696,1,0,0:0:0:0:
256,192,193863,1,8,0:0:0:0:
256,192,194029,1,0,0:0:0:0:
256,192,194196,1,8,0:0:0:0:
256,192,194363,1,0,0:0:0:0:
256,192,194446,1,8,0:0:0:0:
256,192,194529,1,8,0:0:0:0:
256,192,194613,1,8,0:0:0:0:
256,192,194696,1,0,0:0:0:0:
256,192,194946,1,8,0:0:0:0:
256,192,195029,1,0,0:0:0:0:
256,192,195196,1,8,0:0:0:0:
256,192,195363,1,0,0:0:0:0:
256,192,195613,1,8,0:0:0:0:
256,192,195696,1,0,0:0:0:0:
256,192,195863,1,8,0:0:0:0:
256,192,196029,1,0,0:0:0:0:
256,192,196279,1,8,0:0:0:0:
256,192,196363,1,0,0:0:0:0:
256,192,196529,1,8,0:0:0:0:
256,192,196696,1,0,0:0:0:0:
256,192,196779,1,8,0:0:0:0:
256,192,196863,1,8,0:0:0:0:
256,192,197029,1,0,0:0:0:0:
256,192,197196,1,8,0:0:0:0:
256,192,197363,1,0,0:0:0:0:
256,192,197529,1,0,0:0:0:0:
256,192,197696,1,0,0:0:0:0:
256,192,197863,1,0,0:0:0:0:
256,192,198029,1,0,0:0:0:0:
256,192,198196,1,8,0:0:0:0:
256,192,198363,1,0,0:0:0:0:
256,192,198529,1,8,0:0:0:0:
256,192,198696,1,0,0:0:0:0:
256,192,198863,1,0,0:0:0:0:
256,192,199029,1,0,0:0:0:0:
256,192,199196,1,0,0:0:0:0:
256,192,199363,1,0,0:0:0:0:
256,192,199529,1,8,0:0:0:0:
256,192,199696,1,8,0:0:0:0:
256,192,199863,1,8,0:0:0:0:
256,192,199946,1,0,0:0:0:0:
256,192,200029,1,8,0:0:0:0:
256,192,200113,1,8,0:0:0:0:
256,192,200196,1,0,0:0:0:0:
256,192,200279,1,0,0:0:0:0:
256,192,200363,1,8,0:0:0:0:
256,192,200446,1,8,0:0:0:0:
256,192,200529,1,0,0:0:0:0:
256,192,200613,1,0,0:0:0:0:
256,192,200696,1,8,0:0:0:0:
256,192,200779,1,0,0:0:0:0:
256,192,200863,1,0,0:0:0:0:
256,192,200946,1,0,0:0:0:0:
256,192,201029,1,8,0:0:0:0:
256,192,201113,1,0,0:0:0:0:
256,192,201196,1,0,0:0:0:0:
256,192,201279,1,0,0:0:0:0:
256,192,201363,1,8,0:0:0:0:
256,192,201696,1,8,0:0:0:0:
256,192,202029,1,8,0:0:0:0:
256,192,202363,1,8,0:0:0:0:
256,192,202529,1,0,0:0:0:0:
256,192,202696,1,12,0:0:0:0:
256,192,203696,1,8,0:0:0:0:
256,192,203863,1,0,0:0:0:0:
256,192,204029,1,8,0:0:0:0:
256,192,205029,1,8,0:0:0:0:
256,192,205196,1,0,0:0:0:0:
256,192,205363,1,8,0:0:0:0:
256,192,205529,1,8,0:0:0:0:
256,192,205696,1,0,0:0:0:0:
256,192,205863,1,0,0:0:0:0:
256,192,206029,1,8,0:0:0:0:
256,192,206363,1,0,0:0:0:0:
256,192,206696,1,8,0:0:0:0:
256,192,207029,1,8,0:0:0:0:
256,192,207363,1,0,0:0:0:0:
256,192,207696,1,8,0:0:0:0:
256,192,207863,1,8,0:0:0:0:
256,192,208029,1,0,0:0:0:0:
256,192,209029,1,8,0:0:0:0:
256,192,209196,1,0,0:0:0:0:
256,192,209362,1,8,0:0:0:0:
256,192,210362,1,8,0:0:0:0:
256,192,210696,1,0,0:0:0:0:
256,192,211029,1,0,0:0:0:0:
256,192,211362,1,8,0:0:0:0:
256,192,211696,1,0,0:0:0:0:
256,192,211863,1,0,0:0:0:0:
256,192,212029,1,8,0:0:0:0:
256,192,212696,1,0,0:0:0:0:
256,192,213362,1,8,0:0:0:0:
