osu file format v14

[General]
AudioFilename: audio.mp3
AudioLeadIn: 0
PreviewTime: -1
Countdown: 1
SampleSet: Normal
StackLeniency: 0.7
Mode: 0
LetterboxInBreaks: 0
WidescreenStoryboard: 0

[Editor]
DistanceSpacing: 0.8
BeatDivisor: 8
GridSize: 16
TimelineZoom: 1

[Metadata]
Title:summer tryangle
TitleUnicode:summer tryangle
Artist:ginkiha
ArtistUnicode:ginkiha
Creator:-CoFFee_mame-
Version:summer-EXTRA-
Source:-Remind-
Tags:ginkiha banshi banbanshi
BeatmapID:1818945
BeatmapSetID:870401

[Difficulty]
HPDrainRate:6
CircleSize:4.3
OverallDifficulty:8
ApproachRate:9.5
SliderMultiplier:1.5
SliderTickRate:2

[Events]
//Background and Video events
0,0,"a2768867340_10.jpg",0,0
//Break Periods
2,97177,104310
2,160514,161672
//Storyboard Layer 0 (Background)
//Storyboard Layer 1 (Fail)
//Storyboard Layer 2 (Pass)
//Storyboard Layer 3 (Foreground)
//Storyboard Sound Samples

[TimingPoints]
0,329.67032967033,4,1,0,100,1,0
31373,-133.333333333333,4,1,0,100,0,0
55384,-100,4,1,0,100,0,0
63173,-200,4,1,0,100,0,0
65219,-66.6666666666667,4,1,0,100,0,0
89120,-100,4,1,0,100,0,0
128516,-125,4,1,0,100,0,0
144450,-100,4,1,0,100,0,0
160798,-66.6666666666667,4,1,0,100,0,0

[HitObjects]
256,192,7087,12,0,7857,0:0:0:0:
128,112,8076,6,0,P|256:96|272:112,1,150
400,48,8571,1,0,0:0:0:0:
336,144,8736,2,0,L|288:208,2,75
256,240,9230,5,0,0:0:0:0:
128,288,9395,1,0,0:0:0:0:
144,160,9560,1,0,0:0:0:0:
176,144,9863,6,2,P|192:112|192:80,3,50
256,176,10192,6,2,P|288:160|304:144,3,50
304,256,10632,6,2,P|336:256|368:240,4,50
176,256,11167,6,2,P|192:288|208:304,2,50
128,192,11497,6,2,P|96:192|96:224,3,56.25
208,96,12032,6,0,P|304:80|304:80,1,75
384,144,12362,2,0,L|416:304,1,150
304,64,12857,5,0,0:0:0:0:
96,240,13021,1,0,0:0:0:0:
368,320,13186,1,0,0:0:0:0:
304,64,13351,1,0,0:0:0:0:
256,208,13516,1,0,0:0:0:0:
160,112,13846,6,8,L|176:64,3,50
240,128,14258,2,8,L|288:96,3,50
320,176,14670,2,8,L|384:176,2,50
256,192,14890,12,0,15659,0:0:0:0:
192,128,15824,6,0,P|224:80|255:65,1,75
304,112,16153,1,0,0:0:0:0:
384,192,16318,1,0,0:0:0:0:
256,224,16483,1,0,0:0:0:0:
400,96,16648,1,2,0:0:0:0:
384,112,16813,1,4,0:0:0:0:
112,256,16978,6,0,P|176:256|201:259,1,75
272,288,17307,2,0,P|320:288|352:272,2,75
400,128,17802,5,0,0:0:0:0:
287,52,17967,1,0,0:0:0:0:
243,162,18131,5,2,0:0:0:0:
352,64,18296,1,2,0:0:0:0:
236,106,18461,5,0,0:0:0:0:
400,160,18626,1,0,0:0:0:0:
422,98,18791,5,2,0:0:0:0:
208,214,18956,1,2,0:0:0:0:
290,261,19120,5,0,0:0:0:0:
320,64,19285,1,0,0:0:0:0:
242,123,19450,5,2,0:0:0:0:
368,288,19615,1,2,0:0:0:0:
170,167,19780,6,0,P|214:178|232:142,2,75
217,93,20274,2,2,P|255:65|302:146,1,150
231,273,20769,1,0,0:0:0:0:
106,228,20934,2,0,P|148:186|176:160,1,75
315,207,21263,1,0,0:0:0:0:
208,128,21428,2,8,P|207:86|251:64,2,75
88,192,21923,5,0,0:0:0:0:
242,109,22087,1,0,0:0:0:0:
124,47,22252,5,2,0:0:0:0:
254,198,22417,1,2,0:0:0:0:
151,155,22582,5,0,0:0:0:0:
372,181,22747,1,0,0:0:0:0:
301,103,22912,5,2,0:0:0:0:
392,268,23076,1,2,0:0:0:0:
433,209,23241,5,2,0:0:0:0:
224,300,23406,1,2,0:0:0:0:
128,256,23571,6,0,P|215:222|208:144,1,175
230,175,24065,5,0,0:0:0:0:
289,60,24230,1,0,0:0:0:0:
396,142,24395,1,0,0:0:0:0:
384,224,24560,6,0,L|304:272,2,75
320,192,25054,2,2,P|272:160|224:224,1,150
96,176,25549,5,2,0:0:0:0:
240,64,25714,1,2,0:0:0:0:
112,160,25879,5,2,0:0:0:0:
320,96,26044,1,2,0:0:0:0:
128,176,26208,5,0,0:0:0:0:
384,160,26373,1,0,0:0:0:0:
112,192,26538,5,2,0:0:0:0:
368,256,26703,1,2,0:0:0:0:
96,176,26868,5,0,0:0:0:0:
256,304,27032,1,0,0:0:0:0:
112,160,27197,5,2,0:0:0:0:
128,288,27362,1,2,0:0:0:0:
192,224,27527,1,2,0:0:0:0:
240,144,27692,5,8,0:0:0:0:
240,144,27857,1,8,0:0:0:0:
240,144,28021,2,8,P|272:128|240:128,1,75
128,96,28351,5,0,0:0:0:0:
80,208,28516,2,0,P|128:240|224:208,1,150
384,192,29010,1,0,0:0:0:0:
272,80,29340,1,0,0:0:0:0:
272,80,29505,1,0,0:0:0:0:
96,240,29835,5,8,0:0:0:0:
256,160,30000,1,8,0:0:0:0:
96,96,30164,5,10,0:0:0:0:
256,240,30329,1,10,0:0:0:0:
336,192,30494,5,8,0:0:0:0:
400,64,30659,1,8,0:0:0:0:
432,160,30824,5,10,0:0:0:0:
256,64,30989,1,10,0:0:0:0:
368,48,31153,5,8,0:0:0:0:
160,208,31318,1,8,0:0:0:0:
96,128,31648,6,2,P|144:128|160:112,1,56.2500021457673
192,16,31977,1,2,0:0:0:0:
304,80,32142,1,10,0:0:0:0:
208,160,32307,1,2,0:0:0:0:
304,48,32802,5,0,0:0:0:0:
224,192,32967,1,0,0:0:0:0:
416,192,33132,1,0,0:0:0:0:
304,48,33297,1,0,0:0:0:0:
208,160,33791,5,2,0:0:0:0:
384,48,33956,1,2,0:0:0:0:
416,240,34120,1,2,0:0:0:0:
208,160,34285,1,2,0:0:0:0:
192,192,34780,5,10,0:0:0:0:
464,288,34945,1,10,0:0:0:0:
400,48,35109,1,2,0:0:0:0:
192,192,35274,1,10,0:0:0:0:
128,128,35769,5,2,0:0:0:0:
32,208,35934,1,2,0:0:0:0:
144,256,36098,1,2,0:0:0:0:
128,128,36263,1,10,0:0:0:0:
192,176,36758,5,0,0:0:0:0:
96,320,36923,1,0,0:0:0:0:
304,320,37087,1,0,0:0:0:0:
192,176,37252,1,0,0:0:0:0:
224,256,37747,5,2,0:0:0:0:
128,48,37912,1,2,0:0:0:0:
368,64,38076,1,2,0:0:0:0:
224,256,38241,1,2,0:0:0:0:
448,208,38736,5,2,0:0:0:0:
176,32,38901,1,2,0:0:0:0:
144,320,39065,1,2,0:0:0:0:
448,208,39230,1,6,0:0:0:0:
144,128,39560,5,0,0:0:0:0:
80,208,39725,2,0,P|112:224|144:240,1,56.2500021457673
240,160,40219,1,0,0:0:0:0:
32,112,40549,5,0,0:0:0:0:
48,80,40631,1,0,0:0:0:0:
80,80,40714,1,0,0:0:0:0:
96,112,40796,1,0,0:0:0:0:
80,144,40879,1,0,0:0:0:0:
48,144,40961,1,0,0:0:0:0:
112,272,41208,1,0,0:0:0:0:
190,271,41538,6,2,P|222:255|272:192,1,112.500004291535
240,144,42197,1,0,0:0:0:0:
384,48,42527,5,0,0:0:0:0:
416,80,42596,1,0,0:0:0:0:
448,112,42678,1,0,0:0:0:0:
464,144,42760,1,0,0:0:0:0:
464,192,42843,1,0,0:0:0:0:
448,240,42925,1,0,0:0:0:0:
416,272,43008,1,0,0:0:0:0:
368,288,43090,1,0,0:0:0:0:
320,304,43173,1,0,0:0:0:0:
272,304,43255,1,0,0:0:0:0:
112,320,43516,5,0,0:0:0:0:
224,192,43846,1,0,0:0:0:0:
432,48,44010,2,2,P|400:48|368:64,1,56.2500021457673
416,160,44340,5,0,0:0:0:0:
384,176,44423,1,0,0:0:0:0:
384,208,44505,1,0,0:0:0:0:
416,224,44587,1,0,0:0:0:0:
448,240,44670,1,0,0:0:0:0:
448,272,44752,1,0,0:0:0:0:
416,304,44835,1,0,0:0:0:0:
384,304,44917,1,0,0:0:0:0:
352,304,45000,1,0,0:0:0:0:
320,304,45082,1,0,0:0:0:0:
288,304,45164,1,0,0:0:0:0:
144,240,45329,5,0,0:0:0:0:
224,128,45494,1,0,0:0:0:0:
352,128,45659,2,2,P|368:112|336:96,1,56.2500021457673
336,96,45989,1,0,0:0:0:0:
144,64,46153,1,0,0:0:0:0:
64,160,46318,5,0,0:0:0:0:
48,192,46401,1,0,0:0:0:0:
48,240,46483,1,0,0:0:0:0:
64,272,46565,1,0,0:0:0:0:
96,304,46648,1,0,0:0:0:0:
144,304,46730,1,0,0:0:0:0:
176,272,46813,1,0,0:0:0:0:
208,240,46895,1,0,0:0:0:0:
240,208,46978,1,0,0:0:0:0:
288,192,47060,1,0,0:0:0:0:
336,192,47142,1,0,0:0:0:0:
384,208,47225,2,2,P|416:224|416:224,2,28.1250010728836
320,208,47637,5,10,0:0:0:0:
256,48,47802,1,10,0:0:0:0:
128,176,47967,1,10,0:0:0:0:
320,208,48131,1,10,0:0:0:0:
272,224,48626,5,0,0:0:0:0:
112,48,48791,1,0,0:0:0:0:
32,272,48956,1,0,0:0:0:0:
272,224,49120,1,0,0:0:0:0:
144,160,49615,5,2,0:0:0:0:
400,48,49780,1,2,0:0:0:0:
384,320,49945,1,2,0:0:0:0:
144,160,50109,1,2,0:0:0:0:
256,48,50604,5,2,0:0:0:0:
16,192,50769,1,2,0:0:0:0:
288,320,50934,1,2,0:0:0:0:
256,48,51098,1,2,0:0:0:0:
320,112,51593,5,10,0:0:0:0:
192,192,51758,1,10,0:0:0:0:
352,272,51923,1,10,0:0:0:0:
320,112,52088,1,10,0:0:0:0:
464,240,52582,5,0,0:0:0:0:
384,48,52747,1,0,0:0:0:0:
256,208,52912,1,0,0:0:0:0:
464,240,53076,1,0,0:0:0:0:
368,192,53571,5,2,0:0:0:0:
160,32,53736,1,2,0:0:0:0:
112,288,53901,1,2,0:0:0:0:
368,192,54065,1,2,0:0:0:0:
336,48,54560,5,2,0:0:0:0:
80,224,54725,1,2,0:0:0:0:
384,352,54890,1,2,0:0:0:0:
336,48,55054,1,2,0:0:0:0:
176,144,55549,6,0,L|256:176,1,75
272,112,55879,1,10,0:0:0:0:
272,112,55961,1,10,0:0:0:0:
272,112,56044,1,10,0:0:0:0:
272,112,56126,2,0,L|240:176,1,56.25
114,164,56373,1,0,0:0:0:0:
192,240,56538,1,0,0:0:0:0:
368,160,56703,2,0,P|384:128|400:160,1,75
416,192,56950,1,10,0:0:0:0:
416,224,57032,1,10,0:0:0:0:
416,256,57115,1,10,0:0:0:0:
416,288,57197,1,10,0:0:0:0:
304,224,57362,5,0,0:0:0:0:
272,304,57527,6,0,P|240:304|240:256,1,75
192,224,57857,1,10,0:0:0:0:
176,208,57939,1,10,0:0:0:0:
160,192,58022,1,10,0:0:0:0:
208,48,58186,2,0,L|160:48,1,37.5
128,64,58392,1,4,0:0:0:0:
48,160,58516,1,10,0:0:0:0:
64,176,58599,1,10,0:0:0:0:
80,192,58681,1,10,0:0:0:0:
128,304,58846,6,0,L|208:288,1,75
352,128,59175,2,0,L|272:112,1,75
160,64,59505,1,4,0:0:0:0:
112,64,59670,2,0,L|96:144,1,75
80,176,59917,1,10,0:0:0:0:
64,208,60000,1,10,0:0:0:0:
208,112,60164,6,0,L|272:160,1,75
368,288,60494,2,0,L|416:224,1,75
448,64,60824,1,10,0:0:0:0:
432,48,60906,1,10,0:0:0:0:
416,64,60989,1,10,0:0:0:0:
288,96,61153,5,4,0:0:0:0:
96,80,61318,2,0,L|128:96,1,18.75
256,192,61483,2,0,L|208:192,1,37.5
128,224,61648,2,0,L|176:224,1,37.5
208,304,61813,1,10,0:0:0:0:
208,304,61895,1,10,0:0:0:0:
208,304,61978,1,10,0:0:0:0:
192,112,62142,6,0,P|208:80|224:112,1,75
352,96,62472,1,10,0:0:0:0:
384,128,62554,1,10,0:0:0:0:
384,176,62637,1,10,0:0:0:0:
272,224,62802,5,4,0:0:0:0:
192,96,62966,1,4,0:0:0:0:
96,240,63131,1,4,0:0:0:0:
112,144,63296,6,0,L|192:128,1,75
320,176,63791,2,0,P|304:208|259:233,1,84.375
112,192,64285,6,2,L|96:160,1,25
176,112,64450,6,2,L|176:80,1,25
256,80,64615,6,2,L|272:48,1,25
352,80,64780,6,2,L|384:64,2,25
160,144,65274,5,0,0:0:0:0:
160,144,65357,1,0,0:0:0:0:
160,144,65439,1,0,0:0:0:0:
160,144,65521,2,0,P|240:144|256:112,1,112.500004291535
352,96,65824,2,4,P|350:164|370:98,1,187.500007152558
320,192,66263,5,0,0:0:0:0:
208,64,66428,1,0,0:0:0:0:
96,224,66593,1,0,0:0:0:0:
320,192,66758,1,4,0:0:0:0:
384,128,66923,2,6,P|416:160|416:240,1,112.500004291535
432,144,67238,5,0,0:0:0:0:
400,176,67321,1,0,0:0:0:0:
384,224,67403,1,0,0:0:0:0:
384,272,67486,1,0,0:0:0:0:
368,304,67568,1,0,0:0:0:0:
336,336,67651,1,0,0:0:0:0:
288,320,67733,1,0,0:0:0:0:
272,288,67815,1,0,0:0:0:0:
256,240,67898,1,0,0:0:0:0:
224,208,67980,1,0,0:0:0:0:
192,192,68063,1,0,0:0:0:0:
176,160,68159,2,10,P|144:176|96:192,3,75.000002861023
160,112,68571,2,10,P|192:96|224:64,2,75.000002861023
144,80,68901,2,10,P|96:64|64:64,3,75.000002861023
272,64,69313,5,0,0:0:0:0:
272,64,69395,1,0,0:0:0:0:
272,64,69478,2,0,P|304:80|336:208,1,168.750006437302
272,224,69890,1,0,0:0:0:0:
112,64,70219,5,0,0:0:0:0:
80,176,70384,1,0,0:0:0:0:
224,128,70549,1,0,0:0:0:0:
112,64,70714,1,0,0:0:0:0:
176,80,70879,2,0,P|224:80|192:96,1,112.500004291535
128,288,71182,5,0,0:0:0:0:
160,288,71264,1,0,0:0:0:0:
192,288,71346,1,0,0:0:0:0:
224,288,71429,1,0,0:0:0:0:
256,288,71511,1,0,0:0:0:0:
288,288,71594,1,0,0:0:0:0:
320,272,71676,1,0,0:0:0:0:
336,240,71758,1,0,0:0:0:0:
352,208,71841,1,0,0:0:0:0:
368,176,71923,1,0,0:0:0:0:
368,144,72019,2,0,P|320:112|384:80,1,140.625005364418
400,112,72362,2,0,P|448:160|352:176,1,187.500007152558
224,80,73021,5,2,0:0:0:0:
96,144,73186,2,0,P|128:192|192:176,1,112.500004291535
304,224,73516,5,0,0:0:0:0:
448,128,73681,1,0,0:0:0:0:
448,336,73846,1,0,0:0:0:0:
176,304,74010,2,0,P|208:272|192:272,1,112.500004291535
96,64,74340,6,2,L|112:112,1,37.5000014305115
192,192,74505,2,2,L|208:144,1,37.5000014305115
288,48,74670,2,2,L|320:96,1,37.5000014305115
384,192,74835,2,2,L|400:144,1,37.5000014305115
432,48,75000,1,2,0:0:0:0:
256,208,75164,2,0,P|224:192|240:192,1,112.500004291535
96,160,75494,2,0,P|176:96|288:128,1,225.000008583069
432,256,75989,5,2,0:0:0:0:
224,320,76153,2,0,P|208:272|256:240,1,112.500004291535
336,192,76483,2,0,P|272:176|128:240,1,225.000008583069
80,320,76978,1,0,0:0:0:0:
144,112,77307,5,0,0:0:0:0:
256,192,77472,1,0,0:0:0:0:
400,64,77637,1,0,0:0:0:0:
400,160,77802,2,0,P|416:208|384:192,1,112.500004291535
384,192,78131,1,0,0:0:0:0:
128,208,78296,6,2,L|160:176,1,37.5000014305115
272,64,78461,2,2,L|240:96,1,37.5000014305115
160,208,78626,6,2,L|192:176,1,37.5000014305115
304,64,78791,2,2,L|272:96,1,37.5000014305115
240,192,78956,1,0,0:0:0:0:
432,112,79120,5,0,0:0:0:0:
432,160,79203,1,0,0:0:0:0:
416,208,79285,1,0,0:0:0:0:
384,240,79368,1,0,0:0:0:0:
352,272,79450,1,0,0:0:0:0:
304,272,79532,1,0,0:0:0:0:
272,240,79615,1,0,0:0:0:0:
240,208,79697,1,0,0:0:0:0:
208,176,79780,1,0,0:0:0:0:
176,208,79862,1,0,0:0:0:0:
160,240,79945,1,0,0:0:0:0:
192,272,80027,1,0,0:0:0:0:
256,192,80109,12,0,80810,0:0:0:0:
224,96,81098,5,0,0:0:0:0:
112,224,81263,1,0,0:0:0:0:
288,240,81428,1,0,0:0:0:0:
352,144,81593,6,2,P|352:96|384:128,1,112.500004291535
448,256,81923,1,0,0:0:0:0:
352,272,82087,2,0,B|336:256|336:256|304:304|304:304|272:272|272:272,1,112.500004291535
112,272,82417,2,10,P|64:224|96:160,1,112.500004291535
256,64,82747,1,0,0:0:0:0:
144,176,83076,5,8,0:0:0:0:
336,64,83241,1,2,0:0:0:0:
352,224,83406,5,8,0:0:0:0:
256,48,83571,1,2,0:0:0:0:
288,128,83736,5,8,0:0:0:0:
48,96,83901,1,2,0:0:0:0:
112,48,84065,5,8,0:0:0:0:
176,304,84230,1,2,0:0:0:0:
80,272,84395,5,8,0:0:0:0:
384,80,84560,1,2,0:0:0:0:
464,160,84725,5,8,0:0:0:0:
48,96,84890,1,2,0:0:0:0:
160,256,85219,5,8,0:0:0:0:
240,176,85384,1,0,0:0:0:0:
320,96,85549,1,2,0:0:0:0:
352,192,85714,2,2,P|320:240|272:192,2,112.500004291535
256,128,86208,5,2,0:0:0:0:
32,208,86373,1,0,0:0:0:0:
144,272,86538,5,2,0:0:0:0:
192,48,86703,1,0,0:0:0:0:
224,208,86868,6,2,L|304:112,1,112.500004291535
224,128,87197,5,2,0:0:0:0:
448,80,87362,1,8,0:0:0:0:
144,208,87527,5,2,0:0:0:0:
384,240,87692,1,8,0:0:0:0:
48,256,87857,5,2,0:0:0:0:
176,352,88021,1,8,0:0:0:0:
256,352,88186,1,2,0:0:0:0:
256,144,88351,1,8,0:0:0:0:
352,256,88516,5,0,0:0:0:0:
352,80,88681,1,8,0:0:0:0:
432,128,88846,5,0,0:0:0:0:
176,128,89010,1,8,0:0:0:0:
32,352,89175,6,0,P|96:336|240:240,1,225.000008583069
288,144,89835,1,4,0:0:0:0:
240,64,90000,2,0,B|208:128|208:240|208:240|288:144|304:144|304:144,1,300
304,320,90824,1,4,0:0:0:0:
384,240,90989,2,0,B|256:240|256:96|384:96|384:240|384:240|448:176,1,375
448,96,91978,6,4,P|368:80|464:128,1,375
400,144,92967,2,0,B|304:256|144:240|144:240|224:160,1,375
80,112,93956,2,4,B|128:96|160:48|160:48|144:224|144:224|48:208,1,375
224,48,94945,2,2,B|80:256|80:256|368:256|368:256|256:80|256:80|144:240|144:240|144:240|144:240|144:240|144:240,1,925
128,208,104835,5,0,0:0:0:0:
112,80,105000,1,0,0:0:0:0:
112,80,105164,1,0,0:0:0:0:
240,128,105329,2,0,P|240:176|139:213,1,168.75
134,213,105824,1,0,0:0:0:0:
240,240,105988,5,0,0:0:0:0:
352,160,106153,1,0,0:0:0:0:
368,304,106317,1,2,0:0:0:0:
320,176,106482,6,10,P|368:176|368:144,1,75
80,208,106813,6,10,P|112:224|144:224,3,50
160,208,107252,2,10,P|208:240|208:240,3,50
256,192,107692,2,10,P|304:224|304:224,5,50
352,160,108337,2,10,P|400:144|416:144,4,50
224,160,108956,5,0,0:0:0:0:
240,272,109120,1,0,0:0:0:0:
384,304,109285,2,0,L|384:144,1,150
384,80,109780,5,0,0:0:0:0:
96,224,109945,1,0,0:0:0:0:
352,336,110109,1,0,0:0:0:0:
384,80,110274,1,0,0:0:0:0:
96,224,110439,1,0,0:0:0:0:
208,96,110769,6,10,L|160:80,3,50
160,208,111208,2,10,L|112:224,2,50
240,320,111538,2,10,L|288:336,2,50
256,192,111923,12,2,112637,0:0:0:0:
64,160,112912,5,0,0:0:0:0:
352,64,113076,1,0,0:0:0:0:
272,320,113241,1,0,0:0:0:0:
64,160,113406,1,0,0:0:0:0:
208,192,113571,5,0,0:0:0:0:
208,192,113736,6,0,P|160:208|160:240,1,75
176,320,114065,1,0,0:0:0:0:
432,80,114395,1,0,0:0:0:0:
80,288,114725,5,2,0:0:0:0:
208,144,114890,1,2,0:0:0:0:
288,128,115054,5,0,0:0:0:0:
96,96,115219,1,0,0:0:0:0:
192,48,115384,5,2,0:0:0:0:
304,288,115549,1,2,0:0:0:0:
432,240,115714,5,0,0:0:0:0:
48,160,115879,1,0,0:0:0:0:
80,272,116043,5,2,0:0:0:0:
400,80,116208,1,2,0:0:0:0:
480,240,116373,5,0,0:0:0:0:
32,64,116538,1,0,0:0:0:0:
96,192,116703,6,0,P|144:144|160:144,2,75
176,272,117197,2,0,P|208:272|224:320,1,75
368,288,117527,5,0,0:0:0:0:
288,240,117692,2,0,L|352:176,2,75
128,160,118351,1,4,0:0:0:0:
384,96,118681,5,2,0:0:0:0:
176,160,118846,1,2,0:0:0:0:
256,304,119010,5,0,0:0:0:0:
320,96,119175,1,0,0:0:0:0:
416,224,119340,5,2,0:0:0:0:
160,48,119505,1,2,0:0:0:0:
384,48,119670,5,0,0:0:0:0:
352,336,119835,1,0,0:0:0:0:
448,176,119999,5,2,0:0:0:0:
80,256,120164,1,2,0:0:0:0:
192,352,120329,5,0,0:0:0:0:
272,32,120494,1,0,0:0:0:0:
128,160,120824,5,0,0:0:0:0:
224,80,120989,1,2,0:0:0:0:
256,208,121153,1,2,0:0:0:0:
128,160,121318,1,8,0:0:0:0:
96,288,121483,6,0,P|144:288|160:256,2,75
224,160,121978,2,4,P|320:192|320:224,1,150
240,304,122472,1,0,0:0:0:0:
416,96,122802,5,2,0:0:0:0:
48,208,122966,1,2,0:0:0:0:
128,336,123131,5,0,0:0:0:0:
224,48,123296,1,0,0:0:0:0:
336,160,123461,5,2,0:0:0:0:
128,128,123626,1,2,0:0:0:0:
144,240,123791,5,0,0:0:0:0:
464,48,123955,1,0,0:0:0:0:
496,160,124120,5,2,0:0:0:0:
272,336,124285,1,2,0:0:0:0:
288,160,124450,1,14,0:0:0:0:
80,176,124780,5,0,0:0:0:0:
208,128,124945,1,2,0:0:0:0:
144,240,125110,1,2,0:0:0:0:
288,192,125274,1,14,0:0:0:0:
240,304,125439,6,0,P|304:304|320:288,1,75
432,208,125769,1,0,0:0:0:0:
288,144,125934,2,0,P|304:112|320:144,2,75
80,224,126593,5,8,0:0:0:0:
432,64,126758,1,8,0:0:0:0:
80,176,126923,5,4,0:0:0:0:
432,128,127087,1,2,0:0:0:0:
112,128,127252,5,2,0:0:0:0:
416,176,127417,1,8,0:0:0:0:
144,80,127582,5,8,0:0:0:0:
384,224,127747,1,4,0:0:0:0:
192,48,127912,5,2,0:0:0:0:
336,256,128076,1,2,0:0:0:0:
256,32,128241,5,8,0:0:0:0:
272,272,128406,1,8,0:0:0:0:
192,144,128901,6,0,P|208:96|224:96,2,60
128,288,129725,5,10,0:0:0:0:
336,64,129890,1,10,0:0:0:0:
448,336,130055,1,10,0:0:0:0:
128,288,130219,1,10,0:0:0:0:
160,64,130714,5,2,0:0:0:0:
448,176,130879,1,2,0:0:0:0:
112,320,131043,1,2,0:0:0:0:
160,64,131208,1,2,0:0:0:0:
240,288,131703,5,2,0:0:0:0:
80,80,131868,1,2,0:0:0:0:
400,64,132032,1,2,0:0:0:0:
240,288,132197,1,2,0:0:0:0:
96,224,132692,5,0,0:0:0:0:
288,32,132857,1,0,0:0:0:0:
400,320,133021,1,0,0:0:0:0:
96,224,133186,1,0,0:0:0:0:
64,336,133681,5,10,0:0:0:0:
64,64,133846,1,10,0:0:0:0:
384,288,134010,1,10,0:0:0:0:
64,336,134175,1,10,0:0:0:0:
256,336,134670,5,2,0:0:0:0:
80,64,134835,1,2,0:0:0:0:
464,64,135000,1,2,0:0:0:0:
256,336,135164,1,2,0:0:0:0:
416,336,135659,5,2,0:0:0:0:
32,160,135824,1,2,0:0:0:0:
400,16,135989,1,2,0:0:0:0:
416,336,136154,1,2,0:0:0:0:
208,128,136648,5,0,0:0:0:0:
112,208,136813,1,0,0:0:0:0:
224,256,136978,2,0,P|272:256|288:240,2,60
304,144,137472,5,0,0:0:0:0:
320,112,137554,1,0,0:0:0:0:
352,112,137637,1,0,0:0:0:0:
368,144,137719,1,0,0:0:0:0:
352,176,137802,1,0,0:0:0:0:
320,176,137884,1,0,0:0:0:0:
192,64,138131,5,0,0:0:0:0:
96,208,138461,2,2,P|144:160|160:192,1,120
304,288,138956,2,0,L|368:272,2,60
144,272,139436,5,0,0:0:0:0:
176,256,139532,1,0,0:0:0:0:
208,240,139615,1,0,0:0:0:0:
240,224,139697,1,0,0:0:0:0:
240,192,139779,1,0,0:0:0:0:
240,160,139862,1,0,0:0:0:0:
240,128,139944,1,0,0:0:0:0:
272,112,140027,1,0,0:0:0:0:
304,96,140109,1,0,0:0:0:0:
336,80,140191,1,0,0:0:0:0:
128,176,140439,6,2,P|128:144|176:176,1,120
256,320,141098,1,0,0:0:0:0:
160,256,141263,5,0,0:0:0:0:
208,256,141346,1,0,0:0:0:0:
256,240,141428,1,0,0:0:0:0:
272,192,141511,1,0,0:0:0:0:
240,160,141593,1,0,0:0:0:0:
240,112,141676,1,0,0:0:0:0:
272,80,141758,1,0,0:0:0:0:
320,64,141840,1,0,0:0:0:0:
368,96,141923,1,0,0:0:0:0:
384,144,142005,1,0,0:0:0:0:
352,192,142088,1,0,0:0:0:0:
128,240,142252,6,8,P|160:272|176:272,1,60
224,288,142582,5,0,0:0:0:0:
352,160,142747,1,0,0:0:0:0:
432,320,142912,1,0,0:0:0:0:
224,288,143076,1,0,0:0:0:0:
352,160,143241,1,0,0:0:0:0:
192,160,143406,5,0,0:0:0:0:
208,208,143489,1,0,0:0:0:0:
224,256,143571,1,0,0:0:0:0:
240,304,143653,1,0,0:0:0:0:
192,288,143736,1,0,0:0:0:0:
144,272,143818,1,0,0:0:0:0:
96,256,143901,1,0,0:0:0:0:
48,240,143983,1,0,0:0:0:0:
80,208,144065,1,0,0:0:0:0:
112,176,144148,1,0,0:0:0:0:
144,144,144230,1,0,0:0:0:0:
176,112,144313,1,0,0:0:0:0:
352,64,144560,5,6,0:0:0:0:
224,176,144725,1,6,0:0:0:0:
416,224,144890,1,6,0:0:0:0:
352,64,145054,1,6,0:0:0:0:
288,160,145548,5,6,0:0:0:0:
144,16,145713,1,6,0:0:0:0:
64,192,145878,1,6,0:0:0:0:
288,160,146043,1,6,0:0:0:0:
272,80,146565,5,2,0:0:0:0:
96,272,146730,1,2,0:0:0:0:
384,320,146895,1,2,0:0:0:0:
272,80,147059,1,2,0:0:0:0:
32,256,147569,5,2,0:0:0:0:
304,16,147734,1,2,0:0:0:0:
432,352,147899,1,2,0:0:0:0:
32,256,148063,1,2,0:0:0:0:
128,160,148516,6,0,L|192:112,1,75
192,112,148846,1,10,0:0:0:0:
208,96,148929,1,10,0:0:0:0:
224,80,149011,1,10,0:0:0:0:
320,96,149217,6,0,L|368:96,2,37.5
464,176,149505,2,10,P|448:208|416:192,1,75
304,176,149834,1,10,0:0:0:0:
272,192,149917,1,10,0:0:0:0:
240,208,149999,1,10,0:0:0:0:
48,192,150164,6,0,L|112:144,1,75
256,224,150494,2,0,P|288:208|320:224,1,75
384,112,150824,1,10,0:0:0:0:
352,96,150906,1,10,0:0:0:0:
320,80,150989,1,10,0:0:0:0:
176,176,151153,6,0,L|96:208,1,75
240,256,151483,1,10,0:0:0:0:
272,224,151566,1,10,0:0:0:0:
304,192,151648,1,10,0:0:0:0:
384,64,151813,6,4,L|400:96,1,18.75
384,240,151978,2,4,L|368:224,1,18.75
208,96,152142,2,4,L|208:128,1,18.75
80,160,152472,6,0,L|160:176,1,75
240,144,152802,1,10,0:0:0:0:
256,128,152884,1,10,0:0:0:0:
272,112,152967,1,10,0:0:0:0:
416,112,153131,5,4,0:0:0:0:
416,240,153296,1,4,0:0:0:0:
272,256,153461,2,0,P|224:256|208:224,1,75
80,208,153791,1,10,0:0:0:0:
96,176,153873,1,10,0:0:0:0:
112,144,153956,1,10,0:0:0:0:
208,80,154120,6,4,L|240:112,2,37.5
272,192,154450,2,4,L|304:192,1,18.75
368,96,154615,2,4,L|368:128,1,18.75
512,80,154780,2,0,L|496:128,2,37.5
336,256,155109,5,4,0:0:0:0:
240,304,155274,1,4,0:0:0:0:
80,272,155439,1,10,0:0:0:0:
80,256,155522,1,10,0:0:0:0:
80,240,155604,2,0,L|96:160,1,75
160,32,155934,2,4,L|176:64,1,18.75
240,176,156099,2,4,L|256:144,1,18.75
400,64,156263,5,4,0:0:0:0:
448,160,156428,2,0,L|448:240,1,75
336,304,156758,1,10,0:0:0:0:
320,272,156840,1,10,0:0:0:0:
304,240,156923,1,10,0:0:0:0:
256,32,157087,5,4,0:0:0:0:
304,192,157252,1,4,0:0:0:0:
128,144,157417,1,4,0:0:0:0:
256,32,157582,1,4,0:0:0:0:
144,256,157747,5,10,0:0:0:0:
144,256,157829,1,10,0:0:0:0:
144,256,157912,1,10,0:0:0:0:
352,272,158076,5,4,0:0:0:0:
416,192,158241,2,0,P|448:144|448:112,1,75
272,64,158571,2,4,L|288:80,1,18.75
192,144,158736,1,10,0:0:0:0:
192,144,158818,1,10,0:0:0:0:
192,144,158901,1,10,0:0:0:0:
128,256,159065,5,4,0:0:0:0:
256,48,159230,1,2,0:0:0:0:
352,288,159395,1,10,0:0:0:0:
352,288,159478,1,10,0:0:0:0:
352,288,159560,1,10,0:0:0:0:
384,96,159725,6,4,L|368:128,1,18.75
256,240,159890,2,4,L|240:224,1,18.75
144,128,160054,2,8,L|160:112,1,18.75
304,48,160260,2,2,L|288:80,1,25
288,16,162197,5,2,0:0:0:0:
128,160,162362,1,2,0:0:0:0:
416,208,162527,1,2,0:0:0:0:
288,16,162692,1,2,0:0:0:0:
320,240,162857,5,2,0:0:0:0:
304,256,162939,1,2,0:0:0:0:
272,240,163021,1,2,0:0:0:0:
240,224,163104,1,2,0:0:0:0:
160,112,163351,5,2,0:0:0:0:
400,336,163516,1,2,0:0:0:0:
480,32,163681,1,2,0:0:0:0:
160,112,163846,1,2,0:0:0:0:
80,176,164175,6,10,P|112:112|128:112,3,75.000002861023
368,80,164615,2,10,L|400:160,4,75.000002861023
272,336,165164,2,10,P|224:320|192:288,3,75.000002861023
176,160,165604,2,10,P|240:160|256:192,5,75.000002861023
352,64,166318,5,2,0:0:0:0:
416,352,166483,1,2,0:0:0:0:
128,256,166648,1,2,0:0:0:0:
352,64,166813,1,2,0:0:0:0:
320,192,166978,5,2,0:0:0:0:
304,224,167060,1,2,0:0:0:0:
272,224,167142,1,2,0:0:0:0:
128,64,167307,5,2,0:0:0:0:
144,352,167472,1,2,0:0:0:0:
432,128,167637,1,2,0:0:0:0:
128,64,167802,1,2,0:0:0:0:
80,176,168131,6,10,P|112:112|128:112,3,75.000002861023
368,80,168571,2,10,L|400:160,4,75.000002861023
112,288,169120,2,8,P|160:288|208:224,1,112.500004291535
208,160,169450,2,8,B|256:144|288:160|320:224,3,112.500004291535
128,32,170109,5,2,0:0:0:0:
32,368,170274,1,2,0:0:0:0:
448,224,170439,1,2,0:0:0:0:
128,32,170604,1,2,0:0:0:0:
64,224,170769,6,10,P|144:224|160:192,1,112.500004291535
336,80,171098,2,10,P|368:112|384:176,2,112.500004291535
224,256,171593,1,2,0:0:0:0:
224,256,171758,1,2,0:0:0:0:
224,64,172087,5,2,0:0:0:0:
48,224,172252,1,2,0:0:0:0:
272,288,172417,1,2,0:0:0:0:
93,168,172582,5,2,0:0:0:0:
400,48,172747,1,2,0:0:0:0:
425,319,172911,1,2,0:0:0:0:
448,80,173076,5,2,0:0:0:0:
51,201,173241,1,2,0:0:0:0:
416,352,173406,1,2,0:0:0:0:
240,48,173571,5,2,0:0:0:0:
64,320,173736,1,2,0:0:0:0:
464,304,173901,1,2,0:0:0:0:
144,160,174065,6,10,P|224:96|240:96,2,112.500004291535
128,352,174560,1,2,0:0:0:0:
464,176,174725,1,2,0:0:0:0:
144,32,174890,1,2,0:0:0:0:
128,352,175054,1,2,0:0:0:0:
192,208,175219,6,10,P|240:192|224:128,2,112.500004291535
176,144,175714,1,2,0:0:0:0:
48,160,176043,5,2,0:0:0:0:
352,16,176207,1,2,0:0:0:0:
320,320,176372,1,2,0:0:0:0:
336,64,176538,5,2,0:0:0:0:
64,288,176703,1,2,0:0:0:0:
480,368,176868,1,2,0:0:0:0:
416,192,177032,5,2,0:0:0:0:
128,32,177197,1,2,0:0:0:0:
80,336,177362,1,2,0:0:0:0:
288,32,177527,5,2,0:0:0:0:
32,288,177692,1,2,0:0:0:0:
464,336,177857,1,2,0:0:0:0:
144,144,178021,6,10,P|240:112|272:128,2,112.500004291535
368,272,178516,2,10,B|416:288|416:288|448:208,1,112.500004291535
464,80,178846,5,2,0:0:0:0:
240,16,179010,1,2,0:0:0:0:
288,208,179175,1,2,0:0:0:0:
464,80,179340,2,10,P|432:112|448:80,2,112.500004291535
240,128,180000,5,10,0:0:0:0:
48,272,180164,1,10,0:0:0:0:
368,336,180329,1,10,0:0:0:0:
208,272,180494,5,10,0:0:0:0:
224,0,180659,1,10,0:0:0:0:
512,192,180824,1,10,0:0:0:0:
432,160,180989,5,10,0:0:0:0:
128,16,181153,1,10,0:0:0:0:
96,352,181318,1,10,0:0:0:0:
352,32,181483,5,10,0:0:0:0:
16,224,181648,1,10,0:0:0:0:
400,368,181813,1,10,0:0:0:0:
224,176,181978,6,10,B|208:128|224:112|224:112|288:144,2,112.500004291535
416,272,182472,1,2,0:0:0:0:
80,288,182637,2,10,B|128:192|128:192|144:208,2,112.500004291535
288,288,183131,5,2,0:0:0:0:
224,80,183296,1,2,0:0:0:0:
64,224,183461,1,2,0:0:0:0:
288,288,183626,1,2,0:0:0:0:
64,160,183956,5,2,0:0:0:0:
288,32,184120,1,2,0:0:0:0:
304,272,184285,1,2,0:0:0:0:
400,96,184450,5,2,0:0:0:0:
128,240,184615,1,2,0:0:0:0:
448,368,184780,1,2,0:0:0:0:
477,249,184945,5,2,0:0:0:0:
296,18,185109,1,2,0:0:0:0:
111,286,185274,1,2,0:0:0:0:
173,348,185439,5,2,0:0:0:0:
128,32,185604,1,2,0:0:0:0:
484,256,185769,1,2,0:0:0:0:
192,224,185934,6,10,P|208:144|240:144,2,112.500004291535
384,80,186428,2,10,B|416:160|416:160|368:160,1,112.500004291535
192,144,186758,1,2,0:0:0:0:
48,224,186923,2,10,L|160:272,1,112.500004291535
272,352,187252,5,2,0:0:0:0:
464,192,187417,1,2,0:0:0:0:
224,144,187582,1,2,0:0:0:0:
240,64,187912,5,2,0:0:0:0:
80,224,188076,1,2,0:0:0:0:
336,288,188241,1,2,0:0:0:0:
416,336,188406,5,2,0:0:0:0:
384,64,188571,1,2,0:0:0:0:
128,224,188736,1,2,0:0:0:0:
440,271,188901,5,2,0:0:0:0:
162,9,189065,1,2,0:0:0:0:
16,304,189230,1,2,0:0:0:0:
320,336,189395,5,2,0:0:0:0:
19,87,189560,1,2,0:0:0:0:
464,48,189725,1,2,0:0:0:0:
176,304,189890,6,10,B|112:208|192:160|192:160|288:224|272:80,1,337.500012874604
160,96,190549,1,4,0:0:0:0:
64,272,190714,2,4,B|128:256|160:208|160:208|176:208|176:208|176:208,1,112.500004291535
352,80,191043,1,2,0:0:0:0:
416,240,191208,2,2,P|320:256|224:144,1,225.000008583069
80,80,191703,5,4,0:0:0:0:
32,240,191868,2,4,B|144:304|144:304|224:48|224:48|432:256|432:256|0:336,1,1125.00004291535
256,192,193791,12,2,197582,0:0:0:0:
