osu file format v14

[General]
AudioFilename: audio.mp3
AudioLeadIn: 0
PreviewTime: 61415
Countdown: 0
SampleSet: Normal
StackLeniency: 0.7
Mode: 1
LetterboxInBreaks: 0
WidescreenStoryboard: 0

[Editor]
Bookmarks: 21021,41891,62760,83630,115586
DistanceSpacing: 0.4
BeatDivisor: 4
GridSize: 32
TimelineZoom: 4.399998

[Metadata]
Title:nightfall
TitleUnicode:nightfall
Artist:ginkiha
ArtistUnicode:ginkiha
Creator:radar
Version:twilight
Source:osu!
Tags:fa featured artist mappers guild G2R2014 Alchemists BMS video game piano instrumental deemo rayark
BeatmapID:2363879
BeatmapSetID:1131703

[Difficulty]
HPDrainRate:6
CircleSize:5
OverallDifficulty:6
ApproachRate:5
SliderMultiplier:1.4
SliderTickRate:1

[Events]
//Background and Video events
0,0,"northern-lights-1081752_960_720.jpg",0,0
//Break Periods
//Storyboard Layer 0 (Background)
//Storyboard Layer 1 (Fail)
//Storyboard Layer 2 (Pass)
//Storyboard Layer 3 (Foreground)
//Storyboard Layer 4 (Overlay)
//Storyboard Sound Samples

[TimingPoints]
152,652.173913043478,4,1,0,40,1,0
20369,-98.0392156862745,4,1,0,40,0,0
20478,-96.1538461538461,4,1,0,40,0,0
20586,-94.3396226415094,4,1,0,40,0,0
20695,-92.5925925925926,4,1,0,40,0,0
20804,-90.9090909090909,4,1,0,40,0,0
20912,-89.2857142857143,4,1,0,40,0,0
21021,-87.719298245614,4,1,0,45,0,0
21347,-90.9090909090909,4,1,0,45,0,0
36673,-90.9090909090909,4,1,0,50,0,0
39282,-90.9090909090909,4,1,0,60,0,0
40586,-89.2857142857143,4,1,0,65,0,0
40749,-87.719298245614,4,1,0,65,0,0
40912,-86.2068965517241,4,1,0,65,0,0
41075,-84.7457627118644,4,1,0,65,0,0
41238,-83.3333333333333,4,1,0,65,0,0
41401,-80.6451612903226,4,1,0,65,0,0
41565,-78.125,4,1,0,65,0,0
41728,-75.7575757575758,4,1,0,65,0,0
41891,-73.5294117647059,4,1,0,70,0,0
42217,-76.9230769230769,4,1,0,70,0,0
50980,-75.7575757575758,4,1,0,70,0,0
51143,-74.6268656716418,4,1,0,70,0,0
51306,-73.5294117647059,4,1,0,70,0,0
51469,-72.463768115942,4,1,0,70,0,0
51632,-70.4225352112676,4,1,0,70,0,0
51795,-68.4931506849315,4,1,0,70,0,0
51958,-66.6666666666667,4,1,0,70,0,0
52121,-64.9350649350649,4,1,0,70,0,0
52284,-63.2911392405063,4,1,0,70,0,0
52610,-76.9230769230769,4,1,0,70,0,0
61456,-75.7575757575758,4,1,0,70,0,0
61619,-74.6268656716418,4,1,0,70,0,0
61782,-73.5294117647059,4,1,0,70,0,0
61945,-72.463768115942,4,1,0,70,0,0
62108,-70.4225352112676,4,1,0,70,0,0
62271,-68.4931506849315,4,1,0,70,0,0
62434,-66.6666666666667,4,1,0,70,0,0
62597,-64.9350649350649,4,1,0,70,0,0
62760,-63.2911392405063,4,1,0,80,0,1
63086,-66.6666666666667,4,1,0,80,0,1
71850,-65.7894736842105,4,1,0,80,0,1
72013,-64.9350649350649,4,1,0,80,0,1
72176,-64.1025641025641,4,1,0,80,0,1
72339,-63.2911392405063,4,1,0,80,0,1
72502,-61.7283950617284,4,1,0,80,0,1
72665,-60.2409638554217,4,1,0,80,0,1
72828,-58.8235294117647,4,1,0,80,0,1
72991,-57.4712643678161,4,1,0,80,0,1
73154,-56.1797752808989,4,1,0,80,0,1
73480,-66.6666666666667,4,1,0,80,0,1
82285,-65.7894736842105,4,1,0,80,0,1
82448,-64.9350649350649,4,1,0,80,0,1
82611,-64.1025641025641,4,1,0,80,0,1
82774,-63.2911392405063,4,1,0,80,0,1
82937,-61.7283950617284,4,1,0,80,0,1
83100,-60.2409638554217,4,1,0,80,0,1
83263,-58.8235294117647,4,1,0,80,0,1
83426,-57.4712643678161,4,1,0,80,0,1
83507,-56.8181818181818,4,1,0,80,0,1
83630,-56.1797752808989,4,1,0,80,0,0
83915,-100,4,1,0,50,0,0
91565,-100,4,1,0,30,0,0
94065,-100,4,1,0,40,0,0

[HitObjects]
103,37,152,5,12,0:0:0:0:
94,307,478,1,0,0:0:0:0:
94,307,804,1,8,0:0:0:0:
94,307,1130,1,8,0:0:0:0:
94,307,1456,1,0,0:0:0:0:
106,304,2108,1,0,0:0:0:0:
123,291,2760,1,0,0:0:0:0:
133,297,3086,1,8,0:0:0:0:
125,297,3412,1,0,0:0:0:0:
125,297,3738,1,8,0:0:0:0:
125,297,4065,1,8,0:0:0:0:
125,297,4717,1,0,0:0:0:0:
125,297,5043,1,8,0:0:0:0:
125,297,5369,1,0,0:0:0:0:
134,289,5695,1,0,0:0:0:0:
134,289,6021,1,8,0:0:0:0:
137,302,6347,1,0,0:0:0:0:
134,289,6673,1,8,0:0:0:0:
137,291,7325,1,0,0:0:0:0:
134,289,7651,1,8,0:0:0:0:
137,291,7978,1,8,0:0:0:0:
137,291,8304,1,0,0:0:0:0:
134,289,8630,1,8,0:0:0:0:
137,291,8956,1,0,0:0:0:0:
137,291,9282,1,8,0:0:0:0:
134,289,9608,1,8,0:0:0:0:
137,291,9934,1,8,0:0:0:0:
137,291,10260,1,0,0:0:0:0:
134,289,10586,1,8,0:0:0:0:
150,298,10912,1,0,0:0:0:0:
150,298,11238,1,8,0:0:0:0:
150,298,11565,1,8,0:0:0:0:
150,298,11891,1,0,0:0:0:0:
140,297,12543,1,0,0:0:0:0:
140,297,13195,1,0,0:0:0:0:
140,297,13521,1,8,0:0:0:0:
140,297,13847,1,0,0:0:0:0:
140,297,14173,1,8,0:0:0:0:
140,297,14499,1,8,0:0:0:0:
140,297,15151,1,0,0:0:0:0:
140,297,15478,1,8,0:0:0:0:
140,297,15804,1,0,0:0:0:0:
142,301,16130,1,0,0:0:0:0:
142,301,16456,1,8,0:0:0:0:
142,301,16782,1,0,0:0:0:0:
142,301,17108,1,8,0:0:0:0:
142,301,17760,1,0,0:0:0:0:
142,301,18086,1,0,0:0:0:0:
142,301,18412,1,8,0:0:0:0:
142,301,18738,1,0,0:0:0:0:
142,301,19065,1,8,0:0:0:0:
142,301,19391,1,0,0:0:0:0:
142,301,19717,1,8,0:0:0:0:
142,301,20043,1,8,0:0:0:0:
142,301,20369,1,8,0:0:0:0:
142,301,20478,1,0,0:0:0:0:
145,294,20586,1,8,0:0:0:0:
142,301,20695,1,0,0:0:0:0:
157,288,20804,1,8,0:0:0:0:
161,294,20912,1,0,0:0:0:0:
117,24,21021,1,12,0:0:0:0:
150,297,21673,1,8,0:0:0:0:
150,297,21836,1,8,0:0:0:0:
150,297,21999,1,0,0:0:0:0:
146,292,22162,1,0,0:0:0:0:
150,297,22244,1,0,0:0:0:0:
150,297,22325,1,8,0:0:0:0:
154,286,22543,1,0,0:0:0:0:
154,286,22760,1,8,0:0:0:0:
154,286,22978,1,0,0:0:0:0:
162,286,23195,1,0,0:0:0:0:
162,286,23412,1,0,0:0:0:0:
165,283,23630,1,8,0:0:0:0:
175,280,24608,1,8,0:0:0:0:
167,275,24934,1,8,0:0:0:0:
144,278,25016,1,8,0:0:0:0:
150,279,25097,1,0,0:0:0:0:
165,283,25260,1,0,0:0:0:0:
165,283,25423,1,8,0:0:0:0:
165,283,25586,1,0,0:0:0:0:
165,283,25749,1,8,0:0:0:0:
165,283,25912,1,8,0:0:0:0:
165,283,26075,1,0,0:0:0:0:
165,283,26238,1,8,0:0:0:0:
157,290,26565,1,8,0:0:0:0:
157,290,26728,1,8,0:0:0:0:
157,290,26891,1,0,0:0:0:0:
143,290,27217,1,8,0:0:0:0:
138,291,27434,1,0,0:0:0:0:
145,294,27543,1,8,0:0:0:0:
148,279,27760,1,8,0:0:0:0:
148,279,27978,1,8,0:0:0:0:
148,278,28195,1,0,0:0:0:0:
148,279,28412,1,0,0:0:0:0:
148,279,28630,1,0,0:0:0:0:
148,278,28847,1,8,0:0:0:0:
148,279,29173,1,0,0:0:0:0:
148,278,29499,1,8,0:0:0:0:
148,279,29825,1,8,0:0:0:0:
148,278,30151,1,0,0:0:0:0:
150,271,30369,1,0,0:0:0:0:
150,271,30478,1,8,0:0:0:0:
134,265,30695,1,8,0:0:0:0:
152,267,30804,1,0,0:0:0:0:
142,280,31021,1,0,0:0:0:0:
140,279,31130,1,8,0:0:0:0:
129,277,31456,1,0,0:0:0:0:
137,273,31673,1,0,0:0:0:0:
137,273,31891,1,0,0:0:0:0:
137,273,32108,1,8,0:0:0:0:
137,273,32271,1,0,0:0:0:0:
137,273,32434,1,8,0:0:0:0:
143,279,32651,1,0,0:0:0:0:
143,279,32760,1,8,0:0:0:0:
148,276,32978,1,0,0:0:0:0:
148,276,33195,1,8,0:0:0:0:
143,279,33412,1,0,0:0:0:0:
148,276,33630,1,0,0:0:0:0:
148,276,33847,1,0,0:0:0:0:
143,279,34065,1,8,0:0:0:0:
145,275,35043,1,8,0:0:0:0:
145,275,35369,1,8,0:0:0:0:
145,275,35450,1,8,0:0:0:0:
145,275,35532,1,0,0:0:0:0:
145,275,35695,1,8,0:0:0:0:
141,271,35858,1,0,0:0:0:0:
145,269,36021,1,8,0:0:0:0:
145,269,36184,1,8,0:0:0:0:
145,269,36347,1,0,0:0:0:0:
145,269,36510,1,0,0:0:0:0:
145,269,36673,1,8,0:0:0:0:
158,283,36999,1,8,0:0:0:0:
157,283,37217,1,8,0:0:0:0:
153,288,37325,1,0,0:0:0:0:
152,287,37543,1,0,0:0:0:0:
152,287,37651,1,8,0:0:0:0:
152,287,37869,1,8,0:0:0:0:
152,287,37978,1,0,0:0:0:0:
155,300,38195,1,8,0:0:0:0:
155,300,38412,1,8,0:0:0:0:
155,300,38630,1,0,0:0:0:0:
155,300,38847,1,0,0:0:0:0:
155,300,39065,1,0,0:0:0:0:
150,313,39282,1,8,0:0:0:0:
155,321,39608,1,0,0:0:0:0:
155,321,39934,1,8,0:0:0:0:
155,321,40260,1,8,0:0:0:0:
159,317,40586,1,0,0:0:0:0:
203,308,40749,1,0,0:0:0:0:
165,309,40912,1,8,0:0:0:0:
165,309,41075,1,8,0:0:0:0:
159,317,41238,1,0,0:0:0:0:
160,316,41401,1,8,0:0:0:0:
155,343,41565,1,0,0:0:0:0:
151,337,41728,1,0,0:0:0:0:
124,17,41891,1,12,0:0:0:0:
129,326,42217,1,0,0:0:0:0:
129,325,42380,1,8,0:0:0:0:
129,326,42706,1,8,0:0:0:0:
129,326,42869,1,0,0:0:0:0:
127,332,43195,1,8,0:0:0:0:
127,332,43521,1,0,0:0:0:0:
127,323,43684,1,8,0:0:0:0:
127,323,43847,1,0,0:0:0:0:
127,323,44010,1,0,0:0:0:0:
127,323,44173,1,8,0:0:0:0:
127,323,44499,1,0,0:0:0:0:
127,323,44825,1,0,0:0:0:0:
127,323,44988,1,8,0:0:0:0:
127,323,45315,1,8,0:0:0:0:
127,323,45478,1,0,0:0:0:0:
127,323,45804,1,0,0:0:0:0:
127,323,45967,1,8,0:0:0:0:
127,323,46130,1,0,0:0:0:0:
127,323,46293,1,0,0:0:0:0:
127,323,46456,1,8,0:0:0:0:
127,323,46619,1,0,0:0:0:0:
127,323,46782,1,8,0:0:0:0:
127,323,46945,1,8,0:0:0:0:
129,290,47108,1,0,0:0:0:0:
119,314,47434,1,0,0:0:0:0:
119,314,47597,1,8,0:0:0:0:
119,314,47923,1,8,0:0:0:0:
119,314,48086,1,0,0:0:0:0:
119,314,48412,1,0,0:0:0:0:
119,314,48575,1,8,0:0:0:0:
110,314,48901,1,0,0:0:0:0:
110,314,49065,1,8,0:0:0:0:
110,314,49228,1,0,0:0:0:0:
110,314,49391,1,8,0:0:0:0:
110,314,49554,1,8,0:0:0:0:
110,314,49717,1,0,0:0:0:0:
98,318,50043,1,0,0:0:0:0:
98,318,50206,1,8,0:0:0:0:
93,315,50532,1,8,0:0:0:0:
93,315,50695,1,8,0:0:0:0:
91,324,50858,1,0,0:0:0:0:
91,324,51021,1,8,0:0:0:0:
91,324,51184,1,0,0:0:0:0:
91,324,51347,1,8,0:0:0:0:
91,324,51510,1,0,0:0:0:0:
91,324,51673,1,8,0:0:0:0:
91,324,51836,1,8,0:0:0:0:
91,324,51999,1,0,0:0:0:0:
91,324,52162,1,0,0:0:0:0:
126,17,52325,1,12,0:0:0:0:
129,326,52651,1,0,0:0:0:0:
129,325,52815,1,8,0:0:0:0:
129,326,53141,1,8,0:0:0:0:
129,326,53304,1,0,0:0:0:0:
127,332,53630,1,8,0:0:0:0:
127,332,53956,1,0,0:0:0:0:
127,323,54119,1,8,0:0:0:0:
127,323,54282,1,0,0:0:0:0:
127,323,54445,1,0,0:0:0:0:
127,323,54608,1,8,0:0:0:0:
127,323,54934,1,0,0:0:0:0:
127,323,55260,1,0,0:0:0:0:
127,323,55423,1,8,0:0:0:0:
127,323,55749,1,8,0:0:0:0:
127,323,55912,1,0,0:0:0:0:
127,323,56238,1,8,0:0:0:0:
127,323,56401,1,8,0:0:0:0:
127,323,56565,1,0,0:0:0:0:
127,323,56728,1,0,0:0:0:0:
127,323,56891,1,8,0:0:0:0:
127,323,57054,1,0,0:0:0:0:
127,323,57217,1,8,0:0:0:0:
127,323,57380,1,8,0:0:0:0:
129,290,57543,1,0,0:0:0:0:
119,314,57869,1,0,0:0:0:0:
119,314,58032,1,8,0:0:0:0:
141,311,58195,1,8,0:0:0:0:
119,314,58358,1,8,0:0:0:0:
119,314,58521,1,0,0:0:0:0:
119,314,58847,1,0,0:0:0:0:
119,314,59010,1,8,0:0:0:0:
110,314,59336,1,0,0:0:0:0:
110,314,59499,1,8,0:0:0:0:
110,314,59662,1,0,0:0:0:0:
110,314,59825,1,8,0:0:0:0:
110,314,59988,1,8,0:0:0:0:
110,314,60151,1,0,0:0:0:0:
98,318,60478,1,0,0:0:0:0:
98,318,60641,1,8,0:0:0:0:
93,315,60967,1,0,0:0:0:0:
93,315,61130,1,8,0:0:0:0:
91,324,61293,1,0,0:0:0:0:
91,324,61456,1,8,0:0:0:0:
91,324,61619,1,8,0:0:0:0:
91,324,61782,1,0,0:0:0:0:
91,324,61945,1,0,0:0:0:0:
91,324,62108,1,8,0:0:0:0:
91,324,62271,1,0,0:0:0:0:
91,324,62434,1,8,0:0:0:0:
91,324,62597,1,0,0:0:0:0:
126,17,62760,1,12,0:0:0:0:
95,330,63086,1,0,0:0:0:0:
96,330,63249,1,8,0:0:0:0:
95,330,63575,1,8,0:0:0:0:
95,330,63738,1,0,0:0:0:0:
96,330,63901,1,8,0:0:0:0:
96,330,64065,1,0,0:0:0:0:
95,330,64391,1,0,0:0:0:0:
96,330,64554,1,8,0:0:0:0:
96,330,64717,1,0,0:0:0:0:
96,330,64880,1,0,0:0:0:0:
95,330,65043,1,8,0:0:0:0:
96,330,65206,1,0,0:0:0:0:
96,330,65287,1,0,0:0:0:0:
96,330,65369,1,8,0:0:0:0:
96,330,65532,1,0,0:0:0:0:
96,330,65858,1,8,0:0:0:0:
96,330,66021,1,0,0:0:0:0:
96,330,66347,1,0,0:0:0:0:
96,330,66510,1,8,0:0:0:0:
108,346,66836,1,0,0:0:0:0:
108,340,66999,1,8,0:0:0:0:
108,338,67162,1,8,0:0:0:0:
108,338,67325,1,0,0:0:0:0:
108,338,67488,1,0,0:0:0:0:
108,340,67651,1,8,0:0:0:0:
108,338,67815,1,0,0:0:0:0:
109,330,67896,1,0,0:0:0:0:
108,338,67978,1,8,0:0:0:0:
108,340,68304,1,8,0:0:0:0:
108,338,68467,1,8,0:0:0:0:
110,338,68630,1,0,0:0:0:0:
108,340,68793,1,8,0:0:0:0:
108,340,68956,1,0,0:0:0:0:
108,340,69119,1,8,0:0:0:0:
110,338,69282,1,0,0:0:0:0:
108,340,69499,1,8,0:0:0:0:
114,334,69717,1,0,0:0:0:0:
114,334,69934,1,0,0:0:0:0:
120,324,70151,1,8,0:0:0:0:
119,320,70369,1,0,0:0:0:0:
120,319,70586,1,0,0:0:0:0:
122,316,70749,1,0,0:0:0:0:
122,316,70912,1,8,0:0:0:0:
122,316,71075,1,8,0:0:0:0:
122,316,71238,1,0,0:0:0:0:
122,316,71401,1,8,0:0:0:0:
122,316,71565,1,0,0:0:0:0:
122,316,71728,1,0,0:0:0:0:
122,316,71891,1,8,0:0:0:0:
122,316,72054,1,0,0:0:0:0:
108,309,72217,1,8,0:0:0:0:
122,316,72380,1,0,0:0:0:0:
122,316,72543,1,8,0:0:0:0:
122,316,72706,1,8,0:0:0:0:
122,316,72869,1,0,0:0:0:0:
122,316,73032,1,0,0:0:0:0:
107,28,73195,1,12,0:0:0:0:
112,304,73521,1,0,0:0:0:0:
112,304,73684,1,8,0:0:0:0:
112,304,74010,1,8,0:0:0:0:
112,304,74173,1,0,0:0:0:0:
112,304,74336,1,8,0:0:0:0:
112,304,74499,1,0,0:0:0:0:
112,304,74825,1,0,0:0:0:0:
112,304,74988,1,8,0:0:0:0:
112,304,75151,1,0,0:0:0:0:
112,304,75315,1,0,0:0:0:0:
112,304,75478,1,8,0:0:0:0:
112,304,75804,1,8,0:0:0:0:
112,304,75967,1,0,0:0:0:0:
112,304,76293,1,8,0:0:0:0:
112,304,76456,1,0,0:0:0:0:
121,301,76782,1,0,0:0:0:0:
121,301,76945,1,8,0:0:0:0:
121,301,77271,1,0,0:0:0:0:
121,301,77434,1,8,0:0:0:0:
121,301,77597,1,8,0:0:0:0:
121,301,77760,1,0,0:0:0:0:
121,301,77923,1,8,0:0:0:0:
121,301,78086,1,0,0:0:0:0:
121,301,78249,1,0,0:0:0:0:
121,301,78331,1,0,0:0:0:0:
121,301,78412,1,8,0:0:0:0:
113,305,78738,1,8,0:0:0:0:
113,305,78901,1,8,0:0:0:0:
113,305,79065,1,0,0:0:0:0:
113,305,79228,1,8,0:0:0:0:
113,305,79391,1,0,0:0:0:0:
113,305,79554,1,8,0:0:0:0:
106,313,79717,1,0,0:0:0:0:
110,311,79934,1,8,0:0:0:0:
103,285,80151,1,0,0:0:0:0:
107,300,80369,1,0,0:0:0:0:
107,300,80586,1,8,0:0:0:0:
107,300,80804,1,0,0:0:0:0:
107,300,81021,1,0,0:0:0:0:
122,300,81184,1,8,0:0:0:0:
122,300,81347,1,8,0:0:0:0:
122,300,81510,1,0,0:0:0:0:
122,300,81673,1,8,0:0:0:0:
122,300,81836,1,8,0:0:0:0:
122,300,81999,1,0,0:0:0:0:
122,300,82162,1,8,0:0:0:0:
122,300,82325,1,0,0:0:0:0:
122,300,82488,1,0,0:0:0:0:
122,300,82651,1,8,0:0:0:0:
122,300,82815,1,8,0:0:0:0:
122,300,82978,1,0,0:0:0:0:
122,300,83141,1,8,0:0:0:0:
122,300,83304,1,0,0:0:0:0:
137,292,83467,1,0,0:0:0:0:
133,307,83548,1,0,0:0:0:0:
113,28,83630,1,12,0:0:0:0:
104,291,86238,1,0,0:0:0:0:
104,291,88847,1,8,0:0:0:0:
104,291,91456,1,8,0:0:0:0:
256,192,91619,12,8,93901,0:0:0:0:
93,0,94065,5,12,0:0:0:0:
76,286,94391,1,0,0:0:0:0:
76,286,94717,1,8,0:0:0:0:
76,286,95043,1,8,0:0:0:0:
76,286,95369,1,0,0:0:0:0:
76,286,96021,1,0,0:0:0:0:
76,286,96673,1,0,0:0:0:0:
76,286,96999,1,8,0:0:0:0:
76,286,97325,1,0,0:0:0:0:
76,286,97651,1,8,0:0:0:0:
76,291,97978,1,8,0:0:0:0:
76,291,98630,1,0,0:0:0:0:
76,291,98956,1,8,0:0:0:0:
75,297,99282,1,0,0:0:0:0:
75,297,99608,1,0,0:0:0:0:
75,297,99934,1,8,0:0:0:0:
75,297,100260,1,0,0:0:0:0:
75,297,100586,1,8,0:0:0:0:
75,297,101238,1,0,0:0:0:0:
75,297,101565,1,8,0:0:0:0:
75,297,101891,1,8,0:0:0:0:
77,301,102217,1,0,0:0:0:0:
77,301,102543,1,8,0:0:0:0:
77,301,102869,1,0,0:0:0:0:
87,299,103195,1,8,0:0:0:0:
87,299,103521,1,8,0:0:0:0:
87,299,103847,1,8,0:0:0:0:
87,299,104173,1,0,0:0:0:0:
87,299,104499,1,8,0:0:0:0:
87,299,104825,1,0,0:0:0:0:
87,299,105151,1,8,0:0:0:0:
87,299,105478,1,8,0:0:0:0:
87,299,105804,1,0,0:0:0:0:
87,299,106456,1,0,0:0:0:0:
87,299,107108,1,0,0:0:0:0:
87,299,107434,1,8,0:0:0:0:
87,299,107760,1,0,0:0:0:0:
87,299,108086,1,8,0:0:0:0:
93,305,108412,1,8,0:0:0:0:
93,305,109065,1,0,0:0:0:0:
93,305,109391,1,8,0:0:0:0:
93,305,109717,1,0,0:0:0:0:
93,305,110043,1,0,0:0:0:0:
93,305,110369,1,8,0:0:0:0:
93,305,110695,1,0,0:0:0:0:
93,305,111021,1,8,0:0:0:0:
93,305,111673,1,0,0:0:0:0:
93,305,111999,1,0,0:0:0:0:
93,305,112325,1,8,0:0:0:0:
93,305,112651,1,0,0:0:0:0:
93,305,112978,1,8,0:0:0:0:
93,305,113304,1,0,0:0:0:0:
93,305,113630,1,8,0:0:0:0:
93,305,113956,1,8,0:0:0:0:
106,307,114282,1,8,0:0:0:0:
106,307,114608,1,0,0:0:0:0:
121,304,115586,1,8,0:0:0:0:
