osu file format v14

[General]
AudioFilename: nightfall.mp3
AudioLeadIn: 0
PreviewTime: 62632
Countdown: 0
SampleSet: Soft
StackLeniency: 0.7
Mode: 3
LetterboxInBreaks: 0
SpecialStyle: 0
WidescreenStoryboard: 0

[Editor]
DistanceSpacing: 2
BeatDivisor: 4
GridSize: 8
TimelineZoom: 1.3

[Metadata]
Title:nightfall (full ver)
TitleUnicode:nightfall (full ver)
Artist:ginkiha
ArtistUnicode:ginkiha
Creator:[Shana Lesus]
Version:Leah's Normal
Source:BMS
Tags:G2R2014 Ne​/​nuit NIZI-RINGO -_[_L_e_a_h_]_- piano alchemists violin deemo
BeatmapID:1024678
BeatmapSetID:473048

[Difficulty]
HPDrainRate:7.5
CircleSize:4
OverallDifficulty:7.5
ApproachRate:5
SliderMultiplier:1.4
SliderTickRate:1

[Events]
//Background and Video events
0,0,"nightfall.jpg",0,0
//Break Periods
//Storyboard Layer 0 (Background)
//Storyboard Layer 1 (Fail)
//Storyboard Layer 2 (Pass)
//Storyboard Layer 3 (Foreground)
//Storyboard Sound Samples

[TimingPoints]
24,652.173913043478,4,2,1,40,1,0
62632,-100,4,2,1,40,0,1
104371,-100,4,2,1,40,0,0
114806,-100,4,2,1,40,0,1
135676,-100,4,2,1,40,0,0
177415,-100,4,2,1,40,0,1
219154,-100,4,2,1,40,0,0

[HitObjects]
192,192,24,5,4,0:0:0:0:
64,192,24,1,0,0:0:0:0:
320,192,350,1,0,0:0:0:0:
448,192,676,1,0,0:0:0:0:
192,192,1002,1,0,0:0:0:0:
448,192,1328,1,0,0:0:0:0:
64,192,1980,1,0,0:0:0:0:
192,192,2632,1,0,0:0:0:0:
448,192,2632,1,0,0:0:0:0:
320,192,2958,1,0,0:0:0:0:
192,192,3284,1,0,0:0:0:0:
448,192,3610,1,0,0:0:0:0:
64,192,3610,1,0,0:0:0:0:
192,192,3937,1,0,0:0:0:0:
320,192,4589,1,0,0:0:0:0:
192,192,4915,1,0,0:0:0:0:
64,192,5241,1,0,0:0:0:0:
320,192,5241,1,0,0:0:0:0:
192,192,5567,1,0,0:0:0:0:
320,192,5893,1,0,0:0:0:0:
448,192,5893,1,0,0:0:0:0:
192,192,6219,1,0,0:0:0:0:
64,192,6545,1,0,0:0:0:0:
448,192,6545,1,0,0:0:0:0:
320,192,7197,1,0,0:0:0:0:
192,192,7523,1,0,0:0:0:0:
448,192,7850,1,0,0:0:0:0:
64,192,7850,1,0,0:0:0:0:
320,192,8176,1,0,0:0:0:0:
192,192,8502,1,0,0:0:0:0:
448,192,8502,1,0,0:0:0:0:
320,192,8828,1,0,0:0:0:0:
192,192,9154,1,0,0:0:0:0:
64,192,9154,1,0,0:0:0:0:
320,192,9480,1,0,0:0:0:0:
192,192,9806,1,0,0:0:0:0:
448,192,9806,1,0,0:0:0:0:
64,192,10132,1,0,0:0:0:0:
192,192,10458,1,0,0:0:0:0:
320,192,10458,1,0,0:0:0:0:
64,192,10784,1,0,0:0:0:0:
448,192,11110,1,0,0:0:0:0:
192,192,11437,1,0,0:0:0:0:
320,192,11763,1,0,0:0:0:0:
192,192,12415,1,0,0:0:0:0:
64,192,13067,1,0,0:0:0:0:
320,192,13067,1,0,0:0:0:0:
192,192,13393,1,0,0:0:0:0:
320,192,13719,1,0,0:0:0:0:
64,192,14045,1,0,0:0:0:0:
448,192,14045,1,0,0:0:0:0:
320,192,14371,1,0,0:0:0:0:
320,192,15023,1,0,0:0:0:0:
192,192,15350,1,0,0:0:0:0:
320,192,15676,1,0,0:0:0:0:
448,192,15676,1,0,0:0:0:0:
64,192,16002,1,0,0:0:0:0:
192,192,16328,1,0,0:0:0:0:
320,192,16654,1,0,0:0:0:0:
448,192,16980,1,0,0:0:0:0:
64,192,16980,1,0,0:0:0:0:
192,192,17632,1,0,0:0:0:0:
320,192,17958,1,0,0:0:0:0:
64,192,18284,1,0,0:0:0:0:
192,192,18284,1,0,0:0:0:0:
320,192,18610,1,0,0:0:0:0:
64,192,18937,1,0,0:0:0:0:
448,192,18937,1,0,0:0:0:0:
192,192,19263,1,0,0:0:0:0:
320,192,19589,1,0,0:0:0:0:
448,192,19589,1,0,0:0:0:0:
64,192,19915,1,0,0:0:0:0:
192,192,20241,128,0,20567:0:0:0:0:
320,192,20567,128,0,20893:0:0:0:0:
64,192,20893,1,4,0:0:0:0:
448,192,20893,128,0,21545:0:0:0:0:
192,192,21545,1,0,0:0:0:0:
64,192,21708,1,0,0:0:0:0:
192,192,21871,1,0,0:0:0:0:
320,192,22034,1,0,0:0:0:0:
448,192,22197,1,2,0:0:0:0:
192,192,22197,128,0,22850:0:0:0:0:
64,192,22850,128,0,23502:0:0:0:0:
320,192,23502,128,0,24154:0:0:0:0:
448,192,23502,1,0,0:0:0:0:
192,192,24480,128,0,24806:0:0:0:0:
64,192,24806,1,2,0:0:0:0:
448,192,24806,1,0,0:0:0:0:
320,192,24969,1,0,0:0:0:0:
192,192,25132,1,0,0:0:0:0:
320,192,25295,1,0,0:0:0:0:
448,192,25458,1,0,0:0:0:0:
320,192,25621,1,0,0:0:0:0:
192,192,25784,1,0,0:0:0:0:
64,192,25947,1,0,0:0:0:0:
320,192,26110,1,0,0:0:0:0:
448,192,26110,1,0,0:0:0:0:
64,192,26437,1,0,0:0:0:0:
320,192,26763,1,0,0:0:0:0:
192,192,27089,1,0,0:0:0:0:
320,192,27415,1,2,0:0:0:0:
448,192,27415,128,0,28067:0:0:0:0:
192,192,28067,128,0,28719:0:0:0:0:
64,192,28719,1,0,0:0:0:0:
448,192,28719,1,0,0:0:0:0:
192,192,29045,1,0,0:0:0:0:
320,192,29371,1,0,0:0:0:0:
192,192,29697,1,0,0:0:0:0:
448,192,30023,1,2,0:0:0:0:
64,192,30023,1,0,0:0:0:0:
192,192,30350,1,0,0:0:0:0:
448,192,30676,1,0,0:0:0:0:
320,192,31002,1,0,0:0:0:0:
192,192,31328,128,0,31980:0:0:0:0:
64,192,31328,1,0,0:0:0:0:
448,192,31980,1,0,0:0:0:0:
320,192,32143,1,0,0:0:0:0:
64,192,32306,1,0,0:0:0:0:
192,192,32469,1,0,0:0:0:0:
320,192,32632,1,2,0:0:0:0:
448,192,32632,128,0,33284:0:0:0:0:
192,192,33284,128,0,33937:0:0:0:0:
448,192,33937,1,0,0:0:0:0:
320,192,33937,128,0,34589:0:0:0:0:
64,192,34915,128,0,35241:0:0:0:0:
192,192,35241,1,0,0:0:0:0:
448,192,35241,1,0,0:0:0:0:
320,192,35404,1,0,0:0:0:0:
192,192,35567,1,0,0:0:0:0:
320,192,35730,1,0,0:0:0:0:
448,192,35893,1,0,0:0:0:0:
320,192,36056,1,0,0:0:0:0:
192,192,36219,1,0,0:0:0:0:
64,192,36382,1,0,0:0:0:0:
448,192,36545,1,0,0:0:0:0:
192,192,36545,1,0,0:0:0:0:
64,192,36871,1,0,0:0:0:0:
320,192,37197,1,0,0:0:0:0:
192,192,37523,1,0,0:0:0:0:
320,192,37850,1,2,0:0:0:0:
448,192,37850,128,0,38502:0:0:0:0:
192,192,38502,128,0,39154:0:0:0:0:
320,192,39154,1,0,0:0:0:0:
64,192,39480,1,0,0:0:0:0:
448,192,39806,128,0,40458:0:0:0:0:
192,192,40132,1,0,0:0:0:0:
64,192,40458,1,2,0:0:0:0:
192,192,40621,1,0,0:0:0:0:
320,192,40784,1,0,0:0:0:0:
64,192,41110,1,0,0:0:0:0:
448,192,41110,1,0,0:0:0:0:
320,192,41273,1,0,0:0:0:0:
192,192,41437,1,0,0:0:0:0:
64,192,41600,1,0,0:0:0:0:
192,192,41763,1,4,0:0:0:0:
448,192,41763,1,0,0:0:0:0:
320,192,42415,1,0,0:0:0:0:
192,192,42578,1,0,0:0:0:0:
64,192,42741,1,0,0:0:0:0:
448,192,43067,1,2,0:0:0:0:
192,192,43067,1,0,0:0:0:0:
64,192,43719,1,0,0:0:0:0:
320,192,43719,1,0,0:0:0:0:
320,192,44371,1,0,0:0:0:0:
192,192,44371,1,0,0:0:0:0:
448,192,44697,1,0,0:0:0:0:
192,192,45023,1,0,0:0:0:0:
320,192,45350,1,0,0:0:0:0:
64,192,45350,1,0,0:0:0:0:
448,192,45676,1,2,0:0:0:0:
64,192,45676,1,0,0:0:0:0:
320,192,46002,1,0,0:0:0:0:
192,192,46165,1,0,0:0:0:0:
192,192,46654,1,0,0:0:0:0:
320,192,46817,1,0,0:0:0:0:
64,192,46980,1,0,0:0:0:0:
448,192,46980,1,0,0:0:0:0:
192,192,47306,1,0,0:0:0:0:
320,192,47632,1,0,0:0:0:0:
64,192,47958,1,0,0:0:0:0:
448,192,48284,1,2,0:0:0:0:
192,192,48284,1,0,0:0:0:0:
192,192,48937,1,0,0:0:0:0:
320,192,49100,1,0,0:0:0:0:
448,192,49263,1,0,0:0:0:0:
64,192,49426,1,0,0:0:0:0:
192,192,49589,1,0,0:0:0:0:
320,192,49589,1,0,0:0:0:0:
448,192,49915,1,0,0:0:0:0:
448,192,50241,1,0,0:0:0:0:
320,192,50567,128,0,50893:0:0:0:0:
64,192,50893,1,2,0:0:0:0:
448,192,50893,1,0,0:0:0:0:
192,192,51545,1,0,0:0:0:0:
448,192,52197,128,0,52850:0:0:0:0:
64,192,52197,1,0,0:0:0:0:
320,192,52850,1,0,0:0:0:0:
192,192,53013,1,0,0:0:0:0:
64,192,53176,1,0,0:0:0:0:
320,192,53502,128,0,54154:0:0:0:0:
448,192,53502,1,0,0:0:0:0:
192,192,54154,1,0,0:0:0:0:
64,192,54154,128,0,54806:0:0:0:0:
320,192,54806,1,0,0:0:0:0:
448,192,54806,128,0,55458:0:0:0:0:
192,192,55132,1,0,0:0:0:0:
64,192,55458,1,0,0:0:0:0:
320,192,55784,128,0,56110:0:0:0:0:
448,192,56110,1,2,0:0:0:0:
64,192,56110,1,0,0:0:0:0:
192,192,56273,1,0,0:0:0:0:
320,192,56437,1,0,0:0:0:0:
448,192,56437,1,0,0:0:0:0:
64,192,56600,1,0,0:0:0:0:
192,192,56763,1,0,0:0:0:0:
320,192,56926,1,0,0:0:0:0:
448,192,57089,1,0,0:0:0:0:
320,192,57252,1,0,0:0:0:0:
192,192,57415,1,0,0:0:0:0:
448,192,57415,1,0,0:0:0:0:
64,192,57741,1,0,0:0:0:0:
192,192,58067,1,0,0:0:0:0:
320,192,58393,1,0,0:0:0:0:
64,192,58719,1,2,0:0:0:0:
448,192,58719,128,0,59371:0:0:0:0:
192,192,59371,128,0,60023:0:0:0:0:
448,192,60023,1,0,0:0:0:0:
320,192,60023,1,0,0:0:0:0:
64,192,60350,1,0,0:0:0:0:
448,192,60676,128,0,61328:0:0:0:0:
320,192,61002,1,0,0:0:0:0:
64,192,61328,1,2,0:0:0:0:
192,192,61328,1,0,0:0:0:0:
320,192,61654,1,0,0:0:0:0:
64,192,61980,1,0,0:0:0:0:
448,192,61980,1,0,0:0:0:0:
192,192,62143,1,0,0:0:0:0:
448,192,62306,1,0,0:0:0:0:
320,192,62469,1,0,0:0:0:0:
192,192,62632,1,4,0:0:0:0:
64,192,62632,128,0,65241:0:0:0:0:
448,192,62958,1,0,0:0:0:0:
320,192,63284,1,0,0:0:0:0:
192,192,63610,1,0,0:0:0:0:
448,192,63937,1,2,0:0:0:0:
320,192,64263,1,0,0:0:0:0:
192,192,64589,1,0,0:0:0:0:
320,192,64915,1,0,0:0:0:0:
192,192,65241,128,0,67850:0:0:0:0:
448,192,65241,1,0,0:0:0:0:
64,192,65567,1,0,0:0:0:0:
320,192,65893,1,0,0:0:0:0:
448,192,66219,1,0,0:0:0:0:
64,192,66545,1,2,0:0:0:0:
320,192,66871,1,0,0:0:0:0:
448,192,67197,1,0,0:0:0:0:
64,192,67523,1,0,0:0:0:0:
320,192,67850,128,0,70458:0:0:0:0:
448,192,67850,1,0,0:0:0:0:
64,192,68176,1,0,0:0:0:0:
192,192,68502,1,0,0:0:0:0:
448,192,68828,1,0,0:0:0:0:
64,192,69154,1,2,0:0:0:0:
192,192,69480,1,0,0:0:0:0:
448,192,69806,1,0,0:0:0:0:
192,192,70132,1,0,0:0:0:0:
448,192,70458,128,0,71763:0:0:0:0:
64,192,70458,1,0,0:0:0:0:
192,192,70784,1,0,0:0:0:0:
320,192,71110,1,0,0:0:0:0:
192,192,71437,1,0,0:0:0:0:
320,192,71763,1,2,0:0:0:0:
64,192,71926,1,0,0:0:0:0:
320,192,72089,1,0,0:0:0:0:
192,192,72252,1,0,0:0:0:0:
64,192,72415,1,0,0:0:0:0:
448,192,72415,1,0,0:0:0:0:
192,192,72578,1,0,0:0:0:0:
320,192,72741,1,0,0:0:0:0:
448,192,72904,1,0,0:0:0:0:
320,192,73067,1,4,0:0:0:0:
192,192,73067,1,0,0:0:0:0:
64,192,73067,128,0,75676:0:0:0:0:
448,192,73393,1,0,0:0:0:0:
320,192,73719,1,0,0:0:0:0:
192,192,74045,1,0,0:0:0:0:
448,192,74371,1,2,0:0:0:0:
320,192,74697,1,0,0:0:0:0:
192,192,75023,1,0,0:0:0:0:
320,192,75350,1,0,0:0:0:0:
192,192,75676,128,0,78284:0:0:0:0:
448,192,75676,1,0,0:0:0:0:
64,192,76002,1,0,0:0:0:0:
320,192,76328,1,0,0:0:0:0:
448,192,76654,1,0,0:0:0:0:
64,192,76980,1,2,0:0:0:0:
448,192,77306,1,0,0:0:0:0:
320,192,77632,1,0,0:0:0:0:
64,192,77958,1,0,0:0:0:0:
320,192,78284,128,0,80893:0:0:0:0:
448,192,78284,1,0,0:0:0:0:
64,192,78610,1,0,0:0:0:0:
192,192,78937,1,0,0:0:0:0:
448,192,79263,1,0,0:0:0:0:
64,192,79589,1,2,0:0:0:0:
192,192,79915,1,0,0:0:0:0:
448,192,80241,1,0,0:0:0:0:
192,192,80567,1,0,0:0:0:0:
448,192,80893,128,0,83502:0:0:0:0:
64,192,80893,1,0,0:0:0:0:
192,192,81219,1,0,0:0:0:0:
320,192,81545,1,0,0:0:0:0:
192,192,81871,1,0,0:0:0:0:
64,192,82197,1,2,0:0:0:0:
320,192,82523,1,0,0:0:0:0:
192,192,82850,128,0,83502:0:0:0:0:
320,192,83502,1,4,0:0:0:0:
64,192,83502,128,0,84806:0:0:0:0:
192,192,84806,128,2,86110:0:0:0:0:
320,192,84806,1,0,0:0:0:0:
64,192,86110,128,0,87578:0:0:0:0:
448,192,86110,1,0,0:0:0:0:
320,192,86273,1,0,0:0:0:0:
192,192,86600,1,0,0:0:0:0:
320,192,86763,1,0,0:0:0:0:
192,192,87089,1,0,0:0:0:0:
320,192,87252,1,0,0:0:0:0:
448,192,87578,1,0,0:0:0:0:
320,192,87741,1,0,0:0:0:0:
64,192,87904,1,0,0:0:0:0:
448,192,88067,1,0,0:0:0:0:
320,192,88230,1,0,0:0:0:0:
192,192,88393,1,0,0:0:0:0:
64,192,88556,1,0,0:0:0:0:
192,192,88719,1,0,0:0:0:0:
320,192,88719,128,0,90023:0:0:0:0:
64,192,90023,1,2,0:0:0:0:
448,192,90023,128,0,91328:0:0:0:0:
320,192,91328,1,0,0:0:0:0:
192,192,91491,1,0,0:0:0:0:
64,192,91654,1,0,0:0:0:0:
192,192,91817,1,0,0:0:0:0:
320,192,91980,1,0,0:0:0:0:
64,192,92143,1,0,0:0:0:0:
192,192,92306,1,0,0:0:0:0:
320,192,92469,1,0,0:0:0:0:
448,192,92632,1,2,0:0:0:0:
64,192,92795,1,0,0:0:0:0:
320,192,92958,1,0,0:0:0:0:
64,192,93121,1,0,0:0:0:0:
448,192,93284,1,0,0:0:0:0:
192,192,93447,1,0,0:0:0:0:
320,192,93610,1,0,0:0:0:0:
64,192,93773,1,0,0:0:0:0:
448,192,93937,128,0,95241:0:0:0:0:
192,192,93937,1,0,0:0:0:0:
320,192,93937,1,0,0:0:0:0:
192,192,95241,128,0,96545:0:0:0:0:
64,192,95241,1,0,0:0:0:0:
448,192,96545,1,0,0:0:0:0:
64,192,96545,128,0,98013:0:0:0:0:
320,192,96708,1,0,0:0:0:0:
192,192,97034,1,0,0:0:0:0:
320,192,97197,1,0,0:0:0:0:
192,192,97523,1,0,0:0:0:0:
320,192,97687,1,0,0:0:0:0:
192,192,98013,1,0,0:0:0:0:
320,192,98176,1,0,0:0:0:0:
192,192,98339,1,0,0:0:0:0:
448,192,98502,1,0,0:0:0:0:
320,192,98665,1,0,0:0:0:0:
192,192,98828,1,0,0:0:0:0:
64,192,98991,1,0,0:0:0:0:
192,192,99154,1,0,0:0:0:0:
448,192,99154,128,0,100458:0:0:0:0:
64,192,100458,128,2,101763:0:0:0:0:
320,192,100458,1,0,0:0:0:0:
448,192,101763,1,0,0:0:0:0:
320,192,101926,1,0,0:0:0:0:
192,192,102089,1,0,0:0:0:0:
320,192,102252,1,0,0:0:0:0:
64,192,102415,1,0,0:0:0:0:
192,192,102578,1,0,0:0:0:0:
320,192,102741,1,0,0:0:0:0:
192,192,102904,1,0,0:0:0:0:
448,192,103067,1,2,0:0:0:0:
64,192,103230,1,0,0:0:0:0:
320,192,103393,1,0,0:0:0:0:
192,192,103556,1,0,0:0:0:0:
448,192,103719,1,0,0:0:0:0:
320,192,103882,1,0,0:0:0:0:
192,192,104045,1,0,0:0:0:0:
64,192,104208,1,0,0:0:0:0:
320,192,104371,1,4,0:0:0:0:
448,192,104371,128,0,106980:0:0:0:0:
192,192,106980,128,0,109589:0:0:0:0:
64,192,106980,1,0,0:0:0:0:
320,192,109589,128,0,112197:0:0:0:0:
448,192,109589,1,0,0:0:0:0:
448,192,112197,128,0,114806:0:0:0:0:
64,192,112197,1,0,0:0:0:0:
320,192,113502,128,0,114806:0:0:0:0:
192,192,114806,1,4,0:0:0:0:
64,192,114806,128,0,117089:0:0:0:0:
192,192,117089,1,0,0:0:0:0:
320,192,117252,1,0,0:0:0:0:
64,192,117415,128,0,118719:0:0:0:0:
448,192,117415,1,0,0:0:0:0:
192,192,118719,1,0,0:0:0:0:
448,192,118719,128,0,120023:0:0:0:0:
192,192,120023,1,0,0:0:0:0:
320,192,120023,128,0,122469:0:0:0:0:
192,192,122632,128,0,123937:0:0:0:0:
320,192,123937,128,0,124263:0:0:0:0:
64,192,123937,1,0,0:0:0:0:
448,192,124263,128,0,124589:0:0:0:0:
320,192,124589,128,0,124915:0:0:0:0:
192,192,124915,128,0,125241:0:0:0:0:
64,192,125241,1,0,0:0:0:0:
448,192,125241,128,0,127523:0:0:0:0:
320,192,127523,1,0,0:0:0:0:
192,192,127687,1,0,0:0:0:0:
320,192,127850,128,0,130458:0:0:0:0:
64,192,127850,1,0,0:0:0:0:
192,192,130458,128,0,131763:0:0:0:0:
448,192,130458,1,0,0:0:0:0:
320,192,131763,1,0,0:0:0:0:
448,192,131763,128,0,132904:0:0:0:0:
192,192,133067,1,0,0:0:0:0:
64,192,133067,128,0,134208:0:0:0:0:
320,192,134371,1,0,0:0:0:0:
448,192,134371,128,0,135023:0:0:0:0:
64,192,134697,1,0,0:0:0:0:
192,192,135023,128,0,135350:0:0:0:0:
320,192,135350,128,0,135676:0:0:0:0:
448,192,135676,128,4,136328:0:0:0:0:
64,192,135676,1,0,0:0:0:0:
64,192,136328,1,0,0:0:0:0:
192,192,136491,1,0,0:0:0:0:
320,192,136654,1,0,0:0:0:0:
448,192,136817,1,0,0:0:0:0:
320,192,136980,1,2,0:0:0:0:
192,192,136980,128,0,137632:0:0:0:0:
320,192,137632,128,0,138284:0:0:0:0:
64,192,138284,128,0,138937:0:0:0:0:
192,192,138284,1,0,0:0:0:0:
64,192,139263,128,0,139589:0:0:0:0:
448,192,139589,1,2,0:0:0:0:
192,192,139589,1,0,0:0:0:0:
320,192,139752,1,0,0:0:0:0:
192,192,139915,1,0,0:0:0:0:
320,192,140078,1,0,0:0:0:0:
448,192,140241,1,0,0:0:0:0:
320,192,140404,1,0,0:0:0:0:
192,192,140567,1,0,0:0:0:0:
64,192,140730,1,0,0:0:0:0:
192,192,140893,1,0,0:0:0:0:
448,192,140893,1,0,0:0:0:0:
320,192,141219,1,0,0:0:0:0:
192,192,141545,1,0,0:0:0:0:
320,192,141871,1,0,0:0:0:0:
448,192,142197,128,2,142850:0:0:0:0:
64,192,142197,1,0,0:0:0:0:
192,192,142850,128,0,143502:0:0:0:0:
320,192,143502,1,0,0:0:0:0:
448,192,143502,1,0,0:0:0:0:
64,192,143828,1,0,0:0:0:0:
192,192,144154,1,0,0:0:0:0:
320,192,144480,1,0,0:0:0:0:
448,192,144806,1,2,0:0:0:0:
64,192,144806,1,0,0:0:0:0:
320,192,145132,1,0,0:0:0:0:
192,192,145458,1,0,0:0:0:0:
64,192,145784,1,0,0:0:0:0:
192,192,146110,1,0,0:0:0:0:
320,192,146110,128,0,146763:0:0:0:0:
64,192,146763,1,0,0:0:0:0:
192,192,146926,1,0,0:0:0:0:
320,192,147089,1,0,0:0:0:0:
192,192,147252,1,0,0:0:0:0:
448,192,147415,1,2,0:0:0:0:
64,192,147415,128,0,148067:0:0:0:0:
192,192,148067,128,0,148719:0:0:0:0:
320,192,148719,128,0,149371:0:0:0:0:
64,192,148719,1,0,0:0:0:0:
64,192,149697,128,0,150023:0:0:0:0:
192,192,150023,1,0,0:0:0:0:
448,192,150023,1,0,0:0:0:0:
320,192,150187,1,0,0:0:0:0:
192,192,150350,1,0,0:0:0:0:
320,192,150513,1,0,0:0:0:0:
448,192,150676,1,0,0:0:0:0:
320,192,150839,1,0,0:0:0:0:
192,192,151002,1,0,0:0:0:0:
64,192,151165,1,0,0:0:0:0:
192,192,151328,1,0,0:0:0:0:
448,192,151328,1,0,0:0:0:0:
320,192,151654,1,0,0:0:0:0:
64,192,151980,1,0,0:0:0:0:
320,192,152306,1,0,0:0:0:0:
448,192,152632,128,2,153284:0:0:0:0:
192,192,152632,1,0,0:0:0:0:
192,192,153284,128,0,153937:0:0:0:0:
64,192,153937,1,0,0:0:0:0:
448,192,153937,128,0,154263:0:0:0:0:
320,192,154263,128,0,154589:0:0:0:0:
448,192,154589,1,0,0:0:0:0:
192,192,154589,128,0,155241:0:0:0:0:
320,192,154915,1,0,0:0:0:0:
64,192,155241,1,0,0:0:0:0:
448,192,155241,128,0,155567:0:0:0:0:
320,192,155567,128,0,155893:0:0:0:0:
64,192,155893,128,0,156219:0:0:0:0:
448,192,155893,1,0,0:0:0:0:
192,192,156219,128,0,156545:0:0:0:0:
448,192,156545,1,0,0:0:0:0:
64,192,156545,1,0,0:0:0:0:
64,192,157197,1,0,0:0:0:0:
192,192,157360,1,0,0:0:0:0:
320,192,157523,1,0,0:0:0:0:
192,192,157850,1,2,0:0:0:0:
448,192,157850,1,0,0:0:0:0:
320,192,158502,1,0,0:0:0:0:
192,192,158502,1,0,0:0:0:0:
448,192,159154,1,0,0:0:0:0:
64,192,159154,1,0,0:0:0:0:
320,192,159480,1,0,0:0:0:0:
192,192,159806,1,0,0:0:0:0:
448,192,160132,1,0,0:0:0:0:
320,192,160132,1,0,0:0:0:0:
320,192,160458,1,2,0:0:0:0:
64,192,160458,1,0,0:0:0:0:
192,192,160784,1,0,0:0:0:0:
320,192,160947,1,0,0:0:0:0:
448,192,161437,1,0,0:0:0:0:
320,192,161600,1,0,0:0:0:0:
192,192,161763,1,0,0:0:0:0:
64,192,161763,1,0,0:0:0:0:
320,192,162089,1,0,0:0:0:0:
192,192,162415,1,0,0:0:0:0:
64,192,162741,1,0,0:0:0:0:
192,192,163067,1,2,0:0:0:0:
448,192,163067,1,0,0:0:0:0:
64,192,163719,1,0,0:0:0:0:
192,192,163882,1,0,0:0:0:0:
320,192,164045,1,0,0:0:0:0:
448,192,164208,1,0,0:0:0:0:
320,192,164371,1,0,0:0:0:0:
192,192,164371,1,0,0:0:0:0:
64,192,164697,1,0,0:0:0:0:
64,192,165023,1,0,0:0:0:0:
320,192,165350,1,0,0:0:0:0:
192,192,165676,1,2,0:0:0:0:
448,192,165676,1,0,0:0:0:0:
320,192,166328,1,0,0:0:0:0:
192,192,166980,1,0,0:0:0:0:
64,192,166980,128,0,167632:0:0:0:0:
448,192,167632,1,0,0:0:0:0:
320,192,167795,1,0,0:0:0:0:
192,192,167958,1,0,0:0:0:0:
64,192,168121,1,0,0:0:0:0:
192,192,168284,1,2,0:0:0:0:
448,192,168284,128,0,168937:0:0:0:0:
320,192,168937,128,0,169589:0:0:0:0:
64,192,168937,1,0,0:0:0:0:
64,192,169589,128,0,170241:0:0:0:0:
192,192,169589,1,0,0:0:0:0:
320,192,169915,1,0,0:0:0:0:
192,192,170241,1,0,0:0:0:0:
320,192,170567,128,0,170893:0:0:0:0:
64,192,170893,1,2,0:0:0:0:
448,192,170893,1,0,0:0:0:0:
192,192,171056,1,0,0:0:0:0:
320,192,171219,1,0,0:0:0:0:
448,192,171382,1,0,0:0:0:0:
64,192,171545,1,0,0:0:0:0:
192,192,171708,1,0,0:0:0:0:
320,192,171871,1,0,0:0:0:0:
192,192,172034,1,0,0:0:0:0:
64,192,172197,1,0,0:0:0:0:
448,192,172197,1,0,0:0:0:0:
192,192,172523,1,0,0:0:0:0:
320,192,172850,1,0,0:0:0:0:
64,192,173176,1,0,0:0:0:0:
448,192,173502,128,2,174154:0:0:0:0:
192,192,173502,1,0,0:0:0:0:
192,192,174154,128,0,174806:0:0:0:0:
64,192,174806,1,0,0:0:0:0:
448,192,174806,1,0,0:0:0:0:
320,192,175132,1,0,0:0:0:0:
192,192,175458,128,0,176110:0:0:0:0:
448,192,176110,1,2,0:0:0:0:
64,192,176110,1,0,0:0:0:0:
320,192,176437,1,0,0:0:0:0:
192,192,176763,1,0,0:0:0:0:
64,192,176763,1,0,0:0:0:0:
448,192,176926,1,0,0:0:0:0:
320,192,177089,1,0,0:0:0:0:
192,192,177252,1,0,0:0:0:0:
320,192,177415,1,4,0:0:0:0:
448,192,177415,128,0,180023:0:0:0:0:
64,192,177741,1,0,0:0:0:0:
320,192,178067,1,0,0:0:0:0:
192,192,178393,1,0,0:0:0:0:
64,192,178719,1,2,0:0:0:0:
320,192,179045,1,0,0:0:0:0:
192,192,179371,1,0,0:0:0:0:
64,192,179697,1,0,0:0:0:0:
320,192,180023,128,0,182632:0:0:0:0:
192,192,180023,1,0,0:0:0:0:
64,192,180350,1,0,0:0:0:0:
448,192,180676,1,0,0:0:0:0:
192,192,181002,1,0,0:0:0:0:
64,192,181328,1,2,0:0:0:0:
192,192,181654,1,0,0:0:0:0:
448,192,181980,1,0,0:0:0:0:
64,192,182306,1,0,0:0:0:0:
192,192,182632,128,0,185241:0:0:0:0:
448,192,182632,1,0,0:0:0:0:
64,192,182958,1,0,0:0:0:0:
448,192,183284,1,0,0:0:0:0:
320,192,183610,1,0,0:0:0:0:
64,192,183937,1,2,0:0:0:0:
320,192,184263,1,0,0:0:0:0:
448,192,184589,1,0,0:0:0:0:
320,192,184915,1,0,0:0:0:0:
448,192,185241,1,0,0:0:0:0:
64,192,185241,128,0,186545:0:0:0:0:
320,192,185567,1,0,0:0:0:0:
448,192,185893,1,0,0:0:0:0:
320,192,186219,1,0,0:0:0:0:
192,192,186545,1,2,0:0:0:0:
448,192,186708,1,0,0:0:0:0:
320,192,186871,1,0,0:0:0:0:
192,192,187034,1,0,0:0:0:0:
448,192,187197,1,0,0:0:0:0:
320,192,187360,1,0,0:0:0:0:
192,192,187523,1,0,0:0:0:0:
320,192,187687,1,0,0:0:0:0:
64,192,187850,1,4,0:0:0:0:
448,192,187850,128,0,190458:0:0:0:0:
192,192,188176,1,0,0:0:0:0:
320,192,188502,1,0,0:0:0:0:
192,192,188828,1,0,0:0:0:0:
64,192,189154,1,2,0:0:0:0:
192,192,189480,1,0,0:0:0:0:
320,192,189806,1,0,0:0:0:0:
192,192,190132,1,0,0:0:0:0:
320,192,190458,128,0,193067:0:0:0:0:
64,192,190458,1,0,0:0:0:0:
192,192,190784,1,0,0:0:0:0:
64,192,191110,1,0,0:0:0:0:
192,192,191437,1,0,0:0:0:0:
448,192,191763,1,2,0:0:0:0:
64,192,192089,1,0,0:0:0:0:
192,192,192415,1,0,0:0:0:0:
448,192,192741,1,0,0:0:0:0:
192,192,193067,128,0,195676:0:0:0:0:
64,192,193067,1,0,0:0:0:0:
448,192,193393,1,0,0:0:0:0:
320,192,193719,1,0,0:0:0:0:
64,192,194045,1,0,0:0:0:0:
448,192,194371,1,2,0:0:0:0:
320,192,194697,1,0,0:0:0:0:
64,192,195023,1,0,0:0:0:0:
448,192,195350,1,0,0:0:0:0:
64,192,195676,128,0,198284:0:0:0:0:
320,192,195676,1,0,0:0:0:0:
448,192,196002,1,0,0:0:0:0:
192,192,196328,1,0,0:0:0:0:
320,192,196654,1,0,0:0:0:0:
448,192,196980,1,2,0:0:0:0:
192,192,197306,1,0,0:0:0:0:
320,192,197632,128,0,198284:0:0:0:0:
192,192,198284,1,4,0:0:0:0:
448,192,198284,128,0,199589:0:0:0:0:
64,192,199589,128,2,200893:0:0:0:0:
320,192,199589,1,0,0:0:0:0:
448,192,200893,128,0,202360:0:0:0:0:
192,192,200893,1,0,0:0:0:0:
320,192,201056,1,0,0:0:0:0:
64,192,201382,1,0,0:0:0:0:
192,192,201545,1,0,0:0:0:0:
64,192,201871,1,0,0:0:0:0:
192,192,202034,1,0,0:0:0:0:
192,192,202360,1,0,0:0:0:0:
320,192,202523,1,0,0:0:0:0:
448,192,202687,1,0,0:0:0:0:
64,192,202850,1,0,0:0:0:0:
192,192,203013,1,0,0:0:0:0:
448,192,203176,1,0,0:0:0:0:
320,192,203339,1,0,0:0:0:0:
64,192,203502,128,0,204806:0:0:0:0:
192,192,203502,1,0,0:0:0:0:
448,192,204806,128,2,206110:0:0:0:0:
320,192,204806,1,0,0:0:0:0:
64,192,206110,1,0,0:0:0:0:
192,192,206273,1,0,0:0:0:0:
320,192,206437,1,0,0:0:0:0:
192,192,206600,1,0,0:0:0:0:
448,192,206763,1,0,0:0:0:0:
320,192,206926,1,0,0:0:0:0:
192,192,207089,1,0,0:0:0:0:
64,192,207252,1,0,0:0:0:0:
320,192,207415,1,2,0:0:0:0:
192,192,207578,1,0,0:0:0:0:
320,192,207741,1,0,0:0:0:0:
448,192,207904,1,0,0:0:0:0:
64,192,208067,1,0,0:0:0:0:
192,192,208230,1,0,0:0:0:0:
320,192,208393,1,0,0:0:0:0:
448,192,208556,1,0,0:0:0:0:
320,192,208719,1,4,0:0:0:0:
64,192,208719,128,0,210023:0:0:0:0:
192,192,210023,1,2,0:0:0:0:
448,192,210023,128,0,211165:0:0:0:0:
320,192,211328,1,0,0:0:0:0:
64,192,211328,128,0,212795:0:0:0:0:
192,192,211491,1,0,0:0:0:0:
448,192,211817,1,0,0:0:0:0:
320,192,211980,1,0,0:0:0:0:
448,192,212306,1,0,0:0:0:0:
320,192,212469,1,0,0:0:0:0:
192,192,212795,1,0,0:0:0:0:
320,192,212958,1,0,0:0:0:0:
448,192,213121,1,0,0:0:0:0:
64,192,213284,1,0,0:0:0:0:
192,192,213447,1,0,0:0:0:0:
320,192,213610,1,0,0:0:0:0:
448,192,213773,1,0,0:0:0:0:
192,192,213937,1,0,0:0:0:0:
64,192,213937,128,0,215241:0:0:0:0:
448,192,215241,128,2,216545:0:0:0:0:
320,192,215241,1,0,0:0:0:0:
64,192,216545,1,0,0:0:0:0:
192,192,216708,1,0,0:0:0:0:
320,192,216871,1,0,0:0:0:0:
448,192,217034,1,0,0:0:0:0:
320,192,217197,1,0,0:0:0:0:
64,192,217360,1,0,0:0:0:0:
192,192,217523,1,0,0:0:0:0:
320,192,217687,1,0,0:0:0:0:
64,192,217850,1,2,0:0:0:0:
448,192,217850,1,0,0:0:0:0:
192,192,218013,1,0,0:0:0:0:
320,192,218176,1,0,0:0:0:0:
192,192,218339,1,0,0:0:0:0:
448,192,218502,1,0,0:0:0:0:
320,192,218665,1,0,0:0:0:0:
192,192,218828,1,0,0:0:0:0:
64,192,218991,1,0,0:0:0:0:
320,192,219154,1,4,0:0:0:0:
448,192,219154,128,0,221763:0:0:0:0:
64,192,221763,1,0,0:0:0:0:
320,192,221763,128,0,224371:0:0:0:0:
448,192,224371,1,0,0:0:0:0:
192,192,224371,128,0,226980:0:0:0:0:
448,192,226980,1,0,0:0:0:0:
64,192,226980,128,0,229589:0:0:0:0:
192,192,228284,128,0,229589:0:0:0:0:
448,192,229589,1,4,0:0:0:0:
320,192,229915,1,0,0:0:0:0:
448,192,230241,1,0,0:0:0:0:
192,192,230567,1,0,0:0:0:0:
64,192,230893,1,0,0:0:0:0:
320,192,231545,1,0,0:0:0:0:
64,192,232197,1,0,0:0:0:0:
192,192,232197,1,0,0:0:0:0:
320,192,232523,1,0,0:0:0:0:
192,192,232850,1,0,0:0:0:0:
448,192,233176,1,0,0:0:0:0:
64,192,233176,1,0,0:0:0:0:
320,192,233502,1,0,0:0:0:0:
192,192,234154,1,0,0:0:0:0:
320,192,234480,1,0,0:0:0:0:
448,192,234806,1,0,0:0:0:0:
192,192,234806,1,0,0:0:0:0:
64,192,235132,1,0,0:0:0:0:
320,192,235458,1,0,0:0:0:0:
192,192,235784,1,0,0:0:0:0:
448,192,236110,1,0,0:0:0:0:
64,192,236110,1,0,0:0:0:0:
192,192,236763,1,0,0:0:0:0:
320,192,237089,1,0,0:0:0:0:
448,192,237415,1,0,0:0:0:0:
64,192,237415,1,0,0:0:0:0:
192,192,237741,1,0,0:0:0:0:
320,192,238067,1,0,0:0:0:0:
64,192,238067,1,0,0:0:0:0:
192,192,238393,1,0,0:0:0:0:
448,192,238719,1,0,0:0:0:0:
320,192,238719,1,0,0:0:0:0:
192,192,239045,1,0,0:0:0:0:
64,192,239371,1,0,0:0:0:0:
448,192,239371,1,0,0:0:0:0:
320,192,239697,1,0,0:0:0:0:
192,192,240023,1,0,0:0:0:0:
64,192,240023,1,0,0:0:0:0:
320,192,240350,1,0,0:0:0:0:
448,192,240676,1,0,0:0:0:0:
320,192,241002,1,0,0:0:0:0:
192,192,241328,1,0,0:0:0:0:
320,192,241980,1,0,0:0:0:0:
64,192,242632,1,0,0:0:0:0:
192,192,242632,1,0,0:0:0:0:
320,192,242958,1,0,0:0:0:0:
192,192,243284,1,0,0:0:0:0:
448,192,243610,1,0,0:0:0:0:
64,192,243610,1,0,0:0:0:0:
320,192,243937,1,0,0:0:0:0:
448,192,244589,1,0,0:0:0:0:
320,192,244915,1,0,0:0:0:0:
192,192,245241,1,0,0:0:0:0:
64,192,245241,1,0,0:0:0:0:
320,192,245567,1,0,0:0:0:0:
448,192,245893,1,0,0:0:0:0:
64,192,245893,1,0,0:0:0:0:
192,192,246219,1,0,0:0:0:0:
448,192,246545,1,0,0:0:0:0:
320,192,246545,1,0,0:0:0:0:
192,192,247197,1,0,0:0:0:0:
320,192,247523,1,0,0:0:0:0:
192,192,247850,1,0,0:0:0:0:
64,192,247850,1,0,0:0:0:0:
448,192,248176,1,0,0:0:0:0:
320,192,248502,1,0,0:0:0:0:
64,192,248502,1,0,0:0:0:0:
192,192,248828,1,0,0:0:0:0:
64,192,249154,1,0,0:0:0:0:
448,192,249154,1,0,0:0:0:0:
192,192,249480,1,0,0:0:0:0:
320,192,249806,1,0,0:0:0:0:
64,192,249806,1,0,0:0:0:0:
192,192,250132,128,0,250458:0:0:0:0:
192,192,250947,1,0,0:0:0:0:
448,192,251110,1,0,0:0:0:0:
