osu file format v14

[General]
AudioFilename: audio.mp3
AudioLeadIn: 0
PreviewTime: 44
Countdown: 0
SampleSet: Soft
StackLeniency: 0.6
Mode: 0
LetterboxInBreaks: 0
WidescreenStoryboard: 0

[Editor]
Bookmarks: 21158,42028,62897,83767,115071
DistanceSpacing: 1
BeatDivisor: 2
GridSize: 4
TimelineZoom: 2.1

[Metadata]
Title:nightfall
TitleUnicode:nightfall
Artist:ginkiha
ArtistUnicode:ginkiha
Creator:Xilver
Version:deetz' Normal
Source:BMS
Tags:gin kiha g2r2014 piano alchemists nizi-ringo ne/nuit deemo rayark deetz smoothie world
BeatmapID:988633
BeatmapSetID:458456

[Difficulty]
HPDrainRate:3
CircleSize:2.8
OverallDifficulty:3
ApproachRate:3.5
SliderMultiplier:1
SliderTickRate:1

[Events]
//Background and Video events
0,0,"C37fdwz.png",0,0
//Break Periods
2,83967,84935
2,91793,92822
//Storyboard Layer 0 (Background)
//Storyboard Layer 1 (Fail)
//Storyboard Layer 2 (Pass)
//Storyboard Layer 3 (Foreground)
//Storyboard Sound Samples

[TimingPoints]
289,652.173913043478,4,2,1,20,1,0
289,-50,4,2,1,20,0,0
4854,-50,4,2,0,10,0,0
5506,-50,4,2,1,20,0,0
10723,-50,4,2,1,25,0,0
18549,-50,4,2,1,30,0,0
20669,-50,4,2,1,35,0,0
20995,-50,4,2,1,40,0,0
21158,-50,4,2,1,30,0,0
41375,-50,4,2,1,60,0,0
41538,-50,4,2,3,40,0,0
42028,-50,4,2,1,55,0,0
49691,-50,4,2,7,30,0,0
49854,-50,4,2,1,55,0,0
52462,-50,4,2,1,55,0,0
52952,-50,4,2,2,30,0,0
55071,-50,4,2,2,40,0,0
57680,-50,4,2,2,50,0,0
60288,-50,4,2,2,55,0,0
61593,-50,4,2,2,60,0,0
61919,-50,4,2,2,65,0,0
62897,-50,4,2,5,60,0,1
65424,-50,4,2,5,40,0,1
65506,-50,4,2,5,60,0,1
70642,-50,4,2,5,40,0,1
70723,-50,4,2,5,60,0,1
75859,-50,4,2,5,40,0,1
75941,-50,4,2,5,60,0,1
81077,-50,4,2,5,40,0,1
81158,-50,4,2,5,60,0,1
83767,-50,4,2,4,60,0,0
84093,-50,4,2,0,60,0,0
84419,-50,4,2,0,50,0,0
84745,-50,4,2,0,40,0,0
85071,-50,4,2,0,30,0,0
86375,-50,4,2,1,50,0,0
88984,-50,4,2,1,40,0,0
91593,-50,4,2,1,30,0,0
91919,-50,4,2,1,40,0,0
92245,-50,4,2,1,50,0,0
92571,-50,4,2,1,60,0,0
92897,-50,4,2,1,70,0,0
93223,-50,4,2,1,80,0,0
93549,-50,4,2,1,90,0,0
93875,-50,4,2,1,5,0,0
94202,-50,4,2,1,20,0,0
115723,-50,4,2,6,60,0,0

[Colours]
Combo1 : 60,179,113
Combo2 : 225,225,225
Combo3 : 107,107,107
Combo4 : 2,16,181
Combo5 : 0,104,232

[HitObjects]
26,289,289,6,0,B|280:263|151:376|427:335,1,400,4|0,0:0|0:0,0:0:0:0:
502,157,2245,1,0,0:0:0:0:
331,261,2897,2,0,P|246:236|368:62,1,400,2|0,0:0|0:0,0:0:0:0:
438,245,4854,1,2,0:0:0:0:
263,342,5506,6,0,P|164:333|40:331,2,200,2|2|2,0:0|0:0|0:0,0:0:0:0:
263,342,8115,2,0,B|305:261|265:194|265:194|217:121|248:77|299:66|333:77|363:125|339:178,1,400,2|2,0:0|0:0,0:0:0:0:
170,258,10071,1,2,0:0:0:0:
14,133,10723,54,0,P|67:124|111:94,1,100,2|0,0:0|0:0,0:0:0:0:
182,35,11375,2,0,P|238:30|359:115,1,200,0|2,0:0|0:0,0:0:0:0:
352,305,12680,1,0,0:0:0:0:
511,184,13332,2,0,P|477:167|401:169,1,100,2|0,0:0|0:0,0:0:0:0:
324,207,13984,2,0,P|281:215|116:193,1,200,2|2,0:0|0:0,0:0:0:0:
11,360,15288,2,0,P|61:346|122:342,1,100,2|0,0:0|0:0,0:0:0:0:
208,347,15941,6,0,P|252:327|410:326,1,200,0|2,0:0|0:0,0:0:0:0:
493,284,16919,1,0,0:0:0:0:
454,191,17245,1,2,0:0:0:0:
177,74,18223,1,0,0:0:0:0:
144,168,18549,2,0,P|57:180|17:295,1,200,2|2,0:0|0:0,0:0:0:0:
198,349,19854,2,0,B|391:364|294:275|495:291,1,300,2|0,0:0|0:0,0:0:0:0:
489,190,21158,54,0,P|488:134|474:69,1,100,2|0,0:0|0:0,0:0:0:0:
391,136,21810,2,0,P|334:147|193:107,1,200,0|0,0:0|0:0,0:0:0:0:
101,285,23115,1,0,0:0:0:0:
27,99,23767,2,0,P|60:80|137:76,1,100,2|0,0:0|0:0,0:0:0:0:
210,27,24419,2,0,P|215:114|259:237,1,200,0|2,0:0|0:0,0:0:0:0:
348,239,25397,2,0,P|342:295|325:338,2,100,0|2|0,2:0|0:0|0:0,0:0:0:0:
409,160,26375,5,2,0:0:0:0:
489,343,27028,1,0,0:0:0:0:
409,160,27680,2,0,P|326:131|197:153,1,200,0|0,0:0|0:0,0:0:0:0:
140,328,28984,2,0,P|188:350|234:345,1,100,2|0,0:0|0:0,0:0:0:0:
332,360,29636,2,0,L|310:255,1,100,2|2,0:0|0:0,0:0:0:0:
409,242,30288,2,0,P|465:225|485:89,1,200,2|2,0:0|0:0,0:0:0:0:
399,61,31267,1,0,0:0:0:0:
330,133,31593,54,0,P|280:141|230:141,1,100,2|0,2:0|0:0,0:0:0:0:
133,119,32245,2,0,P|144:176|104:317,1,200,0|0,0:0|0:0,0:0:0:0:
301,362,33550,1,0,0:0:0:0:
383,179,34202,2,0,P|416:198|493:202,1,100,2|0,2:0|0:0,0:0:0:0:
507,110,34854,2,0,P|447:52|331:48,1,200,0|2,0:0|0:0,0:0:0:0:
257,109,35832,2,0,P|251:165|234:208,2,100,0|2|0,0:0|0:0|0:0,0:0:0:0:
175,50,36810,5,2,2:0:0:0:
5,156,37463,1,0,0:0:0:0:
175,50,38115,2,0,P|133:133|158:251,1,200,0|0,0:0|0:0,0:0:0:0:
343,279,39419,2,0,P|347:226|326:184,1,100,2|0,2:0|0:0,0:0:0:0:
270,102,40071,2,0,L|381:78,1,100,2|0,0:0|0:0,0:0:0:0:
463,50,40723,53,10,2:0:0:0:
494,144,41049,1,0,0:0:0:0:
443,229,41375,1,8,0:0:0:0:
474,323,41701,1,8,0:0:0:0:
375,341,42028,38,0,B|203:299|238:381|65:336,1,300,4|2,0:0|0:0,0:0:0:0:
34,250,43332,2,0,P|34:214|169:158,1,200,8|2,0:0|0:0,0:0:0:0:
331,247,44636,2,0,P|396:239|346:67,1,300,4|2,0:0|0:0,0:0:0:0:
268,103,45941,2,0,P|227:90|166:56,2,100,8|0|2,0:0|0:0|0:0,0:0:0:0:
350,158,46919,1,0,0:0:0:0:
277,226,47245,54,0,P|205:239|91:304,1,200,4|0,0:0|0:0,0:0:0:0:
47,106,48549,2,0,P|81:113|159:121,1,100,8|0,0:0|0:0,0:0:0:0:
232,69,49202,2,0,P|266:62|344:54,1,100,0|2,0:0|0:0,0:0:0:0:
416,105,49854,1,4,0:0:0:0:
445,302,50506,2,0,P|392:296|341:282,1,100,2|2,0:0|0:0,0:0:0:0:
287,203,51158,5,8,0:0:0:0:
202,256,51484,1,0,0:0:0:0:
138,178,51810,2,0,P|85:184|34:198,1,100,2|0,0:0|0:0,0:0:0:0:
17,293,52462,54,0,B|193:284|94:384|315:353,1,300,4|0,0:0|0:0,0:0:0:0:
382,297,53767,2,0,P|388:236|282:146,1,200,4|0,0:0|0:0,0:0:0:0:
112,64,55071,2,0,P|31:170|143:243,1,300,6|0,0:0|0:0,0:0:0:0:
237,279,56376,2,0,P|278:292|339:326,2,100,4|8|0,0:0|0:0|0:0,0:0:0:0:
220,180,57354,1,0,0:0:0:0:
124,155,57680,6,0,P|157:104|294:114,1,200,6|8,0:0|0:0,0:0:0:0:
443,226,58984,2,0,P|409:233|331:241,1,100,4|8,0:0|0:0,0:0:0:0:
282,319,59636,2,0,P|232:313|183:304,1,100,0|0,0:0|0:0,0:0:0:0:
131,218,60289,1,6,0:0:0:0:
270,75,60941,2,0,P|287:102|297:171,1,100,8|0,0:0|0:0,0:0:0:0:
309,267,61593,2,0,P|408:334|505:213,1,300,6|2,0:0|0:0,0:0:0:0:
406,231,62897,54,0,P|335:316|168:265,1,300,4|0,3:0|3:0,0:0:0:0:
83,221,64202,2,0,P|76:171|81:121,1,100,0|8,3:0|0:0,0:0:0:0:
169,73,64854,2,0,P|173:122|167:172,1,100,0|0,3:0|3:0,0:0:0:0:
256,218,65506,6,0,P|291:168|439:147,2,200,8|8|0,1:2|0:0|3:0,0:0:0:0:
252,317,67136,2,0,P|207:300|143:295,2,100,8|0|0,0:0|3:0|3:0,0:0:0:0:
346,349,68115,6,0,P|381:369|482:198,1,300,4|0,0:1|3:0,0:0:0:0:
490,110,69419,2,0,P|462:109|377:87,1,100,0|8,3:0|0:0,0:0:0:0:
318,160,70071,2,0,P|290:161|205:183,1,100,0|0,3:0|3:0,0:0:0:0:
134,124,70723,37,8,1:2:0:0:
86,211,71049,1,0,3:0:0:0:
172,260,71375,2,0,P|172:298|183:364,1,100,8|0,0:0|3:0,0:0:0:0:
279,336,72028,5,0,3:0:0:0:
375,311,72354,2,0,P|416:315|478:329,2,100,8|0|0,0:0|3:0|3:0,0:0:0:0:
308,236,73332,54,0,P|347:209|224:82,1,300,4|0,0:1|3:0,0:0:0:0:
164,152,74636,2,0,P|115:137|54:137,1,100,0|8,3:0|0:0,0:0:0:0:
47,233,75288,2,0,P|96:248|157:248,1,100,0|0,3:0|3:0,0:0:0:0:
214,321,75941,6,0,P|261:306|395:371,2,200,8|8|0,1:2|0:0|3:0,0:0:0:0:
239,224,77571,2,0,P|264:201|299:133,2,100,8|0|0,0:0|3:0|3:0,0:0:0:0:
144,249,78549,6,0,P|89:228|147:47,1,300,4|0,0:1|3:0,0:0:0:0:
209,120,79854,2,0,P|255:111|328:106,1,100,0|8,3:0|0:0,0:0:0:0:
383,41,80506,2,0,P|429:50|502:55,1,100,0|0,3:0|3:0,0:0:0:0:
486,154,81158,37,8,1:2:0:0:
439,242,81484,1,0,3:0:0:0:
447,341,81810,2,0,P|404:331|346:332,1,100,8|0,0:0|1:0,0:0:0:0:
248,324,82462,5,0,3:0:0:0:
153,293,82788,1,8,0:0:0:0:
153,193,83115,1,0,3:0:0:0:
248,162,83441,1,0,3:0:0:0:
307,243,83767,5,2,0:0:0:0:
323,113,86375,5,2,0:0:0:0:
407,66,88984,5,2,0:0:0:0:
490,118,91593,5,0,0:0:0:0:
486,289,94202,38,0,B|232:263|361:376|85:335,1,400,4|0,0:0|0:0,0:0:0:0:
88,137,96158,1,0,0:0:0:0:
263,233,96810,2,0,P|258:176|484:214,1,400,2|0,0:0|0:0,0:0:0:0:
382,367,98767,1,2,0:0:0:0:
198,287,99419,6,0,P|99:278|-25:276,2,200,0|2|2,0:0|0:0|0:0,0:0:0:0:
198,287,102028,2,0,B|156:206|196:139|196:139|244:66|213:22|162:11|128:22|98:70|122:123,1,400,2|2,0:0|0:0,0:0:0:0:
304,173,103984,1,2,0:0:0:0:
476,72,104636,54,0,P|467:125|437:169,1,100,2|0,0:0|0:0,0:0:0:0:
443,263,105288,2,0,P|369:259|243:317,1,200,0|0,0:0|0:0,0:0:0:0:
73,221,106593,1,0,0:0:0:0:
160,41,107245,2,0,P|169:94|199:138,1,100,2|0,0:0|0:0,0:0:0:0:
193,232,107897,2,0,P|267:228|393:286,1,200,0|0,0:0|0:0,0:0:0:0:
474,99,109201,2,0,P|424:113|363:117,1,100,2|0,0:0|0:0,0:0:0:0:
277,112,109854,6,0,P|233:132|75:133,1,200,0|2,0:0|0:0,0:0:0:0:
90,235,110832,1,0,0:0:0:0:
64,331,111158,1,2,2:0:0:0:
356,265,112136,1,0,0:0:0:0:
452,289,112462,2,0,P|470:259|325:78,1,300,2|0,0:0|0:0,0:0:0:0:
320,173,113767,2,0,B|127:188|224:99|23:115,1,300,2|0,0:0|0:0,0:0:0:0:
33,114,115723,21,0,0:0:0:0:
