osu file format v14

[General]
AudioFilename: audio.mp3
AudioLeadIn: 0
PreviewTime: 44
Countdown: 0
SampleSet: Soft
StackLeniency: 0.7
Mode: 0
LetterboxInBreaks: 0
WidescreenStoryboard: 1

[Editor]
Bookmarks: 41375,52462,62897,83767
DistanceSpacing: 6
BeatDivisor: 8
GridSize: 4
TimelineZoom: 3.739998

[Metadata]
Title:nightfall
TitleUnicode:nightfall
Artist:ginkiha
ArtistUnicode:ginkiha
Creator:Xilver
Version:Skyloft
Source:BMS
Tags:gin kiha g2r2014 piano alchemists nizi-ringo ne/nuit deemo rayark deetz smoothie world
BeatmapID:1025530
BeatmapSetID:458456

[Difficulty]
HPDrainRate:6
CircleSize:4.2
OverallDifficulty:8
ApproachRate:9.2
SliderMultiplier:1.7
SliderTickRate:1

[Events]
//Background and Video events
0,0,"C37fdwz.png",0,0
//Break Periods
//Storyboard Layer 0 (Background)
//Storyboard Layer 1 (Fail)
//Storyboard Layer 2 (Pass)
//Storyboard Layer 3 (Foreground)
//Storyboard Sound Samples

[TimingPoints]
289,652.173913043478,4,2,1,20,1,0
289,-100,4,2,1,20,0,0
4854,-100,4,2,0,10,0,0
5506,-100,4,2,1,20,0,0
10723,-100,4,2,1,25,0,0
18549,-100,4,2,1,30,0,0
20506,-83.3333333333333,4,2,1,30,0,0
20669,-83.3333333333333,4,2,1,35,0,0
20995,-71.4285714285714,4,2,1,40,0,0
21158,-71.4285714285714,4,2,1,30,0,0
25071,-83.3333333333334,4,2,1,30,0,0
41375,-83.3333333333334,4,2,1,60,0,0
41538,-83.3333333333334,4,2,3,40,0,0
42028,-71.4285714285714,4,2,1,55,0,0
49691,-71.4285714285714,4,2,7,30,0,0
49854,-71.4285714285714,4,2,1,55,0,0
52462,-62.5,4,2,1,55,0,0
52952,-62.5,4,2,2,30,0,0
55071,-62.5,4,2,2,40,0,0
57680,-62.5,4,2,2,50,0,0
60288,-62.5,4,2,2,55,0,0
61593,-55.5555555555556,4,2,2,60,0,0
61919,-52.6315789473684,4,2,2,65,0,0
62245,-50,4,2,2,65,0,0
62897,-50,4,2,5,60,0,1
65424,-50,4,2,5,40,0,1
65506,-50,4,2,5,60,0,1
70642,-50,4,2,5,40,0,1
70723,-50,4,2,5,60,0,1
75859,-50,4,2,5,40,0,1
75941,-50,4,2,5,60,0,1
81077,-50,4,2,5,40,0,1
81158,-50,4,2,5,60,0,1
83767,-50,4,2,4,60,0,0
84093,-50,4,2,0,60,0,0
84419,-50,4,2,0,50,0,0
84745,-50,4,2,0,40,0,0
85071,-50,4,2,0,30,0,0
86375,-166.666666666667,4,2,1,50,0,0
88984,-166.666666666667,4,2,1,40,0,0
91593,-166.666666666667,4,2,1,30,0,0
91919,-166.666666666667,4,2,1,40,0,0
92245,-166.666666666667,4,2,1,50,0,0
92571,-166.666666666667,4,2,1,60,0,0
92897,-166.666666666667,4,2,1,70,0,0
93223,-166.666666666667,4,2,1,80,0,0
93549,-166.666666666667,4,2,1,90,0,0
93875,-166.666666666667,4,2,1,5,0,0
94202,-100,4,2,1,20,0,0
115723,-100,4,2,6,60,0,0

[Colours]
Combo1 : 60,179,113
Combo2 : 107,107,107
Combo3 : 0,104,232
Combo4 : 225,225,225
Combo5 : 2,16,181

[HitObjects]
368,228,289,37,4,0:0:0:0:
305,187,615,1,0,0:0:0:0:
324,115,941,1,0,0:0:0:0:
399,111,1267,1,0,0:0:0:0:
426,180,1593,37,0,0:0:0:0:
426,180,2245,1,0,0:0:0:0:
144,228,2897,21,2,0:0:0:0:
207,187,3223,1,0,0:0:0:0:
188,115,3549,1,0,0:0:0:0:
113,111,3875,1,0,0:0:0:0:
86,180,4201,37,0,0:0:0:0:
86,180,4853,1,2,0:0:0:0:
172,113,5180,1,0,0:0:0:0:
178,323,5506,22,0,L|93:312,1,85,2|0,0:0|0:0,0:0:0:0:
295,180,6158,2,0,L|210:191,1,85,2|0,0:0|0:0,0:0:0:0:
377,296,6810,2,0,P|411:302|446:200,1,170,2|0,0:0|0:0,0:0:0:0:
342,63,7788,1,0,0:0:0:0:
211,220,8115,38,0,P|251:209|291:221,1,85,2|0,0:0|0:0,0:0:0:0:
216,12,8767,2,0,L|220:117,1,85,2|0,0:0|0:0,0:0:0:0:
115,320,9419,1,2,0:0:0:0:
41,250,9745,1,0,0:0:0:0:
129,191,10071,1,2,0:0:0:0:
55,121,10397,1,0,0:0:0:0:
256,200,10723,21,2,0:0:0:0:
210,51,11049,1,0,0:0:0:0:
376,200,11375,1,0,0:0:0:0:
422,51,11701,1,2,0:0:0:0:
317,126,12028,37,2,0:0:0:0:
317,126,12680,1,0,0:0:0:0:
256,184,13332,21,2,0:0:0:0:
302,333,13658,1,0,0:0:0:0:
136,184,13984,1,2,0:0:0:0:
90,333,14310,1,2,0:0:0:0:
195,258,14637,37,2,0:0:0:0:
195,258,15288,1,2,0:0:0:0:
281,191,15615,1,0,0:0:0:0:
128,89,15941,22,0,P|119:130|130:171,1,85,0|0,0:0|0:0,0:0:0:0:
405,142,16593,2,0,P|365:135|321:145,1,85,2|0,0:0|0:0,0:0:0:0:
292,331,17245,2,0,P|368:308|367:229,1,170,2|0,0:0|0:0,0:0:0:0:
181,181,18223,1,0,0:0:0:0:
254,23,18549,38,0,P|263:63|249:102,1,85,2|0,0:0|0:0,0:0:0:0:
48,201,19202,2,0,P|88:191|127:205,1,85,2|0,0:0|0:0,0:0:0:0:
312,354,19854,1,2,0:0:0:0:
255,182,20180,1,0,0:0:0:0:
447,253,20506,5,0,0:0:0:0:
360,159,20669,38,0,L|366:202,2,25.4999992218018
463,95,20995,54,0,L|456:144,2,29.7499990921021,0|0|2,0:0|0:0|0:0,0:0:0:0:
394,10,21484,53,0,0:0:0:0:
329,80,21810,1,0,0:0:0:0:
273,17,22136,1,0,0:0:0:0:
273,17,23115,37,0,0:0:0:0:
28,274,23767,21,2,0:0:0:0:
97,189,24093,1,0,0:0:0:0:
162,259,24419,1,0,0:0:0:0:
218,196,24745,1,0,0:0:0:0:
240,289,25071,38,0,P|263:297|288:293,1,50.9999984436036,2|0,0:0|0:0,0:0:0:0:
368,164,25397,2,0,P|347:178|339:201,1,50.9999984436036,0|0,2:0|2:0,2:0:0:0:
374,306,25723,1,2,0:0:0:0:
385,330,25886,1,0,0:0:0:0:
412,329,26049,1,0,0:0:0:0:
419,301,26212,1,0,0:0:0:0:
395,288,26375,21,2,0:0:0:0:
471,210,26701,1,0,0:0:0:0:
394,154,27027,1,0,0:0:0:0:
450,90,27353,1,0,0:0:0:0:
450,90,28332,37,0,0:0:0:0:
234,216,28984,21,2,0:0:0:0:
179,148,29310,1,0,0:0:0:0:
127,204,29636,1,2,0:0:0:0:
81,152,29962,1,2,0:0:0:0:
254,225,30288,37,2,0:0:0:0:
185,140,30614,1,2,0:0:0:0:
120,210,30940,1,2,0:0:0:0:
64,147,31266,1,0,0:0:0:0:
163,327,31593,21,2,2:0:0:0:
208,248,31919,1,0,0:0:0:0:
290,226,32245,1,0,0:0:0:0:
354,259,32571,1,0,0:0:0:0:
354,259,33549,37,0,0:0:0:0:
335,63,34202,21,2,2:0:0:0:
256,108,34528,1,0,0:0:0:0:
234,190,34854,1,0,0:0:0:0:
267,254,35180,1,0,0:0:0:0:
171,132,35506,38,0,P|145:131|127:116,1,50.9999984436036,2|0,0:0|0:0,0:0:0:0:
38,235,35832,2,0,P|51:214|77:203,1,50.9999984436036
167,239,36158,1,2,0:0:0:0:
191,252,36321,1,0,0:0:0:0:
184,280,36484,1,0,0:0:0:0:
157,281,36647,1,0,0:0:0:0:
146,257,36810,21,2,2:0:0:0:
191,178,37136,1,0,0:0:0:0:
273,156,37462,1,0,0:0:0:0:
337,189,37788,1,0,0:0:0:0:
337,189,38767,37,0,0:0:0:0:
465,44,39419,21,2,2:0:0:0:
420,123,39745,1,0,0:0:0:0:
338,145,40071,1,2,0:0:0:0:
274,112,40397,1,0,0:0:0:0:
460,51,40723,37,10,2:0:0:0:
424,115,41049,1,0,0:0:0:0:
314,249,41375,21,8,0:0:0:0:
210,127,41538,1,8,0:0:0:0:
223,287,41701,1,8,0:0:0:0:
307,150,41864,1,8,0:0:0:0:
157,211,42028,6,0,B|71:211|71:211|96:181,1,118.999996368408,4|0,0:0|0:0,0:0:0:0:
15,301,42517,1,2,3:0:0:0:
154,320,42680,2,0,P|176:266|157:211,1,118.999996368408,0|2,0:0|0:0,0:0:0:0:
114,110,43169,1,0,0:0:0:0:
355,178,43332,38,0,B|284:154|284:154|245:174,1,118.999996368408,8|0,0:0|0:0,0:0:0:0:
296,258,43821,1,0,0:0:0:0:
451,129,43984,2,0,L|441:187,1,59.4999981842042,2|0,0:0|0:0,0:0:0:0:
323,33,44310,2,0,L|332:91,1,59.4999981842042,0|2,0:0|0:0,0:0:0:0:
382,272,44636,21,4,0:0:0:0:
189,354,44799,2,0,L|257:347,1,59.4999981842042,0|0,0:0|0:0,0:0:0:0:
360,180,45125,1,2,3:0:0:0:
194,276,45288,2,0,P|178:220|211:172,1,118.999996368408,0|2,0:0|0:0,0:0:0:0:
273,227,45778,1,0,0:0:0:0:
124,310,45941,38,0,L|68:331,1,59.4999981842042,8|0,0:0|0:0,0:0:0:0:
15,163,46267,2,0,L|70:184,1,59.4999981842042
217,351,46593,1,2,0:0:0:0:
206,232,46756,1,0,0:0:0:0:
195,113,46919,1,0,0:0:0:0:
376,249,47082,1,2,0:0:0:0:
376,249,47163,1,0,0:0:0:0:
376,249,47245,22,0,L|317:257,1,59.4999981842042,4|0,0:0|0:0,0:0:0:0:
152,340,47571,1,0,0:0:0:0:
189,190,47734,1,2,3:0:0:0:
19,246,47897,2,0,L|78:240,1,59.4999981842042
270,173,48223,1,2,0:0:0:0:
75,135,48386,1,0,0:0:0:0:
175,1,48549,38,0,B|152:43|152:43|172:111,1,118.999996368408,8|0,0:0|0:0,0:0:0:0:
169,265,49038,2,0,L|157:228,4,29.7499990921021,2|0|0|0|0,0:0|0:0|0:0|0:0|0:0,0:0:0:0:
216,141,49528,2,0,L|211:112,1,29.7499990921021,2|0,0:0|0:0,0:0:0:0:
277,47,49691,2,0,L|281:28,2,19.8333327280681,2|0|0,0:0|0:0|0:0,0:0:0:0:
323,105,49854,22,0,P|351:111|381:108,1,59.4999981842042,4|0,0:0|0:0,0:0:0:0:
480,107,50180,1,0,0:0:0:0:
444,302,50343,2,0,P|417:252|441:190,1,118.999996368408,2|0,3:0|0:0,0:0:0:0:
286,322,50832,2,0,P|314:329|343:320,1,59.4999981842042,2|0,0:0|0:0,0:0:0:0:
232,83,51158,37,8,0:0:0:0:
200,152,51321,1,2,0:0:0:0:
238,219,51484,1,0,0:0:0:0:
313,230,51647,1,2,0:0:0:0:
286,322,51810,21,2,0:0:0:0:
238,219,51973,1,0,0:0:0:0:
295,118,52136,1,0,0:0:0:0:
408,102,52299,1,2,0:0:0:0:
380,299,52462,38,0,P|348:242|371:181,1,136,4|0,0:0|0:0,0:0:0:0:
264,315,52952,2,0,L|271:274,2,34,0|0|8,0:0|0:0|0:0,0:0:0:0:
208,198,53278,1,0,0:0:0:0:
97,293,53441,2,0,P|129:302|161:294,1,68,0|8,0:0|0:0,0:0:0:0:
39,201,53767,22,0,L|32:134,1,68,4|0,0:0|0:0,0:0:0:0:
51,123,54011,1,0,0:0:0:0:
57,121,54093,1,8,0:0:0:0:
239,5,54256,2,0,L|232:71,1,68
251,82,54500,1,0,0:0:0:0:
257,84,54582,1,8,0:0:0:0:
191,232,54745,1,0,0:0:0:0:
214,198,54827,1,0,0:0:0:0:
191,165,54908,1,8,0:0:0:0:
152,178,54990,1,0,0:0:0:0:
152,219,55071,38,0,P|211:243|275:215,1,136,6|0,0:0|0:0,0:0:0:0:
329,112,55560,2,0,L|340:147,2,34,0|0|8,0:0|0:0|0:0,0:0:0:0:
398,33,55886,1,0,0:0:0:0:
433,210,56049,2,0,P|423:179|432:147,1,68,0|8,0:0|0:0,0:0:0:0:
272,353,56375,22,0,P|304:355|337:338,1,68,4|0,0:0|0:0,0:0:0:0:
342,316,56619,1,0,0:0:0:0:
342,311,56701,1,8,0:0:0:0:
269,98,56865,2,0,P|257:128|263:165,1,68
283,175,57109,1,0,0:0:0:0:
288,177,57191,1,8,0:0:0:0:
119,268,57354,1,0,0:0:0:0:
153,245,57436,1,0,0:0:0:0:
186,268,57517,1,8,0:0:0:0:
173,307,57599,1,0,0:0:0:0:
132,307,57680,38,0,P|108:248|136:184,1,136,6|0,0:0|0:0,0:0:0:0:
54,121,58169,2,0,L|19:142,2,34,0|0|8,0:0|0:0|0:0,0:0:0:0:
143,49,58495,1,0,0:0:0:0:
264,134,58658,2,0,P|232:124|200:134,1,68,0|8,0:0|0:0,0:0:0:0:
275,317,58984,22,0,L|342:305,1,68,4|0,0:0|0:0,0:0:0:0:
346,282,59228,1,0,0:0:0:0:
346,277,59310,1,8,0:0:0:0:
512,110,59473,2,0,L|445:98,1,68,0|0,0:0|0:0,0:0:0:0:
441,75,59717,1,0,0:0:0:0:
441,83,59799,1,8,0:0:0:0:
342,271,59962,1,0,0:0:0:0:
316,238,60044,1,0,0:0:0:0:
338,205,60125,1,8,0:0:0:0:
378,216,60207,1,0,0:0:0:0:
379,257,60288,38,0,P|319:283|254:258,1,136,6|0,0:0|0:0,0:0:0:0:
151,184,60778,2,0,L|140:219,2,34,0|0|8,0:0|0:0|0:0,0:0:0:0:
49,99,61104,1,0,0:0:0:0:
27,304,61267,2,0,L|37:225,1,68,0|8,0:0|0:0,0:0:0:0:
148,310,61593,22,0,P|184:322|225:312,1,76.4999976654053,6|0,0:0|0:0,0:0:0:0:
305,164,61919,2,0,P|269:152|228:162,1,80.7499978437424,2|0,0:0|0:0,0:0:0:0:
384,324,62245,37,6,0:0:0:0:
458,278,62408,1,0,0:0:0:0:
475,165,62571,21,2,0:0:0:0:
379,85,62734,1,0,0:0:0:0:
290,267,62897,6,0,P|267:230|304:116,1,170,4|8,3:0|0:0,0:0:0:0:
248,333,63386,1,0,3:0:0:0:
248,333,63468,1,0,3:0:0:0:
248,333,63549,1,0,3:0:0:0:
115,203,63712,1,0,3:0:0:0:
354,198,63875,1,0,3:0:0:0:
208,66,64038,1,8,0:0:0:0:
224,295,64202,21,0,3:0:0:0:
255,336,64283,1,0,3:0:0:0:
302,317,64365,1,0,3:0:0:0:
302,267,64447,1,0,3:0:0:0:
252,253,64528,1,8,0:0:0:0:
434,149,64691,21,0,3:0:0:0:
468,185,64772,1,0,3:0:0:0:
442,228,64854,1,0,3:0:0:0:
393,221,64936,1,0,3:0:0:0:
386,169,65017,1,8,0:0:0:0:
193,191,65180,5,0,3:0:0:0:
242,182,65261,1,0,3:0:0:0:
281,150,65343,1,0,3:0:0:0:
299,103,65424,2,0,L|332:108,1,21.25,0|0,3:0|3:0,0:0:0:0:
289,54,65506,21,8,1:2:0:0:
91,115,65669,2,0,P|132:127|173:116,1,85,0|0,3:0|3:0,0:0:0:0:
332,248,65995,1,0,1:0:0:0:
143,274,66158,2,0,P|183:266|225:277,1,85,8|0,0:0|3:0,0:0:0:0:
442,125,66484,1,0,1:0:0:0:
248,154,66647,22,0,P|289:165|330:155,1,85,8|0,0:0|3:0,0:0:0:0:
350,307,66973,1,0,1:0:0:0:
174,359,67136,2,0,P|217:347|260:360,1,85,8|0,0:0|3:0,0:0:0:0:
400,376,67462,1,0,3:0:0:0:
255,277,67625,1,12,0:0:0:0:
511,246,67788,1,0,3:0:0:0:
331,146,67952,2,0,L|334:207,1,42.5,12|0,0:0|0:0,0:0:0:0:
387,266,68115,6,0,P|363:213|422:129,1,170,4|8,0:1|0:0,0:0:0:0:
245,199,68604,1,0,3:0:0:0:
245,199,68685,1,0,3:0:0:0:
245,199,68767,1,0,3:0:0:0:
48,222,68930,1,0,3:0:0:0:
198,361,69093,1,0,3:0:0:0:
187,131,69256,1,8,0:0:0:0:
297,302,69419,21,0,3:0:0:0:
328,343,69500,1,0,3:0:0:0:
375,324,69582,1,0,3:0:0:0:
375,274,69664,1,0,3:0:0:0:
325,260,69745,1,8,0:0:0:0:
448,111,69908,21,0,3:0:0:0:
424,156,69989,1,0,3:0:0:0:
375,146,70071,1,0,3:0:0:0:
367,96,70153,1,0,3:0:0:0:
413,74,70234,1,8,0:0:0:0:
264,187,70397,5,0,3:0:0:0:
212,189,70479,1,0,3:0:0:0:
161,191,70560,1,0,3:0:0:0:
110,195,70642,2,0,L|112:228,1,21.25,0|0,3:0|3:0,0:0:0:0:
59,197,70723,21,8,1:2:0:0:
256,105,70886,1,0,3:0:0:0:
206,294,71049,1,0,3:0:0:0:
111,108,71212,1,4,1:3:0:0:
345,186,71375,2,0,P|302:199|262:186,1,85,8|0,0:0|3:0,0:0:0:0:
87,327,71702,2,0,P|130:314|170:327,1,85,0|8,1:0|0:0,0:0:0:0:
417,265,72028,21,0,3:0:0:0:
311,132,72191,1,4,1:3:0:0:
333,277,72354,1,8,0:0:0:0:
396,120,72517,1,0,3:0:0:0:
388,357,72680,5,0,1:0:0:0:
271,212,72843,1,12,0:0:0:0:
457,185,73006,1,0,3:0:0:0:
340,40,73169,2,0,L|343:82,1,42.5,12|0,0:0|3:0,0:0:0:0:
448,274,73332,22,0,P|370:251|299:305,1,170,4|8,0:1|0:0,0:0:0:0:
134,171,73821,1,0,3:0:0:0:
134,171,73903,1,0,3:0:0:0:
134,171,73984,1,0,3:0:0:0:
308,153,74147,1,0,3:0:0:0:
217,312,74310,1,0,3:0:0:0:
195,103,74473,1,8,0:0:0:0:
143,297,74636,21,0,3:0:0:0:
174,338,74717,1,0,3:0:0:0:
221,319,74799,1,0,3:0:0:0:
221,269,74881,1,0,3:0:0:0:
171,255,74962,1,8,0:0:0:0:
88,99,75125,5,0,3:0:0:0:
57,140,75206,1,0,3:0:0:0:
10,121,75288,1,0,3:0:0:0:
10,71,75370,1,0,3:0:0:0:
60,57,75452,1,8,0:0:0:0:
174,196,75615,21,0,3:0:0:0:
232,202,75696,1,0,3:0:0:0:
281,167,75778,1,0,3:0:0:0:
297,109,75859,2,0,L|329:107,1,21.25,0|0,3:0|3:0,0:0:0:0:
271,56,75941,21,8,1:2:0:0:
481,112,76104,2,0,L|396:108,1,85,0|0,3:0|3:0,0:0:0:0:
237,209,76430,1,4,1:1:0:0:
27,265,76593,2,0,L|117:261,1,85,8|0,0:0|3:0,0:0:0:0:
322,156,76919,1,0,1:0:0:0:
378,366,77082,6,0,L|374:276,1,85,8|0,0:0|3:0,0:0:0:0:
192,238,77408,1,0,1:0:0:0:
136,28,77571,2,0,L|140:118,1,85,8|0,0:0|3:0,0:0:0:0:
175,331,77897,1,0,1:0:0:0:
291,209,78060,1,12,0:0:0:0:
49,213,78223,1,0,3:0:0:0:
239,99,78386,2,0,L|239:141,1,42.5,12|0,0:0|0:0,0:0:0:0:
262,327,78549,22,0,P|259:247|331:212,1,170,4|8,0:1|0:0,0:0:0:0:
174,314,79038,1,0,3:0:0:0:
174,314,79120,1,0,3:0:0:0:
174,314,79202,1,0,3:0:0:0:
210,132,79365,1,0,3:0:0:0:
369,349,79528,1,0,3:0:0:0:
325,92,79691,1,8,0:0:0:0:
216,286,79854,21,0,3:0:0:0:
174,314,79935,1,0,3:0:0:0:
136,280,80017,1,0,3:0:0:0:
155,233,80099,1,0,3:0:0:0:
207,237,80180,1,8,0:0:0:0:
356,304,80343,5,0,3:0:0:0:
398,332,80424,1,0,3:0:0:0:
436,298,80506,1,0,3:0:0:0:
417,251,80588,1,0,3:0:0:0:
365,255,80669,1,8,0:0:0:0:
223,148,80832,21,0,3:0:0:0:
273,139,80913,1,0,3:0:0:0:
323,132,80995,1,0,3:0:0:0:
374,124,81077,2,0,L|380:156,1,21.25,0|0,3:0|3:0,0:0:0:0:
424,116,81158,21,8,1:2:0:0:
133,113,81321,1,0,3:0:0:0:
303,316,81484,1,0,3:0:0:0:
310,58,81647,1,4,1:3:0:0:
143,264,81810,2,0,P|185:255|225:267,1,85,8|0,0:0|3:0,0:0:0:0:
382,296,82136,1,0,1:0:0:0:
225,145,82299,1,8,0:0:0:0:
303,316,82462,38,0,P|303:274|338:229,1,85,0|4,3:0|1:3,0:0:0:0:
494,140,82788,2,0,P|450:152|406:140,1,85,8|0,0:0|3:0,0:0:0:0:
111,267,83115,5,0,1:0:0:0:
388,278,83278,1,12,0:0:0:0:
190,338,83441,37,0,3:0:0:0:
300,341,83604,1,0,3:0:0:0:
256,72,83767,5,2,0:0:0:0:
256,192,83930,12,0,86049,0:0:0:0:
377,32,86375,6,0,B|336:99|394:152|394:152|371:195|345:223|345:223|393:291|342:360,1,363.374988910675,2|0,0:0|0:0,0:0:0:0:
138,195,88984,38,0,P|200:314|218:181,1,356.999989105225,2|0,0:0|0:0,0:0:0:0:
188,244,91593,37,0,0:0:0:0:
256,192,91756,12,0,93875,0:0:0:0:
93,281,94202,21,4,0:0:0:0:
63,206,94528,1,0,0:0:0:0:
140,185,94854,1,0,0:0:0:0:
112,111,95180,1,0,0:0:0:0:
188,91,95506,21,0,0:0:0:0:
188,91,96158,1,0,0:0:0:0:
407,58,96810,37,2,0:0:0:0:
437,133,97136,1,0,0:0:0:0:
360,154,97462,1,0,0:0:0:0:
388,228,97788,1,2,0:0:0:0:
312,248,98115,21,0,0:0:0:0:
312,248,98766,1,2,0:0:0:0:
195,154,99093,1,0,0:0:0:0:
168,350,99419,38,0,P|192:317|187:273,1,85,0|0,0:0|0:0,0:0:0:0:
23,145,100071,2,0,P|17:187|36:224,1,85,2|0,0:0|0:0,0:0:0:0:
279,209,100723,2,0,P|202:192|199:114,1,170,2|0,0:0|0:0,0:0:0:0:
316,22,101702,1,0,0:0:0:0:
477,125,102028,22,0,P|435:112|395:125,1,85,2|0,0:0|0:0,0:0:0:0:
368,345,102680,2,0,P|387:308|375:268,1,85,2|0,0:0|0:0,0:0:0:0:
230,255,103332,37,2,0:0:0:0:
156,185,103658,1,0,0:0:0:0:
244,126,103984,1,2,0:0:0:0:
170,56,104310,1,0,0:0:0:0:
152,329,104636,21,2,0:0:0:0:
152,205,104962,1,0,0:0:0:0:
79,305,105288,1,0,0:0:0:0:
79,228,105615,1,0,0:0:0:0:
196,267,105941,37,0,0:0:0:0:
196,267,106593,1,0,0:0:0:0:
330,221,107245,21,2,0:0:0:0:
330,97,107571,1,0,0:0:0:0:
403,197,107897,1,0,0:0:0:0:
403,120,108224,1,2,0:0:0:0:
286,159,108550,37,0,0:0:0:0:
286,159,109202,21,2,0:0:0:0:
208,69,109528,1,0,0:0:0:0:
209,259,109854,38,0,P|191:221|202:181,1,85,0|0,0:0|0:0,0:0:0:0:
438,176,110506,2,0,P|397:188|357:176,1,85,2|0,0:0|0:0,0:0:0:0:
226,337,111158,2,0,P|264:341|295:238,1,170,2|0,2:0|0:0,0:0:0:0:
146,56,112136,1,0,0:0:0:0:
350,85,112462,22,0,P|308:94|267:87,1,85,2|0,0:0|0:0,0:0:0:0:
342,312,113115,2,0,P|330:272|342:232,1,85,2|0,0:0|0:0,0:0:0:0:
131,64,113767,37,2,0:0:0:0:
205,134,114093,1,0,0:0:0:0:
117,193,114419,1,2,0:0:0:0:
191,263,114745,1,0,0:0:0:0:
131,64,115723,5,0,0:0:0:0:
