osu file format v14

[General]
AudioFilename: audio.mp3
AudioLeadIn: 0
PreviewTime: 44
Countdown: 0
SampleSet: Soft
StackLeniency: 0.6
Mode: 0
LetterboxInBreaks: 0
WidescreenStoryboard: 0

[Editor]
Bookmarks: 21158,42028,62897,83767,115071
DistanceSpacing: 1.2
BeatDivisor: 8
GridSize: 32
TimelineZoom: 4.799997

[Metadata]
Title:nightfall
TitleUnicode:nightfall
Artist:ginkiha
ArtistUnicode:ginkiha
Creator:Xilver
Version:Hard
Source:BMS
Tags:gin kiha g2r2014 piano alchemists nizi-ringo ne/nuit deemo rayark deetz smoothie world
BeatmapID:996818
BeatmapSetID:458456

[Difficulty]
HPDrainRate:5
CircleSize:4
OverallDifficulty:6
ApproachRate:7.5
SliderMultiplier:1.4
SliderTickRate:1

[Events]
//Background and Video events
0,0,"C37fdwz.png",0,0
//Break Periods
//Storyboard Layer 0 (Background)
//Storyboard Layer 1 (Fail)
//Storyboard Layer 2 (Pass)
//Storyboard Layer 3 (Foreground)
//Storyboard Sound Samples

[TimingPoints]
289,652.173913043478,4,2,1,20,1,0
289,-62.5,4,2,1,20,0,0
4854,-62.5,4,2,0,10,0,0
5506,-62.5,4,2,1,20,0,0
10723,-62.5,4,2,1,25,0,0
18549,-62.5,4,2,1,30,0,0
20669,-62.5,4,2,1,35,0,0
20995,-62.5,4,2,1,40,0,0
21158,-62.5,4,2,1,30,0,0
41375,-62.5,4,2,1,60,0,0
41538,-62.5,4,2,3,40,0,0
42028,-62.5,4,2,1,55,0,0
49691,-62.5,4,2,7,30,0,0
49854,-62.5,4,2,1,55,0,0
52462,-62.5,4,2,1,55,0,0
52952,-62.5,4,2,2,30,0,0
55071,-62.5,4,2,2,40,0,0
57680,-62.5,4,2,2,50,0,0
60288,-62.5,4,2,2,55,0,0
61593,-62.5,4,2,2,60,0,0
61919,-62.5,4,2,2,65,0,0
62897,-50,4,2,5,60,0,1
65424,-50,4,2,5,40,0,1
65506,-50,4,2,5,60,0,1
70642,-50,4,2,5,40,0,1
70723,-50,4,2,5,60,0,1
75859,-50,4,2,5,40,0,1
75941,-50,4,2,5,60,0,1
81077,-50,4,2,5,40,0,1
81158,-50,4,2,5,60,0,1
83767,-50,4,2,4,60,0,0
84093,-50,4,2,0,60,0,0
84419,-50,4,2,0,50,0,0
84745,-50,4,2,0,40,0,0
85071,-50,4,2,0,30,0,0
86375,-50,4,2,1,50,0,0
88984,-50,4,2,1,40,0,0
91593,-50,4,2,1,30,0,0
91919,-50,4,2,1,40,0,0
92245,-50,4,2,1,50,0,0
92571,-50,4,2,1,60,0,0
92897,-50,4,2,1,70,0,0
93223,-50,4,2,1,80,0,0
93549,-50,4,2,1,90,0,0
93875,-50,4,2,1,5,0,0
94202,-62.5,4,2,1,20,0,0
115723,-62.5,4,2,6,60,0,0

[Colours]
Combo1 : 60,179,113
Combo2 : 225,225,225
Combo3 : 107,107,107
Combo4 : 2,16,181
Combo5 : 0,104,232

[HitObjects]
96,83,289,6,0,L|213:75,1,112,4|0,0:0|0:0,0:0:0:0:
170,172,941,2,0,L|281:179,1,112,0|0,0:0|0:0,0:0:0:0:
330,90,1593,1,0,0:0:0:0:
330,90,2245,1,0,0:0:0:0:
480,192,2897,6,0,L|363:184,1,112,2|0,0:0|0:0,0:0:0:0:
406,281,3549,2,0,L|294:288,1,112,0|0,0:0|0:0,0:0:0:0:
246,199,4201,1,0,0:0:0:0:
246,199,4853,1,2,0:0:0:0:
160,126,5180,1,0,0:0:0:0:
134,234,5506,54,0,P|121:292|132:347,1,112,2|0,0:0|0:0,0:0:0:0:
239,366,6158,2,0,P|252:308|241:253,1,112,2|0,0:0|0:0,0:0:0:0:
207,146,6810,2,0,B|247:150|288:146|288:146|336:168|336:168|379:164|431:168,1,224,2|0,0:0|0:0,0:0:0:0:
402,58,7788,1,0,0:0:0:0:
290,68,8115,6,0,P|277:120|290:190,1,112,2|0,0:0|0:0,0:0:0:0:
396,168,8767,2,0,P|403:223|390:277,1,112,2|0,0:0|0:0,0:0:0:0:
291,334,9419,1,2,0:0:0:0:
221,245,9745,1,0,0:0:0:0:
170,345,10071,1,2,0:0:0:0:
100,256,10397,1,0,0:0:0:0:
221,245,10723,54,0,P|266:220|281:160,1,112,2|0,0:0|0:0,0:0:0:0:
264,77,11375,2,0,P|219:102|204:162,1,112,0|2,0:0|0:0,0:0:0:0:
124,237,12028,5,2,0:0:0:0:
134,43,12680,1,0,0:0:0:0:
56,276,13332,54,0,P|22:236|30:175,1,112,2|0,0:0|0:0,0:0:0:0:
80,104,13984,2,0,P|113:143|105:204,1,112,2|2,0:0|0:0,0:0:0:0:
204,256,14637,5,2,0:0:0:0:
188,61,15289,1,2,0:0:0:0:
258,147,15615,1,0,0:0:0:0:
321,54,15941,54,0,P|375:69|437:64,1,112,0|0,0:0|0:0,0:0:0:0:
496,171,16593,2,0,P|442:156|380:161,1,112,2|0,0:0|0:0,0:0:0:0:
272,266,17245,2,0,P|218:267|197:126,1,224,2|0,0:0|0:0,0:0:0:0:
273,23,18223,1,0,0:0:0:0:
383,113,18549,6,0,L|510:137,1,112,2|0,0:0|0:0,0:0:0:0:
408,207,19202,2,0,L|281:231,1,112,2|0,0:0|0:0,0:0:0:0:
358,322,19854,1,2,0:0:0:0:
246,329,20180,1,0,0:0:0:0:
171,249,20506,21,0,0:0:0:0:
101,149,20669,6,0,L|111:190,2,28
210,105,20995,38,0,L|198:148,2,28,0|0|2,0:0|0:0|0:0,0:0:0:0:
295,248,21484,37,0,0:0:0:0:
334,178,21810,1,0,0:0:0:0:
296,107,22136,1,0,0:0:0:0:
296,107,23115,5,0,0:0:0:0:
306,339,23767,53,2,0:0:0:0:
228,331,24093,1,0,0:0:0:0:
189,261,24419,1,0,0:0:0:0:
227,191,24745,1,0,0:0:0:0:
227,191,25723,5,2,0:0:0:0:
402,69,26375,53,2,0:0:0:0:
328,118,26702,1,0,0:0:0:0:
253,68,27028,1,0,0:0:0:0:
178,118,27354,1,0,0:0:0:0:
178,118,28332,5,0,0:0:0:0:
25,127,28984,53,2,0:0:0:0:
99,176,29311,1,0,0:0:0:0:
174,126,29637,1,2,0:0:0:0:
249,176,29963,1,2,0:0:0:0:
261,278,30288,5,2,0:0:0:0:
179,224,30615,1,2,0:0:0:0:
97,279,30941,1,2,0:0:0:0:
14,224,31267,1,0,0:0:0:0:
97,279,31593,53,2,2:0:0:0:
122,198,31919,1,0,0:0:0:0:
147,117,32245,1,0,0:0:0:0:
172,36,32571,1,0,0:0:0:0:
172,36,33549,5,0,0:0:0:0:
340,26,34202,53,2,2:0:0:0:
315,107,34528,1,0,0:0:0:0:
290,188,34854,1,0,0:0:0:0:
265,269,35180,1,0,0:0:0:0:
265,269,36158,5,2,0:0:0:0:
63,288,36810,53,2,2:0:0:0:
38,212,37136,1,0,0:0:0:0:
113,188,37462,1,0,0:0:0:0:
137,263,37788,1,0,0:0:0:0:
137,263,38767,5,0,0:0:0:0:
367,138,39419,53,2,2:0:0:0:
392,214,39745,1,0,0:0:0:0:
317,238,40071,1,2,0:0:0:0:
293,163,40397,1,0,0:0:0:0:
199,203,40723,5,10,2:0:0:0:
175,128,41049,1,0,0:0:0:0:
100,152,41375,2,0,L|34:170,1,56,8|8,0:0|0:0,0:0:0:0:
6,262,41702,2,0,L|72:244,1,56,8|8,0:0|0:0,0:0:0:0:
143,251,42028,6,0,P|172:292|174:354,1,112,4|0,0:0|0:0,0:0:0:0:
264,326,42517,2,0,P|324:318|384:326,1,112,2|0,3:0|0:0,0:0:0:0:
452,335,43006,1,2,0:0:0:0:
455,224,43332,6,0,P|460:169|430:108,1,112,8|0,0:0|0:0,0:0:0:0:
407,45,43821,1,0,0:0:0:0:
360,108,43984,2,0,P|310:105|248:108,1,112,2|0,0:0|0:0,0:0:0:0:
103,71,44636,54,0,L|90:186,1,112,4|0,0:0|0:0,0:0:0:0:
17,210,45125,2,0,P|68:205|127:228,1,112,2|0,3:0|0:0,0:0:0:0:
196,255,45615,1,2,0:0:0:0:
342,94,45941,6,0,L|401:101,1,56,8|0,0:0|0:0,0:0:0:0:
366,169,46267,2,0,L|307:176,1,56,0|0,0:0|0:0,0:0:0:0:
361,244,46593,2,0,L|420:251,1,56,2|0,0:0|0:0,0:0:0:0:
385,319,46919,2,0,L|326:326,1,56,0|2,0:0|0:0,0:0:0:0:
250,336,47245,54,0,P|209:305|203:241,1,112,4|0,0:0|0:0,0:0:0:0:
115,290,47734,2,0,P|57:301|1:288,1,112,2|0,3:0|0:0,0:0:0:0:
5,211,48223,1,2,0:0:0:0:
110,141,48549,6,0,P|152:118|172:55,1,112,8|0,0:0|0:0,0:0:0:0:
244,91,49038,2,0,P|301:102|358:91,1,112,2|0,0:0|0:0,0:0:0:0:
431,78,49528,1,2,0:0:0:0:
247,255,49854,54,0,P|212:214|204:154,1,112,4|0,0:0|0:0,0:0:0:0:
162,91,50343,2,0,P|103:78|46:91,1,112,2|0,3:0|0:0,0:0:0:0:
25,161,50832,1,2,0:0:0:0:
34,288,51158,6,0,L|44:344,1,56,8|2,0:0|0:0,0:0:0:0:
111,263,51484,2,0,L|101:207,1,56,0|2,0:0|0:0,0:0:0:0:
192,281,51810,2,0,L|202:337,1,56,2|0,0:0|0:0,0:0:0:0:
269,256,52136,2,0,L|259:200,1,56,0|2,0:0|0:0,0:0:0:0:
341,303,52462,54,0,P|391:296|443:243,1,112,4|0,0:0|0:0,0:0:0:0:
380,201,52952,2,0,P|370:147|381:89,1,112,0|0,0:0|0:0,0:0:0:0:
445,19,53441,2,0,P|418:24|386:19,1,56,0|8,0:0|0:0,0:0:0:0:
298,110,53767,5,4,0:0:0:0:
298,110,53930,2,0,L|302:148,2,28,0|0|8,0:0|0:0|0:0,0:0:0:0:
221,67,54256,1,0,0:0:0:0:
221,67,54419,2,0,L|217:29,2,28,0|0|8,0:0|0:0|0:0,0:0:0:0:
226,150,54745,2,0,P|198:154|170:150,1,56,0|8,0:0|0:0,0:0:0:0:
130,60,55071,54,0,P|72:66|33:107,1,112,6|0,0:0|0:0,0:0:0:0:
75,169,55560,2,0,P|88:227|71:281,1,112,0|0,0:0|0:0,0:0:0:0:
50,351,56049,2,0,P|80:358|110:351,1,56,0|8,0:0|0:0,0:0:0:0:
182,241,56375,5,4,0:0:0:0:
182,241,56538,2,0,L|178:203,2,28,0|0|8,0:0|0:0|0:0,0:0:0:0:
259,284,56864,1,0,0:0:0:0:
259,284,57027,2,0,L|263:322,2,28,0|0|8,0:0|0:0|0:0,0:0:0:0:
288,197,57354,2,0,P|319:192|351:197,1,56,0|8,0:0|0:0,0:0:0:0:
351,283,57680,54,0,P|397:266|431:208,1,112,6|0,0:0|0:0,0:0:0:0:
400,141,58169,2,0,P|389:80|401:31,1,112,0|0,0:0|0:0,0:0:0:0:
313,32,58658,2,0,L|253:32,1,56,0|8,0:0|0:0,0:0:0:0:
217,108,58984,5,4,0:0:0:0:
217,108,59147,2,0,L|179:108,2,28,0|0|8,0:0|0:0|0:0,0:0:0:0:
251,182,59473,1,0,0:0:0:0:
251,182,59636,2,0,L|289:182,2,28,0|0|8,0:0|0:0|0:0,0:0:0:0:
215,257,59962,2,0,P|186:261|159:257,1,56,0|8,0:0|0:0,0:0:0:0:
157,178,60288,54,0,P|99:169|42:178,1,112,6|0,0:0|0:0,0:0:0:0:
34,254,60778,2,0,P|45:320|34:378,1,112,0|0,0:0|0:0,0:0:0:0:
115,375,61267,2,0,P|147:380|173:375,1,56,0|8,0:0|0:0,0:0:0:0:
267,299,61593,6,0,L|276:356,1,56,6|0,0:0|0:0,0:0:0:0:
342,272,61919,2,0,L|333:215,1,56,2|0,0:0|0:0,0:0:0:0:
422,295,62245,2,0,L|431:352,1,56,6|0,0:0|0:0,0:0:0:0:
497,268,62571,2,0,L|488:211,1,56,2|0,0:0|0:0,0:0:0:0:
407,185,62897,54,0,P|386:124|410:54,1,140,4|8,3:0|0:0,0:0:0:0:
288,113,63386,2,0,P|266:117|245:113,2,35,0|0|0,3:0|3:0|3:0,0:0:0:0:
309,27,63712,1,0,3:0:0:0:
211,37,63875,2,0,P|174:31|132:37,1,70,0|8,3:0|0:0,0:0:0:0:
22,143,64202,21,0,3:0:0:0:
123,134,64365,2,0,L|178:123,2,35,0|0|8,3:0|3:0|0:0,0:0:0:0:
80,234,64691,1,0,3:0:0:0:
181,225,64854,2,0,L|215:218,2,35,0|0|8,3:0|3:0|0:0,0:0:0:0:
147,324,65180,1,0,3:0:0:0:
147,324,65261,1,0,3:0:0:0:
147,324,65343,1,0,3:0:0:0:
246,356,65506,53,8,1:2:0:0:
246,356,65669,2,0,L|237:270,1,70,0|0,3:0|3:0,0:0:0:0:
312,192,65995,1,0,1:0:0:0:
312,192,66158,2,0,L|321:278,1,70,8|0,0:0|3:0,0:0:0:0:
204,183,66484,1,0,1:0:0:0:
204,183,66647,54,0,P|170:194|129:191,1,70,8|0,0:0|3:0,0:0:0:0:
53,106,66973,1,0,1:0:0:0:
53,106,67136,2,0,P|87:95|128:98,1,70,8|0,0:0|3:0,0:0:0:0:
226,108,67462,2,0,P|249:81|259:36,1,70,0|12,3:0|0:0,0:0:0:0:
336,104,67788,2,0,P|347:137|381:168,1,70,0|12,3:0|0:0,2:0:0:0:
277,202,68115,22,0,P|212:192|143:222,1,140,4|8,0:1|0:0,2:0:0:0:
165,302,68604,2,0,P|168:322|165:346,2,35,0|0|0,3:0|3:0|3:0,0:0:0:0:
75,283,68930,1,0,3:0:0:0:
33,178,69093,2,0,L|21:110,1,70,0|8,3:0|0:0,0:0:0:0:
138,80,69419,53,0,3:0:0:0:
139,185,69582,2,0,L|145:219,2,35,0|0|8,3:0|3:0|0:0,0:0:0:0:
218,29,69908,1,0,3:0:0:0:
227,130,70071,2,0,L|233:164,2,35,0|0|8,3:0|3:0|0:0,0:0:0:0:
316,76,70397,1,0,3:0:0:0:
316,76,70479,1,0,3:0:0:0:
316,76,70560,1,0,3:0:0:0:
347,184,70723,53,8,1:2:0:0:
347,184,70886,2,0,P|363:218|396:242,1,70,0|0,3:0|3:0,0:0:0:0:
303,286,71212,1,4,1:3:0:0:
303,286,71375,2,0,P|265:282|228:299,1,70,8|0,0:0|3:0,0:0:0:0:
246,190,71702,1,0,1:0:0:0:
246,190,71865,22,0,P|267:159|271:118,1,70,8|0,0:0|3:0,0:0:0:0:
356,70,72191,1,4,1:3:0:0:
356,70,72354,2,0,P|321:63|293:43,1,70,8|0,0:0|3:0,0:0:0:0:
210,69,72680,2,0,L|140:82,1,70,0|12,1:0|0:0,0:0:0:0:
52,154,73006,2,0,L|122:167,1,70,0|12,3:0|0:0,0:0:0:0:
205,151,73332,54,0,P|224:179|192:273,1,140,4|8,0:1|0:0,0:0:0:0:
111,303,73821,2,0,P|106:283|111:260,2,35,0|0|0,3:0|3:0|3:0,0:0:0:0:
182,354,74147,1,0,3:0:0:0:
265,317,74310,2,0,P|303:311|338:317,1,70,0|8,3:0|0:0,0:0:0:0:
429,356,74636,53,0,3:0:0:0:
420,255,74799,2,0,L|414:221,2,35,0|0|8,3:0|3:0|0:0,0:0:0:0:
497,153,75125,1,0,3:0:0:0:
506,254,75288,2,0,L|512:288,2,35,0|0|8,3:0|3:0|0:0,0:0:0:0:
407,124,75615,1,0,3:0:0:0:
407,124,75696,1,0,3:0:0:0:
407,124,75778,1,0,3:0:0:0:
335,210,75941,21,8,1:2:0:0:
335,210,76104,2,0,P|295:216|257:210,1,70,0|0,3:0|3:0,0:0:0:0:
217,126,76430,1,4,1:1:0:0:
217,126,76593,2,0,P|257:120|295:126,1,70,8|0,0:0|3:0,0:0:0:0:
189,278,76919,1,0,1:0:0:0:
189,278,77082,54,0,P|182:244|189:204,1,70,8|0,0:0|3:0,0:0:0:0:
107,126,77408,1,0,1:0:0:0:
107,126,77571,2,0,P|114:160|107:200,1,70,8|0,0:0|3:0,0:0:0:0:
100,291,77897,2,0,P|66:282|27:284,1,70,0|12,1:0|0:0,0:0:0:0:
170,355,78223,2,0,P|187:324|195:286,1,70,0|12,3:0|0:0,0:0:0:0:
266,179,78549,54,0,P|266:251|307:306,1,140,4|8,0:1|0:0,0:0:0:0:
367,217,79038,2,0,P|387:213|410:217,2,35,0|0|0,3:0|3:0|3:0,0:0:0:0:
403,321,79365,1,0,3:0:0:0:
488,187,79528,2,0,P|492:220|481:261,1,70,0|8,3:0|0:0,0:0:0:0:
426,128,79854,21,0,3:0:0:0:
342,49,80017,2,0,L|330:2,2,35,0|0|8,3:0|3:0|0:0,0:0:0:0:
315,152,80343,1,0,3:0:0:0:
231,73,80506,2,0,L|219:26,2,35,0|0|8,3:0|3:0|0:0,0:0:0:0:
213,184,80832,1,0,3:0:0:0:
213,184,80913,1,0,3:0:0:0:
213,184,80995,1,0,3:0:0:0:
126,108,81158,53,8,1:2:0:0:
126,108,81321,2,0,P|123:152|143:191,1,70,0|0,3:0|3:0,0:0:0:0:
41,220,81647,1,4,1:3:0:0:
41,220,81810,2,0,P|44:264|24:303,1,70,8|0,0:0|3:0,0:0:0:0:
146,297,82136,1,0,1:0:0:0:
146,297,82299,54,0,P|182:305|217:297,1,70,8|0,0:0|3:0,0:0:0:0:
270,211,82625,1,4,1:3:0:0:
270,211,82788,2,0,P|234:203|199:211,1,70,8|0,0:0|3:0,0:0:0:0:
314,304,83115,1,0,1:0:0:0:
372,210,83278,1,12,0:0:0:0:
430,304,83441,2,0,P|462:311|500:304,1,70,0|0,3:0|3:0,0:0:0:0:
455,146,83767,21,2,0:0:0:0:
256,192,83930,12,0,86049,0:0:0:0:
384,67,86375,5,2,0:0:0:0:
379,75,88984,5,2,0:0:0:0:
371,83,91593,5,0,0:0:0:0:
256,192,91919,12,0,93875,0:0:0:0:
330,272,94202,38,0,P|345:223|330:157,1,112,4|0,0:0|0:0,0:0:0:0:
230,99,94854,2,0,P|218:153|233:206,1,112,0|0,0:0|0:0,0:0:0:0:
245,323,95506,1,0,0:0:0:0:
245,323,96158,1,0,0:0:0:0:
188,218,96810,6,0,L|78:252,1,112,2|0,0:0|0:0,0:0:0:0:
11,127,97462,2,0,L|121:161,1,112,0|2,0:0|0:0,0:0:0:0:
191,58,98115,1,0,0:0:0:0:
191,58,98767,1,2,0:0:0:0:
278,38,99093,1,0,0:0:0:0:
250,123,99419,54,0,P|301:136|371:123,1,112,0|0,0:0|0:0,0:0:0:0:
455,40,100071,2,0,P|468:91|455:161,1,112,2|0,0:0|0:0,0:0:0:0:
371,243,100723,2,0,B|328:236|287:243|287:243|250:214|250:214|203:222|157:214,1,224,2|0,0:0|0:0,0:0:0:0:
95,152,101702,1,0,0:0:0:0:
80,238,102028,6,0,P|66:294|80:349,1,112,2|0,0:0|0:0,0:0:0:0:
177,291,102680,2,0,P|191:235|177:180,1,112,2|0,0:0|0:0,0:0:0:0:
122,66,103332,1,2,0:0:0:0:
206,106,103658,1,0,0:0:0:0:
290,66,103984,1,2,0:0:0:0:
374,106,104310,1,0,0:0:0:0:
288,160,104636,54,0,P|274:222|288:273,1,112,2|0,0:0|0:0,0:0:0:0:
376,349,105288,2,0,P|390:287|376:236,1,112,0|0,0:0|0:0,0:0:0:0:
473,230,105941,1,0,0:0:0:0:
473,230,106593,1,0,0:0:0:0:
454,46,107245,6,0,P|392:32|341:46,1,112,2|0,0:0|0:0,0:0:0:0:
265,134,107897,2,0,P|327:148|378:134,1,112,0|2,0:0|0:0,0:0:0:0:
383,231,108550,1,0,0:0:0:0:
383,231,109202,1,2,0:0:0:0:
315,289,109528,1,0,0:0:0:0:
295,201,109854,54,0,P|240:190|180:201,1,112,0|0,0:0|0:0,0:0:0:0:
89,189,110506,2,0,P|126:146|146:89,1,112,2|0,0:0|0:0,0:0:0:0:
248,100,111158,2,0,B|389:117|324:66|475:74,1,224,2|0,2:0|0:0,0:0:0:0:
433,156,112136,1,0,0:0:0:0:
481,271,112462,6,0,P|429:255|377:273,1,112,2|0,0:0|0:0,0:0:0:0:
330,158,113115,2,0,P|275:170|221:158,1,112,2|0,0:0|0:0,0:0:0:0:
147,252,113767,1,2,0:0:0:0:
120,179,114093,1,0,0:0:0:0:
46,205,114419,1,2,0:0:0:0:
74,280,114745,1,0,0:0:0:0:
55,125,115723,21,0,0:0:0:0:
