osu file format v14

[General]
AudioFilename: audio.mp3
AudioLeadIn: 0
PreviewTime: 44
Countdown: 0
SampleSet: Soft
StackLeniency: 0.6
Mode: 0
LetterboxInBreaks: 0
WidescreenStoryboard: 0

[Editor]
Bookmarks: 21158,42028,62897,83767,115071
DistanceSpacing: 1.4
BeatDivisor: 8
GridSize: 8
TimelineZoom: 0.8000001

[Metadata]
Title:nightfall
TitleUnicode:nightfall
Artist:ginkiha
ArtistUnicode:ginkiha
Creator:Xilver
Version:Advanced
Source:BMS
Tags:gin kiha g2r2014 piano alchemists nizi-ringo ne/nuit deemo rayark deetz smoothie world
BeatmapID:995454
BeatmapSetID:458456

[Difficulty]
HPDrainRate:4
CircleSize:3.2
OverallDifficulty:4
ApproachRate:5.5
SliderMultiplier:1.1
SliderTickRate:1

[Events]
//Background and Video events
0,0,"C37fdwz.png",0,0
//Break Periods
//Storyboard Layer 0 (Background)
//Storyboard Layer 1 (Fail)
//Storyboard Layer 2 (Pass)
//Storyboard Layer 3 (Foreground)
//Storyboard Sound Samples

[TimingPoints]
289,652.173913043478,4,2,1,20,1,0
289,-50,4,2,1,20,0,0
4854,-50,4,2,0,10,0,0
5506,-50,4,2,1,20,0,0
10723,-50,4,2,1,25,0,0
18549,-50,4,2,1,30,0,0
20669,-50,4,2,1,35,0,0
20995,-50,4,2,1,40,0,0
21158,-50,4,2,1,30,0,0
41375,-50,4,2,1,60,0,0
41538,-50,4,2,3,40,0,0
42028,-50,4,2,1,55,0,0
49691,-50,4,2,7,30,0,0
49854,-50,4,2,1,55,0,0
52462,-50,4,2,1,55,0,0
52952,-50,4,2,2,30,0,0
55071,-50,4,2,2,40,0,0
57680,-50,4,2,2,50,0,0
60288,-50,4,2,2,55,0,0
61593,-50,4,2,2,60,0,0
61919,-50,4,2,2,65,0,0
62897,-50,4,2,5,60,0,1
65424,-50,4,2,5,40,0,1
65506,-50,4,2,5,60,0,1
70642,-50,4,2,5,40,0,1
70723,-50,4,2,5,60,0,1
75859,-50,4,2,5,40,0,1
75941,-50,4,2,5,60,0,1
81077,-50,4,2,5,40,0,1
81158,-50,4,2,5,60,0,1
83767,-50,4,2,4,60,0,0
84093,-50,4,2,0,60,0,0
84419,-50,4,2,0,50,0,0
84745,-50,4,2,0,40,0,0
85071,-50,4,2,0,30,0,0
86375,-50,4,2,1,50,0,0
88984,-50,4,2,1,40,0,0
91593,-50,4,2,1,30,0,0
91919,-50,4,2,1,40,0,0
92245,-50,4,2,1,50,0,0
92571,-50,4,2,1,60,0,0
92897,-50,4,2,1,70,0,0
93223,-50,4,2,1,80,0,0
93549,-50,4,2,1,90,0,0
94202,-50,4,2,1,20,0,0
115723,-50,4,2,6,60,0,0

[Colours]
Combo1 : 60,179,113
Combo2 : 225,225,225
Combo3 : 107,107,107
Combo4 : 2,16,181
Combo5 : 0,104,232

[HitObjects]
54,87,289,6,0,L|281:75,1,220,4|0,0:0|0:0,0:0:0:0:
341,161,1267,1,0,0:0:0:0:
404,71,1593,5,0,0:0:0:0:
232,175,2245,1,0,0:0:0:0:
408,322,2897,54,0,L|181:334,1,220,2|0,0:0|0:0,0:0:0:0:
159,227,3875,1,0,0:0:0:0:
77,298,4201,5,0,0:0:0:0:
61,98,4853,1,2,0:0:0:0:
61,208,5180,1,0,0:0:0:0:
168,225,5506,54,0,B|222:245|222:245|275:229,1,110,2|0,0:0|0:0,0:0:0:0:
338,140,6158,2,0,B|284:120|284:120|231:136,1,110,2|0,0:0|0:0,0:0:0:0:
125,113,6810,5,2,0:0:0:0:
237,302,7462,1,0,0:0:0:0:
168,225,7788,1,0,0:0:0:0:
233,135,8115,54,0,P|295:143|340:18,1,220,2|2,0:0|0:0,0:0:0:0:
446,42,9093,1,0,0:0:0:0:
488,143,9419,2,0,P|504:202|488:260,1,110,2|0,0:0|0:0,0:0:0:0:
406,315,10071,2,0,P|396:261|412:209,1,110,2|0,0:0|0:0,0:0:0:0:
310,251,10723,6,0,P|250:256|220:124,1,220,2|0,0:0|0:0,0:0:0:0:
287,42,11702,1,2,0:0:0:0:
178,26,12028,53,2,0:0:0:0:
43,199,12680,1,0,0:0:0:0:
280,220,13332,6,0,P|340:225|414:101,1,220,2|2,0:0|0:0,0:0:0:0:
329,33,14311,1,2,0:0:0:0:
254,110,14637,53,2,0:0:0:0:
339,312,15289,1,2,0:0:0:0:
252,243,15615,1,0,0:0:0:0:
164,176,15941,6,0,L|164:286,1,110,0|0,0:0|0:0,0:0:0:0:
72,346,16593,2,0,L|72:236,1,110,2|0,0:0|0:0,0:0:0:0:
67,126,17245,1,2,0:0:0:0:
241,256,17897,1,0,0:0:0:0:
310,167,18223,1,0,0:0:0:0:
355,271,18549,54,0,P|460:261|496:163,1,220,2|2,0:0|0:0,0:0:0:0:
419,69,19528,1,0,0:0:0:0:
361,163,19854,2,0,P|307:174|254:160,1,110,2|0,0:0|0:0,0:0:0:0:
295,58,20506,2,0,P|240:45|180:58,1,110,0|0,0:0|0:0,0:0:0:0:
81,79,21158,5,2,0:0:0:0:
0,134,21484,1,0,0:0:0:0:
81,189,21810,1,0,0:0:0:0:
0,244,22136,1,0,0:0:0:0:
310,71,23767,53,2,0:0:0:0:
365,153,24093,1,0,0:0:0:0:
420,71,24419,1,0,0:0:0:0:
475,153,24745,1,0,0:0:0:0:
247,339,26375,5,2,0:0:0:0:
161,336,26701,1,0,0:0:0:0:
110,269,27027,1,0,0:0:0:0:
130,186,27353,1,0,0:0:0:0:
272,234,28984,53,2,0:0:0:0:
358,231,29310,1,0,0:0:0:0:
409,164,29636,1,2,0:0:0:0:
389,81,29962,1,2,0:0:0:0:
195,348,30941,6,0,P|180:296|203:247,1,110,2|0,0:0|0:0,0:0:0:0:
168,152,31593,53,2,2:0:0:0:
103,232,31919,1,0,0:0:0:0:
57,155,32245,1,0,0:0:0:0:
103,78,32571,1,0,0:0:0:0:
243,185,34202,5,2,2:0:0:0:
199,264,34528,1,0,0:0:0:0:
153,187,34854,1,0,0:0:0:0:
199,110,35180,1,0,0:0:0:0:
428,67,36810,53,2,2:0:0:0:
348,126,37136,1,0,0:0:0:0:
428,185,37462,1,0,0:0:0:0:
348,244,37788,1,0,0:0:0:0:
176,338,39419,5,2,2:0:0:0:
256,279,39745,1,0,0:0:0:0:
176,220,40071,1,2,0:0:0:0:
256,161,40397,1,0,0:0:0:0:
156,118,40723,54,0,P|99:98|39:111,1,110,10|0,2:0|0:0,0:0:0:0:
91,210,41375,1,8,0:0:0:0:
18,293,41702,1,8,0:0:0:0:
126,315,42028,37,4,0:0:0:0:
297,359,42680,54,0,P|361:351|392:217,1,220,0|8,0:0|0:0,0:0:0:0:
344,120,43658,1,0,0:0:0:0:
294,218,43984,2,0,P|239:229|181:218,1,110,2|0,0:0|0:0,0:0:0:0:
125,128,44636,5,4,0:0:0:0:
44,202,44962,1,0,0:0:0:0:
36,318,45288,2,0,P|140:291|242:327,1,220,0|8,0:0|0:0,0:0:0:0:
294,230,46266,1,0,0:0:0:0:
355,320,46592,2,0,P|404:340|455:323,1,110,2|0,0:0|0:0,0:0:0:0:
471,213,47244,53,4,0:0:0:0:
454,103,47571,1,0,0:0:0:0:
383,18,47897,2,0,B|326:117|326:117|385:215,1,220,0|8,0:0|0:0,0:0:0:0:
272,230,48875,1,0,0:0:0:0:
325,329,49202,2,0,P|271:342|218:328,1,110,0|2,0:0|0:0,0:0:0:0:
118,320,49854,6,0,P|153:227|111:114,1,220,4|2,0:0|0:0,0:0:0:0:
188,36,50832,1,2,0:0:0:0:
238,133,51158,2,0,P|291:146|343:131,1,110,8|0,0:0|0:0,0:0:0:0:
405,40,51810,1,2,0:0:0:0:
464,132,52136,1,0,0:0:0:0:
407,226,52462,54,0,B|391:284|405:335|405:335|348:316|297:333,1,220,4|8,0:0|0:0,0:0:0:0:
243,236,53441,1,0,0:0:0:0:
188,331,53767,2,0,P|157:338|129:331,2,55,4|0|8,0:0|0:0|0:0,0:0:0:0:
116,247,54419,2,0,P|85:240|57:247,2,55,0|8|0,0:0|0:0|0:0,0:0:0:0:
151,142,55071,6,0,P|240:87|333:136,1,220,6|8,0:0|0:0,0:0:0:0:
403,220,56049,1,0,0:0:0:0:
369,324,56375,2,0,P|398:329|431:324,2,55,4|0|8,0:0|0:0|0:0,0:0:0:0:
298,239,57028,2,0,P|270:236|243:241,2,55,0|8|0,0:0|0:0|0:0,0:0:0:0:
251,338,57680,54,0,P|153:305|155:203,1,220,6|8,0:0|0:0,0:0:0:0:
225,118,58658,1,0,0:0:0:0:
119,88,58984,2,0,P|88:93|62:88,2,55,4|0|8,0:0|0:0|0:0,0:0:0:0:
58,179,59636,2,0,P|31:185|4:181,2,55,0|8|0,0:0|0:0|0:0,0:0:0:0:
66,288,60288,6,0,P|166:282|173:182,1,220,6|8,0:0|0:0,0:0:0:0:
273,225,61267,1,0,0:0:0:0:
265,334,61593,2,0,P|317:318|370:331,1,110,6|2,0:0|0:0,0:0:0:0:
430,177,62245,1,6,0:0:0:0:
305,89,62571,1,2,0:0:0:0:
223,96,62734,1,0,0:0:0:0:
144,64,62897,53,4,3:0:0:0:
148,228,63223,1,8,0:0:0:0:
278,337,63549,22,0,P|331:312|298:170,1,220,0|0,3:0|3:0,0:0:0:0:
456,265,64528,1,8,0:0:0:0:
477,101,64854,1,0,3:0:0:0:
314,74,65180,1,0,3:0:0:0:
231,216,65506,54,0,L|119:240,1,110,8|0,1:2|3:0,0:0:0:0:
70,175,65995,1,0,1:0:0:0:
108,103,66158,2,0,L|220:127,1,110,8|0,0:0|1:0,0:0:0:0:
312,259,66810,54,0,L|424:283,1,110,0|8,3:0|0:0,0:0:0:0:
473,218,67299,1,0,3:0:0:0:
435,146,67462,1,0,3:0:0:0:
283,79,67788,1,0,3:0:0:0:
200,90,67952,1,12,0:0:0:0:
252,153,68115,21,4,0:1:0:0:
87,163,68441,1,8,0:0:0:0:
235,235,68767,54,0,P|181:246|180:388,1,220,0|0,3:0|3:0,0:0:0:0:
328,324,69745,1,8,0:0:0:0:
477,253,70071,1,0,3:0:0:0:
343,156,70397,1,0,3:0:0:0:
232,32,70723,54,0,P|206:81|208:135,1,110,8|0,1:2|3:0,0:0:0:0:
195,217,71212,1,4,1:3:0:0:
132,163,71375,2,0,P|74:148|20:163,1,110,8|0,0:0|1:0,0:0:0:0:
83,315,72028,22,0,P|135:302|188:316,1,110,0|8,3:0|0:0,0:0:0:0:
262,355,72517,1,0,3:0:0:0:
258,273,72680,1,0,1:0:0:0:
416,297,73006,1,0,3:0:0:0:
361,234,73169,1,12,0:0:0:0:
441,218,73332,53,4,0:1:0:0:
361,73,73658,1,8,0:0:0:0:
256,200,73984,54,0,P|163:159|190:62,1,220,0|0,3:0|3:0,0:0:0:0:
91,194,74962,1,8,0:0:0:0:
49,353,75288,1,0,3:0:0:0:
212,327,75615,1,0,3:0:0:0:
358,255,75941,22,0,P|333:205|348:152,1,110,8|0,1:2|3:0,0:0:0:0:
426,126,76430,1,4,1:1:0:0:
363,72,76593,2,0,L|248:72,1,110,8|0,0:0|1:0,0:0:0:0:
139,192,77245,2,0,L|249:192,1,110,0|8,3:0|0:0,0:0:0:0:
331,191,77734,1,0,3:0:0:0:
289,262,77897,1,0,1:0:0:0:
140,334,78223,1,0,3:0:0:0:
58,347,78386,1,12,0:0:0:0:
88,270,78549,53,4,0:1:0:0:
239,335,78875,1,8,0:0:0:0:
384,256,79202,54,0,P|392:153|489:116,1,220,0|0,3:0|3:0,0:0:0:0:
345,36,80180,1,8,0:0:0:0:
274,185,80506,1,0,3:0:0:0:
176,51,80832,1,0,3:0:0:0:
44,151,81158,22,0,L|65:279,1,110,8|0,1:2|3:0,0:0:0:0:
111,325,81647,1,4,1:3:0:0:
157,256,81810,2,0,L|174:147,1,110,8|0,0:0|1:0,0:0:0:0:
265,284,82462,54,0,L|373:266,1,110,0|8,3:0|0:0,0:0:0:0:
439,217,82951,1,0,3:0:0:0:
361,188,83115,1,0,1:0:0:0:
207,128,83441,37,0,3:0:0:0:
128,154,83604,1,0,3:0:0:0:
142,72,83767,21,2,0:0:0:0:
256,192,84093,12,0,85723,0:0:0:0:
334,134,86375,37,2,0:0:0:0:
341,122,88984,53,2,0:0:0:0:
349,113,91593,21,0,0:0:0:0:
256,192,91919,12,0,93549,0:0:0:0:
353,340,94202,38,0,B|333:277|351:227|351:227|303:242|232:227,1,220,4|0,0:0|0:0,0:0:0:0:
147,182,95180,1,0,0:0:0:0:
240,124,95506,5,0,0:0:0:0:
450,59,96158,1,0,0:0:0:0:
477,277,96810,54,0,B|421:264|373:279|373:279|391:229|371:166,1,220,2|0,0:0|0:0,0:0:0:0:
261,163,97788,1,2,0:0:0:0:
328,76,98114,5,0,0:0:0:0:
109,48,98766,1,2,0:0:0:0:
49,141,99093,1,0,0:0:0:0:
119,218,99419,54,0,P|170:230|235:218,1,110,0|0,0:0|0:0,0:0:0:0:
289,131,100071,2,0,P|238:119|173:131,1,110,2|0,0:0|0:0,0:0:0:0:
119,37,100723,1,2,0:0:0:0:
179,248,101375,1,0,0:0:0:0:
260,181,101702,1,0,0:0:0:0:
159,137,102028,6,0,P|111:117|49:238,1,220,2|2,0:0|0:0,0:0:0:0:
106,327,103006,1,0,0:0:0:0:
189,255,103332,2,0,P|242:246|299:255,1,110,2|0,0:0|0:0,0:0:0:0:
265,359,103984,2,0,P|319:367|373:358,1,110,2|0,0:0|0:0,0:0:0:0:
446,276,104636,54,0,P|463:208|349:147,1,220,2|0,0:0|0:0,0:0:0:0:
257,208,105615,1,0,0:0:0:0:
247,98,105941,5,0,0:0:0:0:
81,242,106593,1,0,0:0:0:0:
72,22,107245,54,0,P|55:90|169:151,1,220,2|0,0:0|0:0,0:0:0:0:
269,106,108224,1,2,0:0:0:0:
253,214,108550,5,0,0:0:0:0:
459,259,109202,1,2,0:0:0:0:
385,177,109528,1,0,0:0:0:0:
435,76,109854,54,0,P|376:65|327:81,1,110,0|0,0:0|0:0,0:0:0:0:
274,174,110506,2,0,P|221:188|168:177,1,110,2|0,0:0|0:0,0:0:0:0:
92,97,111158,1,2,2:0:0:0:
165,305,111810,1,0,0:0:0:0:
266,263,112136,1,0,0:0:0:0:
324,356,112462,6,0,P|378:364|431:354,1,110,2|0,0:0|0:0,0:0:0:0:
478,259,113115,2,0,P|424:251|371:261,1,110,2|0,0:0|0:0,0:0:0:0:
281,197,113767,1,2,0:0:0:0:
220,105,114093,1,0,0:0:0:0:
172,204,114419,1,2,0:0:0:0:
108,114,114745,1,0,0:0:0:0:
413,61,115723,21,0,0:0:0:0:
