osu file format v14

[General]
AudioFilename: audio.mp3
AudioLeadIn: 0
PreviewTime: 41749
Countdown: 0
SampleSet: Soft
StackLeniency: 0.7
Mode: 3
LetterboxInBreaks: 0
SpecialStyle: 0
WidescreenStoryboard: 0

[Editor]
Bookmarks: 37183
DistanceSpacing: 1.2
BeatDivisor: 8
GridSize: 4
TimelineZoom: 1.6

[Metadata]
Title:nightfall
TitleUnicode:nightfall
Artist:ginkiha
ArtistUnicode:ginkiha
Creator:Hotaru-
Version:Normal
Source:G2R2014 "GO BACK 2 YOUR ROOTS"
Tags:Piano Alchemists NIZI-RINGO 4th Album Ne/nuit electronic deemo featured artist fa Instrumental video game BMS -[Hotaru]- FAMoss
BeatmapID:1086328
BeatmapSetID:469498

[Difficulty]
HPDrainRate:7.5
CircleSize:4
OverallDifficulty:7.5
ApproachRate:5
SliderMultiplier:1.4
SliderTickRate:1

[Events]
//Background and Video events
0,0,"night_stars_ribbons_Mahou_Shoujo_Madoka_Magica_anime_Akemi_Homura_anime_girls_cities_1366x768.jpg",0,0
//Break Periods
//Storyboard Layer 0 (Background)
//Storyboard Layer 1 (Fail)
//Storyboard Layer 2 (Pass)
//Storyboard Layer 3 (Foreground)
//Storyboard Layer 4 (Overlay)
//Storyboard Sound Samples
Sample,6450,0,"piano_high_0016.wav",100
Sample,6857,0,"piano_high_0018.wav",100
Sample,6966,0,"piano_high_0019.wav",100
Sample,7075,0,"piano_high_0020.wav",100
Sample,16884,0,"piano_high_0016.wav",100
Sample,17292,0,"piano_high_0018.wav",100
Sample,17401,0,"piano_high_0019.wav",100
Sample,17509,0,"piano_high_0020.wav",100
Sample,21205,0,"piano_low_0043.wav",100
Sample,63759,0,"soft-hitclap.wav",0
Sample,66531,0,"soft-hitclap.wav",0
Sample,68977,0,"soft-hitclap.wav",0
Sample,71586,0,"soft-hitclap.wav",0
Sample,74194,0,"soft-hitclap.wav",0
Sample,76966,0,"soft-hitclap.wav",0
Sample,79412,0,"soft-hitclap.wav",0
Sample,82020,0,"soft-hitclap.wav",0
Sample,100363,0,"piano_high_0016.wav",100
Sample,100770,0,"piano_high_0018.wav",100
Sample,100879,0,"piano_high_0019.wav",100
Sample,100988,0,"piano_high_0020.wav",100
Sample,110798,0,"piano_high_0016.wav",100
Sample,111205,0,"piano_high_0018.wav",100
Sample,111314,0,"piano_high_0019.wav",100
Sample,111423,0,"piano_high_0020.wav",100

[TimingPoints]
10,652.173913043478,4,2,1,20,1,0
20879,-100,4,2,1,30,0,0
41749,-100,4,2,1,40,0,1
83488,-100,4,2,1,30,0,0
93923,-100,4,2,1,20,0,0

[HitObjects]
64,192,10,5,0,0:0:0:100:piano_high_0000.wav
448,192,10,1,0,0:0:0:0:
192,192,336,1,0,0:0:0:100:piano_high_0001.wav
320,192,662,1,0,0:0:0:100:piano_high_0002.wav
64,192,988,1,0,0:0:0:100:piano_high_0003.wav
448,192,1314,1,0,0:0:0:100:piano_high_0004.wav
320,192,1966,1,0,0:0:0:100:piano_high_0005.wav
64,192,2618,1,0,0:0:0:100:piano_high_0006.wav
448,192,2618,1,0,0:0:0:0:
320,192,2944,1,0,0:0:0:100:piano_high_0007.wav
192,192,3270,1,0,0:0:0:100:piano_high_0008.wav
448,192,3596,1,0,0:0:0:100:piano_high_0009.wav
64,192,3923,1,0,0:0:0:100:piano_high_0010.wav
448,192,4575,1,0,0:0:0:100:piano_high_0011.wav
320,192,4901,1,0,0:0:0:100:piano_high_0012.wav
64,192,5227,1,0,0:0:0:100:piano_low_0048.wav
192,192,5227,1,0,0:0:0:0:
448,192,5553,1,0,0:0:0:100:piano_high_0013.wav
320,192,5879,1,0,0:0:0:100:piano_high_0014.wav
64,192,6205,1,0,0:0:0:100:piano_high_0015.wav
448,192,6531,1,0,0:0:0:100:piano_high_0017.wav
192,192,7183,1,0,0:0:0:100:piano_high_0021.wav
64,192,7509,1,0,0:0:0:100:piano_high_0022.wav
192,192,7836,1,0,0:0:0:100:piano_high_0023.wav
448,192,7836,1,0,0:0:0:0:
320,192,8162,1,0,0:0:0:100:piano_high_0024.wav
64,192,8488,1,0,0:0:0:100:piano_high_0025.wav
448,192,8488,1,0,0:0:0:0:
192,192,8814,1,0,0:0:0:100:piano_high_0026.wav
320,192,9140,1,0,0:0:0:100:piano_high_0027.wav
448,192,9140,1,0,0:0:0:0:
192,192,9466,1,0,0:0:0:100:piano_high_0028.wav
64,192,9792,1,0,0:0:0:100:piano_high_0029.wav
320,192,9792,1,0,0:0:0:0:
448,192,10118,1,0,0:0:0:100:piano_high_0030.wav
64,192,10444,128,0,12401:0:0:0:100:piano_high_0000.wav
192,192,10444,1,0,0:0:0:0:
320,192,10770,1,0,0:0:0:100:piano_high_0001.wav
448,192,11096,1,0,0:0:0:100:piano_high_0002.wav
320,192,11423,1,0,0:0:0:100:piano_high_0003.wav
192,192,11749,1,0,0:0:0:100:piano_high_0004.wav
320,192,12401,128,0,13053:0:0:0:100:piano_high_0005.wav
64,192,13053,1,0,0:0:0:100:piano_high_0006.wav
448,192,13053,128,0,13379:0:0:0:0:
192,192,13379,128,0,13705:0:0:0:100:piano_high_0007.wav
320,192,13705,128,0,14031:0:0:0:100:piano_high_0008.wav
448,192,14031,128,0,14357:0:0:0:100:piano_high_0009.wav
64,192,14357,128,0,15009:0:0:0:100:piano_high_0010.wav
320,192,15009,128,0,15336:0:0:0:100:piano_high_0011.wav
64,192,15336,128,0,15662:0:0:0:100:piano_high_0012.wav
192,192,15662,128,0,15988:0:0:0:100:piano_low_0048.wav
448,192,15988,128,0,16314:0:0:0:100:piano_high_0013.wav
192,192,16314,128,0,16640:0:0:0:100:piano_high_0014.wav
320,192,16640,128,0,16966:0:0:0:100:piano_high_0015.wav
448,192,16966,128,0,18270:0:0:0:100:piano_high_0017.wav
320,192,17618,1,0,0:0:0:100:piano_high_0021.wav
192,192,17944,1,0,0:0:0:100:piano_high_0022.wav
64,192,18270,1,0,0:0:0:100:piano_high_0023.wav
320,192,18270,1,0,0:0:0:0:
448,192,18596,1,0,0:0:0:100:piano_high_0024.wav
64,192,18923,1,0,0:0:0:100:piano_high_0025.wav
192,192,18923,1,0,0:0:0:0:
448,192,19249,128,0,20227:0:0:0:100:piano_high_0026.wav
64,192,19575,1,0,0:0:0:100:piano_high_0027.wav
320,192,19575,1,0,0:0:0:0:
192,192,19901,1,0,0:0:0:100:piano_high_0028.wav
64,192,20227,128,0,20879:0:0:0:100:piano_high_0029.wav
320,192,20553,1,0,0:0:0:100:piano_high_0030.wav
192,192,20879,128,0,21531:0:0:0:100:piano_low_0042.wav
448,192,20879,1,0,0:0:0:0:
448,192,21531,1,0,0:0:0:100:piano_low_0044.wav
320,192,21694,1,0,0:0:0:0:
64,192,21857,1,0,0:0:0:100:piano_low_0045.wav
192,192,22020,1,0,0:0:0:0:
320,192,22183,128,8,22836:0:0:0:0:
64,192,22836,128,0,23488:0:0:0:0:
192,192,23488,1,0,0:0:0:100:piano_low_0046.wav
448,192,23488,128,0,24140:0:0:0:0:
320,192,23814,1,0,0:0:0:100:piano_low_0047.wav
192,192,24140,1,0,0:0:0:100:piano_low_0048.wav
64,192,24466,128,0,24792:0:0:0:100:piano_low_0049.wav
320,192,24792,128,8,25444:0:0:0:0:
448,192,25444,1,0,0:0:0:0:
192,192,25607,1,0,0:0:0:0:
320,192,25770,1,0,0:0:0:0:
64,192,25933,1,0,0:0:0:0:
192,192,26096,1,0,0:0:0:100:piano_low_0050.wav
448,192,26096,128,0,26423:0:0:0:0:
64,192,26423,128,0,26749:0:0:0:100:piano_low_0051.wav
320,192,26423,1,0,0:0:0:0:
192,192,26749,128,0,27075:0:0:0:100:piano_low_0052.wav
320,192,27075,128,0,27401:0:0:0:100:piano_low_0053.wav
448,192,27075,1,0,0:0:0:0:
64,192,27401,128,8,28053:0:0:0:0:
192,192,27401,1,0,0:0:0:0:
448,192,28053,128,0,28705:0:0:0:0:
64,192,28705,1,0,0:0:0:100:piano_low_0054.wav
320,192,28705,1,0,0:0:0:0:
192,192,29031,128,0,29357:0:0:0:100:piano_low_0055.wav
448,192,29357,128,0,29683:0:0:0:100:piano_low_0056.wav
64,192,29683,1,0,0:0:0:100:piano_low_0057.wav
320,192,29683,128,0,30009:0:0:0:0:
192,192,30009,1,8,0:0:0:0:
448,192,30009,128,0,30336:0:0:0:0:
64,192,30336,128,0,30662:0:0:0:0:
320,192,30662,128,0,30988:0:0:0:0:
192,192,30988,128,0,31314:0:0:0:0:
64,192,31314,1,0,0:0:0:100:piano_low_0058.wav
448,192,31314,1,0,0:0:0:0:
320,192,31640,1,0,0:0:0:100:piano_low_0059.wav
64,192,31966,1,0,0:0:0:100:piano_low_0060.wav
192,192,32129,1,0,0:0:0:0:
448,192,32292,1,0,0:0:0:100:piano_low_0061.wav
320,192,32455,1,0,0:0:0:0:
64,192,32618,128,8,33270:0:0:0:0:
192,192,32618,1,0,0:0:0:0:
320,192,33270,128,0,33923:0:0:0:0:
64,192,33923,1,0,0:0:0:100:piano_low_0062.wav
192,192,33923,128,0,34575:0:0:0:0:
448,192,34249,1,0,0:0:0:100:piano_low_0063.wav
320,192,34575,1,0,0:0:0:100:piano_low_0064.wav
64,192,34901,128,0,35227:0:0:0:100:piano_low_0065.wav
192,192,35227,1,8,0:0:0:0:
448,192,35227,128,0,35879:0:0:0:0:
320,192,35879,1,0,0:0:0:0:
64,192,36042,1,0,0:0:0:0:
192,192,36205,1,0,0:0:0:0:
320,192,36368,1,0,0:0:0:0:
192,192,36531,128,0,36857:0:0:0:100:piano_low_0066.wav
448,192,36531,1,0,0:0:0:0:
64,192,36857,1,0,0:0:0:100:piano_low_0067.wav
320,192,36857,128,0,37183:0:0:0:0:
192,192,37183,128,0,37509:0:0:0:100:piano_low_0068.wav
64,192,37509,128,0,37836:0:0:0:100:piano_low_0069.wav
448,192,37509,1,0,0:0:0:0:
192,192,37836,1,8,0:0:0:0:
448,192,37836,128,0,38488:0:0:0:0:
192,192,38488,128,0,39140:0:0:0:0:
64,192,39140,1,0,0:0:0:100:piano_low_0070.wav
448,192,39140,1,0,0:0:0:0:
320,192,39466,128,0,39792:0:0:0:100:piano_low_0071.wav
192,192,39792,128,0,40118:0:0:0:100:piano_low_0072.wav
320,192,40118,1,0,0:0:0:100:piano_low_0073.wav
448,192,40118,128,0,40444:0:0:0:0:
64,192,40444,1,8,0:0:0:0:
192,192,40444,1,0,0:0:0:0:
320,192,40770,1,0,0:0:0:0:
192,192,41096,1,0,0:0:0:0:
448,192,41096,1,0,0:0:0:0:
320,192,41259,1,0,0:0:0:0:
64,192,41423,1,0,0:0:0:0:
192,192,41586,1,0,0:0:0:0:
64,192,41749,1,4,0:0:0:0:
320,192,41749,1,0,0:0:0:0:
448,192,41749,1,0,0:0:0:0:
192,192,42075,1,0,0:0:0:0:
448,192,42238,1,0,0:0:0:0:
320,192,42727,1,0,0:0:0:0:
192,192,43053,1,8,0:0:0:0:
448,192,43053,1,0,0:0:0:0:
64,192,43542,1,0,0:0:0:0:
320,192,43705,1,0,0:0:0:0:
448,192,44031,1,0,0:0:0:0:
192,192,44357,1,0,0:0:0:0:
320,192,44846,1,0,0:0:0:0:
64,192,45009,1,0,0:0:0:0:
448,192,45336,1,0,0:0:0:0:
64,192,45662,1,8,0:0:0:0:
320,192,45662,1,0,0:0:0:0:
192,192,46151,1,0,0:0:0:0:
448,192,46314,1,0,0:0:0:0:
64,192,46640,1,0,0:0:0:0:
320,192,46966,1,0,0:0:0:0:
448,192,47455,1,0,0:0:0:0:
192,192,47618,1,0,0:0:0:0:
64,192,47944,1,0,0:0:0:0:
320,192,48270,1,8,0:0:0:0:
448,192,48270,1,0,0:0:0:0:
64,192,48759,1,0,0:0:0:0:
320,192,48923,1,0,0:0:0:0:
448,192,49249,1,0,0:0:0:0:
192,192,49575,1,0,0:0:0:0:
448,192,49901,128,0,50879:0:0:0:0:
192,192,50227,1,0,0:0:0:0:
320,192,50553,1,0,0:0:0:0:
64,192,50879,128,8,51531:0:0:0:0:
448,192,51531,1,0,0:0:0:0:
320,192,51694,1,0,0:0:0:0:
192,192,51857,1,0,0:0:0:0:
64,192,52020,1,0,0:0:0:0:
320,192,52183,1,0,0:0:0:0:
448,192,52183,1,0,0:0:0:0:
192,192,52673,1,0,0:0:0:0:
320,192,52836,1,0,0:0:0:0:
192,192,53325,1,0,0:0:0:0:
64,192,53488,1,8,0:0:0:0:
448,192,53488,1,0,0:0:0:0:
320,192,53977,1,0,0:0:0:0:
192,192,54140,1,0,0:0:0:0:
448,192,54466,1,0,0:0:0:0:
64,192,54792,128,0,57401:0:0:0:0:
192,192,55281,1,0,0:0:0:0:
448,192,55444,1,0,0:0:0:0:
192,192,55933,1,0,0:0:0:0:
320,192,56096,1,8,0:0:0:0:
448,192,56586,1,0,0:0:0:0:
320,192,56749,1,0,0:0:0:0:
192,192,57075,1,0,0:0:0:0:
448,192,57401,128,0,60988:0:0:0:0:
320,192,57890,1,0,0:0:0:0:
64,192,58053,1,0,0:0:0:0:
192,192,58379,1,0,0:0:0:0:
320,192,58705,1,8,0:0:0:0:
64,192,59194,1,0,0:0:0:0:
320,192,59357,1,0,0:0:0:0:
192,192,59683,1,0,0:0:0:0:
64,192,60009,1,0,0:0:0:0:
320,192,60499,1,0,0:0:0:0:
64,192,60662,1,0,0:0:0:0:
320,192,60988,1,0,0:0:0:0:
192,192,61151,1,0,0:0:0:0:
64,192,61314,1,8,0:0:0:0:
448,192,61477,128,0,61966:0:0:0:0:
192,192,61966,128,0,62618:0:0:0:0:
64,192,62618,1,4,0:0:0:0:
448,192,62618,128,0,63923:0:0:0:0:
320,192,63107,1,0,0:0:0:0:
192,192,63596,1,0,0:0:0:0:
64,192,63923,128,8,65227:0:0:0:0:
192,192,64412,1,0,0:0:0:0:
448,192,64901,1,0,0:0:0:0:
192,192,65227,1,0,0:0:0:0:
192,192,65390,1,0,0:0:0:0:
448,192,65716,1,0,0:0:0:0:
448,192,65879,1,0,0:0:0:0:
64,192,66205,1,0,0:0:0:0:
64,192,66368,1,8,0:0:0:0:
192,192,66694,128,0,67183:0:0:0:0:
448,192,67183,128,0,67509:0:0:0:0:
192,192,67509,1,0,0:0:0:0:
320,192,67673,1,0,0:0:0:0:
64,192,67836,128,0,69140:0:0:0:0:
448,192,67836,1,0,0:0:0:0:
320,192,68325,1,0,0:0:0:0:
448,192,68814,1,0,0:0:0:0:
192,192,69140,128,8,70444:0:0:0:0:
448,192,69629,1,0,0:0:0:0:
64,192,70118,1,0,0:0:0:0:
448,192,70444,128,0,71096:0:0:0:0:
64,192,71096,128,0,71749:0:0:0:0:
320,192,71423,1,0,0:0:0:0:
448,192,71749,128,8,72401:0:0:0:0:
64,192,72401,1,0,0:0:0:0:
192,192,72564,1,0,0:0:0:0:
320,192,72727,1,0,0:0:0:0:
448,192,72890,1,0,0:0:0:0:
64,192,73053,128,0,74357:0:0:0:0:
192,192,73053,1,0,0:0:0:0:
448,192,73542,1,0,0:0:0:0:
320,192,74031,1,0,0:0:0:0:
192,192,74357,128,8,75662:0:0:0:0:
448,192,74846,1,0,0:0:0:0:
64,192,75336,1,0,0:0:0:0:
448,192,75662,1,0,0:0:0:0:
448,192,75825,1,0,0:0:0:0:
64,192,76151,1,0,0:0:0:0:
64,192,76314,1,0,0:0:0:0:
320,192,76640,1,0,0:0:0:0:
320,192,76803,1,8,0:0:0:0:
192,192,77129,128,0,77618:0:0:0:0:
448,192,77618,128,0,77944:0:0:0:0:
64,192,77944,1,0,0:0:0:0:
192,192,78107,1,0,0:0:0:0:
320,192,78270,128,0,79575:0:0:0:0:
192,192,78759,1,0,0:0:0:0:
448,192,79249,1,0,0:0:0:0:
64,192,79575,128,8,80879:0:0:0:0:
448,192,80064,1,0,0:0:0:0:
192,192,80227,1,0,0:0:0:0:
320,192,80553,1,0,0:0:0:0:
448,192,80879,128,0,82183:0:0:0:0:
64,192,82183,128,8,82836:0:0:0:0:
320,192,82183,1,0,0:0:0:0:
448,192,82836,1,0,0:0:0:0:
320,192,82999,1,0,0:0:0:0:
192,192,83162,1,0,0:0:0:0:
64,192,83325,1,0,0:0:0:0:
320,192,83488,1,0,0:0:0:100:piano_low_0338.wav
448,192,83488,128,0,86096:0:0:0:100:piano_high_0046.wav
64,192,86096,128,0,88705:0:0:0:100:piano_high_0047.wav
192,192,86096,1,0,0:0:0:100:piano_low_0339.wav
320,192,88705,128,0,91314:0:0:0:100:piano_high_0048.wav
448,192,88705,1,0,0:0:0:100:piano_low_0340.wav
192,192,91314,128,0,93923:0:0:0:100:piano_low_0341.wav
64,192,93923,1,0,0:0:0:100:piano_high_0000.wav
448,192,93923,1,0,0:0:0:0:
320,192,94249,1,0,0:0:0:100:piano_high_0001.wav
192,192,94575,1,0,0:0:0:100:piano_high_0002.wav
64,192,94901,1,0,0:0:0:100:piano_high_0003.wav
448,192,95227,1,0,0:0:0:100:piano_high_0004.wav
192,192,95879,1,0,0:0:0:100:piano_high_0005.wav
320,192,96531,1,0,0:0:0:100:piano_high_0006.wav
448,192,96531,1,0,0:0:0:0:
64,192,96857,1,0,0:0:0:100:piano_high_0007.wav
192,192,97183,1,0,0:0:0:100:piano_high_0008.wav
448,192,97509,1,0,0:0:0:100:piano_high_0009.wav
64,192,97836,1,0,0:0:0:100:piano_high_0010.wav
192,192,98488,1,0,0:0:0:100:piano_high_0011.wav
448,192,98814,1,0,0:0:0:100:piano_high_0012.wav
64,192,99140,1,0,0:0:0:0:
192,192,99140,1,0,0:0:0:0:
320,192,99466,1,0,0:0:0:100:piano_high_0013.wav
64,192,99792,1,0,0:0:0:100:piano_high_0014.wav
192,192,100118,1,0,0:0:0:100:piano_high_0015.wav
320,192,100444,1,0,0:0:0:100:piano_high_0017.wav
448,192,100444,1,0,0:0:0:0:
64,192,101096,1,0,0:0:0:100:piano_high_0021.wav
320,192,101423,1,0,0:0:0:100:piano_high_0022.wav
192,192,101749,1,0,0:0:0:100:piano_high_0023.wav
448,192,101749,1,0,0:0:0:0:
64,192,102075,1,0,0:0:0:100:piano_high_0024.wav
320,192,102401,1,0,0:0:0:100:piano_high_0025.wav
448,192,102401,1,0,0:0:0:0:
192,192,102727,1,0,0:0:0:100:piano_high_0026.wav
64,192,103053,1,0,0:0:0:100:piano_high_0027.wav
448,192,103053,1,0,0:0:0:0:
320,192,103379,1,0,0:0:0:100:piano_high_0028.wav
64,192,103705,1,0,0:0:0:100:piano_high_0029.wav
192,192,103705,1,0,0:0:0:0:
320,192,104031,1,0,0:0:0:100:piano_high_0030.wav
64,192,104357,128,0,105662:0:0:0:100:piano_high_0000.wav
448,192,104357,1,0,0:0:0:0:
320,192,104683,1,0,0:0:0:100:piano_high_0001.wav
192,192,105009,1,0,0:0:0:100:piano_high_0002.wav
448,192,105336,1,0,0:0:0:100:piano_high_0003.wav
320,192,105662,1,0,0:0:0:100:piano_high_0004.wav
192,192,106314,128,0,106966:0:0:0:100:piano_high_0005.wav
64,192,106966,1,0,0:0:0:100:piano_high_0006.wav
448,192,106966,128,0,107292:0:0:0:0:
320,192,107292,128,0,107618:0:0:0:100:piano_high_0007.wav
192,192,107618,128,0,107944:0:0:0:100:piano_high_0008.wav
64,192,107944,128,0,108270:0:0:0:100:piano_high_0009.wav
448,192,108270,128,0,108923:0:0:0:100:piano_high_0010.wav
192,192,108923,128,0,109249:0:0:0:100:piano_high_0011.wav
320,192,109249,128,0,109575:0:0:0:100:piano_high_0012.wav
448,192,109575,1,0,0:0:0:0:
192,192,109901,128,0,110227:0:0:0:100:piano_high_0013.wav
320,192,110227,128,0,110553:0:0:0:100:piano_high_0014.wav
448,192,110553,128,0,110879:0:0:0:100:piano_high_0015.wav
64,192,110879,128,0,112183:0:0:0:100:piano_high_0017.wav
192,192,110879,1,0,0:0:0:0:
448,192,111531,1,0,0:0:0:100:piano_high_0021.wav
320,192,111857,1,0,0:0:0:100:piano_high_0022.wav
192,192,112183,1,0,0:0:0:100:piano_high_0023.wav
448,192,112183,1,0,0:0:0:0:
320,192,112509,1,0,0:0:0:100:piano_high_0024.wav
64,192,112836,1,0,0:0:0:100:piano_high_0025.wav
448,192,112836,1,0,0:0:0:0:
192,192,113162,1,0,0:0:0:100:piano_high_0026.wav
64,192,113488,1,0,0:0:0:100:piano_high_0027.wav
320,192,113488,1,0,0:0:0:0:
64,192,113814,1,0,0:0:0:100:piano_high_0028.wav
448,192,113814,1,0,0:0:0:0:
192,192,114140,1,0,0:0:0:100:piano_high_0029.wav
320,192,114140,1,0,0:0:0:0:
64,192,114466,128,0,115444:0:0:0:100:piano_high_0030.wav
448,192,114466,1,0,0:0:0:0:
320,192,115444,1,0,0:0:0:100:piano_high_0049.wav
