osu file format v14

[General]
AudioFilename: audio.mp3
AudioLeadIn: 0
PreviewTime: 41749
Countdown: 0
SampleSet: Soft
StackLeniency: 0.7
Mode: 3
LetterboxInBreaks: 0
SpecialStyle: 0
WidescreenStoryboard: 0

[Editor]
DistanceSpacing: 1.2
BeatDivisor: 8
GridSize: 4
TimelineZoom: 0.7999997

[Metadata]
Title:nightfall
TitleUnicode:nightfall
Artist:ginkiha
ArtistUnicode:ginkiha
Creator:Hotaru-
Version:Easy
Source:G2R2014 "GO BACK 2 YOUR ROOTS"
Tags:Piano Alchemists NIZI-RINGO 4th Album Ne/nuit electronic deemo featured artist fa Instrumental video game BMS -[Hotaru]- FAMoss
BeatmapID:1004003
BeatmapSetID:469498

[Difficulty]
HPDrainRate:7
CircleSize:4
OverallDifficulty:7
ApproachRate:5
SliderMultiplier:1.4
SliderTickRate:1

[Events]
//Background and Video events
0,0,"night_stars_ribbons_Mahou_Shoujo_Madoka_Magica_anime_Akemi_Homura_anime_girls_cities_1366x768.jpg",0,0
//Break Periods
//Storyboard Layer 0 (Background)
//Storyboard Layer 1 (Fail)
//Storyboard Layer 2 (Pass)
//Storyboard Layer 3 (Foreground)
//Storyboard Layer 4 (Overlay)
//Storyboard Sound Samples
Sample,4575,0,"piano_high_0011.wav",100
Sample,4901,0,"piano_high_0012.wav",100
Sample,6450,0,"piano_high_0016.wav",100
Sample,6857,0,"piano_high_0018.wav",100
Sample,6966,0,"piano_high_0019.wav",100
Sample,7075,0,"piano_high_0020.wav",100
Sample,7183,0,"piano_high_0021.wav",100
Sample,7509,0,"piano_high_0022.wav",100
Sample,8162,0,"piano_high_0024.wav",100
Sample,8814,0,"piano_high_0026.wav",100
Sample,9466,0,"piano_high_0028.wav",100
Sample,10118,0,"piano_high_0030.wav",100
Sample,15009,0,"piano_high_0011.wav",100
Sample,15336,0,"piano_high_0012.wav",100
Sample,16884,0,"piano_high_0016.wav",100
Sample,17292,0,"piano_high_0018.wav",100
Sample,17401,0,"piano_high_0019.wav",100
Sample,17509,0,"piano_high_0020.wav",100
Sample,17618,0,"piano_high_0021.wav",100
Sample,17944,0,"piano_high_0022.wav",100
Sample,18596,0,"piano_high_0024.wav",100
Sample,19249,0,"piano_high_0026.wav",100
Sample,20553,0,"piano_high_0030.wav",100
Sample,21205,0,"piano_low_0043.wav",100
Sample,21857,0,"piano_low_0045.wav",100
Sample,31640,0,"piano_low_0059.wav",100
Sample,58705,0,"soft-hitclap.wav",0
Sample,63759,0,"soft-hitclap.wav",0
Sample,66531,0,"soft-hitclap.wav",0
Sample,68977,0,"soft-hitclap.wav",0
Sample,71586,0,"soft-hitclap.wav",0
Sample,74194,0,"soft-hitclap.wav",0
Sample,76966,0,"soft-hitclap.wav",0
Sample,79412,0,"soft-hitclap.wav",0
Sample,82020,0,"soft-hitclap.wav",0
Sample,86096,0,"piano_low_0339.wav",100
Sample,88705,0,"piano_low_0340.wav",100
Sample,98488,0,"piano_high_0011.wav",100
Sample,98814,0,"piano_high_0012.wav",100
Sample,100363,0,"piano_high_0016.wav",100
Sample,100770,0,"piano_high_0018.wav",100
Sample,100879,0,"piano_high_0019.wav",100
Sample,100988,0,"piano_high_0020.wav",100
Sample,101096,0,"piano_high_0021.wav",100
Sample,101423,0,"piano_high_0022.wav",100
Sample,102075,0,"piano_high_0024.wav",100
Sample,102727,0,"piano_high_0026.wav",100
Sample,103379,0,"piano_high_0028.wav",100
Sample,104031,0,"piano_high_0030.wav",100
Sample,108923,0,"piano_high_0011.wav",100
Sample,109249,0,"piano_high_0012.wav",100
Sample,110798,0,"piano_high_0016.wav",100
Sample,111205,0,"piano_high_0018.wav",100
Sample,111314,0,"piano_high_0019.wav",100
Sample,111423,0,"piano_high_0020.wav",100
Sample,111531,0,"piano_high_0021.wav",100
Sample,111857,0,"piano_high_0022.wav",100
Sample,112509,0,"piano_high_0024.wav",100
Sample,113162,0,"piano_high_0026.wav",100

[TimingPoints]
10,652.173913043478,4,2,1,20,1,0
20879,-100.0,4,2,1,30,0,0
41749,-100.0,4,2,1,40,0,1
83488,-100.0,4,2,1,30,0,0
93923,-100.0,4,2,1,20,0,0

[HitObjects]
64,192,10,1,0,0:0:0:100:piano_high_0000.wav
448,192,10,1,0,0:0:0:0:
192,192,336,1,0,0:0:0:100:piano_high_0001.wav
448,192,662,1,0,0:0:0:100:piano_high_0002.wav
64,192,988,1,0,0:0:0:100:piano_high_0003.wav
320,192,1314,1,0,0:0:0:100:piano_high_0004.wav
448,192,1966,1,0,0:0:0:100:piano_high_0005.wav
64,192,2618,1,0,0:0:0:100:piano_high_0006.wav
320,192,2944,1,0,0:0:0:100:piano_high_0007.wav
192,192,3270,1,0,0:0:0:100:piano_high_0008.wav
448,192,3596,1,0,0:0:0:100:piano_high_0009.wav
64,192,3923,1,0,0:0:0:100:piano_high_0010.wav
64,192,5227,1,0,0:0:0:100:piano_low_0048.wav
192,192,5553,1,0,0:0:0:100:piano_high_0013.wav
448,192,5879,1,0,0:0:0:100:piano_high_0014.wav
64,192,6205,1,0,0:0:0:100:piano_high_0015.wav
320,192,6531,1,0,0:0:0:100:piano_high_0017.wav
192,192,7836,1,0,0:0:0:100:piano_high_0023.wav
320,192,8488,1,0,0:0:0:100:piano_high_0025.wav
448,192,9140,1,0,0:0:0:100:piano_high_0027.wav
192,192,9792,1,0,0:0:0:100:piano_high_0029.wav
448,192,10444,1,0,0:0:0:100:piano_high_0000.wav
192,192,10770,1,0,0:0:0:100:piano_high_0001.wav
320,192,11096,1,0,0:0:0:100:piano_high_0002.wav
64,192,11423,1,0,0:0:0:100:piano_high_0003.wav
448,192,11749,1,0,0:0:0:100:piano_high_0004.wav
192,192,12401,1,0,0:0:0:100:piano_high_0005.wav
448,192,13053,1,0,0:0:0:100:piano_high_0006.wav
64,192,13379,1,0,0:0:0:100:piano_high_0007.wav
192,192,13705,1,0,0:0:0:100:piano_high_0008.wav
320,192,14031,1,0,0:0:0:100:piano_high_0009.wav
64,192,14357,1,0,0:0:0:100:piano_high_0010.wav
64,192,15662,1,0,0:0:0:100:piano_low_0048.wav
192,192,15988,1,0,0:0:0:100:piano_high_0013.wav
448,192,16314,1,0,0:0:0:100:piano_high_0014.wav
64,192,16640,1,0,0:0:0:100:piano_high_0015.wav
320,192,16966,1,0,0:0:0:100:piano_high_0017.wav
64,192,18270,1,0,0:0:0:100:piano_high_0023.wav
448,192,18923,1,0,0:0:0:100:piano_high_0025.wav
320,192,19575,1,0,0:0:0:100:piano_high_0027.wav
192,192,19901,1,0,0:0:0:100:piano_high_0028.wav
64,192,20227,128,0,20879:0:0:0:100:piano_high_0029.wav
320,192,20879,1,0,0:0:0:100:piano_low_0042.wav
448,192,20879,128,0,21531:0:0:0:0:
192,192,21531,128,0,22183:0:0:0:100:piano_low_0044.wav
320,192,22183,128,8,22836:0:0:0:0:
64,192,22836,128,0,23488:0:0:0:0:
448,192,23488,1,0,0:0:0:100:piano_low_0046.wav
320,192,23814,1,0,0:0:0:100:piano_low_0047.wav
192,192,24140,1,0,0:0:0:100:piano_low_0048.wav
64,192,24466,1,0,0:0:0:100:piano_low_0049.wav
448,192,24792,128,8,26096:0:0:0:0:
320,192,26096,1,0,0:0:0:100:piano_low_0050.wav
64,192,26423,1,0,0:0:0:100:piano_low_0051.wav
448,192,26749,1,0,0:0:0:100:piano_low_0052.wav
192,192,27075,1,0,0:0:0:100:piano_low_0053.wav
320,192,27401,128,8,28053:0:0:0:0:
192,192,28053,128,0,28705:0:0:0:0:
64,192,28705,1,0,0:0:0:100:piano_low_0054.wav
448,192,29031,1,0,0:0:0:100:piano_low_0055.wav
192,192,29357,1,0,0:0:0:100:piano_low_0056.wav
64,192,29683,1,0,0:0:0:100:piano_low_0057.wav
448,192,30009,1,8,0:0:0:0:
320,192,30336,1,0,0:0:0:0:
64,192,30662,1,0,0:0:0:0:
192,192,30988,1,0,0:0:0:0:
448,192,31314,128,0,31966:0:0:0:100:piano_low_0058.wav
64,192,31966,1,0,0:0:0:100:piano_low_0060.wav
192,192,32292,1,0,0:0:0:100:piano_low_0061.wav
448,192,32618,128,8,33270:0:0:0:0:
192,192,33270,128,0,33923:0:0:0:0:
448,192,33923,1,0,0:0:0:100:piano_low_0062.wav
64,192,34249,1,0,0:0:0:100:piano_low_0063.wav
192,192,34575,1,0,0:0:0:100:piano_low_0064.wav
448,192,34901,1,0,0:0:0:100:piano_low_0065.wav
64,192,35227,128,8,36531:0:0:0:0:
448,192,36531,1,0,0:0:0:100:piano_low_0066.wav
192,192,36857,1,0,0:0:0:100:piano_low_0067.wav
320,192,37183,1,0,0:0:0:100:piano_low_0068.wav
64,192,37509,1,0,0:0:0:100:piano_low_0069.wav
448,192,37836,128,8,38488:0:0:0:0:
64,192,38488,128,0,39140:0:0:0:0:
192,192,39140,1,0,0:0:0:100:piano_low_0070.wav
448,192,39466,1,0,0:0:0:100:piano_low_0071.wav
64,192,39792,1,0,0:0:0:100:piano_low_0072.wav
320,192,40118,1,0,0:0:0:100:piano_low_0073.wav
64,192,40444,1,8,0:0:0:0:
192,192,40444,1,0,0:0:0:0:
448,192,40770,1,0,0:0:0:0:
320,192,41096,1,0,0:0:0:0:
192,192,41423,1,0,0:0:0:0:
64,192,41749,1,4,0:0:0:0:
448,192,41749,1,0,0:0:0:0:
320,192,42238,1,0,0:0:0:0:
64,192,42727,1,0,0:0:0:0:
320,192,43053,1,8,0:0:0:0:
448,192,43542,1,0,0:0:0:0:
192,192,44031,1,0,0:0:0:0:
320,192,44357,1,0,0:0:0:0:
64,192,44846,1,0,0:0:0:0:
192,192,45336,1,0,0:0:0:0:
448,192,45662,1,8,0:0:0:0:
320,192,46314,1,0,0:0:0:0:
64,192,46640,1,0,0:0:0:0:
192,192,46966,1,0,0:0:0:0:
448,192,47455,1,0,0:0:0:0:
192,192,47944,1,0,0:0:0:0:
320,192,48270,1,8,0:0:0:0:
64,192,48923,1,0,0:0:0:0:
320,192,49249,1,0,0:0:0:0:
192,192,49575,128,0,50227:0:0:0:0:
448,192,50227,128,0,50879:0:0:0:0:
320,192,50879,128,8,51531:0:0:0:0:
64,192,51531,128,0,52183:0:0:0:0:
192,192,52183,1,0,0:0:0:0:
448,192,52183,1,0,0:0:0:0:
320,192,52673,1,0,0:0:0:0:
64,192,53162,1,0,0:0:0:0:
448,192,53488,1,8,0:0:0:0:
320,192,54140,1,0,0:0:0:0:
192,192,54466,1,0,0:0:0:0:
448,192,54792,128,0,56096:0:0:0:0:
192,192,56096,128,8,57401:0:0:0:0:
64,192,57401,128,0,60009:0:0:0:0:
192,192,60009,128,0,61314:0:0:0:0:
320,192,61314,128,8,62618:0:0:0:0:
192,192,62618,1,4,0:0:0:0:
448,192,62618,128,0,63923:0:0:0:0:
64,192,63923,128,8,65227:0:0:0:0:
448,192,65227,1,0,0:0:0:0:
64,192,65879,1,0,0:0:0:0:
320,192,66368,1,8,0:0:0:0:
64,192,66694,128,0,67183:0:0:0:0:
320,192,67183,128,0,67836:0:0:0:0:
448,192,67836,128,0,69140:0:0:0:0:
64,192,69140,128,8,70444:0:0:0:0:
448,192,70444,128,0,71096:0:0:0:0:
320,192,71096,128,0,71749:0:0:0:0:
64,192,71749,128,8,72401:0:0:0:0:
192,192,72401,128,0,73053:0:0:0:0:
448,192,73053,128,0,74357:0:0:0:0:
64,192,74357,128,8,75662:0:0:0:0:
448,192,75662,1,0,0:0:0:0:
64,192,76314,1,0,0:0:0:0:
192,192,76803,1,8,0:0:0:0:
448,192,77129,128,0,78270:0:0:0:0:
64,192,78270,128,0,79575:0:0:0:0:
448,192,79575,128,8,80879:0:0:0:0:
192,192,80879,128,0,81531:0:0:0:0:
320,192,81531,128,0,82183:0:0:0:0:
64,192,82183,128,8,82836:0:0:0:0:
448,192,82836,128,0,83488:0:0:0:0:
64,192,83488,128,0,86096:0:0:0:100:piano_low_0338.wav
192,192,83488,1,0,0:0:0:100:piano_high_0046.wav
192,192,86096,128,0,88705:0:0:0:100:piano_high_0047.wav
320,192,88705,128,0,91314:0:0:0:100:piano_high_0048.wav
448,192,91314,128,0,93923:0:0:0:100:piano_low_0341.wav
64,192,93923,1,0,0:0:0:100:piano_high_0000.wav
192,192,94249,1,0,0:0:0:100:piano_high_0001.wav
448,192,94575,1,0,0:0:0:100:piano_high_0002.wav
320,192,94901,1,0,0:0:0:100:piano_high_0003.wav
192,192,95227,1,0,0:0:0:100:piano_high_0004.wav
64,192,95879,1,0,0:0:0:100:piano_high_0005.wav
448,192,96531,1,0,0:0:0:100:piano_high_0006.wav
320,192,96857,1,0,0:0:0:100:piano_high_0007.wav
192,192,97183,1,0,0:0:0:100:piano_high_0008.wav
448,192,97509,1,0,0:0:0:100:piano_high_0009.wav
64,192,97836,1,0,0:0:0:100:piano_high_0010.wav
320,192,99140,1,0,0:0:0:0:
192,192,99466,1,0,0:0:0:100:piano_high_0013.wav
448,192,99792,1,0,0:0:0:100:piano_high_0014.wav
64,192,100118,1,0,0:0:0:100:piano_high_0015.wav
320,192,100444,1,0,0:0:0:100:piano_high_0017.wav
192,192,101749,1,0,0:0:0:100:piano_high_0023.wav
320,192,102401,1,0,0:0:0:100:piano_high_0025.wav
64,192,103053,1,0,0:0:0:100:piano_high_0027.wav
320,192,103705,1,0,0:0:0:100:piano_high_0029.wav
448,192,104357,1,0,0:0:0:100:piano_high_0000.wav
64,192,104683,1,0,0:0:0:100:piano_high_0001.wav
192,192,105009,1,0,0:0:0:100:piano_high_0002.wav
320,192,105336,1,0,0:0:0:100:piano_high_0003.wav
64,192,105662,1,0,0:0:0:100:piano_high_0004.wav
448,192,106314,1,0,0:0:0:100:piano_high_0005.wav
192,192,106966,1,0,0:0:0:100:piano_high_0006.wav
64,192,107292,1,0,0:0:0:100:piano_high_0007.wav
320,192,107618,1,0,0:0:0:100:piano_high_0008.wav
448,192,107944,1,0,0:0:0:100:piano_high_0009.wav
192,192,108270,1,0,0:0:0:100:piano_high_0010.wav
448,192,109575,1,0,0:0:0:0:
64,192,109901,1,0,0:0:0:100:piano_high_0013.wav
320,192,110227,1,0,0:0:0:100:piano_high_0014.wav
192,192,110553,1,0,0:0:0:100:piano_high_0015.wav
64,192,110879,1,0,0:0:0:100:piano_high_0017.wav
192,192,112183,1,0,0:0:0:100:piano_high_0023.wav
448,192,112836,1,0,0:0:0:100:piano_high_0025.wav
64,192,113488,1,0,0:0:0:100:piano_high_0027.wav
192,192,113814,1,0,0:0:0:100:piano_high_0028.wav
448,192,114140,1,0,0:0:0:100:piano_high_0029.wav
64,192,114466,128,0,115444:0:0:0:100:piano_high_0030.wav
448,192,115444,1,0,0:0:0:100:piano_high_0049.wav
