osu file format v14

[General]
AudioFilename: audio.mp3
AudioLeadIn: 0
PreviewTime: 59330
Countdown: 0
SampleSet: Soft
StackLeniency: 0.7
Mode: 0
LetterboxInBreaks: 0
WidescreenStoryboard: 1

[Editor]
Bookmarks: 14652
DistanceSpacing: 0.7
BeatDivisor: 8
GridSize: 32
TimelineZoom: 8

[Metadata]
Title:eastward
TitleUnicode:eastward
Artist:ginkiha
ArtistUnicode:ginkiha
Creator:Xilver
Version:Oriental Makeover
Source:BMS
Tags:bofu2015 of fighter ultimate oriental
BeatmapID:1285839
BeatmapSetID:574356

[Difficulty]
HPDrainRate:5
CircleSize:4
OverallDifficulty:9
ApproachRate:9.7
SliderMultiplier:2
SliderTickRate:1

[Events]
//Background and Video events
0,0,"east.jpg",0,0
//Break Periods
//Storyboard Layer 0 (Background)
//Storyboard Layer 1 (Fail)
//Storyboard Layer 2 (Pass)
//Storyboard Layer 3 (Foreground)
Sprite,Foreground,Centre,"NekoLumi's Storyboard\sakuranohana.png",320,240 F,0,59249,59410,0,1 S,0,59249,59410,1.545032,1.049549 R,0,59249,59410,-0.1981934,-0.03303223 M,0,59249,123604,136,413,488,420 F,0,59410,123604,1 S,0,59410,123604,1.049549,1 R,0,59410,123604,-0.03303223,0.06606445 F,0,123604,124249,1,0 S,0,123604,124249,1,1.660645 R,0,123604,124249,0.06606445,0.3303229
Sprite,Foreground,Centre,"NekoLumi's Storyboard\CherryBlossom.png",320,240 F,0,56,1346,0,1 S,0,56,1346,1.582137,1 R,0,56,1346,-0.2714984,-0.03014547 M,0,56,36820,141,428,361,427 F,0,1346,46810,1 S,0,1346,59088,1 R,0,1346,59088,-0.03014547,0.09909668 M,0,36820,36830,361,427 M,0,36830,36840,361,427 M,0,36840,36850,361,427 M,0,36850,36860,361,427 M,0,36860,36870,361,427,362,427 M,0,36870,36880,362,427 M,0,36880,36890,362,427 M,0,36890,36900,362,427 M,0,36900,36910,362,427 M,0,36910,36920,362,427 M,0,36920,36931,362,427 M,0,36931,36941,362,427 M,0,36941,36951,362,427 M,0,36951,36961,362,427 M,0,36961,36971,362,427 M,0,36971,36981,362,427 M,0,36981,36991,362,427 M,0,36991,37001,362,427 M,0,37001,37011,362,427 M,0,37011,37021,362,427 M,0,37021,37031,362,427,363,426 M,0,37031,37041,363,426 M,0,37041,37051,363,426 M,0,37051,37062,363,426 M,0,37062,37072,363,426 M,0,37072,37082,363,426 M,0,37082,37092,363,426 M,0,37092,37102,363,426 M,0,37102,37112,363,426 M,0,37112,37122,363,426 M,0,37122,37132,363,426 M,0,37132,37142,363,426 M,0,37142,37152,363,426 M,0,37152,37162,363,426 M,0,37162,41003,363,426,386,424 M,0,41003,41023,386,424,380,424 M,0,41023,41043,380,424,387,424 M,0,41043,41064,387,424,393,424 M,0,41064,41084,393,424,387,424 M,0,41084,41104,387,424,380,424 M,0,41104,41124,380,424,387,424 M,0,41124,41144,387,424,394,424 M,0,41144,41164,394,424,387,424 M,0,41164,41185,387,424,381,424 M,0,41185,41205,381,424,387,424 M,0,41205,46810,387,424,421,420 M,0,46810,46830,421,420,421,412 F,0,46810,59088,1 M,0,46830,46850,421,412,421,420 M,0,46850,46870,421,420,421,412 M,0,46870,46890,421,412,422,420 M,0,46890,46910,422,420,422,412 M,0,46910,46930,422,412,422,420 M,0,46930,46951,422,420,422,412 M,0,46951,46971,422,412,422,420 M,0,46971,46991,422,420,422,412 M,0,46991,47011,422,412,422,420 M,0,47011,47031,422,420,422,412 M,0,47031,47051,422,412,423,420 M,0,47051,47072,423,420,423,412 M,0,47072,47092,423,412,423,420 M,0,47092,59088,423,420,495,413 F,0,59088,59249,1,0 S,0,59088,59249,1,1.660645 R,0,59088,59249,0.09909668,0.3633545
//Storyboard Sound Samples

[TimingPoints]
56,322.58064516129,4,2,99,60,1,0
136,-100,4,2,2,60,0,0
1346,-200,4,2,2,60,0,0
2636,-125,4,2,2,60,0,0
3120,-200,4,2,2,60,0,0
3281,-62.5,4,2,2,60,0,0
3926,-100,4,2,2,60,0,0
4894,-200,4,2,99,60,0,0
4975,-200,4,2,2,60,0,0
7797,-125,4,2,2,60,0,0
8281,-200,4,2,2,60,0,0
8443,-62.5,4,2,2,60,0,0
10378,-100,4,2,3,60,0,0
10459,-100,4,2,2,60,0,0
12152,-66.6666666666667,4,2,2,60,0,0
12636,-66.6666666666667,4,2,3,60,0,0
12959,-100,4,2,2,60,0,0
14572,-55.5555555555556,4,2,2,60,0,0
15217,-55.5555555555556,4,2,3,60,0,0
15539,-100,4,2,3,60,0,0
15620,-100,4,2,2,60,0,0
16185,-100,4,2,2,60,0,0
17314,-66.6666666666667,4,2,2,60,0,0
17797,-66.6666666666667,4,2,3,60,0,0
18120,-100,4,2,2,60,0,0
19733,-66.6666666666667,4,2,2,60,0,0
20055,-100,4,2,2,60,0,0
20701,-100,4,2,99,60,0,0
22314,-66.6666666666667,4,2,99,60,0,0
23281,-83.3333333333333,4,2,3,60,0,0
23362,-83.3333333333333,4,2,2,60,0,0
25539,-83.3333333333333,4,2,3,60,0,0
25862,-125,4,2,2,60,0,0
26023,-100,4,2,2,60,0,0
26104,-500,4,2,2,60,0,0
26185,-50,4,2,3,60,0,0
26265,-58.8235294117647,4,2,2,60,0,0
27797,-83.3333333333333,4,2,2,60,0,0
28120,-58.8235294117647,4,2,3,60,0,0
28443,-83.3333333333333,4,2,2,60,0,0
30378,-200,4,2,2,60,0,0
30701,-71.4285714285714,4,2,3,60,0,0
31023,-50,4,2,2,60,0,0
32314,-58.8235294117647,4,2,2,60,0,0
33604,-333.333333333333,4,2,99,60,0,0
34894,-66.6666666666667,4,2,99,60,0,0
35539,-125,4,2,99,60,0,0
35862,-71.4285714285714,4,2,99,60,0,0
36185,-62.5,4,2,5,60,0,0
36830,-83.3333333333333,4,2,5,60,0,0
37152,-58.8235294117647,4,2,5,60,0,0
37636,-76.9230769230769,4,2,5,60,0,0
37797,-58.8235294117647,4,2,5,60,0,0
38120,-76.9230769230769,4,2,5,60,0,0
38765,-52.6315789473684,4,2,5,60,0,0
39088,-58.8235294117647,4,2,5,60,0,0
39410,-100,4,2,5,60,0,0
40055,-83.3333333333333,4,2,5,60,0,0
40378,-66.6666666666667,4,2,5,60,0,0
41023,-125,4,2,5,60,0,0
41346,-66.6666666666667,4,2,5,60,0,0
41668,-58.8235294117647,4,2,5,60,0,0
41991,-66.6666666666667,4,2,5,60,0,0
42314,-58.8235294117647,4,2,5,60,0,0
42636,-76.9230769230769,4,2,5,60,0,0
43926,-200,4,2,5,60,0,0
44088,-62.5,4,2,5,60,0,0
44249,-55.5555555555556,4,2,5,60,0,0
44572,-76.9230769230769,4,2,5,60,0,0
45378,-125,4,2,5,60,0,0
45862,-66.6666666666667,4,2,5,60,0,0
46185,-125,4,2,5,60,0,0
46507,-50,4,2,5,60,0,0
46830,-58.8235294117647,4,1,5,40,0,0
47152,-66.6666666666667,4,2,5,60,0,0
48120,-62.5,4,2,5,60,0,0
49088,-200,4,2,5,60,0,0
49370,-100,4,2,5,60,0,0
49572,-50,4,2,5,60,0,0
49975,-50,4,2,5,60,0,0
50055,-66.6666666666667,4,2,5,60,0,0
50701,-200,4,2,5,60,0,0
51023,-58.8235294117647,4,2,5,60,0,0
52636,-83.3333333333333,4,2,5,60,0,0
53281,-55.5555555555556,4,2,5,60,0,0
54894,-55.5555555555556,4,2,99,60,0,0
54975,-55.5555555555556,4,2,5,60,0,0
55539,-100,4,2,5,60,0,0
55862,-66.6666666666667,4,2,5,60,0,0
56830,-83.3333333333333,4,2,99,60,0,0
59410,-83.3333333333333,4,2,3,70,0,1
59491,-83.3333333333333,4,2,2,70,0,1
62475,-66.6666666666667,4,2,2,70,0,1
62797,-83.3333333333333,4,2,2,70,0,1
63604,-100,4,2,2,70,0,1
64572,-83.3333333333333,4,2,2,70,0,1
67636,-66.6666666666667,4,2,2,70,0,1
67878,-83.3333333333333,4,2,2,70,0,1
69733,-83.3333333333333,4,2,3,70,0,1
69814,-83.3333333333333,4,2,2,70,0,1
72797,-66.6666666666667,4,2,2,70,0,1
73765,-83.3333333333333,4,2,2,70,0,1
78765,-66.6666666666667,4,2,2,70,0,1
78846,-66.6666666666667,4,2,2,70,0,1
79733,-100,4,2,99,70,0,1
79894,-66.6666666666667,4,2,3,70,0,1
80055,-83.3333333333333,4,2,3,70,0,1
80136,-83.3333333333333,4,2,2,70,0,1
83120,-66.6666666666667,4,2,2,70,0,1
83926,-83.3333333333333,4,2,2,70,0,1
86265,-66.6666666666667,4,2,2,70,0,1
86668,-83.3333333333333,4,2,2,70,0,1
88281,-66.6666666666667,4,2,2,70,0,1
88604,-83.3333333333333,4,2,2,70,0,1
89249,-83.3333333333333,4,2,2,70,0,1
89733,-200,4,2,2,70,0,1
89894,-66.6666666666667,4,2,2,70,0,1
90378,-55.5555555555556,4,2,3,70,0,1
90459,-55.5555555555556,4,2,2,70,0,1
91668,-50,4,2,2,70,0,1
92959,-50,4,2,2,70,0,1
92959,-45.4545454545455,4,2,2,70,0,1
94249,-41.6666666666667,4,2,2,70,0,1
95539,-41.6666666666667,4,2,2,55,0,1
98120,-55.5555555555556,4,2,2,35,0,1
98926,-62.5,4,2,2,35,0,1
99088,-71.4285714285714,4,2,2,35,0,1
99249,-83.3333333333333,4,2,2,35,0,1
99410,-66.6666666666667,4,2,2,50,0,1
100378,-200,4,2,99,50,0,1
100459,-200,4,2,2,50,0,1
100701,-83.3333333333333,4,2,3,60,0,0
100781,-83.3333333333333,4,2,2,60,0,0
102475,-66.6666666666667,4,2,2,60,0,0
102959,-66.6666666666667,4,2,3,60,0,0
103281,-83.3333333333333,4,2,2,60,0,0
104894,-66.6666666666667,4,2,2,60,0,0
105539,-66.6666666666667,4,2,3,60,0,0
105620,-83.3333333333333,4,2,3,60,0,0
105943,-83.3333333333333,4,2,2,60,0,0
107636,-66.6666666666667,4,2,2,60,0,0
108120,-66.6666666666667,4,2,3,60,0,0
108443,-83.3333333333333,4,2,2,60,0,0
110701,-83.3333333333333,4,2,3,60,0,0
111023,161.290322580645,4,2,5,60,1,0
111023,-38.4615384615385,4,2,5,60,0,0
111345,322.58064516129,4,2,5,60,1,0
111346,-66.6666666666667,4,2,5,60,0,0
111668,-83.3333333333333,4,2,2,60,0,0
112314,-55.5555555555556,4,2,2,60,0,0
119410,-55.5555555555556,4,2,99,60,0,0
119491,-55.5555555555556,4,2,2,60,0,0
120055,-100,4,2,2,60,0,0
120378,-66.6666666666667,4,2,2,60,0,0
121346,-66.6666666666667,4,2,99,60,0,0

[Colours]
Combo1 : 141,245,65
Combo2 : 251,55,129
Combo3 : 43,216,247
Combo4 : 242,238,83

[HitObjects]
444,176,56,5,4,0:0:0:0:
365,159,217,1,0,0:0:0:0:
357,79,378,1,0,0:0:0:0:
430,47,539,1,0,0:0:0:0:
484,106,701,1,2,0:0:0:0:
350,191,862,5,0,0:0:0:0:
315,198,943,1,0,0:0:0:0:
288,176,1024,1,2,0:0:0:0:
288,141,1104,1,0,0:0:0:0:
315,120,1185,1,0,0:0:0:0:
350,127,1265,1,0,0:0:0:0:
365,159,1346,6,0,L|315:161,1,50,2|0,0:0|0:0,0:0:0:0:
450,284,1668,1,2,0:0:0:0:
450,284,1830,2,0,L|400:281,1,50,2|0,0:0|0:0,0:0:0:0:
430,47,2152,1,0,0:0:0:0:
430,47,2314,2,0,L|380:49,1,50,0|2,0:0|0:0,0:0:0:0:
162,156,2636,6,0,B|117:146|90:180|90:180|124:218|162:205,1,160,2|0,0:0|0:0,0:0:0:0:
315,160,3120,2,0,L|340:158,2,16.6666666666667,0|0|0,0:0|0:0|0:0,0:0:0:0:
315,160,3281,2,0,B|345:126|328:86|328:86|279:96|271:135,1,160,2|0,0:0|0:0,0:0:0:0:
235,291,3604,2,0,B|249:334|292:340|292:340|308:291|277:265,1,160,2|2,0:0|0:0,0:0:0:0:
142,83,3926,5,2,0:0:0:0:
125,126,4007,1,0,0:0:0:0:
162,156,4088,1,0,0:0:0:0:
201,129,4168,1,0,0:0:0:0:
188,84,4249,1,2,0:0:0:0:
372,186,4410,1,0,0:0:0:0:
372,186,4491,1,0,0:0:0:0:
372,186,4572,1,0,0:0:0:0:
296,112,4733,1,0,0:0:0:0:
278,266,4894,2,0,L|281:216,1,50,4|0,0:0|0:0,0:0:0:0:
18,284,5217,5,2,0:0:0:0:
64,350,5378,1,0,0:0:0:0:
142,325,5539,1,0,0:0:0:0:
142,246,5700,1,0,0:0:0:0:
66,219,5862,1,2,0:0:0:0:
157,357,6023,5,0,0:0:0:0:
192,364,6104,1,0,0:0:0:0:
219,342,6185,1,2,0:0:0:0:
219,307,6265,1,0,0:0:0:0:
192,286,6346,1,0,0:0:0:0:
157,293,6426,1,0,0:0:0:0:
142,325,6507,6,0,L|138:268,1,50,2|0,0:0|0:0,0:0:0:0:
337,231,6830,1,2,0:0:0:0:
337,231,6991,2,0,L|341:174,1,50,2|0,0:0|0:0,0:0:0:0:
160,108,7314,1,0,0:0:0:0:
160,108,7475,2,0,L|156:58,1,50,0|2,0:0|0:0,0:0:0:0:
336,230,7797,6,0,P|290:268|350:262,1,160,2|0,0:0|0:0,0:0:0:0:
134,326,8281,2,0,L|113:340,2,16.6666666666667,0|0|0,0:0|0:0|0:0,0:0:0:0:
134,326,8443,2,0,P|190:346|154:298,1,160,2|0,0:0|0:0,0:0:0:0:
214,132,8765,2,0,P|167:170|227:163,1,160,2|0,0:0|0:0,0:0:0:0:
448,118,9088,5,2,0:0:0:0:
407,141,9169,1,0,0:0:0:0:
371,110,9249,1,0,0:0:0:0:
392,67,9330,1,0,0:0:0:0:
437,73,9411,1,2,0:0:0:0:
158,76,9572,1,0,0:0:0:0:
158,76,9652,1,0,0:0:0:0:
158,76,9733,5,0,0:0:0:0:
272,138,9894,5,0,0:0:0:0:
336,230,10056,5,2,0:0:0:0:
350,321,10217,5,0,0:0:0:0:
68,261,10378,6,0,P|116:270|160:296,1,100,6|0,0:0|0:0,0:0:0:0:
361,137,10701,2,0,P|313:146|269:172,1,100,8|0,0:0|0:0,0:0:0:0:
45,99,11023,5,4,0:0:0:0:
83,97,11104,1,0,0:0:0:0:
121,95,11185,1,2,0:0:0:0:
159,93,11265,1,0,0:0:0:0:
197,91,11346,1,8,0:0:0:0:
374,232,11507,5,4,0:0:0:0:
336,230,11588,1,0,0:0:0:0:
298,228,11669,1,2,0:0:0:0:
260,226,11749,1,0,0:0:0:0:
222,224,11830,1,6,0:0:0:0:
419,44,11991,5,8,0:0:0:0:
354,43,12072,1,0,0:0:0:0:
333,105,12152,6,0,P|326:124|328:146,1,37.5000014305115,2|0,0:0|0:0,0:0:0:0:
386,143,12233,2,0,P|401:155|423:160,1,37.5000014305115,0|0,0:0|0:0,0:0:0:0:
439,106,12314,1,6,0:0:0:0:
222,224,12475,6,0,P|229:243|227:265,1,37.5000014305115,0|0,0:0|0:0,0:0:0:0:
169,262,12556,2,0,P|153:274|131:279,1,37.5000014305115,0|0,0:0|0:0,0:0:0:0:
115,225,12637,1,6,0:0:0:0:
226,96,12797,1,6,0:0:0:0:
423,245,12959,6,0,P|398:286|394:338,1,100,4|0,0:0|0:0,0:0:0:0:
226,96,13281,2,0,P|251:137|254:189,1,100,8|0,0:0|0:0,0:0:0:0:
406,32,13604,5,4,0:0:0:0:
402,69,13685,1,0,0:0:0:0:
398,107,13766,1,2,0:0:0:0:
394,145,13846,1,0,0:0:0:0:
390,183,13927,1,8,0:0:0:0:
236,341,14088,5,2,0:0:0:0:
232,304,14169,1,0,0:0:0:0:
228,266,14250,1,6,0:0:0:0:
224,228,14330,1,0,0:0:0:0:
220,190,14411,1,2,0:0:0:0:
491,260,14572,6,0,P|485:279|476:295,1,37.5000014305115,8|0,0:0|0:0,0:0:0:0:
449,281,14653,2,0,P|437:298|423:309,1,37.5000014305115,0|0,0:0|0:0,0:0:0:0:
404,269,14733,2,0,P|387:281|370:286,1,37.5000014305115,2|0,0:0|0:0,0:0:0:0:
379,228,14814,2,0,P|359:233|341:233,1,37.5000014305115,0|0,0:0|0:0,0:0:0:0:
390,183,14895,5,6,0:0:0:0:
59,74,15056,6,0,P|73:59|104:41,1,37.5000014305115,0|0,0:0|0:0,0:0:0:0:
107,83,15136,2,0,P|126:77|162:78,1,37.5000014305115,0|0,0:0|0:0,0:0:0:0:
143,118,15216,5,6,0:0:0:0:
145,137,15297,1,0,0:0:0:0:
147,156,15377,1,6,0:0:0:0:
149,175,15458,1,0,0:0:0:0:
122,214,15539,6,0,B|205:215|205:215|191:204,1,100,6|0,0:0|0:0,0:0:0:0:
385,89,15862,2,0,B|303:87|303:87|324:106,1,100,8|0,0:0|0:0,0:0:0:0:
70,318,16185,5,4,0:0:0:0:
117,305,16265,1,0,0:0:0:0:
152,270,16346,1,2,0:0:0:0:
164,222,16426,1,0,0:0:0:0:
149,175,16507,1,8,0:0:0:0:
437,272,16668,5,4,0:0:0:0:
403,238,16748,1,0,0:0:0:0:
355,225,16829,1,2,0:0:0:0:
307,239,16909,1,0,0:0:0:0:
274,276,16990,1,6,0:0:0:0:
235,0,17152,5,8,0:0:0:0:
222,41,17232,1,0,0:0:0:0:
235,89,17314,6,0,P|230:109|234:145,1,37.5000014305115,2|0,0:0|0:0,0:0:0:0:
271,123,17394,2,0,P|277:142|298:171,1,37.5000014305115,0|0,0:0|0:0,0:0:0:0:
319,133,17474,1,6,0:0:0:0:
437,272,17636,6,0,P|441:292|438:328,1,37.5000014305115,0|0,0:0|0:0,0:0:0:0:
401,306,17716,2,0,P|394:325|373:354,1,37.5000014305115,0|0,0:0|0:0,0:0:0:0:
352,316,17796,1,6,0:0:0:0:
440,110,17959,1,6,0:0:0:0:
352,316,18120,6,0,P|331:271|335:222,1,100,4|0,0:0|0:0,0:0:0:0:
213,19,18443,2,0,P|217:68|196:112,1,100,8|0,0:0|0:0,0:0:0:0:
414,79,18765,5,4,0:0:0:0:
367,92,18845,1,0,0:0:0:0:
332,127,18926,1,2,0:0:0:0:
320,175,19006,1,0,0:0:0:0:
335,222,19087,1,8,0:0:0:0:
54,173,19249,5,2,0:0:0:0:
101,186,19329,1,0,0:0:0:0:
136,221,19410,1,6,0:0:0:0:
148,269,19490,1,0,0:0:0:0:
133,316,19571,1,2,0:0:0:0:
349,236,19733,6,0,P|368:241|383:251,1,37.5000014305115,8|0,0:0|0:0,0:0:0:0:
369,278,19814,2,0,P|386:289|396:304,1,37.5000014305115,0|0,0:0|0:0,0:0:0:0:
356,323,19894,2,0,P|368:339|372:357,1,37.5000014305115,2|0,0:0|0:0,0:0:0:0:
315,347,19975,2,0,P|320:366|319:384,1,37.5000014305115,0|0,0:0|0:0,0:0:0:0:
270,335,20056,5,6,0:0:0:0:
250,294,20135,1,0,0:0:0:0:
248,245,20216,1,2,0:0:0:0:
275,204,20296,1,0,0:0:0:0:
349,236,20378,5,6,0:0:0:0:
369,205,20458,1,4,0:0:0:0:
368,169,20539,1,4,0:0:0:0:
345,139,20619,1,6,0:0:0:0:
366,41,20701,5,4,0:0:0:0:
256,192,20781,12,0,21668,0:0:0:0:
392,225,21830,5,0,0:0:0:0:
393,239,21910,1,0,0:0:0:0:
393,250,21991,5,0,0:0:0:0:
369,242,22071,1,0,0:0:0:0:
343,245,22152,1,0,0:0:0:0:
322,256,22232,1,0,0:0:0:0:
293,279,22314,6,0,P|292:300|287:316,6,37.5000014305115,0|0|0|0|0|0|0,0:0|0:0|0:0|0:0|0:0|0:0|0:0,0:0:0:0:
206,269,22636,5,0,0:0:0:0:
247,314,22717,1,0,0:0:0:0:
216,367,22798,1,0,0:0:0:0:
157,354,22879,1,0,0:0:0:0:
150,293,22959,6,0,P|136:258|105:238,1,75.0000028610231,0|0,0:0|0:0,0:0:0:0:
37,145,23120,2,0,P|73:150|106:133,1,75.0000028610231,0|0,0:0|0:0,0:0:0:0:
421,214,23281,6,0,P|362:221|307:276,1,119.999996337891,6|0,0:0|0:0,0:0:0:0:
164,54,23604,2,0,P|223:61|278:116,1,119.999996337891,8|0,0:0|0:0,0:0:0:0:
415,0,23926,1,4,0:0:0:0:
412,37,24006,1,0,0:0:0:0:
409,74,24087,1,2,0:0:0:0:
406,112,24167,1,0,0:0:0:0:
403,149,24248,1,8,0:0:0:0:
89,253,24410,5,2,0:0:0:0:
98,244,24491,1,0,0:0:0:0:
106,237,24572,5,6,0:0:0:0:
105,296,24652,1,0,0:0:0:0:
140,344,24733,1,2,0:0:0:0:
197,360,24813,1,0,0:0:0:0:
251,338,24894,1,8,0:0:0:0:
281,288,24975,1,0,0:0:0:0:
275,230,25055,1,2,0:0:0:0:
234,188,25136,1,0,0:0:0:0:
175,180,25217,5,6,0:0:0:0:
436,185,25378,5,0,0:0:0:0:
403,267,25459,1,0,0:0:0:0:
352,207,25539,1,6,0:0:0:0:
498,269,25701,5,6,0:0:0:0:
384,32,25862,6,0,L|303:32,1,80,4|0,0:0|0:0,0:0:0:0:
479,66,26185,2,0,B|392:66|392:66|374:84|374:84|264:84,1,200,6|0,0:0|0:0,0:0:0:0:
403,347,26507,1,4,0:0:0:0:
400,310,26588,1,0,0:0:0:0:
397,272,26668,1,2,0:0:0:0:
394,235,26749,1,0,0:0:0:0:
391,198,26829,1,8,0:0:0:0:
152,335,26991,5,0,0:0:0:0:
172,325,27072,1,0,0:0:0:0:
141,290,27152,1,4,0:0:0:0:
162,280,27233,1,0,0:0:0:0:
129,240,27314,1,2,0:0:0:0:
150,230,27395,1,0,0:0:0:0:
126,191,27475,1,8,0:0:0:0:
334,69,27636,1,2,0:0:0:0:
334,69,27717,1,0,0:0:0:0:
334,69,27797,6,0,B|251:57|251:57|213:80,1,119.999996337891,6|0,0:0|0:0,0:0:0:0:
320,194,28039,1,0,0:0:0:0:
320,194,28120,2,0,P|301:167|330:181,1,85.0000016212464,6|0,0:0|0:0,0:0:0:0:
162,280,28281,2,0,P|180:253|151:267,1,85.0000016212464,6|0,0:0|0:0,0:0:0:0:
429,309,28443,6,0,B|356:300|379:336|312:325,1,119.999996337891,4|0,0:0|0:0,0:0:0:0:
304,309,28685,1,0,0:0:0:0:
309,292,28765,1,8,0:0:0:0:
401,36,28926,1,0,0:0:0:0:
412,45,29007,1,0,0:0:0:0:
423,54,29088,2,0,B|406:132|406:132|427:165,1,119.999996337891,4|2,0:0|0:0,0:0:0:0:
436,181,29330,1,0,0:0:0:0:
431,198,29410,1,8,0:0:0:0:
73,134,29572,5,2,0:0:0:0:
82,128,29653,1,0,0:0:0:0:
93,124,29734,5,6,0:0:0:0:
77,181,29814,1,0,0:0:0:0:
100,236,29895,1,2,0:0:0:0:
151,265,29975,1,0,0:0:0:0:
208,257,30056,1,8,0:0:0:0:
251,215,30137,1,0,0:0:0:0:
258,157,30217,1,2,0:0:0:0:
228,106,30298,1,0,0:0:0:0:
182,172,30378,6,0,L|157:178,3,25,6|0|0|0,0:0|0:0|0:0|0:0,0:0:0:0:
175,354,30701,6,0,L|244:347,1,69.9999978637696,6|0,0:0|0:0,0:0:0:0:
264,336,30862,2,0,L|195:343,1,69.9999978637696,6|0,0:0|0:0,0:0:0:0:
379,132,31023,6,0,B|428:103|428:103|408:248,1,200,4|0,0:0|0:0,0:0:0:0:
127,75,31346,2,0,B|78:46|78:46|98:191,1,200,8|0,0:0|0:0,0:0:0:0:
408,244,31668,2,0,P|376:174|433:215,1,200,4|0,0:0|0:0,0:0:0:0:
97,187,31991,2,0,P|141:173|139:126,1,100,8|0,0:0|0:0,0:0:0:0:
70,154,32152,2,0,P|93:113|138:126,1,100,4|0,0:0|0:0,0:0:0:0:
450,26,32314,6,0,P|432:60|437:109,1,85.0000016212464,8|0,0:0|0:0,0:0:0:0:
307,183,32475,2,0,P|325:149|320:100,1,85.0000016212464,8|0,0:0|0:0,0:0:0:0:
8,47,32636,6,0,P|26:81|21:130,1,85.0000016212464,8|0,0:0|0:0,0:0:0:0:
151,204,32797,2,0,P|133:170|138:121,1,85.0000016212464,8|0,0:0|0:0,0:0:0:0:
307,183,32959,5,8,0:0:0:0:
353,227,33039,1,0,0:0:0:0:
361,286,33120,1,8,0:0:0:0:
330,339,33201,1,0,0:0:0:0:
273,359,33281,1,8,0:0:0:0:
216,337,33362,1,0,0:0:0:0:
186,284,33443,1,8,0:0:0:0:
197,222,33523,1,0,0:0:0:0:
246,184,33604,5,4,0:0:0:0:
256,192,33685,12,0,34572,0:0:0:0:
391,334,34733,5,0,0:0:0:0:
386,310,34814,1,0,0:0:0:0:
381,286,34894,2,0,P|352:309|316:316,1,75.0000028610231,0|0,0:0|0:0,0:0:0:0:
335,135,35055,2,0,P|369:147|393:175,1,75.0000028610231,0|0,0:0|0:0,0:0:0:0:
226,245,35216,6,0,P|222:226|229:209,6,37.5000014305115,0|0|0|0|0|0|0,0:0|0:0|0:0|0:0|0:0|0:0|0:0,0:0:0:0:
201,352,35539,6,0,P|186:336|167:329,1,40,0|0,0:0|0:0,0:0:0:0:
82,292,35701,2,0,P|75:312|79:332,1,40,0|0,0:0|0:0,0:0:0:0:
122,178,35862,6,0,P|159:181|192:173,1,69.9999978637696,0|0,0:0|0:0,0:0:0:0:
294,240,36023,2,0,P|257:237|224:245,1,69.9999978637696,0|0,0:0|0:0,0:0:0:0:
84,87,36185,6,0,B|68:64|23:32|23:32|101:71|202:52,1,240,6|0,0:0|0:0,0:0:0:0:
298,260,36507,6,0,P|283:269|296:242,1,80,2|0,0:0|0:0,0:0:0:0:
320,72,36668,2,0,P|346:89|316:93,1,80,2|0,0:0|0:0,0:0:0:0:
444,331,36830,6,0,B|426:270|439:215|439:215|423:254|397:273,1,179.999994506836,2|0,0:0|0:0,0:0:0:0:
96,321,37152,6,0,P|142:324|178:340,1,85.0000016212464,2|0,0:1|0:0,0:0:0:0:
329,217,37314,2,0,P|283:220|246:236,1,85.0000016212464,2|0,0:1|0:0,0:0:0:0:
60,118,37475,5,2,0:0:0:0:
60,118,37555,1,0,0:0:0:0:
60,118,37636,2,0,L|53:184,1,64.9999970245363,6|0,0:0|0:0,0:0:0:0:
248,236,37797,6,0,B|215:182|260:90|260:90|212:122|162:115,1,255.000004863739,6|0,0:0|0:0,0:0:0:0:
331,365,38120,6,0,L|322:292,1,64.9999970245363,10|0,0:0|0:0,0:0:0:0:
384,75,38282,1,6,0:0:0:0:
358,220,38443,2,0,L|349:147,1,64.9999970245363,2|0,0:0|0:0,0:0:0:0:
384,75,38604,2,0,L|375:2,1,64.9999970245363,6|0,0:0|0:0,0:0:0:0:
162,247,38765,6,0,B|183:267|208:263|208:263|203:240|215:208,1,94.9999974632264,2|0,0:0|0:0,0:0:0:0:
281,67,38926,2,0,B|272:46|277:23|277:23|252:19|231:39,1,94.9999974632264,2|0,0:0|0:0,0:0:0:0:
60,118,39088,6,0,B|46:89|-34:83|-16:191|69:168|58:93|191:139,1,255.000004863739,4|0,0:0|0:0,0:0:0:0:
397,253,39410,6,0,B|354:264|314:245|314:245|283:267|283:267|246:252|201:266,1,200,8|0,0:0|0:0,0:0:0:0:
396,348,39894,1,2,0:0:0:0:
396,348,39975,1,0,0:0:0:0:
396,348,40055,6,0,P|373:323|344:312,1,59.9999981689454,2|0,0:0|0:0,0:0:0:0:
207,264,40217,2,0,P|197:296|202:326,1,59.9999981689454,6|0,0:0|0:0,0:0:0:0:
430,111,40378,6,0,P|411:116|392:115,1,37.5000014305115,6|0,0:0|0:0,0:0:0:0:
430,111,40459,2,0,P|435:92|444:76,1,37.5000014305115,0|0,0:0|0:0,0:0:0:0:
430,111,40539,2,0,P|443:124|452:141,1,37.5000014305115,0|0,0:0|0:0,0:0:0:0:
229,234,40701,6,0,P|248:239|266:238,1,37.5000014305115,8|0,0:0|0:0,0:0:0:0:
229,234,40782,2,0,P|223:215|214:199,1,37.5000014305115,0|0,0:0|0:0,0:0:0:0:
229,234,40862,2,0,P|215:247|206:264,1,37.5000014305115,4|0,0:0|0:0,0:0:0:0:
409,318,41023,6,0,L|406:298,6,20,0|0|0|0|0|0|0,0:0|0:0|0:0|0:0|0:0|0:0|0:0,0:0:0:0:
118,329,41346,6,0,B|165:300|182:236|182:236|207:296|266:324,1,225.000008583069,2|0,0:0|0:0,0:0:0:0:
340,227,41668,6,0,B|320:213|300:211|300:211|314:197|319:166,1,85.0000016212464,2|0,0:0|0:0,0:0:0:0:
50,254,41830,2,0,B|70:240|90:238|90:238|76:224|71:193,1,85.0000016212464,2|0,0:0|0:0,0:0:0:0:
231,129,41991,6,0,B|162:91|162:91|182:237,1,225.000008583069,2|0,0:0|0:0,0:0:0:0:
459,309,42314,6,0,P|416:305|376:325,1,85.0000016212464,2|0,0:1|0:0,0:0:0:0:
260,240,42475,2,0,P|303:244|343:224,1,85.0000016212464,2|0,0:1|0:0,0:0:0:0:
435,67,42636,5,2,0:0:0:0:
435,67,42717,1,0,0:0:0:0:
435,67,42797,2,0,L|430:131,1,64.9999970245363,6|0,0:0|0:0,0:0:0:0:
186,175,42959,6,0,B|225:151|225:151|293:168|293:168|299:209|342:227,1,194.999991073609,6|0,0:0|0:0,0:0:0:0:
367,371,43281,6,0,L|376:298,1,64.9999970245363,10|0,0:0|0:0,0:0:0:0:
314,81,43443,1,6,0:0:0:0:
339,225,43604,2,0,L|348:152,1,64.9999970245363,2|0,0:0|0:0,0:0:0:0:
314,81,43765,2,0,L|323:8,1,64.9999970245363,6|0,0:0|0:0,0:0:0:0:
161,178,43926,6,0,L|185:175,1,25,2|0,0:0|0:0,0:0:0:0:
354,300,44088,6,0,P|336:263|341:220,1,80,2|0,0:0|0:0,0:0:0:0:
183,351,44249,6,0,P|245:274|162:326,1,269.999991760254,2|0,0:0|0:0,0:0:0:0:
467,145,44572,6,0,B|368:142|339:225|339:225|311:171|262:165,1,259.999988098145,8|0,0:0|0:0,0:0:0:0:
102,201,45055,5,2,0:0:0:0:
102,201,45136,1,0,0:0:0:0:
102,201,45217,2,0,L|166:194,1,64.9999970245363,2|0,0:0|0:0,0:0:0:0:
351,168,45378,6,0,B|304:179|267:165|267:165|253:188|230:196|230:196|194:183|156:198,1,200,2|0,0:0|0:0,0:0:0:0:
412,306,45862,6,0,P|393:311|374:310,1,37.5000014305115,8|0,0:0|0:0,0:0:0:0:
412,306,45943,2,0,P|417:287|426:271,1,37.5000014305115,0|0,0:0|0:0,0:0:0:0:
412,306,46023,2,0,P|425:319|434:336,1,37.5000014305115,4|0,0:0|0:0,0:0:0:0:
431,54,46185,6,0,L|427:73,6,20,4|0|0|0|4|0|0,0:0|0:0|0:0|0:0|0:0|0:0|0:0,0:0:0:0:
91,86,46507,6,0,B|142:74|168:70|168:70|144:74|123:79|123:79|195:64|195:64|251:86|251:86|317:69,1,300,2|0,0:0|0:0,0:0:0:0:
313,210,46830,6,0,L|309:168,4,42.5000008106232,0|0|0|0|0,0:0|0:0|0:0|0:0|0:0,0:0:0:0:
96,247,47152,6,0,L|169:235,1,75.0000028610231,8|0,0:0|0:0,0:0:0:0:
313,210,47314,1,4,0:0:0:0:
15,74,47475,6,0,L|88:85,1,75.0000028610231,8|0,0:0|0:0,0:0:0:0:
232,111,47637,1,4,0:0:0:0:
106,333,47797,5,6,0:0:0:0:
96,247,47878,1,0,0:0:0:0:
86,161,47959,1,2,0:0:0:0:
248,245,48120,6,0,B|288:290|301:339|301:339|293:271|314:203,1,240,10|0,0:0|0:0,0:0:0:0:
477,243,48443,6,0,P|438:253|397:249,1,80,2|0,0:0|0:0,0:0:0:0:
253,59,48604,1,6,0:0:0:0:
233,202,48765,2,0,P|272:212|312:208,1,80,10|0,0:0|0:0,0:0:0:0:
456,106,48926,2,0,P|417:116|376:112,1,80,2|0,0:0|0:0,0:0:0:0:
86,161,49088,6,0,B|104:159|104:159|109:163|109:163|131:161|131:161|137:164|137:164|156:165,1,62.5,4|0,0:0|0:0,0:0:0:0:
253,59,49410,6,0,L|261:124,1,50,8|0,0:0|0:0,0:0:0:0:
414,245,49572,6,0,B|362:192|362:192|231:247,1,200,2|2,0:0|0:0,0:0:0:0:
369,317,49894,6,0,B|342:289|342:289|275:318,1,100,6|0,0:0|0:0,0:0:0:0:
257,86,50055,6,0,B|244:78|222:77|222:77|242:70|254:56,1,75.0000028610231,10|0,0:1|0:0,0:0:0:0:
396,86,50217,2,0,B|408:100|428:106|428:106|406:108|390:117,1,75.0000028610231,2|0,0:1|0:0,0:0:0:0:
57,181,50378,5,2,0:0:0:0:
143,181,50459,1,0,0:0:0:0:
230,182,50540,1,6,0:0:0:0:
488,239,50701,6,0,L|408:245,1,75,8|0,0:0|0:0,0:0:0:0:
332,264,51023,6,0,P|288:262|247:273,1,85.0000016212464,6|0,0:0|0:0,0:0:0:0:
79,164,51185,1,6,0:0:0:0:
156,341,51346,2,0,P|158:297|147:256,1,85.0000016212464,10|0,0:0|0:0,0:0:0:0:
256,88,51507,1,6,0:0:0:0:
483,336,51668,6,0,P|441:349|399:350,1,85.0000016212464,6|0,0:0|0:0,0:0:0:0:
393,244,51830,2,0,P|351:231|309:229,1,85.0000016212464,2|0,0:0|0:0,0:0:0:0:
128,281,51991,6,0,P|169:277|208:293,1,85.0000016212464,10|0,0:0|0:0,0:0:0:0:
307,123,52152,2,0,P|276:151|235:163,1,85.0000016212464,2|0,0:0|0:0,0:0:0:0:
57,91,52314,6,0,B|46:76|46:36|70:27|70:27|149:59|119:162|68:193,1,255.000004863739,2|0,0:0|0:0,0:0:0:0:
266,295,52636,6,0,L|274:235,1,59.9999981689454,8|0,0:0|0:0,0:0:0:0:
236,88,52797,1,6,0:1:0:0:
479,152,52959,5,2,0:0:0:0:
393,152,53040,1,0,0:0:0:0:
306,153,53121,1,2,0:0:0:0:
88,257,53281,2,0,B|206:273|160:216|259:225|259:225|210:207|177:159,1,269.999991760254,10|0,0:0|0:0,0:0:0:0:
409,324,53604,6,0,B|413:261|413:261|392:243,1,89.9999972534181,2|0,0:0|0:0,0:0:0:0:
393,152,53765,1,6,0:0:0:0:
259,224,53926,2,0,B|255:161|255:161|275:143,1,89.9999972534181,10|0,0:0|0:0,0:0:0:0:
409,71,54088,2,0,B|413:134|413:134|392:151,1,89.9999972534181,0|0,0:0|0:0,0:0:0:0:
73,262,54249,5,8,0:0:0:0:
59,136,54410,1,4,0:0:0:0:
219,323,54572,5,8,0:0:0:0:
190,66,54733,1,4,0:0:0:0:
292,323,54894,5,4,0:0:0:0:
321,66,55055,1,4,0:0:0:0:
439,262,55217,5,8,0:0:0:0:
453,136,55378,1,4,0:0:0:0:
359,229,55539,6,0,P|342:247|320:258,1,50,8|0,0:0|0:0,0:0:0:0:
248,315,55701,2,0,P|235:295|229:271,1,50,8|0,0:0|0:0,0:0:0:0:
245,160,55862,6,0,P|208:163|172:156,1,75.0000028610231,8|0,0:0|0:0,0:0:0:0:
50,255,56023,2,0,P|87:252|123:259,1,75.0000028610231,8|0,0:0|0:0,0:0:0:0:
334,154,56185,5,8,0:0:0:0:
301,60,56266,1,0,0:0:0:0:
201,61,56346,1,8,0:0:0:0:
172,157,56427,1,0,0:0:0:0:
252,234,56507,5,8,0:0:0:0:
297,193,56587,1,0,0:0:0:0:
256,150,56668,1,8,0:0:0:0:
215,189,56749,1,0,0:0:0:0:
256,192,56830,5,4,0:0:0:0:
256,192,56910,12,4,59088,0:0:0:0:
423,277,59410,6,0,P|364:296|325:349,1,119.999996337891,6|0,0:0|0:0,0:0:0:0:
157,128,59733,2,0,P|216:147|255:200,1,119.999996337891,10|2,0:0|0:0,0:0:0:0:
376,15,60055,2,0,B|362:99|362:99|386:135,1,119.999996337891,6|0,0:0|0:0,0:0:0:0:
412,175,60297,5,0,0:0:0:0:
372,179,60378,1,10,0:0:0:0:
332,183,60458,1,0,0:0:0:0:
292,187,60539,1,2,0:0:0:0:
252,191,60620,1,0,0:0:0:0:
212,195,60700,1,4,0:0:0:0:
223,351,60862,5,2,0:0:0:0:
223,351,60943,1,0,0:0:0:0:
223,351,61023,6,0,P|249:336|263:306,1,59.9999981689454,10|0,0:0|0:0,0:0:0:0:
116,309,61184,2,0,P|100:283|100:254,1,59.9999981689454,2|0,0:0|0:0,0:0:0:0:
229,106,61346,1,4,0:0:0:0:
290,359,61507,6,0,P|269:337|261:309,1,59.9999981689454,2|0,0:0|0:0,0:0:0:0:
322,191,61668,2,0,P|350:183|379:191,1,59.9999981689454,10|0,0:0|0:0,0:0:0:0:
436,283,61830,2,0,P|428:311|406:332,1,59.9999981689454,2|0,0:0|0:0,0:0:0:0:
175,240,61991,5,6,0:0:0:0:
126,269,62072,1,0,0:0:0:0:
84,233,62153,1,2,0:0:0:0:
104,181,62234,1,0,0:0:0:0:
160,185,62314,5,10,0:0:0:0:
196,196,62394,1,0,0:0:0:0:
228,202,62475,6,0,P|236:222|252:236,1,37.5000014305115,2|0,0:0|0:0,0:0:0:0:
260,201,62555,2,0,P|274:217|294:224,1,37.5000014305115,0|0,0:0|0:0,0:0:0:0:
291,193,62636,1,6,0:0:0:0:
470,158,62797,6,0,P|443:138|416:131,1,59.9999981689454,2|0,0:0|0:0,0:0:0:0:
291,193,62959,2,0,P|321:179|340:159,1,59.9999981689454,10|0,0:0|0:0,0:0:0:0:
349,22,63120,2,0,P|345:54|352:81,1,59.9999981689454,2|0,0:0|0:0,0:0:0:0:
406,249,63281,5,4,0:0:0:0:
178,147,63443,5,2,0:0:0:0:
175,116,63523,1,0,0:0:0:0:
172,84,63604,5,10,0:0:0:0:
131,113,63684,1,0,0:0:0:0:
111,158,63765,1,2,0:0:0:0:
115,208,63845,1,0,0:0:0:0:
142,249,63926,5,6,0:0:0:0:
343,226,64088,1,2,0:0:0:0:
175,240,64249,5,10,0:0:0:0:
325,258,64411,1,2,0:0:0:0:
308,28,64572,6,0,L|323:163,1,119.999996337891,4|0,0:0|0:0,0:0:0:0:
475,219,64894,2,0,L|459:83,1,119.999996337891,10|2,0:0|0:0,0:0:0:0:
232,296,65217,2,0,B|308:264|308:264|341:281,1,119.999996337891,6|0,0:0|0:0,0:0:0:0:
333,369,65459,5,0,0:0:0:0:
322,368,65540,1,10,0:0:0:0:
287,333,65620,1,0,0:0:0:0:
270,287,65701,1,2,0:0:0:0:
277,238,65781,1,0,0:0:0:0:
305,197,65862,1,4,0:0:0:0:
432,308,66023,5,2,0:0:0:0:
432,308,66104,1,0,0:0:0:0:
432,308,66185,2,0,P|419:276|420:249,1,59.9999981689454,10|0,0:0|0:0,0:0:0:0:
305,197,66346,2,0,P|317:165|316:138,1,59.9999981689454,2|0,0:0|0:0,0:0:0:0:
407,60,66507,1,4,0:0:0:0:
304,196,66668,6,0,L|245:205,1,59.9999981689454,2|0,0:0|0:0,0:0:0:0:
206,92,66830,2,0,L|146:83,1,59.9999981689454,10|0,0:0|0:0,0:0:0:0:
94,192,66991,2,0,L|34:200,1,59.9999981689454,2|0,0:0|0:0,0:0:0:0:
242,363,67152,5,6,0:0:0:0:
183,369,67232,1,0,0:0:0:0:
138,332,67313,1,2,0:0:0:0:
133,274,67393,1,0,0:0:0:0:
171,229,67474,5,10,0:0:0:0:
180,201,67555,1,0,0:0:0:0:
181,173,67636,6,0,P|192:160|198:138,1,37.5000014305115,2|0,0:0|0:0,0:0:0:0:
174,145,67717,2,0,P|179:129|178:106,1,37.5000014305115,0|0,0:0|0:0,0:0:0:0:
160,120,67797,1,6,0:0:0:0:
462,244,67959,6,0,P|432:242|406:226,1,59.9999981689454,2|0,0:0|0:0,0:0:0:0:
364,114,68120,2,0,P|337:128|321:152,1,59.9999981689454,10|0,0:0|0:0,0:0:0:0:
308,271,68282,2,0,P|278:269|252:253,1,59.9999981689454,2|0,0:0|0:0,0:0:0:0:
160,120,68443,1,4,0:0:0:0:
161,279,68604,5,2,0:0:0:0:
133,332,68685,1,0,0:0:0:0:
74,344,68765,1,10,0:0:0:0:
28,305,68846,1,0,0:0:0:0:
30,245,68926,1,2,0:0:0:0:
77,209,69007,1,0,0:0:0:0:
135,223,69088,5,4,0:0:0:0:
135,223,69168,1,0,0:0:0:0:
135,223,69249,2,0,P|163:226|194:221,1,59.9999981689454,2|0,0:0|0:0,0:0:0:0:
223,77,69410,1,10,0:0:0:0:
223,77,69490,1,0,0:0:0:0:
223,77,69571,2,0,P|251:74|282:79,1,59.9999981689454,2|0,0:0|0:0,0:0:0:0:
448,277,69733,5,6,0:0:0:0:
317,292,69894,1,0,0:0:0:0:
484,298,70055,5,10,0:0:0:0:
288,276,70216,1,2,0:0:0:0:
419,60,70378,6,0,B|402:122|402:122|429:180,1,119.999996337891,6|0,0:0|0:0,0:0:0:0:
455,220,70620,5,0,0:0:0:0:
448,277,70700,1,10,0:0:0:0:
397,303,70781,1,0,0:0:0:0:
347,275,70861,1,2,0:0:0:0:
343,217,70942,1,0,0:0:0:0:
388,182,71023,1,6,0:0:0:0:
133,220,71185,5,2,0:0:0:0:
133,220,71265,1,0,0:0:0:0:
133,220,71346,2,0,L|210:214,1,59.9999981689454,10|0,0:0|0:0,0:0:0:0:
325,116,71507,2,0,L|248:110,1,59.9999981689454,2|0,0:0|0:0,0:0:0:0:
133,220,71668,1,4,0:0:0:0:
311,270,71830,6,0,L|303:338,1,59.9999981689454,2|0,0:0|0:0,0:0:0:0:
185,155,71991,2,0,L|193:223,1,59.9999981689454,10|0,0:0|0:0,0:0:0:0:
332,56,72152,2,0,L|324:124,1,59.9999981689454,2|0,0:0|0:0,0:0:0:0:
207,306,72314,5,6,0:0:0:0:
151,318,72394,1,0,0:0:0:0:
113,274,72475,1,2,0:0:0:0:
134,221,72555,1,0,0:0:0:0:
191,214,72636,5,10,0:0:0:0:
218,224,72716,1,0,0:0:0:0:
248,228,72797,6,0,P|262:236|282:242,1,37.5000014305115,2|0,0:0|0:0,0:0:0:0:
278,224,72878,2,0,P|293:226|314:225,1,37.5000014305115,0|0,0:0|0:0,0:0:0:0:
305,212,72958,1,6,0:0:0:0:
512,59,73120,6,0,P|472:50|442:30,1,75.0000028610231,2|0,0:0|0:0,0:0:0:0:
355,10,73281,2,0,P|366:45|365:82,1,75.0000028610231,10|0,0:0|0:0,0:0:0:0:
382,179,73443,2,0,P|406:151|439:133,1,75.0000028610231,2|0,0:0|0:0,0:0:0:0:
512,59,73604,1,4,0:0:0:0:
305,212,73765,5,2,0:0:0:0:
274,261,73845,1,0,0:0:0:0:
216,270,73926,1,10,0:0:0:0:
173,232,74007,1,0,0:0:0:0:
172,174,74087,1,2,0:0:0:0:
217,136,74168,1,0,0:0:0:0:
274,146,74249,6,0,L|351:140,1,59.9999981689454,4|0,0:0|0:0,0:0:0:0:
441,242,74410,2,0,L|364:236,1,59.9999981689454,2|0,0:0|0:0,0:0:0:0:
290,294,74572,2,0,P|279:265|282:236,1,59.9999981689454,10|0,0:0|0:0,0:0:0:0:
426,87,74733,2,0,P|436:115|433:144,1,59.9999981689454,2|0,0:0|0:0,0:0:0:0:
280,58,74894,6,0,P|222:55|175:99,1,119.999996337891,6|0,0:0|0:0,0:0:0:0:
121,234,75217,1,10,0:0:0:0:
30,140,75378,1,2,0:0:0:0:
50,271,75539,2,0,L|117:259,1,59.9999981689454,6|0,0:0|0:0,0:0:0:0:
251,189,75701,5,0,0:0:0:0:
205,225,75781,1,0,0:0:0:0:
197,283,75862,1,10,0:0:0:0:
231,331,75942,1,0,0:0:0:0:
288,343,76023,1,2,0:0:0:0:
338,312,76104,1,0,0:0:0:0:
353,256,76184,1,4,0:0:0:0:
417,27,76346,5,2,0:0:0:0:
417,27,76426,1,0,0:0:0:0:
417,27,76507,2,0,L|357:35,1,59.9999981689454,10|0,0:0|0:0,0:0:0:0:
253,134,76668,2,0,L|312:142,1,59.9999981689454,2|0,0:0|0:0,0:0:0:0:
446,168,76830,1,4,0:0:0:0:
262,192,76991,6,0,P|252:163|252:133,1,59.9999981689454,2|0,0:0|0:0,0:0:0:0:
370,305,77152,2,0,P|360:275|360:245,1,59.9999981689454,10|0,0:0|0:0,0:0:0:0:
202,361,77314,2,0,P|212:331|211:301,1,59.9999981689454,2|0,0:0|0:0,0:0:0:0:
58,90,77475,5,6,0:0:0:0:
76,268,77636,1,2,0:0:0:0:
70,139,77797,1,10,0:0:0:0:
61,228,77958,1,2,0:0:0:0:
454,90,78120,5,6,0:0:0:0:
436,268,78281,1,2,0:0:0:0:
441,139,78442,1,10,0:0:0:0:
450,228,78603,1,2,0:0:0:0:
319,138,78765,6,0,B|356:86|327:33|327:33|260:55|256:111,1,225.000008583069,4|0,0:2|0:0,0:0:0:0:
286,276,79088,2,0,B|312:334|372:335|372:335|386:266|340:235,1,225.000008583069,2|0,0:0|0:0,0:0:0:0:
173,176,79410,2,0,B|109:169|78:221|78:221|131:267|181:243,1,225.000008583069,0|0,0:0|0:0,0:0:0:0:
293,350,79733,6,0,L|285:275,1,50,4|0,0:0|0:0,0:0:0:0:
173,175,79894,2,0,L|166:250,1,75.0000028610231,0|0,0:0|0:0,0:0:0:0:
397,127,80055,6,0,P|339:137|309:189,1,119.999996337891,6|0,0:0|0:0,0:0:0:0:
80,22,80378,2,0,P|137:32|168:84,1,119.999996337891,10|2,0:0|0:0,0:0:0:0:
166,363,80701,2,0,B|185:293|185:293|165:249,1,119.999996337891,6|0,0:0|0:0,0:0:0:0:
152,262,80943,5,0,0:0:0:0:
110,302,81023,1,10,0:0:0:0:
54,291,81104,1,0,0:0:0:0:
31,238,81184,1,2,0:0:0:0:
62,189,81265,1,0,0:0:0:0:
120,187,81346,1,6,0:0:0:0:
371,93,81507,5,2,0:0:0:0:
371,93,81588,1,0,0:0:0:0:
371,93,81668,2,0,L|355:164,1,59.9999981689454,10|0,0:0|0:0,0:0:0:0:
200,139,81829,2,0,L|216:210,1,59.9999981689454,2|0,0:0|0:0,0:0:0:0:
302,309,81991,1,4,0:0:0:0:
456,282,82152,6,0,P|426:280|400:264,1,59.9999981689454,2|0,0:0|0:0,0:0:0:0:
358,152,82313,2,0,P|331:166|315:190,1,59.9999981689454,10|0,0:0|0:0,0:0:0:0:
302,309,82475,2,0,P|272:307|246:291,1,59.9999981689454,2|0,0:0|0:0,0:0:0:0:
117,109,82636,5,6,0:0:0:0:
82,155,82716,1,0,0:0:0:0:
100,210,82797,1,2,0:0:0:0:
155,227,82877,1,0,0:0:0:0:
201,192,82958,5,10,0:0:0:0:
228,179,83038,1,0,0:0:0:0:
257,175,83120,6,0,L|252:225,1,37.5000014305115,2|0,0:0|0:0,0:0:0:0:
287,178,83201,2,0,L|282:228,1,37.5000014305115,0|0,0:0|0:0,0:0:0:0:
314,190,83280,1,6,0:0:0:0:
489,384,83443,6,0,P|471:351|468:314,1,75.0000028610231,2|0,0:0|0:0,0:0:0:0:
488,181,83604,2,0,P|468:212|437:233,1,75.0000028610231,10|0,0:0|0:0,0:0:0:0:
307,278,83765,2,0,P|344:279|377:295,1,75.0000028610231,0|0,0:0|0:0,0:0:0:0:
432,286,83926,1,4,0:0:0:0:
56,157,84088,5,2,0:0:0:0:
106,150,84168,1,0,0:0:0:0:
151,144,84249,1,10,0:0:0:0:
151,144,84329,1,0,0:0:0:0:
151,144,84410,2,0,L|225:135,1,59.9999981689454,2|0,0:0|0:0,0:0:0:0:
234,312,84572,6,0,L|242:252,1,59.9999981689454,4|0,0:0|0:0,0:0:0:0:
315,149,84733,2,0,L|323:208,1,59.9999981689454,2|0,0:0|0:0,0:0:0:0:
384,336,84894,2,0,L|392:276,1,59.9999981689454,10|0,0:0|0:0,0:0:0:0:
465,173,85055,2,0,L|473:232,1,59.9999981689454,2|0,0:0|0:0,0:0:0:0:
159,266,85217,6,0,B|215:282|257:262|257:262|247:251|233:251,1,119.999996337891,6|0,0:0|0:0,0:0:0:0:
38,224,85539,1,10,0:0:0:0:
198,170,85701,1,2,0:0:0:0:
52,30,85862,2,0,P|62:55|60:89,1,59.9999981689454,6|0,0:0|0:0,0:0:0:0:
166,228,86023,5,0,0:0:0:0:
173,246,86103,1,0,0:0:0:0:
168,264,86185,5,10,0:0:0:0:
118,315,86265,1,0,0:0:0:0:
50,294,86346,1,2,0:0:0:0:
38,224,86426,1,0,0:0:0:0:
95,181,86507,1,6,0:0:0:0:
319,250,86668,5,2,0:0:0:0:
319,250,86749,1,0,0:0:0:0:
319,250,86830,2,0,P|306:219|310:188,1,59.9999981689454,10|0,0:0|0:0,0:0:0:0:
196,179,86992,2,0,P|209:148|205:117,1,59.9999981689454,2|0,0:0|0:0,0:0:0:0:
248,29,87153,1,4,0:0:0:0:
299,308,87314,6,0,P|270:322|239:317,1,59.9999981689454,2|0,0:0|0:0,0:0:0:0:
306,162,87475,2,0,P|332:180|344:208,1,59.9999981689454,10|0,0:0|0:0,0:0:0:0:
177,232,87636,2,0,P|179:199|197:175,1,59.9999981689454,2|0,0:0|0:0,0:0:0:0:
299,308,87797,5,6,0:0:0:0:
356,320,87877,1,0,0:0:0:0:
406,290,87958,1,2,0:0:0:0:
420,233,88038,1,0,0:0:0:0:
392,182,88120,5,10,0:0:0:0:
375,157,88200,1,0,0:0:0:0:
367,128,88281,6,0,P|354:109|351:95,1,37.5000014305115,2|0,0:0|0:0,0:0:0:0:
370,98,88362,2,0,P|364:75|366:61,1,37.5000014305115,0|0,0:0|0:0,0:0:0:0:
382,71,88442,1,6,0:0:0:0:
70,276,88604,6,0,P|100:277|126:265,1,59.9999981689454,2|0,0:0|0:0,0:0:0:0:
206,161,88765,2,0,P|233:175|249:199,1,59.9999981689454,10|0,0:0|0:0,0:0:0:0:
262,318,88927,2,0,P|292:316|318:300,1,59.9999981689454,2|0,0:0|0:0,0:0:0:0:
375,157,89088,1,4,0:0:0:0:
296,365,89249,5,2,0:0:0:0:
244,377,89330,1,0,0:0:0:0:
202,343,89410,1,10,0:0:0:0:
202,289,89491,1,0,0:0:0:0:
244,255,89572,1,2,0:0:0:0:
297,267,89652,1,0,0:0:0:0:
320,316,89733,2,0,L|348:314,1,25,4|0,0:0|0:0,0:0:0:0:
118,193,89894,6,0,P|142:164|153:129,1,75.0000028610231,2|0,0:0|0:0,0:0:0:0:
349,204,90055,2,0,P|312:197|275:204,1,75.0000028610231,10|0,0:0|0:0,0:0:0:0:
220,12,90217,2,0,P|232:47|257:75,1,75.0000028610231,2|0,0:0|0:0,0:0:0:0:
225,271,90378,6,0,B|158:312|88:291|88:291|112:288|125:276,1,179.999994506836,6|0,0:0|0:0,0:0:0:0:
496,120,90701,2,0,B|429:161|359:140|359:140|383:137|396:125,1,179.999994506836,8|0,0:0|0:0,0:0:0:0:
329,304,91023,6,0,B|396:345|466:324|466:324|442:321|429:309,1,179.999994506836,8|0,0:0|0:0,0:0:0:0:
58,153,91346,2,0,B|125:194|195:173|195:173|171:170|158:158,1,179.999994506836,8|0,0:0|0:0,0:0:0:0:
413,157,91668,6,0,B|407:68|386:20|386:20|401:50|428:62,1,200,8|0,0:0|0:0,0:0:0:0:
134,296,91991,2,0,B|139:207|160:159|160:159|145:189|118:201,1,200,8|0,0:0|0:0,0:0:0:0:
426,202,92314,6,0,B|420:290|399:338|399:338|414:308|441:296,1,200,8|0,0:0|0:0,0:0:0:0:
70,20,92637,2,0,B|75:108|96:156|96:156|81:126|54:114,1,200,8|0,0:0|0:0,0:0:0:0:
426,202,92959,6,0,B|453:111|395:45|395:45|406:74|393:100,1,220.000006713867,10|2,0:0|0:0,0:0:0:0:
87,359,93281,2,0,B|60:268|118:202|118:202|107:231|119:257,1,220.000006713867,10|2,0:0|0:0,0:0:0:0:
426,202,93604,6,0,B|453:293|395:359|395:359|406:330|393:303,1,220.000006713867,10|2,0:0|0:0,0:0:0:0:
52,0,93926,2,0,B|25:91|83:157|83:157|72:128|84:101,1,220.000006713867,10|2,0:0|0:0,0:0:0:0:
453,80,94249,6,0,P|395:106|452:46,1,239.999992675781,8|0,0:0|0:0,0:0:0:0:
85,144,94572,2,0,P|168:116|82:105,1,239.999992675781,8|0,0:0|0:0,0:0:0:0:
391,271,94894,6,0,P|349:257|392:251,1,119.999996337891,8|0,0:0|0:0,0:0:0:0:
485,262,95055,5,8,0:0:0:0:
443,348,95136,1,0,0:0:0:0:
350,369,95217,5,8,0:0:0:0:
275,310,95297,1,0,0:0:0:0:
275,214,95378,5,0,0:0:0:0:
350,154,95459,1,0,0:0:0:0:
443,175,95539,5,8,0:0:0:0:
395,0,95701,1,8,0:0:0:0:
96,241,95862,5,8,0:0:0:0:
144,66,96024,1,8,0:0:0:0:
398,329,96185,5,8,0:0:0:0:
350,154,96347,1,8,0:0:0:0:
121,372,96508,5,8,0:0:0:0:
169,197,96670,1,8,0:0:0:0:
398,329,96830,5,8,0:0:0:0:
121,372,96991,1,8,0:0:0:0:
350,154,97152,1,8,0:0:0:0:
169,197,97314,1,8,0:0:0:0:
398,65,97475,5,8,0:0:0:0:
121,22,97636,1,8,0:0:0:0:
350,240,97797,1,8,0:0:0:0:
169,197,97959,1,8,0:0:0:0:
343,328,98120,6,0,P|341:280|349:238,1,89.9999972534181,4|4,0:0|0:0,0:0:0:0:
447,136,98281,2,0,P|420:154|452:148,1,89.9999972534181,4|4,0:0|0:0,0:0:0:0:
175,285,98443,6,0,P|177:237|168:195,1,89.9999972534181,4|4,0:0|0:0,0:0:0:0:
71,93,98604,2,0,P|97:111|65:105,1,89.9999972534181,4|4,0:0|0:0,0:0:0:0:
348,239,98765,6,0,P|314:268|299:310,1,89.9999972534181,4|4,0:0|0:0,0:0:0:0:
168,196,98926,6,0,P|198:221|215:257,1,80,4|4,0:0|0:0,0:0:0:0:
310,86,99088,6,0,L|302:155,1,69.9999978637696,4|4,0:0|0:0,0:0:0:0:
200,19,99249,6,0,L|206:78,1,59.9999981689454,4|4,0:0|0:0,0:0:0:0:
374,164,99410,6,0,P|423:224|343:187,1,225.000008583069,0|0,0:0|0:0,0:0:0:0:
143,114,99733,2,0,P|170:40|179:128,1,225.000008583069,2|0,0:0|0:0,0:0:0:0:
214,335,100055,2,0,P|136:348|208:296,1,225.000008583069,0|0,0:0|0:0,0:0:0:0:
374,164,100378,6,0,P|348:174|368:155,1,75,4|0,0:0|0:0,0:0:0:0:
471,291,100701,6,0,B|421:313|376:305|376:305|387:288|392:288,1,119.999996337891,6|0,0:0|0:0,0:0:0:0:
178,66,101023,2,0,B|228:44|272:51|272:51|262:69|256:68,1,119.999996337891,8|0,0:0|0:0,0:0:0:0:
57,290,101346,5,4,0:0:0:0:
95,288,101427,1,0,0:0:0:0:
133,286,101508,1,2,0:0:0:0:
171,284,101588,1,0,0:0:0:0:
209,282,101669,1,8,0:0:0:0:
446,159,101830,5,4,0:0:0:0:
408,157,101911,1,0,0:0:0:0:
370,155,101992,1,2,0:0:0:0:
332,153,102072,1,0,0:0:0:0:
294,151,102153,1,6,0:0:0:0:
407,384,102314,5,10,0:0:0:0:
420,343,102394,1,0,0:0:0:0:
407,295,102476,6,0,P|412:275|408:239,1,37.5000014305115,2|0,0:0|0:0,0:0:0:0:
371,261,102556,2,0,P|365:242|344:213,1,37.5000014305115,0|0,0:0|0:0,0:0:0:0:
323,251,102636,1,6,0:0:0:0:
189,99,102797,6,0,P|184:79|188:43,1,37.5000014305115,0|0,0:0|0:0,0:0:0:0:
225,65,102877,2,0,P|231:46|252:17,1,37.5000014305115,0|0,0:0|0:0,0:0:0:0:
273,55,102957,1,0,0:0:0:0:
175,254,103120,1,6,0:0:0:0:
406,79,103281,6,0,P|351:100|327:152,1,119.999996337891,4|0,0:0|0:0,0:0:0:0:
95,180,103604,2,0,P|150:201|174:253,1,119.999996337891,8|0,0:0|0:0,0:0:0:0:
379,343,103926,5,4,0:0:0:0:
331,346,104007,1,0,0:0:0:0:
295,316,104088,1,2,0:0:0:0:
289,270,104168,1,0,0:0:0:0:
317,231,104249,1,8,0:0:0:0:
226,25,104410,5,2,0:0:0:0:
252,65,104491,1,0,0:0:0:0:
244,111,104572,1,2,0:0:0:0:
207,139,104652,1,0,0:0:0:0:
160,134,104733,1,2,0:0:0:0:
48,325,104894,6,0,P|41:306|39:288,1,37.5000014305115,8|0,0:0|0:0,0:0:0:0:
69,282,104975,2,0,P|68:261|73:244,1,37.5000014305115,0|0,0:0|0:0,0:0:0:0:
113,266,105055,2,0,P|119:246|130:232,1,37.5000014305115,2|0,0:0|0:0,0:0:0:0:
156,284,105136,2,0,P|168:268|183:258,1,37.5000014305115,0|0,0:0|0:0,0:0:0:0:
175,327,105217,5,6,0:0:0:0:
366,322,105378,6,0,P|351:334|334:343,1,37.5000014305115,0|0,0:0|0:0,0:0:0:0:
319,303,105458,2,0,P|300:306|281:305,1,37.5000014305115,0|0,0:0|0:0,0:0:0:0:
290,265,105539,5,6,0:0:0:0:
301,237,105619,1,0,0:0:0:0:
305,207,105700,1,6,0:0:0:0:
300,178,105780,1,0,0:0:0:0:
320,96,105862,6,0,B|277:110|230:86|230:86|236:102|251:104,1,119.999996337891,6|0,0:0|0:0,0:0:0:0:
61,254,106185,2,0,B|103:268|150:244|150:244|144:260|129:262,1,119.999996337891,8|0,0:0|0:0,0:0:0:0:
451,343,106507,5,4,0:0:0:0:
415,311,106587,1,0,0:0:0:0:
398,266,106668,1,2,0:0:0:0:
403,219,106748,1,0,0:0:0:0:
429,179,106829,1,8,0:0:0:0:
221,14,106991,5,4,0:0:0:0:
247,54,107072,1,0,0:0:0:0:
252,101,107152,1,2,0:0:0:0:
235,146,107233,1,0,0:0:0:0:
199,178,107313,1,6,0:0:0:0:
61,343,107475,5,8,0:0:0:0:
97,311,107555,1,0,0:0:0:0:
114,266,107636,6,0,P|124:252|128:231,1,37.5000014305115,2|0,0:0|0:0,0:0:0:0:
109,219,107717,2,0,P|111:202|106:181,1,37.5000014305115,0|0,0:0|0:0,0:0:0:0:
83,179,107797,1,6,0:0:0:0:
360,176,107959,6,0,P|350:162|346:141,1,37.5000014305115,0|0,0:0|0:0,0:0:0:0:
365,129,108040,2,0,P|363:112|368:91,1,37.5000014305115,0|0,0:0|0:0,0:0:0:0:
391,89,108120,1,6,0:0:0:0:
211,29,108281,1,6,0:0:0:0:
360,176,108443,6,0,P|303:193|273:243,1,119.999996337891,4|0,0:0|0:0,0:0:0:0:
87,286,108765,2,0,P|143:303|173:353,1,119.999996337891,8|0,0:0|0:0,0:0:0:0:
364,100,109088,5,4,0:0:0:0:
362,138,109169,1,0,0:0:0:0:
360,176,109250,1,2,0:0:0:0:
358,214,109330,1,0,0:0:0:0:
356,252,109411,1,8,0:0:0:0:
91,362,109572,5,2,0:0:0:0:
89,324,109653,1,0,0:0:0:0:
87,286,109733,1,6,0:0:0:0:
85,248,109814,1,0,0:0:0:0:
83,210,109895,1,2,0:0:0:0:
411,112,110055,6,0,P|400:94|388:81,1,37.5000014305115,8|0,0:0|0:0,0:0:0:0:
364,100,110136,2,0,P|348:85|332:78,1,37.5000014305115,0|0,0:0|0:0,0:0:0:0:
324,123,110216,2,0,P|304:114|287:114,1,37.5000014305115,2|0,0:0|0:0,0:0:0:0:
310,168,110297,2,0,P|290:166|272:171,1,37.5000014305115,0|0,0:0|0:0,0:0:0:0:
330,210,110378,5,6,0:0:0:0:
84,26,110539,6,0,P|104:26|121:31,1,37.5000014305115,0|0,0:0|0:0,0:0:0:0:
116,61,110620,2,0,P|135:67|149:78,1,37.5000014305115,0|0,0:0|0:0,0:0:0:0:
115,107,110701,5,6,0:0:0:0:
123,141,110781,1,0,0:0:0:0:
164,151,110862,5,6,0:0:0:0:
160,168,110942,1,0,0:0:0:0:
44,240,111023,6,0,B|57:233|63:211|63:211|70:233|91:245,9,64.9999970245363,2|0|0|0|0|0|0|0|0|0,0:0|0:0|0:0|0:0|0:0|0:0|0:0|0:0|0:0|0:0,0:0:0:0:
191,258,111346,6,0,L|195:293,5,29.9999990844727,2|0|0|0|0|0,0:0|0:0|0:0|0:0|0:0|0:0,0:0:0:0:
390,342,111668,6,0,L|382:282,1,59.9999981689454,8|0,0:0|0:0,0:0:0:0:
449,174,111830,1,4,0:0:0:0:
118,373,111991,6,0,L|125:313,1,59.9999981689454,8|0,0:0|0:0,0:0:0:0:
59,205,112153,1,4,0:0:0:0:
254,43,112314,5,2,0:0:0:0:
254,43,112475,1,2,0:0:0:0:
479,170,112636,2,0,B|349:180|349:180|303:158,1,179.999994506836,8|2,0:0|0:0,0:0:0:0:
254,43,112959,5,2,0:0:0:0:
254,43,113120,1,4,0:0:0:0:
479,170,113281,2,0,B|417:197|343:174|343:174|358:153|391:151,1,179.999994506836,8|2,0:0|0:0,0:0:0:0:
258,341,113604,5,4,0:0:0:0:
258,341,113765,1,4,0:0:0:0:
33,214,113926,2,0,B|162:203|162:203|208:225,1,179.999994506836,8|0,0:0|0:0,0:0:0:0:
258,341,114249,5,0,0:0:0:0:
258,341,114410,1,4,0:0:0:0:
33,214,114571,2,0,B|94:186|168:209|168:209|154:231|120:232,1,179.999994506836,8|2,0:0|0:0,0:0:0:0:
254,32,114894,5,2,0:0:0:0:
254,32,115055,1,6,0:0:0:0:
258,341,115217,2,0,B|253:306|240:287|240:287|275:240|275:240|254:209|254:179,1,179.999994506836,10|2,0:0|0:0,0:0:0:0:
254,32,115539,5,2,0:0:0:0:
254,32,115701,1,4,0:0:0:0:
254,341,115862,2,0,B|259:306|272:287|272:287|237:240|237:240|258:209|258:179,1,179.999994506836,8|4,0:0|0:0,0:0:0:0:
419,62,116185,5,4,0:0:0:0:
419,62,116346,1,0,0:0:0:0:
404,335,116507,2,0,B|358:211|358:211|383:157,1,179.999994506836,8|0,0:0|0:0,0:0:0:0:
419,62,116830,5,0,0:0:0:0:
419,62,116991,1,4,0:0:0:0:
404,335,117152,2,0,B|349:273|369:210|369:210|377:241|412:254,1,179.999994506836,8|4,0:0|0:0,0:0:0:0:
111,300,117475,5,2,0:0:0:0:
111,300,117636,1,2,0:0:0:0:
96,27,117797,2,0,B|50:151|50:151|75:205,1,179.999994506836,8|2,0:0|0:0,0:0:0:0:
111,300,118120,5,2,0:0:0:0:
111,300,118281,1,4,0:0:0:0:
96,27,118442,2,0,B|41:89|61:152|61:152|69:121|104:108,1,179.999994506836,8|0,0:0|0:0,0:0:0:0:
439,262,118765,5,8,0:0:0:0:
453,136,118926,1,4,0:0:0:0:
293,323,119088,5,8,0:0:0:0:
322,66,119249,1,4,0:0:0:0:
220,323,119410,5,4,0:0:0:0:
191,66,119571,1,4,0:0:0:0:
73,262,119733,5,8,0:0:0:0:
59,136,119894,1,4,0:0:0:0:
261,310,120055,6,0,P|273:288|278:262,1,50,8|0,0:0|0:0,0:0:0:0:
233,85,120217,2,0,P|232:109|239:133,1,50,8|0,0:0|0:0,0:0:0:0:
406,124,120378,6,0,P|367:136|332:132,1,75.0000028610231,8|0,0:0|0:0,0:0:0:0:
122,238,120539,2,0,P|161:226|196:230,1,75.0000028610231,8|0,0:0|0:0,0:0:0:0:
293,282,120701,5,8,0:0:0:0:
243,329,120782,1,0,0:0:0:0:
183,297,120863,1,8,0:0:0:0:
195,230,120943,1,0,0:0:0:0:
314,84,121023,5,8,0:0:0:0:
384,141,121104,1,0,0:0:0:0:
353,226,121184,1,8,0:0:0:0:
262,221,121265,1,0,0:0:0:0:
239,133,121345,5,4,0:0:0:0:
256,192,121426,12,4,123604,0:0:0:0:
