osu file format v14

[General]
AudioFilename: audio.mp3
AudioLeadIn: 0
PreviewTime: 59046
Countdown: 0
SampleSet: Normal
StackLeniency: 0.7
Mode: 0
LetterboxInBreaks: 0
WidescreenStoryboard: 1

[Editor]
DistanceSpacing: 0.9
BeatDivisor: 4
GridSize: 16
TimelineZoom: 3.199999

[Metadata]
Title:eastward
TitleUnicode:eastward
Artist:ginkiha
ArtistUnicode:ginkiha
Creator:Regraz
Version:Extreme
Source:BMS
Tags:bofu of fighters 2015 ultimate schoolboy komore z1085684963 Deif Hazuki
BeatmapID:1139218
BeatmapSetID:537642

[Difficulty]
HPDrainRate:7
CircleSize:4.3
OverallDifficulty:8
ApproachRate:9.3
SliderMultiplier:1.8
SliderTickRate:1

[Events]
//Background and Video events
0,0,"1Konachan.com - 191284.jpg",0,0
//Break Periods
//Storyboard Layer 0 (Background)
//Storyboard Layer 1 (Fail)
//Storyboard Layer 2 (Pass)
//Storyboard Layer 3 (Foreground)
//Storyboard Sound Samples

[TimingPoints]
12,322.58064516129,4,2,1,70,1,0
12,-100,4,2,1,70,0,0
737,-100,4,2,0,70,0,0
1060,-100,4,2,0,60,0,0
1302,-100,4,2,0,70,0,0
1463,-100,4,2,1,60,0,0
1786,-100,4,2,1,50,0,0
2592,-100,4,2,1,70,0,0
3318,-100,4,2,0,70,0,0
3721,-100,4,3,1,40,0,0
3882,-100,4,3,1,35,0,0
4528,-100,4,2,0,70,0,0
4689,-100,4,2,0,75,0,0
4850,-100,4,2,0,80,0,0
5173,-100,4,2,1,70,0,0
5899,-100,4,2,0,70,0,0
6221,-100,4,2,0,60,0,0
6463,-100,4,2,0,70,0,0
6624,-100,4,2,1,60,0,0
6866,-100,4,2,0,60,0,0
6947,-100,4,2,1,60,0,0
7028,-100,4,2,0,60,0,0
7108,-100,4,2,1,60,0,0
7189,-100,4,2,0,60,0,0
7270,-100,4,2,1,60,0,0
7350,-100,4,2,0,60,0,0
7431,-100,4,2,1,60,0,0
7753,-100,4,2,1,70,0,0
8479,-100,4,2,0,70,0,0
8882,-100,4,3,1,40,0,0
9044,-100,4,3,1,35,0,0
9689,-100,4,2,0,70,0,0
9850,-100,4,2,0,75,0,0
10011,-100,4,2,0,80,0,0
10334,-100,4,1,1,70,0,0
11624,-100,4,1,1,80,0,0
11947,-100,4,1,1,70,0,0
12270,-100,4,1,1,60,0,0
12592,-100,4,1,1,70,0,0
13641,-100,4,1,1,35,0,0
13721,-100,4,1,1,70,0,0
14205,-100,4,1,1,80,0,0
14528,-100,4,1,1,70,0,0
14850,-100,4,1,1,60,0,0
15173,-100,4,1,1,70,0,0
16786,-100,4,1,1,80,0,0
17108,-100,4,1,1,70,0,0
17431,-100,4,1,1,60,0,0
17753,-100,4,1,1,70,0,0
18802,-100,4,1,1,35,0,0
18882,-100,4,1,1,70,0,0
19366,-100,4,1,1,80,0,0
19689,-100,4,1,1,70,0,0
20011,-100,4,1,1,60,0,0
20334,-100,4,1,1,70,0,0
20657,-166.666666666667,4,2,2,60,0,0
20737,-166.666666666667,4,2,1,50,0,0
21302,-166.666666666667,4,2,1,60,0,0
21947,-166.666666666667,4,1,2,40,0,0
22270,-100,4,1,2,50,0,0
22592,-100,4,1,2,40,0,0
23237,-100,4,1,1,70,0,1
24528,-100,4,1,1,80,0,1
24850,-100,4,1,1,70,0,1
25173,-100,4,1,1,60,0,1
25495,-100,4,1,1,70,0,1
25818,-100,4,1,1,35,0,1
26141,-100,4,1,1,70,0,1
27108,-100,4,1,1,80,0,1
27149,-100,4,1,1,40,0,1
27270,-100,4,1,1,80,0,1
27350,-100,4,1,1,40,0,1
27431,-100,4,1,1,70,0,1
27753,-100,4,1,1,60,0,1
28076,-100,4,1,1,70,0,1
29689,-100,4,1,1,80,0,1
30011,-100,4,1,1,70,0,1
30334,-100,4,1,1,60,0,1
30657,-100,4,1,1,70,0,1
32270,-100,4,1,1,80,0,1
32310,-100,4,1,1,40,0,1
32431,-100,4,1,1,80,0,1
32511,-100,4,1,1,40,0,1
32592,-100,4,1,1,70,0,1
32915,-100,4,1,1,60,0,1
33237,-100,4,1,1,70,0,1
33560,-100,4,2,2,60,0,0
33641,-100,4,2,1,50,0,0
34205,-100,4,2,1,60,0,0
34850,-100,4,1,2,40,0,0
35173,-100,4,1,2,50,0,0
35495,-100,4,1,2,40,0,0
36141,-100,4,1,3,70,0,0
36786,-100,4,1,3,60,0,0
37108,-100,4,1,3,80,0,0
37149,-100,4,1,3,40,0,0
37270,-100,4,1,3,80,0,0
37310,-100,4,1,3,40,0,0
37431,-100,4,1,3,70,0,0
37753,-100,4,1,3,60,0,0
38076,-100,4,1,3,70,0,0
38721,-100,4,1,3,80,0,0
39044,-100,4,1,3,70,0,0
39366,-100,4,1,3,60,0,0
40011,-100,4,1,3,70,0,0
40334,-100,4,1,3,60,0,0
40657,-100,4,1,3,70,0,0
40697,-100,4,1,3,35,0,0
40818,-100,4,1,3,70,0,0
41020,-100,4,1,3,35,0,0
41141,-100,4,1,3,70,0,0
41302,-100,4,1,3,70,0,0
41624,-100,4,1,3,70,0,0
41947,-100,4,1,3,60,0,0
42270,-100,4,1,3,70,0,0
42310,-100,4,1,3,35,0,0
42431,-100,4,1,3,70,0,0
42471,-100,4,1,3,35,0,0
42592,-100,4,1,3,70,0,0
42915,-100,4,1,3,60,0,0
43237,-100,4,1,3,70,0,0
43882,-100,4,1,3,70,0,0
44528,-100,4,1,3,60,0,0
45173,-100,4,1,3,70,0,0
45455,-100,4,1,3,35,0,0
45657,-100,4,1,3,70,0,0
45818,-100,4,1,3,70,0,0
45858,-100,4,1,3,35,0,0
45979,-100,4,1,3,70,0,0
46181,-100,4,1,3,35,0,0
46302,-100,4,1,3,70,0,0
46463,-100,4,1,3,70,0,0
46483,-100,4,1,3,35,0,0
46786,-100,4,1,3,70,0,0
46826,-100,4,1,3,50,0,0
47108,-100,4,1,3,70,0,0
48076,-100,4,1,3,60,0,0
48399,-100,4,1,3,70,0,0
49044,-100,4,1,3,70,0,0
49528,-100,4,1,3,70,0,0
49689,-100,4,1,3,60,0,0
50011,-100,4,1,3,70,0,0
50052,-100,4,1,3,35,0,0
50173,-100,4,1,3,70,0,0
50213,-100,4,1,3,35,0,0
50253,-100,4,1,3,70,0,0
50657,-100,4,1,3,60,0,0
50979,-100,4,1,3,70,0,0
51624,-100,4,1,3,70,0,0
51705,-100,4,1,3,35,0,0
51786,-100,4,1,3,70,0,0
51866,-100,4,1,3,35,0,0
51947,-100,4,1,3,70,0,0
52270,-100,4,1,3,60,0,0
52753,-100,4,1,3,70,0,0
52794,-100,4,1,3,35,0,0
52834,-100,4,1,3,70,0,0
53237,-100,4,1,3,60,0,0
53560,-100,4,1,3,70,0,0
54528,-100,4,1,3,60,0,0
54850,-100,4,1,3,70,0,0
55173,-100,4,1,3,60,0,0
55495,-100,4,1,3,70,0,0
56786,-100,4,1,1,50,0,0
58721,-100,4,1,1,25,0,0
59366,-100,4,1,2,70,0,0
60334,-100,4,1,2,80,0,0
60495,-100,4,1,2,70,0,0
60657,-100,4,1,2,60,0,0
61947,-100,4,1,2,70,0,0
64528,-100,4,1,2,70,0,0
65495,-100,4,1,2,80,0,0
65657,-100,4,1,2,70,0,0
65818,-100,4,1,2,60,0,0
67108,-100,4,1,2,70,0,0
69528,-100,4,1,2,60,0,0
69689,-100,4,1,2,70,0,0
70657,-100,4,1,2,80,0,0
70818,-100,4,1,2,70,0,0
70980,-100,4,1,2,60,0,0
72270,-100,4,1,2,70,0,0
74851,-100,4,1,2,70,0,0
75818,-100,4,1,2,80,0,0
75980,-100,4,1,2,70,0,0
76141,-100,4,1,2,60,0,0
77431,-100,4,1,2,70,0,0
78721,-100,4,2,1,60,0,0
80011,-100,4,1,2,70,0,0
80979,-100,4,1,2,80,0,0
81140,-100,4,1,2,70,0,0
81302,-100,4,1,2,60,0,0
82592,-100,4,1,2,70,0,0
85173,-100,4,1,2,70,0,0
86140,-100,4,1,2,80,0,0
86302,-100,4,1,2,70,0,0
86463,-100,4,1,2,60,0,0
87753,-100,4,1,2,70,0,0
90173,-100,4,1,2,60,0,0
90334,-100,4,1,2,70,0,0
91302,-100,4,1,2,80,0,0
91463,-100,4,1,2,70,0,0
91625,-100,4,1,2,60,0,0
92915,-100,4,1,2,70,0,0
95495,-100,4,1,2,80,0,0
98076,-100,4,1,1,60,0,0
99366,-100,4,2,1,60,0,0
100657,-100,4,1,1,70,0,1
101947,-100,4,1,1,80,0,1
101987,-100,4,1,1,40,0,1
102028,-100,4,3,1,80,0,1
102108,-100,4,1,1,80,0,1
102189,-100,4,3,1,80,0,1
102229,-100,4,3,1,40,0,1
102270,-100,4,1,1,70,0,1
102350,-100,4,3,1,70,0,1
102431,-100,4,1,1,70,0,1
102511,-100,4,3,1,70,0,1
102593,-100,4,1,1,60,0,1
102834,-100,4,1,1,35,0,1
102915,-100,4,1,1,70,0,1
104407,-100,4,1,1,35,0,1
104528,-100,4,1,1,80,0,1
104568,-100,4,1,1,40,0,1
104608,-100,4,3,1,80,0,1
104649,-100,4,3,1,40,0,1
104689,-100,4,1,1,80,0,1
104770,-100,4,1,1,80,0,1
104810,-100,4,3,1,40,0,1
104850,-100,4,1,1,70,0,1
104931,-100,4,3,1,70,0,1
104971,-100,4,3,1,35,0,1
105011,-100,4,1,1,70,0,1
105092,-100,4,3,1,70,0,1
105173,-100,4,1,1,60,0,1
105496,-100,4,1,1,70,0,1
107108,-100,4,1,1,80,0,1
107149,-100,4,1,1,40,0,1
107189,-100,4,3,1,80,0,1
107270,-100,4,1,1,80,0,1
107350,-100,4,3,1,80,0,1
107391,-100,4,3,1,40,0,1
107431,-100,4,1,1,70,0,1
107511,-100,4,3,1,70,0,1
107592,-100,4,1,1,70,0,1
107673,-100,4,3,1,70,0,1
107754,-100,4,1,1,60,0,1
107995,-100,4,1,1,35,0,1
108076,-100,4,1,1,70,0,1
109568,-100,4,1,1,35,0,1
109689,-100,4,1,1,80,0,1
109729,-100,4,1,1,40,0,1
109770,-100,4,3,1,80,0,1
109810,-100,4,3,1,40,0,1
109850,-100,4,1,1,80,0,1
109931,-100,4,3,1,80,0,1
109971,-100,4,3,1,40,0,1
110012,-100,4,1,1,70,0,1
110092,-100,4,3,1,70,0,1
110132,-100,4,3,1,35,0,1
110173,-100,4,1,1,70,0,1
110253,-100,4,3,1,70,0,1
110334,-100,4,1,1,60,0,1
110657,-100,4,1,1,70,0,1
110979,-100,4,1,1,70,0,1
110999,-100,4,1,1,35,0,1
111302,-100,4,1,1,50,0,1
111624,-100,4,1,1,70,0,1
112269,-100,4,1,1,80,0,1
112309,-100,4,1,1,40,0,1
112350,-100,4,3,1,80,0,1
112430,-100,4,1,1,80,0,1
112511,-100,4,3,1,80,0,1
112551,-100,4,3,1,40,0,1
112592,-100,4,1,1,70,0,1
112672,-100,4,3,1,70,0,1
112753,-100,4,1,1,70,0,1
112833,-100,4,3,1,70,0,1
112915,-100,4,1,1,60,0,1
113237,-100,4,1,1,70,0,1
114124,-100,4,3,1,70,0,1
114205,-100,4,1,1,70,0,1
114729,-100,4,1,1,35,0,1
114850,-100,4,1,1,80,0,1
114890,-100,4,1,1,40,0,1
114930,-100,4,3,1,80,0,1
115011,-100,4,1,1,80,0,1
115052,-100,4,1,1,40,0,1
115092,-100,4,3,1,80,0,1
115172,-100,4,1,1,70,0,1
115253,-100,4,3,1,70,0,1
115333,-100,4,1,1,70,0,1
115414,-100,4,3,1,70,0,1
115495,-100,4,1,1,60,0,1
115818,-100,4,1,1,70,0,1
117430,-100,4,1,1,80,0,1
117471,-100,4,1,1,40,0,1
117511,-100,4,3,1,80,0,1
117592,-100,4,1,1,80,0,1
117672,-100,4,3,1,80,0,1
117713,-100,4,3,1,40,0,1
117753,-100,4,1,1,70,0,1
117833,-100,4,3,1,70,0,1
117914,-100,4,1,1,70,0,1
117995,-100,4,3,1,70,0,1
118076,-100,4,1,1,60,0,1
118398,-100,4,1,1,70,0,1
120011,-100,4,1,1,80,0,1
120172,-100,4,3,1,80,0,1
120334,-100,4,1,1,70,0,1
120495,-100,4,3,1,70,0,1
120656,-100,4,1,1,60,0,1
120979,-100,4,1,1,70,0,1
121302,-100,4,1,1,50,0,0
123237,-100,4,1,1,25,0,0

[Colours]
Combo1 : 242,24,57
Combo2 : 0,202,0
Combo3 : 18,124,255

[HitObjects]
47,152,12,6,0,P|103:151|142:121,1,90
231,69,334,2,0,L|223:184,1,90
233,38,657,1,0,0:0:0:0:
448,224,818,1,0,0:0:0:0:
425,213,898,1,0,0:0:0:0:
402,203,979,1,0,0:0:0:0:
366,230,1059,1,0,0:0:0:0:
323,242,1140,1,0,0:0:0:0:
279,237,1220,1,0,0:0:0:0:
240,216,1302,6,0,P|183:206|137:222,1,90
75,249,1544,1,0,0:0:0:0:
75,249,1624,2,0,L|83:134,1,90
134,346,1947,1,0,0:0:0:0:
288,280,2108,1,0,0:0:0:0:
223,373,2270,1,0,0:0:0:0:
157,219,2431,1,0,0:0:0:0:
302,301,2592,6,0,P|362:306|399:280,1,90
294,185,2915,2,0,L|179:198,1,90
141,153,3157,1,0,0:0:0:0:
141,153,3237,2,0,P|128:106|145:56,1,90
359,138,3560,2,0,P|372:185|355:235,1,90
170,248,3882,6,0,L|49:242,1,90
44,274,4124,1,0,0:0:0:0:
30,316,4204,1,0,0:0:0:0:
37,360,4285,1,0,0:0:0:0:
374,240,4528,1,0,0:0:0:0:
231,294,4689,1,0,0:0:0:0:
299,170,4850,1,0,0:0:0:0:
463,189,5011,1,0,0:0:0:0:
222,89,5173,6,0,P|166:113|115:104,1,90
299,32,5495,2,0,L|420:48,1,90
475,144,5818,1,0,0:0:0:0:
310,122,5979,1,0,0:0:0:0:
312,144,6059,1,0,0:0:0:0:
314,166,6140,1,0,0:0:0:0:
317,189,6221,1,0,0:0:0:0:
274,174,6301,1,0,0:0:0:0:
230,179,6382,1,0,0:0:0:0:
192,203,6462,5,0,0:0:0:0:
359,289,6624,1,0,0:0:0:0:
359,289,6705,1,0,0:0:0:0:
359,289,6786,2,0,L|475:273,1,90
244,340,7108,2,0,L|128:356,1,90
282,169,7431,2,0,P|273:250|298:282,1,90
419,120,7753,6,0,B|324:124|279:58|279:58|227:88|170:62,1,270
149,30,8318,1,0,0:0:0:0:
149,30,8399,2,0,L|136:133,1,90
247,179,8721,1,0,0:0:0:0:
292,20,8882,1,0,0:0:0:0:
290,243,9044,6,0,P|225:254|184:233,1,90
170,220,9286,1,0,0:0:0:0:
167,268,9366,1,0,0:0:0:0:
164,310,9447,1,0,0:0:0:0:
385,184,9689,2,0,P|419:126|393:49,1,135
312,28,10011,2,0,L|151:43,1,135
130,45,10334,5,0,0:0:0:0:
46,183,10495,1,0,0:0:0:0:
47,66,10657,1,0,0:0:0:0:
234,138,10818,1,0,0:0:0:0:
31,258,10979,2,0,P|93:242|116:197,1,90
200,97,11302,1,0,0:0:0:0:
423,171,11463,6,0,L|302:163,1,90
299,185,11705,1,0,0:0:0:0:
299,185,11786,1,0,0:0:0:0:
476,248,11947,2,0,P|513:170|486:97,1,135
473,82,12270,1,0,0:0:0:0:
251,44,12431,1,0,0:0:0:0:
251,44,12511,1,0,0:0:0:0:
251,44,12592,2,0,L|187:38,1,45
77,131,12753,2,0,L|135:124,1,45
399,194,12915,5,0,0:0:0:0:
239,173,13076,1,0,0:0:0:0:
348,116,13237,1,0,0:0:0:0:
339,313,13399,1,0,0:0:0:0:
186,220,13560,2,0,P|171:159|199:113,1,90
370,17,13882,2,0,L|369:130,1,90
352,148,14124,5,0,0:0:0:0:
396,140,14204,1,0,0:0:0:0:
440,132,14285,1,0,0:0:0:0:
484,124,14365,1,0,0:0:0:0:
350,227,14528,2,0,P|284:205|269:162,1,90
262,154,14770,1,0,0:0:0:0:
262,154,14850,2,0,L|168:171,1,90
87,94,15173,2,0,L|172:107,1,45
116,230,15334,2,0,L|72:224,1,45
210,70,15495,5,0,0:0:0:0:
351,175,15657,1,0,0:0:0:0:
205,319,15818,2,0,L|210:208,1,90
420,139,16141,2,0,P|427:198|406:234,1,90
210,203,16463,1,0,0:0:0:0:
21,46,16624,1,0,0:0:0:0:
46,38,16704,1,0,0:0:0:0:
74,27,16786,1,0,0:0:0:0:
68,80,16866,1,0,0:0:0:0:
63,134,16947,1,0,0:0:0:0:
37,295,17108,6,0,L|162:269,1,90
158,293,17350,1,0,0:0:0:0:
156,266,17430,1,0,0:0:0:0:
154,239,17511,1,0,0:0:0:0:
153,212,17591,1,0,0:0:0:0:
242,120,17753,2,0,L|231:174,1,45
325,238,17915,2,0,L|316:193,1,45
317,92,18076,5,0,0:0:0:0:
257,275,18237,1,0,0:0:0:0:
438,222,18399,2,0,L|336:209,1,90
156,324,18721,2,0,P|221:319|249:295,1,90
272,147,19044,1,0,0:0:0:0:
58,54,19205,1,0,0:0:0:0:
48,82,19285,1,0,0:0:0:0:
40,105,19366,1,0,0:0:0:0:
93,96,19446,1,0,0:0:0:0:
146,88,19527,1,0,0:0:0:0:
428,67,19689,6,0,P|363:63|323:40,1,90
317,20,19931,1,0,0:0:0:0:
317,20,20011,2,0,L|326:171,1,135
346,178,20334,2,0,L|267:162,1,45
191,102,20495,2,0,L|270:86,1,45
452,217,20657,6,0,B|358:192|358:192|280:206|280:206|158:181|158:181|94:231|141:311,1,431.999986816407
158,296,22028,5,0,0:0:0:0:
184,291,22108,1,0,0:0:0:0:
211,287,22189,1,0,0:0:0:0:
238,283,22270,2,0,L|73:264,1,135
68,135,22592,1,0,0:0:0:0:
100,104,22672,1,0,0:0:0:0:
143,90,22753,1,0,0:0:0:0:
187,93,22833,1,0,0:0:0:0:
227,113,22915,2,0,L|217:58,1,45
345,19,23076,2,0,L|333:83,1,45
351,279,23237,6,0,P|390:228|386:174,1,90
245,36,23560,2,0,L|236:164,1,90
88,222,23882,2,0,B|148:209|148:209|277:253,1,180
63,292,24366,1,0,0:0:0:0:
63,292,24447,1,0,0:0:0:0:
63,292,24528,6,0,P|16:242|20:200,1,90
154,131,24850,1,0,0:0:0:0:
226,305,25011,1,0,0:0:0:0:
226,305,25092,1,0,0:0:0:0:
226,305,25173,2,0,L|370:288,1,135
400,324,25495,2,0,L|326:312,1,45
427,234,25657,2,0,L|471:241,1,45
310,191,25818,6,0,P|303:142|314:96,1,90
440,22,26141,2,0,P|447:71|436:117,1,90
241,244,26463,2,0,B|343:226|343:226|404:245,1,135
412,251,26786,1,0,0:0:0:0:
230,171,26947,1,0,0:0:0:0:
230,171,27028,1,0,0:0:0:0:
230,171,27108,6,0,L|127:164,1,90
26,309,27431,2,0,P|82:297|121:247,1,90
121,247,27673,1,0,0:0:0:0:
121,247,27753,2,0,L|276:255,1,135
284,255,28076,1,0,0:0:0:0:
418,195,28237,1,0,0:0:0:0:
300,123,28399,6,0,P|234:109|185:130,2,90
397,225,28882,1,0,0:0:0:0:
164,203,29044,2,0,L|183:7,1,180
81,172,29528,1,0,0:0:0:0:
81,172,29608,1,0,0:0:0:0:
81,172,29689,6,0,P|76:238|98:275,1,90
165,291,29931,1,0,0:0:0:0:
165,291,30011,2,0,L|265:271,1,90
372,184,30334,1,0,0:0:0:0:
396,349,30495,1,0,0:0:0:0:
396,349,30576,1,0,0:0:0:0:
396,349,30657,2,0,P|330:335|298:344,1,90
419,242,30979,6,0,P|446:190|439:147,1,90
329,70,31302,2,0,L|337:163,1,90
296,307,31624,2,0,B|256:307|234:283|234:283|193:335|114:320,1,180
36,188,32108,6,0,L|145:190,1,90
151,219,32350,1,0,0:0:0:0:
151,219,32431,1,0,0:0:0:0:
267,144,32592,1,0,0:0:0:0:
289,147,32672,1,0,0:0:0:0:
311,150,32753,1,0,0:0:0:0:
449,290,32915,6,0,P|410:268|403:205,1,90
408,192,33157,1,0,0:0:0:0:
408,192,33237,2,0,L|334:207,1,45
243,230,33399,2,0,L|169:245,1,45
69,269,33560,1,0,0:0:0:0:
256,192,33641,12,0,35818,0:0:0:0:
168,137,36141,6,0,B|143:131|143:131|270:113|270:113|225:144,1,180
221,202,36624,1,0,0:0:0:0:
309,41,36786,2,0,P|345:94|317:178,1,135
313,180,37108,1,0,0:0:0:0:
219,38,37270,1,0,0:0:0:0:
144,208,37431,5,0,0:0:0:0:
122,202,37511,1,0,0:0:0:0:
100,197,37592,1,0,0:0:0:0:
19,356,37753,2,0,P|90:302|170:325,1,135
166,332,38076,1,0,0:0:0:0:
170,300,38156,1,0,0:0:0:0:
174,269,38237,1,0,0:0:0:0:
178,238,38317,1,0,0:0:0:0:
182,207,38398,1,0,0:0:0:0:
269,283,38560,1,0,0:0:0:0:
409,156,38721,6,0,L|333:171,1,45
443,171,38882,2,0,L|367:184,1,45
330,230,39044,2,0,P|292:172|325:102,1,135
391,81,39366,2,0,B|325:88|325:88|292:73|292:73|194:79,1,180
59,113,39850,1,0,0:0:0:0:
59,113,39931,1,0,0:0:0:0:
59,113,40011,6,0,L|44:57,2,45
67,237,40334,1,0,0:0:0:0:
59,266,40415,1,0,0:0:0:0:
80,268,40495,1,0,0:0:0:0:
72,297,40576,1,0,0:0:0:0:
103,300,40657,2,0,P|174:278|177:195,1,135
163,209,40979,2,0,L|320:226,1,135
321,229,41302,6,0,L|211:241,1,90
217,322,41624,1,0,0:0:0:0:
278,149,41786,1,0,0:0:0:0:
360,300,41947,2,0,P|389:258|364:160,1,135
348,153,42270,1,0,0:0:0:0:
242,58,42431,1,0,0:0:0:0:
134,188,42592,1,0,0:0:0:0:
156,191,42673,1,0,0:0:0:0:
179,195,42753,1,0,0:0:0:0:
60,228,42915,6,0,L|227:190,1,135
217,232,43237,1,0,0:0:0:0:
172,236,43317,1,0,0:0:0:0:
131,219,43398,1,0,0:0:0:0:
104,183,43478,1,0,0:0:0:0:
98,139,43560,2,0,L|167:147,1,45
251,114,43721,2,0,L|309:121,1,45
397,197,43882,2,0,P|319:209|287:193,1,90
441,126,44205,2,0,B|428:216|428:216|460:277,1,135
504,202,44528,6,0,L|322:188,1,180
112,171,45011,1,0,0:0:0:0:
112,171,45092,1,0,0:0:0:0:
112,171,45173,2,0,L|54:178,2,45
221,110,45495,2,0,P|204:195|245:231,1,135
263,226,45818,1,0,0:0:0:0:
243,315,45979,1,0,0:0:0:0:
403,166,46141,1,0,0:0:0:0:
383,77,46302,1,0,0:0:0:0:
466,221,46463,6,0,B|419:204|419:204|301:224,1,135
270,263,46786,2,0,L|237:251,7,22.5
214,243,47108,1,0,0:0:0:0:
62,309,47270,1,0,0:0:0:0:
227,351,47431,1,0,0:0:0:0:
96,220,47592,1,0,0:0:0:0:
96,220,47673,1,0,0:0:0:0:
96,220,47753,6,0,L|83:160,2,45
241,263,48076,2,0,B|272:262|272:262|294:147,1,135
302,126,48399,1,0,0:0:0:0:
462,86,48560,1,0,0:0:0:0:
350,38,48721,1,0,0:0:0:0:
394,228,48882,1,0,0:0:0:0:
353,23,49044,6,0,P|295:32|258:10,1,90
53,95,49366,2,0,L|148:88,1,90
180,119,49608,1,0,0:0:0:0:
180,119,49689,2,0,P|188:184|172:217,1,90
48,329,50011,1,0,0:0:0:0:
111,157,50173,1,0,0:0:0:0:
194,299,50334,5,0,0:0:0:0:
194,299,50415,1,0,0:0:0:0:
194,299,50495,1,0,0:0:0:0:
415,344,50657,2,0,L|284:330,1,90
272,348,50899,1,0,0:0:0:0:
272,348,50979,2,0,P|290:299|273:249,1,90
191,128,51302,1,0,0:0:0:0:
71,284,51463,1,0,0:0:0:0:
283,158,51624,6,0,L|413:162,1,90
218,113,51947,2,0,B|199:159|199:159|219:218,1,90
406,74,52270,2,0,L|242:54,1,135
218,113,52592,2,0,B|199:159|199:159|219:218,1,90
371,317,52915,5,0,0:0:0:0:
374,294,52995,1,0,0:0:0:0:
378,272,53076,1,0,0:0:0:0:
234,209,53237,2,0,L|66:224,1,135
54,228,53560,1,0,0:0:0:0:
163,97,53721,1,0,0:0:0:0:
169,296,53882,1,0,0:0:0:0:
65,122,54044,1,0,0:0:0:0:
232,197,54205,6,0,P|297:209|334:194,1,90
345,131,54447,1,0,0:0:0:0:
345,131,54528,2,0,L|442:146,1,90
460,288,54850,1,0,0:0:0:0:
456,121,55011,1,0,0:0:0:0:
318,202,55173,2,0,L|208:213,1,90
191,230,55415,1,0,0:0:0:0:
191,230,55495,2,0,L|197:175,2,45
93,172,55818,1,0,0:0:0:0:
302,233,55979,1,0,0:0:0:0:
71,144,56141,5,0,0:0:0:0:
65,188,56221,1,0,0:0:0:0:
59,233,56302,1,0,0:0:0:0:
54,277,56382,1,0,0:0:0:0:
92,322,56463,5,0,0:0:0:0:
88,268,56543,1,0,0:0:0:0:
85,214,56624,1,0,0:0:0:0:
81,160,56704,1,0,0:0:0:0:
79,106,56785,5,0,0:0:0:0:
256,192,56866,12,0,58721,0:0:0:0:
181,115,59044,5,0,0:0:0:0:
394,246,59366,6,0,P|320:234|278:250,1,90
90,331,59689,2,0,P|154:318|190:280,1,90
191,80,60011,2,0,L|182:188,1,90
198,200,60253,1,0,0:0:0:0:
171,197,60333,1,0,0:0:0:0:
144,194,60414,1,0,0:0:0:0:
117,192,60494,1,0,0:0:0:0:
90,189,60575,1,0,0:0:0:0:
63,187,60656,1,0,0:0:0:0:
