osu file format v14

[General]
AudioFilename: audio.mp3
AudioLeadIn: 0
PreviewTime: 79986
Countdown: 0
SampleSet: Normal
StackLeniency: 0.7
Mode: 1
LetterboxInBreaks: 0
WidescreenStoryboard: 0

[Editor]
Bookmarks: 148,10470,20793,23373,33696,36277,46599,56922,59502,80147,100793,111115,112406,124018
DistanceSpacing: 0.4
BeatDivisor: 4
GridSize: 32
TimelineZoom: 1.6

[Metadata]
Title:eastward
TitleUnicode:eastward
Artist:ginkiha
ArtistUnicode:ginkiha
Creator:Nepuri
Version:eastern
Source:osu!
Tags:featured artist fa mappers' guild cychloryn electronic instrumental oriental rhythm game
BeatmapID:2383502
BeatmapSetID:1141099

[Difficulty]
HPDrainRate:6
CircleSize:5
OverallDifficulty:6.5
ApproachRate:5
SliderMultiplier:1.4
SliderTickRate:1

[Events]
//Background and Video events
0,0,"white-petaled-flowers-2235302.jpg",0,60
//Break Periods
//Storyboard Layer 0 (Background)
//Storyboard Layer 1 (Fail)
//Storyboard Layer 2 (Pass)
//Storyboard Layer 3 (Foreground)
//Storyboard Layer 4 (Overlay)
//Storyboard Sound Samples

[TimingPoints]
148,322.58064516129,4,1,0,90,1,0
148,-125,4,1,0,90,0,0
9986,-117.647058823529,4,1,0,90,0,0
10147,-111.111111111111,4,1,0,90,0,0
10309,-105.263157894737,4,1,0,90,0,0
10470,-100,4,1,0,100,0,0
36277,-90.9090909090909,4,1,0,100,0,1
46599,-90.9090909090909,4,1,0,100,0,0
47406,-88.2355536339813,4,1,0,100,0,0
47567,-85.7191839533688,4,1,0,100,0,0
47728,-83.3333333333333,4,1,0,100,0,1
56922,-83.3333333333333,4,1,0,100,0,0
57728,-111.111111111111,4,1,0,100,0,0
59502,-100,4,1,0,100,0,0
80147,-95.2380952380952,4,1,0,100,0,1
99502,-95.2380952380952,4,1,0,100,0,0
99664,-100,4,1,0,100,0,0
111922,-96.7773153972709,4,1,0,100,0,0
112083,-93.7558597412338,4,1,0,100,0,0
112244,-90.9090909090909,4,1,0,100,0,1
121438,-90.9090909090909,4,1,0,100,0,0
122083,-111.111111111111,4,1,0,100,0,0

[HitObjects]
407,152,148,5,8,0:0:0:0:
215,162,309,1,8,0:0:0:0:
215,162,470,1,0,0:0:0:0:
210,142,631,1,0,0:0:0:0:
210,142,793,1,8,0:0:0:0:
210,142,1035,1,0,0:0:0:0:
210,142,1115,1,8,0:0:0:0:
210,142,1196,1,8,0:0:0:0:
210,142,1277,1,0,0:0:0:0:
210,142,1357,1,0,0:0:0:0:
210,142,1438,1,8,0:0:0:0:
252,148,1599,1,0,0:0:0:0:
252,148,1680,1,0,0:0:0:0:
210,142,1760,1,0,0:0:0:0:
210,142,1922,1,8,0:0:0:0:
54,136,2567,1,8,0:0:0:0:
54,136,2728,1,0,0:0:0:0:
131,2,3212,1,0,0:0:0:0:
131,2,3293,1,8,0:0:0:0:
131,2,3373,1,8,0:0:0:0:
131,2,3535,1,8,0:0:0:0:
131,2,3696,1,0,0:0:0:0:
131,2,3857,1,0,0:0:0:0:
131,2,4018,1,8,0:0:0:0:
371,226,4180,1,0,0:0:0:0:
371,226,4260,1,0,0:0:0:0:
371,226,4341,1,8,0:0:0:0:
186,131,4422,1,0,0:0:0:0:
258,162,4825,1,8,0:0:0:0:
258,162,4986,1,8,0:0:0:0:
258,162,5147,1,8,0:0:0:0:
258,162,5309,1,0,0:0:0:0:
215,162,5470,1,8,0:0:0:0:
215,162,5631,1,0,0:0:0:0:
210,142,5792,1,0,0:0:0:0:
210,142,5954,1,8,0:0:0:0:
210,142,6196,1,0,0:0:0:0:
210,142,6276,1,8,0:0:0:0:
210,142,6357,1,8,0:0:0:0:
210,142,6438,1,0,0:0:0:0:
210,142,6518,1,0,0:0:0:0:
210,142,6599,1,8,0:0:0:0:
247,159,6760,1,0,0:0:0:0:
247,159,6841,1,8,0:0:0:0:
210,142,6921,1,8,0:0:0:0:
212,146,7083,1,8,0:0:0:0:
54,136,7728,1,8,0:0:0:0:
54,136,7889,1,0,0:0:0:0:
131,2,8373,1,0,0:0:0:0:
131,2,8454,1,8,0:0:0:0:
131,2,8534,1,8,0:0:0:0:
131,2,8696,1,8,0:0:0:0:
131,2,8857,1,0,0:0:0:0:
131,2,9018,1,8,0:0:0:0:
131,2,9179,1,0,0:0:0:0:
371,226,9341,1,0,0:0:0:0:
371,226,9421,1,0,0:0:0:0:
371,226,9502,1,8,0:0:0:0:
361,219,9583,1,0,0:0:0:0:
258,162,9825,1,0,0:0:0:0:
126,151,9986,1,0,0:0:0:0:
197,131,10147,1,8,0:0:0:0:
238,182,10309,1,0,0:0:0:0:
197,131,10470,1,4,0:0:0:0:
242,173,10631,1,0,0:0:0:0:
242,173,10712,1,0,0:0:0:0:
242,173,10793,1,8,0:0:0:0:
242,173,10954,1,8,0:0:0:0:
242,173,11115,1,4,0:0:0:0:
284,91,11277,1,0,0:0:0:0:
284,91,11357,1,0,0:0:0:0:
284,91,11438,1,8,0:0:0:0:
284,91,11599,1,4,0:0:0:0:
183,143,11922,1,0,0:0:0:0:
183,143,12083,1,8,0:0:0:0:
183,143,12244,1,0,0:0:0:0:
183,143,12325,1,0,0:0:0:0:
183,143,12406,1,0,0:0:0:0:
109,177,12567,1,0,0:0:0:0:
109,177,12728,1,12,0:0:0:0:
109,177,12889,1,12,0:0:0:0:
109,177,13051,1,4,0:0:0:0:
238,158,13212,1,0,0:0:0:0:
238,158,13293,1,0,0:0:0:0:
238,158,13373,1,8,0:0:0:0:
238,158,13535,1,8,0:0:0:0:
238,158,13696,1,4,0:0:0:0:
238,158,13857,1,0,0:0:0:0:
238,158,13938,1,0,0:0:0:0:
238,158,14018,1,8,0:0:0:0:
238,158,14180,1,8,0:0:0:0:
221,185,14260,1,8,0:0:0:0:
221,185,14341,1,0,0:0:0:0:
221,185,14422,1,8,0:0:0:0:
221,185,14502,1,0,0:0:0:0:
221,185,14664,1,8,0:0:0:0:
423,85,14825,1,0,0:0:0:0:
423,85,14906,1,0,0:0:0:0:
423,85,14986,1,8,0:0:0:0:
258,189,15147,1,0,0:0:0:0:
258,189,15309,1,12,0:0:0:0:
258,189,15470,1,12,0:0:0:0:
258,189,15631,1,4,0:0:0:0:
242,173,15793,1,0,0:0:0:0:
242,173,15874,1,0,0:0:0:0:
242,173,15955,1,8,0:0:0:0:
242,173,16116,1,8,0:0:0:0:
242,173,16277,1,4,0:0:0:0:
284,91,16439,1,0,0:0:0:0:
284,91,16519,1,0,0:0:0:0:
284,91,16600,1,8,0:0:0:0:
284,91,16761,1,4,0:0:0:0:
183,143,17084,1,0,0:0:0:0:
183,143,17245,1,8,0:0:0:0:
183,143,17406,1,0,0:0:0:0:
183,143,17487,1,0,0:0:0:0:
183,143,17568,1,0,0:0:0:0:
109,177,17729,1,0,0:0:0:0:
109,177,17890,1,12,0:0:0:0:
109,177,18051,1,12,0:0:0:0:
109,177,18213,1,4,0:0:0:0:
238,158,18374,1,0,0:0:0:0:
238,158,18455,1,0,0:0:0:0:
238,158,18535,1,8,0:0:0:0:
238,158,18697,1,8,0:0:0:0:
238,158,18858,1,4,0:0:0:0:
238,158,19019,1,0,0:0:0:0:
238,158,19100,1,0,0:0:0:0:
238,158,19180,1,8,0:0:0:0:
238,158,19342,1,8,0:0:0:0:
221,185,19422,1,8,0:0:0:0:
221,185,19503,1,0,0:0:0:0:
221,185,19584,1,8,0:0:0:0:
221,185,19664,1,0,0:0:0:0:
221,185,19826,1,8,0:0:0:0:
423,85,19986,1,0,0:0:0:0:
423,85,20067,1,0,0:0:0:0:
423,85,20148,1,8,0:0:0:0:
258,189,20309,1,0,0:0:0:0:
258,189,20471,1,12,0:0:0:0:
258,189,20631,1,0,0:0:0:0:
159,187,20793,1,4,0:0:0:0:
192,160,20954,1,8,0:0:0:0:
511,276,21115,1,8,0:0:0:0:
192,160,21277,1,8,0:0:0:0:
292,145,21438,1,0,0:0:0:0:
141,151,21518,1,0,0:0:0:0:
192,160,21599,1,8,0:0:0:0:
292,145,21760,1,8,0:0:0:0:
292,145,21922,1,0,0:0:0:0:
418,248,22002,1,0,0:0:0:0:
292,145,22083,1,8,0:0:0:0:
292,145,22164,1,0,0:0:0:0:
292,145,22244,1,8,0:0:0:0:
418,248,22406,1,8,0:0:0:0:
256,96,22459,1,8,0:0:0:0:
160,32,22513,1,8,0:0:0:0:
256,96,22567,1,0,0:0:0:0:
256,96,22647,1,0,0:0:0:0:
315,150,22728,1,8,0:0:0:0:
315,150,22809,1,0,0:0:0:0:
315,150,22889,1,8,0:0:0:0:
315,150,22970,1,8,0:0:0:0:
315,150,23051,1,0,0:0:0:0:
315,150,23212,1,8,0:0:0:0:
183,57,23373,1,4,0:0:0:0:
215,232,23696,1,8,0:0:0:0:
215,232,23857,1,0,0:0:0:0:
215,232,23938,1,0,0:0:0:0:
215,232,24018,1,0,0:0:0:0:
215,232,24180,1,0,0:0:0:0:
215,232,24341,1,8,0:0:0:0:
171,85,24502,1,0,0:0:0:0:
171,85,24583,1,0,0:0:0:0:
171,85,24664,1,8,0:0:0:0:
171,85,24744,1,8,0:0:0:0:
171,85,24825,1,8,0:0:0:0:
171,85,24986,1,8,0:0:0:0:
192,160,25147,1,0,0:0:0:0:
192,160,25228,1,0,0:0:0:0:
192,160,25309,1,8,0:0:0:0:
288,192,25631,1,12,0:0:0:0:
288,192,25793,1,12,0:0:0:0:
288,192,25954,1,0,0:0:0:0:
288,160,26277,1,12,0:0:0:0:
256,128,26438,1,0,0:0:0:0:
256,128,26518,1,0,0:0:0:0:
256,128,26599,1,0,0:0:0:0:
256,128,26760,1,0,0:0:0:0:
256,128,26922,1,8,0:0:0:0:
256,128,27083,1,0,0:0:0:0:
320,128,27164,1,0,0:0:0:0:
320,128,27244,1,8,0:0:0:0:
320,128,27325,1,0,0:0:0:0:
320,128,27406,1,8,0:0:0:0:
320,128,27567,1,8,0:0:0:0:
288,160,27728,1,0,0:0:0:0:
288,160,27809,1,0,0:0:0:0:
288,160,27889,1,8,0:0:0:0:
384,96,28051,1,0,0:0:0:0:
384,96,28212,1,12,0:0:0:0:
384,96,28373,1,12,0:0:0:0:
384,96,28535,1,4,0:0:0:0:
215,232,28857,1,8,0:0:0:0:
215,232,29018,1,0,0:0:0:0:
215,232,29099,1,0,0:0:0:0:
215,232,29179,1,0,0:0:0:0:
215,232,29341,1,0,0:0:0:0:
215,232,29502,1,8,0:0:0:0:
171,85,29663,1,0,0:0:0:0:
171,85,29744,1,8,0:0:0:0:
171,85,29825,1,8,0:0:0:0:
171,85,29905,1,8,0:0:0:0:
171,85,29986,1,0,0:0:0:0:
171,85,30147,1,0,0:0:0:0:
192,160,30309,1,8,0:0:0:0:
192,160,30389,1,8,0:0:0:0:
192,160,30470,1,0,0:0:0:0:
288,192,30792,1,12,0:0:0:0:
288,192,30954,1,12,0:0:0:0:
288,192,31115,1,4,0:0:0:0:
288,160,31438,1,8,0:0:0:0:
256,128,31599,1,0,0:0:0:0:
256,128,31760,1,8,0:0:0:0:
256,128,32083,1,8,0:0:0:0:
256,128,32244,1,0,0:0:0:0:
288,160,32406,1,8,0:0:0:0:
288,160,32567,1,0,0:0:0:0:
288,160,32728,1,0,0:0:0:0:
384,256,32889,1,8,0:0:0:0:
384,256,33051,1,0,0:0:0:0:
384,256,33131,1,0,0:0:0:0:
384,256,33212,1,0,0:0:0:0:
384,256,33293,1,0,0:0:0:0:
384,256,33373,1,8,0:0:0:0:
384,256,33454,1,0,0:0:0:0:
384,256,33535,1,8,0:0:0:0:
384,256,33696,1,12,0:0:0:0:
256,160,33857,1,0,0:0:0:0:
256,160,34180,1,0,0:0:0:0:
256,160,34341,1,8,0:0:0:0:
256,160,34502,1,0,0:0:0:0:
192,192,34664,1,8,0:0:0:0:
192,192,34825,1,0,0:0:0:0:
192,192,34906,1,0,0:0:0:0:
192,192,34986,1,8,0:0:0:0:
192,192,35067,1,0,0:0:0:0:
192,192,35147,1,8,0:0:0:0:
192,192,35309,1,8,0:0:0:0:
352,96,35363,1,0,0:0:0:0:
352,96,35416,1,0,0:0:0:0:
352,96,35470,1,8,0:0:0:0:
320,96,35551,1,8,0:0:0:0:
320,96,35631,1,0,0:0:0:0:
320,96,35712,1,0,0:0:0:0:
320,96,35793,1,0,0:0:0:0:
320,96,35873,1,0,0:0:0:0:
320,96,35954,1,8,0:0:0:0:
320,96,36035,1,8,0:0:0:0:
320,96,36115,1,0,0:0:0:0:
216,171,36277,5,12,0:0:0:0:
354,139,36599,1,12,0:0:0:0:
211,152,36760,1,4,0:0:0:0:
211,152,36922,1,0,0:0:0:0:
321,167,36975,1,0,0:0:0:0:
321,167,37029,1,0,0:0:0:0:
321,167,37083,1,0,0:0:0:0:
321,167,37164,1,0,0:0:0:0:
321,167,37244,1,8,0:0:0:0:
225,116,37406,1,8,0:0:0:0:
225,116,37486,1,8,0:0:0:0:
225,116,37567,1,0,0:0:0:0:
225,116,37647,1,0,0:0:0:0:
225,116,37728,1,8,0:0:0:0:
157,89,37849,1,0,0:0:0:0:
157,89,37889,1,8,0:0:0:0:
278,142,38131,1,0,0:0:0:0:
181,147,38212,1,8,0:0:0:0:
278,142,38293,1,8,0:0:0:0:
278,142,38373,1,0,0:0:0:0:
278,142,38454,1,8,0:0:0:0:
278,142,38535,1,8,0:0:0:0:
130,129,38696,1,0,0:0:0:0:
392,21,38857,1,0,0:0:0:0:
341,61,38897,1,0,0:0:0:0:
182,70,38938,1,0,0:0:0:0:
203,25,39018,1,8,0:0:0:0:
406,159,39180,1,8,0:0:0:0:
406,159,39234,1,8,0:0:0:0:
406,159,39287,1,8,0:0:0:0:
406,159,39341,1,0,0:0:0:0:
112,31,39422,1,0,0:0:0:0:
403,9,39502,1,8,0:0:0:0:
237,111,39664,1,0,0:0:0:0:
237,111,39825,1,8,0:0:0:0:
237,111,39986,1,0,0:0:0:0:
197,145,40067,1,0,0:0:0:0:
237,111,40147,1,8,0:0:0:0:
197,145,40228,1,8,0:0:0:0:
197,145,40309,1,0,0:0:0:0:
156,130,40470,1,8,0:0:0:0:
206,164,40551,1,8,0:0:0:0:
206,164,40631,1,0,0:0:0:0:
206,164,40712,1,0,0:0:0:0:
206,164,40793,1,8,0:0:0:0:
255,145,40846,1,8,0:0:0:0:
255,145,40900,1,8,0:0:0:0:
255,145,40954,1,0,0:0:0:0:
314,157,41115,1,8,0:0:0:0:
314,157,41169,1,0,0:0:0:0:
314,157,41223,1,0,0:0:0:0:
314,157,41277,1,0,0:0:0:0:
141,192,41438,2,0,L|229:246,1,77.0000023498536
266,137,41760,1,12,0:0:0:0:
257,159,41922,1,4,0:0:0:0:
261,167,42083,1,0,0:0:0:0:
231,122,42137,1,0,0:0:0:0:
200,46,42191,1,0,0:0:0:0:
231,122,42244,1,0,0:0:0:0:
160,32,42325,1,0,0:0:0:0:
179,146,42406,1,8,0:0:0:0:
217,149,42567,1,8,0:0:0:0:
128,192,42647,1,0,0:0:0:0:
217,149,42728,1,8,0:0:0:0:
217,149,42809,1,0,0:0:0:0:
217,149,42889,1,8,0:0:0:0:
231,122,43010,1,0,0:0:0:0:
231,122,43051,1,8,0:0:0:0:
278,142,43292,1,0,0:0:0:0:
181,147,43373,1,8,0:0:0:0:
278,142,43454,1,8,0:0:0:0:
278,142,43534,1,0,0:0:0:0:
278,142,43615,1,8,0:0:0:0:
278,142,43696,1,8,0:0:0:0:
130,129,43857,1,0,0:0:0:0:
96,222,44018,2,0,L|152:293,1,77.0000023498536
406,159,44341,1,8,0:0:0:0:
406,159,44395,1,8,0:0:0:0:
406,159,44448,1,8,0:0:0:0:
406,159,44502,1,0,0:0:0:0:
112,31,44664,1,0,0:0:0:0:
237,111,44825,1,0,0:0:0:0:
237,111,44986,1,8,0:0:0:0:
237,111,45147,1,0,0:0:0:0:
197,145,45228,1,0,0:0:0:0:
237,111,45308,1,8,0:0:0:0:
197,145,45389,1,8,0:0:0:0:
197,145,45470,1,0,0:0:0:0:
156,130,45631,1,8,0:0:0:0:
206,164,45792,1,0,0:0:0:0:
206,164,45873,1,0,0:0:0:0:
206,164,45954,1,8,0:0:0:0:
255,145,46007,1,8,0:0:0:0:
255,145,46061,1,8,0:0:0:0:
255,145,46115,1,0,0:0:0:0:
314,157,46276,1,8,0:0:0:0:
314,157,46330,1,0,0:0:0:0:
314,157,46384,1,0,0:0:0:0:
314,157,46438,1,0,0:0:0:0:
154,156,46599,2,4,L|237:230,1,77.0000023498536
64,64,46922,1,0,0:0:0:0:
64,64,46975,1,0,0:0:0:0:
64,64,47029,1,0,0:0:0:0:
64,64,47083,1,0,0:0:0:0:
288,32,47164,1,0,0:0:0:0:
128,64,47244,1,8,0:0:0:0:
384,128,47406,1,0,0:0:0:0:
384,128,47567,1,8,0:0:0:0:
384,128,47728,1,4,0:0:0:0:
256,192,47889,1,8,0:0:0:0:
256,192,47970,1,0,0:0:0:0:
256,192,48051,1,8,0:0:0:0:
256,64,48131,1,0,0:0:0:0:
192,128,48172,1,0,0:0:0:0:
256,192,48212,1,8,0:0:0:0:
256,128,48373,1,0,0:0:0:0:
256,128,48454,1,0,0:0:0:0:
224,96,48535,1,8,0:0:0:0:
160,64,48615,1,8,0:0:0:0:
160,64,48696,1,0,0:0:0:0:
160,64,48777,1,8,0:0:0:0:
160,64,48857,1,0,0:0:0:0:
64,128,49018,1,8,0:0:0:0:
160,64,49180,1,0,0:0:0:0:
224,224,49234,1,0,0:0:0:0:
224,224,49287,1,0,0:0:0:0:
224,224,49341,1,0,0:0:0:0:
128,96,49422,1,0,0:0:0:0:
64,128,49502,1,8,0:0:0:0:
96,128,49583,1,0,0:0:0:0:
96,128,49664,1,8,0:0:0:0:
288,192,49717,1,8,0:0:0:0:
288,192,49771,1,8,0:0:0:0:
288,192,49825,1,0,0:0:0:0:
288,192,49986,1,12,0:0:0:0:
288,160,50147,1,4,0:0:0:0:
288,160,50309,1,4,0:0:0:0:
320,128,50470,1,0,0:0:0:0:
320,128,50551,1,0,0:0:0:0:
320,128,50631,1,8,0:0:0:0:
256,128,50712,1,0,0:0:0:0:
320,128,50752,1,0,0:0:0:0:
320,128,50793,1,8,0:0:0:0:
256,160,50954,1,0,0:0:0:0:
256,160,51035,1,8,0:0:0:0:
256,160,51115,1,0,0:0:0:0:
256,160,51277,1,8,0:0:0:0:
256,160,51357,1,0,0:0:0:0:
128,128,51438,1,8,0:0:0:0:
128,128,51599,1,0,0:0:0:0:
96,128,51760,1,0,0:0:0:0:
160,128,51801,1,0,0:0:0:0:
224,96,51841,1,0,0:0:0:0:
224,96,51922,1,8,0:0:0:0:
320,96,52083,1,8,0:0:0:0:
256,224,52137,1,0,0:0:0:0:
256,128,52191,1,0,0:0:0:0:
256,224,52244,1,8,0:0:0:0:
384,192,52406,1,0,0:0:0:0:
384,192,52459,1,0,0:0:0:0:
384,64,52513,1,0,0:0:0:0:
416,96,52567,1,0,0:0:0:0:
288,160,52647,1,0,0:0:0:0:
288,160,52728,1,8,0:0:0:0:
320,192,52889,1,12,0:0:0:0:
192,160,53051,1,0,0:0:0:0:
192,160,53131,1,0,0:0:0:0:
192,160,53212,1,8,0:0:0:0:
192,160,53293,1,0,0:0:0:0:
384,64,53333,1,0,0:0:0:0:
416,64,53373,1,8,0:0:0:0:
160,160,53535,1,0,0:0:0:0:
160,160,53615,1,8,0:0:0:0:
160,160,53696,1,0,0:0:0:0:
160,160,53777,1,0,0:0:0:0:
160,160,53857,1,8,0:0:0:0:
128,96,53938,1,0,0:0:0:0:
128,96,54018,1,8,0:0:0:0:
128,96,54180,1,0,0:0:0:0:
224,64,54341,1,12,0:0:0:0:
224,64,54502,1,0,0:0:0:0:
224,192,54664,1,8,0:0:0:0:
224,192,54825,1,0,0:0:0:0:
224,192,54986,1,8,0:0:0:0:
384,160,55147,1,0,0:0:0:0:
384,160,55309,1,8,0:0:0:0:
384,160,55470,1,0,0:0:0:0:
288,160,55631,1,8,0:0:0:0:
288,160,55793,1,8,0:0:0:0:
288,160,55954,1,8,0:0:0:0:
192,160,56115,5,8,0:0:0:0:
192,160,56277,1,8,0:0:0:0:
192,160,56357,1,8,0:0:0:0:
192,160,56438,1,8,0:0:0:0:
192,160,56518,1,8,0:0:0:0:
192,160,56599,1,8,0:0:0:0:
192,160,56680,1,8,0:0:0:0:
192,160,56760,1,8,0:0:0:0:
145,208,56841,1,8,0:0:0:0:
192,160,56922,1,4,0:0:0:0:
384,224,57728,1,0,0:0:0:0:
275,181,57970,1,8,0:0:0:0:
165,109,58051,1,0,0:0:0:0:
165,109,58212,1,0,0:0:0:0:
165,109,58373,1,0,0:0:0:0:
213,151,58535,1,8,0:0:0:0:
213,151,58696,1,0,0:0:0:0:
213,151,58777,1,8,0:0:0:0:
213,151,58857,1,0,0:0:0:0:
213,151,58938,1,0,0:0:0:0:
213,151,59018,1,8,0:0:0:0:
213,151,59180,1,0,0:0:0:0:
176,149,59502,1,4,0:0:0:0:
236,94,59664,1,8,0:0:0:0:
236,94,59825,1,8,0:0:0:0:
236,94,59986,1,0,0:0:0:0:
236,94,60147,1,8,0:0:0:0:
236,94,60309,1,0,0:0:0:0:
236,94,60389,1,8,0:0:0:0:
236,94,60470,1,8,0:0:0:0:
236,94,60551,1,8,0:0:0:0:
236,94,60631,1,0,0:0:0:0:
236,94,60712,1,8,0:0:0:0:
236,94,60793,1,0,0:0:0:0:
236,94,60954,1,8,0:0:0:0:
360,204,61035,1,0,0:0:0:0:
236,94,61115,1,8,0:0:0:0:
236,94,61277,1,8,0:0:0:0:
236,94,61438,1,0,0:0:0:0:
103,130,61599,1,8,0:0:0:0:
111,128,61760,1,8,0:0:0:0:
112,127,61922,1,8,0:0:0:0:
113,127,62083,1,0,0:0:0:0:
360,204,62164,1,0,0:0:0:0:
360,204,62244,1,8,0:0:0:0:
360,204,62325,1,8,0:0:0:0:
360,204,62406,1,0,0:0:0:0:
360,204,62486,1,8,0:0:0:0:
281,164,62567,1,8,0:0:0:0:
141,77,62621,1,8,0:0:0:0:
360,204,62674,1,8,0:0:0:0:
360,204,62728,1,0,0:0:0:0:
298,139,62889,1,8,0:0:0:0:
298,139,62970,1,8,0:0:0:0:
298,139,63051,1,0,0:0:0:0:
298,139,63212,1,8,0:0:0:0:
400,183,63373,1,0,0:0:0:0:
400,183,63535,1,8,0:0:0:0:
239,68,63615,1,8,0:0:0:0:
239,68,63696,1,0,0:0:0:0:
239,68,63777,1,0,0:0:0:0:
239,68,63857,1,8,0:0:0:0:
239,68,63938,1,8,0:0:0:0:
239,68,64018,1,0,0:0:0:0:
169,124,64180,1,8,0:0:0:0:
387,227,64260,1,0,0:0:0:0:
169,124,64341,1,8,0:0:0:0:
169,124,64502,1,8,0:0:0:0:
169,124,64664,1,0,0:0:0:0:
184,183,64825,1,0,0:0:0:0:
260,182,64906,1,0,0:0:0:0:
184,183,64986,1,8,0:0:0:0:
184,183,65147,1,0,0:0:0:0:
182,144,65309,1,8,0:0:0:0:
182,144,65470,1,0,0:0:0:0:
182,144,65551,1,8,0:0:0:0:
260,182,65631,1,8,0:0:0:0:
260,182,65712,1,0,0:0:0:0:
260,182,65793,1,8,0:0:0:0:
260,182,65873,1,8,0:0:0:0:
260,182,65954,1,0,0:0:0:0:
224,170,66115,1,8,0:0:0:0:
224,170,66196,1,8,0:0:0:0:
224,170,66277,1,8,0:0:0:0:
224,170,66438,1,8,0:0:0:0:
224,170,66599,1,0,0:0:0:0:
227,182,66760,1,8,0:0:0:0:
227,182,66841,1,0,0:0:0:0:
227,182,66922,1,8,0:0:0:0:
227,182,67083,1,8,0:0:0:0:
318,237,67244,1,0,0:0:0:0:
427,235,67325,1,8,0:0:0:0:
427,235,67406,1,0,0:0:0:0:
427,235,67486,1,0,0:0:0:0:
427,235,67567,1,8,0:0:0:0:
427,235,67647,1,0,0:0:0:0:
427,235,67728,1,8,0:0:0:0:
235,93,67782,1,8,0:0:0:0:
427,235,67836,1,8,0:0:0:0:
427,235,67889,1,0,0:0:0:0:
171,144,68051,1,8,0:0:0:0:
171,144,68131,1,8,0:0:0:0:
171,144,68212,1,0,0:0:0:0:
171,144,68373,1,8,0:0:0:0:
121,82,68535,1,0,0:0:0:0:
121,82,68696,1,8,0:0:0:0:
121,82,68777,1,0,0:0:0:0:
121,82,68857,1,8,0:0:0:0:
121,82,68938,1,8,0:0:0:0:
121,82,69018,1,0,0:0:0:0:
121,82,69099,1,0,0:0:0:0:
121,82,69180,1,8,0:0:0:0:
191,109,69341,1,12,0:0:0:0:
191,109,69502,1,0,0:0:0:0:
191,109,69664,1,12,0:0:0:0:
191,109,69825,1,4,0:0:0:0:
236,94,69986,1,8,0:0:0:0:
236,94,70147,1,8,0:0:0:0:
162,172,70228,1,8,0:0:0:0:
236,94,70308,1,0,0:0:0:0:
236,94,70469,1,8,0:0:0:0:
236,94,70631,1,0,0:0:0:0:
236,94,70711,1,8,0:0:0:0:
236,94,70792,1,8,0:0:0:0:
236,94,70873,1,0,0:0:0:0:
236,94,70953,1,0,0:0:0:0:
236,94,71034,1,8,0:0:0:0:
236,94,71115,1,0,0:0:0:0:
236,94,71276,1,8,0:0:0:0:
360,204,71357,1,0,0:0:0:0:
236,94,71437,1,8,0:0:0:0:
236,94,71599,1,8,0:0:0:0:
236,94,71760,1,0,0:0:0:0:
103,130,71921,1,8,0:0:0:0:
163,133,72002,1,8,0:0:0:0:
111,128,72082,1,0,0:0:0:0:
112,127,72244,1,8,0:0:0:0:
113,127,72405,1,0,0:0:0:0:
360,204,72486,1,8,0:0:0:0:
360,204,72567,1,0,0:0:0:0:
360,204,72647,1,8,0:0:0:0:
360,204,72728,1,0,0:0:0:0:
360,204,72808,1,8,0:0:0:0:
281,164,72889,1,8,0:0:0:0:
141,77,72943,1,8,0:0:0:0:
360,204,72996,1,8,0:0:0:0:
360,204,73050,1,0,0:0:0:0:
298,139,73211,1,8,0:0:0:0:
298,139,73292,1,8,0:0:0:0:
298,139,73373,1,0,0:0:0:0:
298,139,73534,1,8,0:0:0:0:
400,183,73695,1,0,0:0:0:0:
400,183,73857,1,8,0:0:0:0:
239,68,73938,1,0,0:0:0:0:
239,68,74018,1,8,0:0:0:0:
239,68,74099,1,0,0:0:0:0:
239,68,74179,1,8,0:0:0:0:
239,68,74260,1,8,0:0:0:0:
239,68,74340,1,0,0:0:0:0:
169,124,74502,1,8,0:0:0:0:
387,227,74582,1,0,0:0:0:0:
169,124,74663,1,8,0:0:0:0:
169,124,74824,1,8,0:0:0:0:
169,124,74986,1,0,0:0:0:0:
184,183,75147,1,0,0:0:0:0:
260,182,75228,1,0,0:0:0:0:
184,183,75308,1,8,0:0:0:0:
184,183,75469,1,0,0:0:0:0:
182,144,75631,1,8,0:0:0:0:
182,144,75792,1,0,0:0:0:0:
182,144,75873,1,8,0:0:0:0:
260,182,75953,1,0,0:0:0:0:
260,182,76034,1,0,0:0:0:0:
260,182,76115,1,8,0:0:0:0:
260,182,76195,1,8,0:0:0:0:
260,182,76276,1,0,0:0:0:0:
224,170,76437,1,8,0:0:0:0:
224,170,76518,1,8,0:0:0:0:
224,170,76599,1,8,0:0:0:0:
224,170,76760,1,8,0:0:0:0:
224,170,76921,1,0,0:0:0:0:
227,182,77082,1,8,0:0:0:0:
227,182,77163,1,0,0:0:0:0:
227,182,77244,1,8,0:0:0:0:
227,182,77405,1,8,0:0:0:0:
318,237,77566,1,0,0:0:0:0:
427,235,77728,1,8,0:0:0:0:
204,62,77809,1,8,0:0:0:0:
427,235,77889,1,0,0:0:0:0:
427,235,78050,1,8,0:0:0:0:
427,235,78211,1,0,0:0:0:0:
171,144,78373,1,8,0:0:0:0:
171,144,78453,1,8,0:0:0:0:
171,144,78534,1,0,0:0:0:0:
171,144,78695,1,8,0:0:0:0:
121,82,79018,1,8,0:0:0:0:
121,82,79179,1,8,0:0:0:0:
95,136,79341,1,0,0:0:0:0:
121,82,79502,1,8,0:0:0:0:
191,109,79663,1,12,0:0:0:0:
191,109,79824,1,0,0:0:0:0:
191,109,79986,1,12,0:0:0:0:
51,112,80147,1,4,0:0:0:0:
236,94,80309,1,8,0:0:0:0:
236,94,80470,1,8,0:0:0:0:
236,94,80631,1,0,0:0:0:0:
236,94,80792,1,8,0:0:0:0:
236,94,80954,1,0,0:0:0:0:
236,94,81034,1,8,0:0:0:0:
236,94,81115,1,8,0:0:0:0:
236,94,81196,1,8,0:0:0:0:
236,94,81276,1,0,0:0:0:0:
236,94,81357,1,8,0:0:0:0:
236,94,81438,1,0,0:0:0:0:
236,94,81599,1,8,0:0:0:0:
360,204,81680,1,0,0:0:0:0:
236,94,81760,1,8,0:0:0:0:
236,94,81922,1,8,0:0:0:0:
236,94,82083,1,0,0:0:0:0:
103,130,82244,1,8,0:0:0:0:
111,128,82405,1,8,0:0:0:0:
112,127,82567,1,8,0:0:0:0:
113,127,82728,1,0,0:0:0:0:
360,204,82809,1,0,0:0:0:0:
360,204,82889,1,8,0:0:0:0:
360,204,82970,1,8,0:0:0:0:
360,204,83051,1,0,0:0:0:0:
360,204,83131,1,8,0:0:0:0:
281,164,83212,1,8,0:0:0:0:
141,77,83266,1,8,0:0:0:0:
360,204,83319,1,8,0:0:0:0:
360,204,83373,1,0,0:0:0:0:
298,139,83534,1,8,0:0:0:0:
298,139,83615,1,8,0:0:0:0:
298,139,83696,1,0,0:0:0:0:
298,139,83857,1,8,0:0:0:0:
400,183,84018,1,0,0:0:0:0:
400,183,84180,1,8,0:0:0:0:
239,68,84260,1,8,0:0:0:0:
239,68,84341,1,0,0:0:0:0:
239,68,84422,1,0,0:0:0:0:
239,68,84502,1,8,0:0:0:0:
239,68,84583,1,8,0:0:0:0:
239,68,84663,1,0,0:0:0:0:
169,124,84825,1,8,0:0:0:0:
387,227,84905,1,0,0:0:0:0:
169,124,84986,1,8,0:0:0:0:
169,124,85147,1,8,0:0:0:0:
169,124,85309,1,0,0:0:0:0:
184,183,85470,1,0,0:0:0:0:
260,182,85551,1,0,0:0:0:0:
184,183,85631,1,8,0:0:0:0:
184,183,85792,1,0,0:0:0:0:
182,144,85954,1,8,0:0:0:0:
182,144,86115,1,0,0:0:0:0:
182,144,86196,1,8,0:0:0:0:
260,182,86276,1,8,0:0:0:0:
260,182,86357,1,0,0:0:0:0:
260,182,86438,1,8,0:0:0:0:
260,182,86518,1,8,0:0:0:0:
260,182,86599,1,0,0:0:0:0:
224,170,86760,1,8,0:0:0:0:
224,170,86841,1,8,0:0:0:0:
224,170,86922,1,8,0:0:0:0:
224,170,87083,1,8,0:0:0:0:
224,170,87244,1,0,0:0:0:0:
227,182,87405,1,8,0:0:0:0:
227,182,87486,1,0,0:0:0:0:
227,182,87567,1,8,0:0:0:0:
227,182,87728,1,8,0:0:0:0:
318,237,87889,1,0,0:0:0:0:
427,235,87970,1,8,0:0:0:0:
427,235,88051,1,0,0:0:0:0:
427,235,88131,1,0,0:0:0:0:
427,235,88212,1,8,0:0:0:0:
427,235,88292,1,0,0:0:0:0:
427,235,88373,1,8,0:0:0:0:
235,93,88427,1,8,0:0:0:0:
427,235,88481,1,8,0:0:0:0:
427,235,88534,1,0,0:0:0:0:
171,144,88696,1,8,0:0:0:0:
171,144,88776,1,8,0:0:0:0:
171,144,88857,1,0,0:0:0:0:
171,144,89018,1,8,0:0:0:0:
121,82,89180,1,0,0:0:0:0:
121,82,89341,1,8,0:0:0:0:
121,82,89422,1,0,0:0:0:0:
121,82,89502,1,8,0:0:0:0:
121,82,89583,1,8,0:0:0:0:
121,82,89663,1,0,0:0:0:0:
121,82,89744,1,0,0:0:0:0:
121,82,89825,1,8,0:0:0:0:
191,109,89986,1,12,0:0:0:0:
191,109,90147,1,0,0:0:0:0:
191,109,90309,1,12,0:0:0:0:
331,197,90470,1,4,0:0:0:0:
331,197,90631,1,8,0:0:0:0:
331,197,90712,1,8,0:0:0:0:
331,197,90793,1,0,0:0:0:0:
175,88,90954,1,8,0:0:0:0:
175,88,91115,1,0,0:0:0:0:
161,92,91357,1,8,0:0:0:0:
161,92,91438,1,0,0:0:0:0:
161,93,91518,1,0,0:0:0:0:
161,93,91599,1,8,0:0:0:0:
161,93,91680,1,8,0:0:0:0:
161,93,91760,1,0,0:0:0:0:
199,110,91922,1,8,0:0:0:0:
199,110,92002,1,0,0:0:0:0:
199,110,92083,1,0,0:0:0:0:
199,110,92244,1,8,0:0:0:0:
199,110,92406,1,0,0:0:0:0:
170,42,92567,1,8,0:0:0:0:
115,33,92647,1,8,0:0:0:0:
258,167,92728,1,0,0:0:0:0:
258,167,92889,1,8,0:0:0:0:
219,130,93051,1,0,0:0:0:0:
219,134,93131,1,8,0:0:0:0:
219,134,93212,1,8,0:0:0:0:
219,134,93293,1,8,0:0:0:0:
219,134,93373,1,0,0:0:0:0:
238,162,93535,1,8,0:0:0:0:
325,121,93588,1,8,0:0:0:0:
325,121,93642,1,8,0:0:0:0:
325,121,93696,1,0,0:0:0:0:
173,144,93857,1,8,0:0:0:0:
173,144,94018,1,0,0:0:0:0:
173,144,94180,1,8,0:0:0:0:
173,144,94341,1,0,0:0:0:0:
228,172,94502,1,8,0:0:0:0:
228,172,94583,1,8,0:0:0:0:
228,172,94664,1,0,0:0:0:0:
228,172,94744,1,0,0:0:0:0:
228,172,94825,1,8,0:0:0:0:
175,104,94906,1,8,0:0:0:0:
175,104,94986,1,0,0:0:0:0:
212,165,95147,1,8,0:0:0:0:
212,165,95228,1,8,0:0:0:0:
212,165,95309,1,8,0:0:0:0:
212,165,95389,1,8,0:0:0:0:
212,165,95470,1,8,0:0:0:0:
212,165,95551,1,8,0:0:0:0:
212,165,95631,1,0,0:0:0:0:
307,195,95793,1,8,0:0:0:0:
307,195,95954,1,0,0:0:0:0:
307,195,96115,1,8,0:0:0:0:
307,195,96277,1,0,0:0:0:0:
307,195,96438,1,8,0:0:0:0:
307,195,96599,1,0,0:0:0:0:
307,195,96760,1,8,0:0:0:0:
307,195,96922,1,0,0:0:0:0:
307,195,97083,1,8,0:0:0:0:
307,195,97244,1,0,0:0:0:0:
307,195,97406,1,8,0:0:0:0:
307,195,97567,1,0,0:0:0:0:
307,195,97728,1,8,0:0:0:0:
307,195,97889,1,0,0:0:0:0:
307,195,98051,1,8,0:0:0:0:
307,195,98212,1,0,0:0:0:0:
390,222,98293,1,0,0:0:0:0:
390,222,98373,1,0,0:0:0:0:
390,222,98454,1,0,0:0:0:0:
390,222,98535,1,0,0:0:0:0:
390,222,98615,1,0,0:0:0:0:
390,222,98696,1,0,0:0:0:0:
390,222,98777,1,0,0:0:0:0:
390,222,98857,1,0,0:0:0:0:
390,222,98938,1,0,0:0:0:0:
390,222,99018,1,0,0:0:0:0:
390,222,99099,1,0,0:0:0:0:
390,222,99180,1,0,0:0:0:0:
390,222,99260,1,0,0:0:0:0:
390,222,99341,1,0,0:0:0:0:
390,222,99422,1,0,0:0:0:0:
248,209,99664,1,8,0:0:0:0:
248,209,99825,1,0,0:0:0:0:
248,209,99986,1,8,0:0:0:0:
137,155,100067,1,0,0:0:0:0:
248,209,100147,1,0,0:0:0:0:
248,209,100309,1,8,0:0:0:0:
248,209,100470,1,0,0:0:0:0:
248,209,100631,1,8,0:0:0:0:
248,209,100793,1,4,0:0:0:0:
242,173,100954,1,0,0:0:0:0:
242,173,101035,1,0,0:0:0:0:
242,173,101116,1,8,0:0:0:0:
242,173,101277,1,8,0:0:0:0:
242,173,101438,1,4,0:0:0:0:
284,91,101600,1,0,0:0:0:0:
284,91,101680,1,0,0:0:0:0:
284,91,101761,1,8,0:0:0:0:
284,91,101922,1,4,0:0:0:0:
183,143,102245,1,0,0:0:0:0:
183,143,102406,1,8,0:0:0:0:
183,143,102567,1,0,0:0:0:0:
183,143,102648,1,0,0:0:0:0:
183,143,102729,1,0,0:0:0:0:
109,177,102890,1,0,0:0:0:0:
109,177,103051,1,12,0:0:0:0:
109,177,103212,1,12,0:0:0:0:
109,177,103373,1,4,0:0:0:0:
238,158,103535,1,0,0:0:0:0:
238,158,103616,1,0,0:0:0:0:
238,158,103696,1,8,0:0:0:0:
238,158,103857,1,8,0:0:0:0:
238,158,104019,1,4,0:0:0:0:
238,158,104180,1,0,0:0:0:0:
238,158,104261,1,0,0:0:0:0:
238,158,104341,1,8,0:0:0:0:
238,158,104503,1,8,0:0:0:0:
221,185,104583,1,8,0:0:0:0:
221,185,104664,1,0,0:0:0:0:
221,185,104745,1,8,0:0:0:0:
221,185,104825,1,0,0:0:0:0:
221,185,104987,1,8,0:0:0:0:
423,85,105147,1,0,0:0:0:0:
423,85,105228,1,0,0:0:0:0:
423,85,105309,1,8,0:0:0:0:
258,189,105470,1,0,0:0:0:0:
258,189,105632,1,12,0:0:0:0:
258,189,105793,1,12,0:0:0:0:
258,189,105954,1,4,0:0:0:0:
242,173,106116,1,0,0:0:0:0:
242,173,106197,1,0,0:0:0:0:
242,173,106278,1,8,0:0:0:0:
242,173,106439,1,8,0:0:0:0:
242,173,106599,1,4,0:0:0:0:
284,91,106760,1,0,0:0:0:0:
284,91,106842,1,0,0:0:0:0:
284,91,106923,1,8,0:0:0:0:
284,91,107083,1,4,0:0:0:0:
183,143,107407,1,0,0:0:0:0:
183,143,107568,1,8,0:0:0:0:
183,143,107729,1,0,0:0:0:0:
183,143,107810,1,0,0:0:0:0:
183,143,107889,1,0,0:0:0:0:
109,177,108052,1,0,0:0:0:0:
109,177,108213,1,12,0:0:0:0:
109,177,108374,1,12,0:0:0:0:
109,177,108536,1,4,0:0:0:0:
238,158,108697,1,0,0:0:0:0:
238,158,108778,1,0,0:0:0:0:
238,158,108858,1,8,0:0:0:0:
238,158,109018,1,8,0:0:0:0:
238,158,109181,1,4,0:0:0:0:
238,158,109342,1,0,0:0:0:0:
238,158,109423,1,0,0:0:0:0:
238,158,109503,1,8,0:0:0:0:
238,158,109665,1,8,0:0:0:0:
221,185,109745,1,8,0:0:0:0:
221,185,109826,1,0,0:0:0:0:
221,185,109907,1,8,0:0:0:0:
221,185,109987,1,0,0:0:0:0:
221,185,110147,1,8,0:0:0:0:
423,85,110309,1,0,0:0:0:0:
423,85,110389,1,0,0:0:0:0:
423,85,110471,1,8,0:0:0:0:
258,189,110632,1,0,0:0:0:0:
258,189,110794,1,8,0:0:0:0:
258,189,110954,1,0,0:0:0:0:
31,108,111115,2,4,L|108:156,1,70
378,159,111438,1,0,0:0:0:0:
378,159,111492,1,0,0:0:0:0:
378,159,111545,1,0,0:0:0:0:
378,159,111599,1,0,0:0:0:0:
331,143,111680,1,0,0:0:0:0:
331,143,111760,1,8,0:0:0:0:
203,142,111922,1,0,0:0:0:0:
203,142,112083,1,8,0:0:0:0:
203,142,112244,1,4,0:0:0:0:
239,194,112406,1,0,0:0:0:0:
191,187,112486,1,8,0:0:0:0:
191,187,112567,1,0,0:0:0:0:
191,187,112728,1,8,0:0:0:0:
119,189,112889,1,0,0:0:0:0:
119,189,112970,1,8,0:0:0:0:
119,189,113051,1,8,0:0:0:0:
119,189,113131,1,0,0:0:0:0:
119,189,113212,1,8,0:0:0:0:
119,189,113373,1,8,0:0:0:0:
119,189,113535,1,8,0:0:0:0:
336,182,113696,1,0,0:0:0:0:
197,160,113857,1,0,0:0:0:0:
197,160,114018,1,8,0:0:0:0:
272,178,114180,1,8,0:0:0:0:
272,178,114260,1,0,0:0:0:0:
272,178,114422,1,0,0:0:0:0:
272,178,114502,1,8,0:0:0:0:
413,211,114664,1,8,0:0:0:0:
209,147,114825,1,0,0:0:0:0:
356,170,114906,1,8,0:0:0:0:
209,148,114986,1,0,0:0:0:0:
154,200,115067,1,0,0:0:0:0:
124,110,115147,1,0,0:0:0:0:
124,110,115309,1,8,0:0:0:0:
191,153,115470,1,0,0:0:0:0:
191,153,115551,1,8,0:0:0:0:
191,153,115631,1,8,0:0:0:0:
191,153,115712,1,0,0:0:0:0:
191,153,115793,1,8,0:0:0:0:
191,153,115954,1,8,0:0:0:0:
191,153,116035,1,8,0:0:0:0:
191,153,116115,1,0,0:0:0:0:
239,206,116277,1,0,0:0:0:0:
239,206,116438,1,0,0:0:0:0:
239,206,116599,1,8,0:0:0:0:
197,231,116760,1,0,0:0:0:0:
197,231,116841,1,0,0:0:0:0:
197,231,117002,1,0,0:0:0:0:
197,231,117083,1,8,0:0:0:0:
197,231,117244,1,8,0:0:0:0:
172,157,117406,1,0,0:0:0:0:
387,166,117728,1,0,0:0:0:0:
371,199,117889,1,8,0:0:0:0:
371,199,118051,1,0,0:0:0:0:
371,199,118131,1,8,0:0:0:0:
371,199,118212,1,8,0:0:0:0:
371,199,118293,1,0,0:0:0:0:
371,199,118373,1,8,0:0:0:0:
371,199,118535,1,8,0:0:0:0:
371,199,118615,1,8,0:0:0:0:
371,199,118696,1,0,0:0:0:0:
172,158,118857,1,12,0:0:0:0:
172,158,119018,1,0,0:0:0:0:
172,158,119180,1,8,0:0:0:0:
172,158,119341,1,0,0:0:0:0:
172,158,119502,1,8,0:0:0:0:
172,158,119664,1,0,0:0:0:0:
172,158,119825,1,8,0:0:0:0:
172,158,119986,1,0,0:0:0:0:
172,158,120147,1,8,0:0:0:0:
172,158,120309,1,8,0:0:0:0:
172,158,120470,1,8,0:0:0:0:
172,158,120631,1,8,0:0:0:0:
172,158,120793,1,8,0:0:0:0:
172,158,120873,1,8,0:0:0:0:
172,158,120954,1,8,0:0:0:0:
172,158,121035,1,8,0:0:0:0:
172,158,121115,1,8,0:0:0:0:
172,158,121196,1,8,0:0:0:0:
172,158,121277,1,8,0:0:0:0:
172,158,121357,1,8,0:0:0:0:
172,158,121438,1,0,0:0:0:0:
308,175,122244,1,8,0:0:0:0:
308,175,122486,1,8,0:0:0:0:
308,175,122567,1,0,0:0:0:0:
308,175,122728,1,0,0:0:0:0:
308,175,122889,1,0,0:0:0:0:
308,175,123051,1,8,0:0:0:0:
308,175,123212,1,0,0:0:0:0:
308,175,123293,1,8,0:0:0:0:
308,175,123373,1,0,0:0:0:0:
192,59,123454,1,0,0:0:0:0:
308,175,123535,1,8,0:0:0:0:
192,59,123696,1,4,0:0:0:0:
