osu file format v14

[General]
AudioFilename: audio.mp3
AudioLeadIn: 0
PreviewTime: 74029
Countdown: 0
SampleSet: Soft
StackLeniency: 0.7
Mode: 3
LetterboxInBreaks: 0
SpecialStyle: 0
WidescreenStoryboard: 1

[Editor]
Bookmarks: 1399,6577,11777,16948,22155,32534,42912,53290,63669,74047,94804,97398,102900,114263,125939,136155
DistanceSpacing: 0.8
BeatDivisor: 4
GridSize: 16
TimelineZoom: 1.3

[Metadata]
Title:Tithonus
TitleUnicode:Tithonus
Artist:ginkiha
ArtistUnicode:ginkiha
Creator:cai_ji_ccc
Version:YuEast's Whisper
Source:Lanota
Tags:nizi-ringo 生命の音 2.2 Ch. 6 The Sound of Life electronic instrumental yueast 2018 yuanliang Symphonic Hardcore Red Hologram main story VI-2 noxy games video game mobile
BeatmapID:3816245
BeatmapSetID:1834533

[Difficulty]
HPDrainRate:6.5
CircleSize:4
OverallDifficulty:6.5
ApproachRate:5
SliderMultiplier:1.4
SliderTickRate:1

[Events]
//Background and Video events
0,0,"IMG_20220823_115458.jpg",0,0
//Break Periods
//Storyboard Layer 0 (Background)
//Storyboard Layer 1 (Fail)
//Storyboard Layer 2 (Pass)
//Storyboard Layer 3 (Foreground)
//Storyboard Layer 4 (Overlay)
//Storyboard Sound Samples

[TimingPoints]
1288,324.324324324324,4,2,1,50,1,0
6470,324.324324324324,4,2,1,50,1,0
16848,-100,4,2,1,50,0,1
21388,-100,4,2,1,50,0,0
22037,-100,4,2,1,50,0,1
32415,-100,4,2,1,50,0,0
42794,-100,4,2,1,50,0,1
53172,-100,4,2,1,50,0,0
97280,-100,4,2,1,50,0,1
114145,-100,4,2,1,50,0,0
115442,-100,4,2,1,50,0,1
125821,-100,4,2,1,50,0,0

[HitObjects]
64,192,1288,128,0,2585:0:0:0:0:
320,192,2585,128,0,3882:0:0:0:0:
192,192,3882,128,0,5179:0:0:0:0:
448,192,5179,128,0,6470:0:0:0:0:
64,192,6470,1,2,0:0:0:0:
64,192,7118,1,2,0:0:0:0:
64,192,7767,1,2,0:0:0:0:
64,192,8415,1,2,0:0:0:0:
448,192,8740,1,2,0:0:0:0:
320,192,9064,1,2,0:0:0:0:
64,192,9388,1,10,0:0:0:0:
320,192,9713,1,2,0:0:0:0:
64,192,10037,1,10,0:0:0:0:
320,192,10361,1,2,0:0:0:0:
192,192,10686,1,10,0:0:0:0:
448,192,11010,1,2,0:0:0:0:
448,192,11334,1,2,0:0:0:0:
64,192,11659,1,2,0:0:0:0:
320,192,11983,1,2,0:0:0:0:
192,192,12307,1,2,0:0:0:0:
448,192,12632,1,2,0:0:0:0:
64,192,12956,1,2,0:0:0:0:
320,192,13280,1,2,0:0:0:0:
192,192,13605,1,2,0:0:0:0:
448,192,13929,1,10,0:0:0:0:
64,192,14253,1,2,0:0:0:0:
320,192,14578,1,10,0:0:0:0:
192,192,14902,1,2,0:0:0:0:
320,192,15226,1,10,0:0:0:0:
64,192,15551,1,2,0:0:0:0:
320,192,15875,1,10,0:0:0:0:
192,192,16199,1,2,0:0:0:0:
64,192,16848,1,2,0:0:0:0:
320,192,17172,1,10,0:0:0:0:
64,192,17497,1,2,0:0:0:0:
320,192,17821,1,10,0:0:0:0:
192,192,18145,1,2,0:0:0:0:
448,192,18469,1,10,0:0:0:0:
192,192,18794,1,2,0:0:0:0:
448,192,19118,1,10,0:0:0:0:
64,192,19442,1,2,0:0:0:0:
320,192,19767,1,10,0:0:0:0:
192,192,20091,1,2,0:0:0:0:
448,192,20415,1,10,0:0:0:0:
192,192,20740,1,2,0:0:0:0:
320,192,21064,1,12,0:0:0:0:
448,192,21064,1,2,0:0:0:0:
64,192,21388,1,6,0:0:0:0:
320,192,21551,1,6,0:0:0:0:
320,192,21875,1,6,0:0:0:0:
64,192,22037,1,4,0:0:0:0:
192,192,22037,1,2,0:0:0:0:
320,192,22361,1,10,0:0:0:0:
64,192,22686,1,2,0:0:0:0:
448,192,23010,1,10,0:0:0:0:
192,192,23334,1,2,0:0:0:0:
320,192,23659,1,10,0:0:0:0:
64,192,23983,1,2,0:0:0:0:
448,192,24307,1,10,0:0:0:0:
192,192,24632,1,2,0:0:0:0:
448,192,24956,1,10,0:0:0:0:
64,192,25280,1,2,0:0:0:0:
320,192,25605,1,10,0:0:0:0:
64,192,25929,1,2,0:0:0:0:
448,192,26253,1,10,0:0:0:0:
192,192,26578,1,2,0:0:0:0:
320,192,26902,1,10,0:0:0:0:
64,192,27226,1,10,0:0:0:0:
64,192,27551,1,10,0:0:0:0:
192,192,27875,1,10,0:0:0:0:
192,192,28199,1,10,0:0:0:0:
320,192,28524,1,10,0:0:0:0:
320,192,28848,1,10,0:0:0:0:
448,192,29172,1,10,0:0:0:0:
448,192,29497,1,10,0:0:0:0:
64,192,29821,128,10,30145:0:0:0:0:
192,192,30145,128,10,30469:0:0:0:0:
320,192,30469,128,10,30794:0:0:0:0:
448,192,30794,128,10,31118:0:0:0:0:
64,192,31118,1,2,0:0:0:0:
64,192,31442,1,2,0:0:0:0:
320,192,31767,1,2,0:0:0:0:
320,192,32091,1,2,0:0:0:0:
448,192,32415,1,0,0:0:0:0:
448,192,33713,1,0,0:0:0:0:
320,192,34361,1,0,0:0:0:0:
192,192,34848,1,0,0:0:0:0:
64,192,35659,1,0,0:0:0:0:
192,192,36307,1,0,0:0:0:0:
320,192,36956,1,0,0:0:0:0:
448,192,37605,128,0,38578:0:0:0:0:
64,192,38902,1,0,0:0:0:0:
192,192,39551,1,0,0:0:0:0:
320,192,40037,1,0,0:0:0:0:
448,192,40524,1,0,0:0:0:0:
320,192,40848,1,0,0:0:0:0:
64,192,41334,1,2,0:0:0:0:
448,192,41334,1,4,0:0:0:0:
192,192,41659,1,6,0:0:0:0:
320,192,41983,1,6,0:0:0:0:
448,192,42307,1,6,0:0:0:0:
64,192,42469,128,2,42794:0:0:0:0:
320,192,42794,1,4,0:0:0:0:
448,192,42794,1,2,0:0:0:0:
64,192,43118,1,10,0:0:0:0:
320,192,43442,1,2,0:0:0:0:
192,192,43767,1,10,0:0:0:0:
448,192,44091,1,2,0:0:0:0:
192,192,44415,1,10,0:0:0:0:
320,192,44740,1,2,0:0:0:0:
64,192,45064,1,10,0:0:0:0:
448,192,45388,1,2,0:0:0:0:
192,192,45713,1,10,0:0:0:0:
448,192,46037,1,2,0:0:0:0:
192,192,46361,1,10,0:0:0:0:
448,192,46686,1,2,0:0:0:0:
64,192,47010,1,10,0:0:0:0:
320,192,47334,1,2,0:0:0:0:
192,192,47659,1,10,0:0:0:0:
448,192,47983,1,10,0:0:0:0:
448,192,48307,1,10,0:0:0:0:
320,192,48632,1,10,0:0:0:0:
320,192,48956,1,10,0:0:0:0:
192,192,49280,1,10,0:0:0:0:
192,192,49605,1,10,0:0:0:0:
64,192,49929,1,10,0:0:0:0:
320,192,50091,1,10,0:0:0:0:
320,192,50415,1,10,0:0:0:0:
192,192,50740,128,10,51226:0:0:0:0:
448,192,51226,1,2,0:0:0:0:
64,192,51388,1,14,0:0:0:0:
320,192,51875,1,4,0:0:0:0:
448,192,51875,1,2,0:0:0:0:
192,192,52524,1,4,0:0:0:0:
320,192,52524,1,2,0:0:0:0:
64,192,53172,1,4,0:0:0:0:
192,192,53172,1,2,0:0:0:0:
448,192,53821,1,10,0:0:0:0:
192,192,54469,1,2,0:0:0:0:
448,192,55118,1,10,0:0:0:0:
320,192,55605,1,2,0:0:0:0:
64,192,55767,1,2,0:0:0:0:
448,192,56091,1,10,0:0:0:0:
192,192,56415,1,2,0:0:0:0:
320,192,56740,1,10,0:0:0:0:
64,192,57064,1,2,0:0:0:0:
192,192,57307,1,2,0:0:0:0:
320,192,57551,1,2,0:0:0:0:
64,192,57713,1,2,0:0:0:0:
448,192,58037,1,10,0:0:0:0:
320,192,58199,1,2,0:0:0:0:
192,192,58361,1,2,0:0:0:0:
448,192,58686,1,10,0:0:0:0:
192,192,59010,1,2,0:0:0:0:
320,192,59334,1,10,0:0:0:0:
64,192,59659,1,2,0:0:0:0:
320,192,59983,1,10,0:0:0:0:
64,192,60307,1,2,0:0:0:0:
320,192,60551,1,2,0:0:0:0:
192,192,60794,1,2,0:0:0:0:
448,192,60956,1,2,0:0:0:0:
192,192,61199,1,2,0:0:0:0:
320,192,61442,1,2,0:0:0:0:
64,192,61605,1,2,0:0:0:0:
320,192,61848,1,2,0:0:0:0:
192,192,62091,1,2,0:0:0:0:
448,192,62253,1,2,0:0:0:0:
448,192,62578,1,2,0:0:0:0:
64,192,62902,128,2,63226:0:0:0:0:
192,192,63226,128,2,63551:0:0:0:0:
448,192,63551,1,2,0:0:0:0:
192,192,63875,1,10,0:0:0:0:
320,192,64199,1,2,0:0:0:0:
64,192,64524,1,10,0:0:0:0:
448,192,64848,1,2,0:0:0:0:
192,192,65172,1,10,0:0:0:0:
320,192,65497,1,2,0:0:0:0:
64,192,65821,1,10,0:0:0:0:
320,192,66145,1,2,0:0:0:0:
192,192,66469,1,10,0:0:0:0:
448,192,66794,1,2,0:0:0:0:
64,192,67118,1,10,0:0:0:0:
320,192,67442,1,2,0:0:0:0:
192,192,67767,1,10,0:0:0:0:
448,192,68091,1,2,0:0:0:0:
64,192,68415,1,10,0:0:0:0:
320,192,68740,1,10,0:0:0:0:
320,192,69064,1,10,0:0:0:0:
192,192,69388,1,10,0:0:0:0:
192,192,69713,1,10,0:0:0:0:
448,192,70037,1,10,0:0:0:0:
448,192,70361,1,10,0:0:0:0:
64,192,70686,1,10,0:0:0:0:
64,192,71010,1,10,0:0:0:0:
448,192,71334,128,2,71659:0:0:0:0:
320,192,71659,128,2,71983:0:0:0:0:
192,192,71983,128,2,72307:0:0:0:0:
64,192,72307,128,2,72632:0:0:0:0:
448,192,72632,1,0,0:0:0:0:
192,192,72956,1,6,0:0:0:0:
448,192,73280,1,0,0:0:0:0:
192,192,73605,1,4,0:0:0:0:
64,192,73605,1,8,0:0:0:0:
448,192,73929,1,2,0:0:0:0:
192,192,74253,1,10,0:0:0:0:
320,192,74578,1,2,0:0:0:0:
64,192,74902,1,10,0:0:0:0:
320,192,75226,1,2,0:0:0:0:
192,192,75551,1,10,0:0:0:0:
448,192,75875,1,2,0:0:0:0:
320,192,76199,1,10,0:0:0:0:
192,192,76524,1,2,0:0:0:0:
448,192,76848,1,10,0:0:0:0:
64,192,77172,1,2,0:0:0:0:
320,192,77497,1,10,0:0:0:0:
64,192,77821,1,2,0:0:0:0:
448,192,78145,1,10,0:0:0:0:
192,192,78469,1,2,0:0:0:0:
448,192,78794,1,10,0:0:0:0:
64,192,79118,1,2,0:0:0:0:
320,192,79442,1,10,0:0:0:0:
192,192,79767,1,2,0:0:0:0:
448,192,80091,1,10,0:0:0:0:
192,192,80415,1,2,0:0:0:0:
320,192,80740,1,10,0:0:0:0:
64,192,81064,1,2,0:0:0:0:
192,192,81388,1,10,0:0:0:0:
320,192,81713,1,2,0:0:0:0:
64,192,82037,1,10,0:0:0:0:
320,192,82361,1,2,0:0:0:0:
192,192,82686,1,10,0:0:0:0:
448,192,83010,1,2,0:0:0:0:
64,192,83334,1,10,0:0:0:0:
320,192,83659,1,2,0:0:0:0:
192,192,83983,1,10,0:0:0:0:
448,192,84307,1,2,0:0:0:0:
64,192,84632,1,10,0:0:0:0:
320,192,84956,1,2,0:0:0:0:
192,192,85280,1,10,0:0:0:0:
448,192,85605,1,2,0:0:0:0:
64,192,85929,1,10,0:0:0:0:
448,192,86253,1,2,0:0:0:0:
320,192,86578,1,10,0:0:0:0:
192,192,86902,1,2,0:0:0:0:
448,192,87226,1,10,0:0:0:0:
192,192,87551,1,2,0:0:0:0:
320,192,87875,1,10,0:0:0:0:
64,192,88199,1,2,0:0:0:0:
448,192,88524,1,10,0:0:0:0:
192,192,88848,1,2,0:0:0:0:
320,192,89172,1,10,0:0:0:0:
64,192,89497,1,2,0:0:0:0:
64,192,89821,1,10,0:0:0:0:
192,192,90145,1,2,0:0:0:0:
192,192,90469,1,10,0:0:0:0:
320,192,90794,1,2,0:0:0:0:
320,192,91118,1,10,0:0:0:0:
448,192,91442,1,2,0:0:0:0:
448,192,91767,1,10,0:0:0:0:
64,192,92091,128,2,92415:0:0:0:0:
192,192,92415,128,2,92740:0:0:0:0:
320,192,92740,128,2,93064:0:0:0:0:
448,192,93064,128,2,93388:0:0:0:0:
64,192,93388,1,2,0:0:0:0:
192,192,93713,1,2,0:0:0:0:
320,192,94037,1,2,0:0:0:0:
448,192,94361,1,2,0:0:0:0:
64,192,94686,1,2,0:0:0:0:
320,192,95010,1,2,0:0:0:0:
192,192,95334,1,2,0:0:0:0:
448,192,95659,1,2,0:0:0:0:
64,192,95983,1,2,0:0:0:0:
320,192,96307,1,2,0:0:0:0:
192,192,96632,1,2,0:0:0:0:
448,192,96956,1,2,0:0:0:0:
64,192,97280,1,4,0:0:0:0:
192,192,97280,1,2,0:0:0:0:
448,192,97605,1,10,0:0:0:0:
192,192,97929,1,2,0:0:0:0:
320,192,98253,1,10,0:0:0:0:
64,192,98578,1,2,0:0:0:0:
448,192,98902,1,10,0:0:0:0:
192,192,99226,1,2,0:0:0:0:
448,192,99551,1,10,0:0:0:0:
64,192,99875,1,2,0:0:0:0:
320,192,100199,1,10,0:0:0:0:
64,192,100524,1,2,0:0:0:0:
448,192,100848,1,10,0:0:0:0:
192,192,101172,1,2,0:0:0:0:
320,192,101497,1,10,0:0:0:0:
64,192,101821,1,2,0:0:0:0:
320,192,102145,1,10,0:0:0:0:
192,192,102469,1,2,0:0:0:0:
448,192,102794,1,10,0:0:0:0:
192,192,103118,1,2,0:0:0:0:
320,192,103442,1,10,0:0:0:0:
64,192,103767,1,2,0:0:0:0:
448,192,104091,1,10,0:0:0:0:
192,192,104415,1,2,0:0:0:0:
448,192,104740,1,10,0:0:0:0:
192,192,105064,1,10,0:0:0:0:
192,192,105388,1,10,0:0:0:0:
320,192,105713,1,10,0:0:0:0:
320,192,106037,1,10,0:0:0:0:
64,192,106361,1,10,0:0:0:0:
64,192,106686,1,10,0:0:0:0:
448,192,107010,1,10,0:0:0:0:
448,192,107334,1,10,0:0:0:0:
192,192,107659,1,10,0:0:0:0:
192,192,107983,1,10,0:0:0:0:
320,192,108307,1,10,0:0:0:0:
320,192,108632,1,10,0:0:0:0:
64,192,108956,1,10,0:0:0:0:
64,192,109280,1,10,0:0:0:0:
448,192,109605,1,10,0:0:0:0:
448,192,109929,1,10,0:0:0:0:
64,192,110253,1,10,0:0:0:0:
64,192,110578,1,10,0:0:0:0:
192,192,110902,1,10,0:0:0:0:
192,192,111226,1,10,0:0:0:0:
320,192,111551,1,10,0:0:0:0:
320,192,111875,1,10,0:0:0:0:
448,192,112199,1,10,0:0:0:0:
448,192,112524,1,10,0:0:0:0:
64,192,112848,128,2,113172:0:0:0:0:
192,192,113172,128,2,113497:0:0:0:0:
320,192,113497,128,2,113821:0:0:0:0:
448,192,113821,128,2,114145:0:0:0:0:
64,192,114145,1,0,0:0:0:0:
192,192,114469,128,0,115118:0:0:0:0:
320,192,115118,1,6,0:0:0:0:
448,192,115280,1,2,0:0:0:0:
64,192,115442,1,4,0:0:0:0:
192,192,115442,1,2,0:0:0:0:
448,192,115767,1,10,0:0:0:0:
192,192,116091,1,2,0:0:0:0:
320,192,116415,1,10,0:0:0:0:
64,192,116740,1,2,0:0:0:0:
448,192,117064,1,10,0:0:0:0:
192,192,117388,1,2,0:0:0:0:
320,192,117713,1,10,0:0:0:0:
64,192,118037,1,2,0:0:0:0:
320,192,118361,1,10,0:0:0:0:
192,192,118686,1,2,0:0:0:0:
448,192,119010,1,10,0:0:0:0:
64,192,119334,1,2,0:0:0:0:
320,192,119659,1,10,0:0:0:0:
192,192,119983,1,2,0:0:0:0:
448,192,120307,1,10,0:0:0:0:
64,192,120632,1,10,0:0:0:0:
64,192,120956,1,10,0:0:0:0:
192,192,121280,1,10,0:0:0:0:
192,192,121605,1,10,0:0:0:0:
320,192,121929,1,10,0:0:0:0:
320,192,122253,1,10,0:0:0:0:
448,192,122578,1,10,0:0:0:0:
192,192,122740,1,10,0:0:0:0:
192,192,123064,1,10,0:0:0:0:
320,192,123388,128,10,123875:0:0:0:0:
64,192,123875,1,2,0:0:0:0:
448,192,124037,1,14,0:0:0:0:
64,192,124524,128,6,125172:0:0:0:0:
192,192,124524,1,8,0:0:0:0:
192,192,125172,128,4,125821:0:0:0:0:
320,192,125172,1,2,0:0:0:0:
448,192,125821,128,0,127767:0:0:0:0:
320,192,127767,1,0,0:0:0:0:
192,192,128091,1,0,0:0:0:0:
64,192,128415,128,0,129713:0:0:0:0:
192,192,129713,128,0,130361:0:0:0:0:
320,192,130361,128,0,131010:0:0:0:0:
448,192,131010,128,0,132956:0:0:0:0:
320,192,132956,1,0,0:0:0:0:
192,192,133280,1,0,0:0:0:0:
64,192,133605,128,0,134902:0:0:0:0:
192,192,134902,128,0,136199:0:0:0:0:
