osu file format v14

[General]
AudioFilename: audio.mp3
AudioLeadIn: 0
PreviewTime: 74029
Countdown: 0
SampleSet: Soft
StackLeniency: 0.7
Mode: 3
LetterboxInBreaks: 0
SpecialStyle: 0
WidescreenStoryboard: 1

[Editor]
Bookmarks: 1399,6577,11777,16948,22155,32534,42912,53290,63669,74047,94804,97398,102900,114263,125939,136155
DistanceSpacing: 0.8
BeatDivisor: 4
GridSize: 16
TimelineZoom: 1.1

[Metadata]
Title:Tithonus
TitleUnicode:Tithonus
Artist:ginkiha
ArtistUnicode:ginkiha
Creator:cai_ji_ccc
Version:Immortal Prince
Source:Lanota
Tags:nizi-ringo 生命の音 2.2 Ch. 6 The Sound of Life electronic instrumental yueast 2018 yuanliang Symphonic Hardcore Red Hologram main story VI-2 noxy games video game mobile
BeatmapID:3766295
BeatmapSetID:1834533

[Difficulty]
HPDrainRate:8.5
CircleSize:4
OverallDifficulty:8.5
ApproachRate:5
SliderMultiplier:1.4
SliderTickRate:1

[Events]
//Background and Video events
0,0,"IMG_20220823_115458.jpg",0,0
//Break Periods
//Storyboard Layer 0 (Background)
//Storyboard Layer 1 (Fail)
//Storyboard Layer 2 (Pass)
//Storyboard Layer 3 (Foreground)
//Storyboard Layer 4 (Overlay)
//Storyboard Sound Samples

[TimingPoints]
1288,324.324324324324,4,2,1,50,1,0
6470,324.324324324324,4,2,1,50,1,0
16848,-100,4,2,1,50,0,1
21388,-100,4,2,1,50,0,0
22037,-100,4,2,1,50,0,1
32415,-100,4,2,1,50,0,0
42794,-100,4,2,1,50,0,1
53172,-100,4,2,1,50,0,0
97280,-100,4,2,1,50,0,1
114145,-100,4,2,1,50,0,0
115442,-100,4,2,1,50,0,1
125821,-100,4,2,1,50,0,0

[HitObjects]
448,192,1288,5,0,0:0:0:0:
320,192,1450,1,0,0:0:0:0:
192,192,1612,1,0,0:0:0:0:
448,192,1774,1,0,0:0:0:0:
64,192,2044,1,0,0:0:0:0:
192,192,2071,1,0,0:0:0:0:
320,192,2098,1,0,0:0:0:0:
448,192,2585,1,0,0:0:0:0:
192,192,2909,1,0,0:0:0:0:
320,192,3233,1,0,0:0:0:0:
448,192,3558,1,0,0:0:0:0:
64,192,3882,1,0,0:0:0:0:
448,192,3909,1,0,0:0:0:0:
320,192,3936,1,0,0:0:0:0:
192,192,4044,1,0,0:0:0:0:
320,192,4206,1,0,0:0:0:0:
64,192,4369,1,0,0:0:0:0:
448,192,4693,1,0,0:0:0:0:
320,192,4855,1,0,0:0:0:0:
192,192,5017,1,0,0:0:0:0:
64,192,5179,1,0,0:0:0:0:
448,192,5504,1,0,0:0:0:0:
192,192,5666,1,0,0:0:0:0:
320,192,5828,1,0,0:0:0:0:
64,192,5990,1,0,0:0:0:0:
448,192,6152,1,0,0:0:0:0:
192,192,6315,1,0,0:0:0:0:
320,192,6470,1,2,0:0:0:0:
448,192,6470,1,0,0:0:0:0:
64,192,6632,1,0,0:0:0:0:
192,192,6794,1,0,0:0:0:0:
320,192,6956,1,0,0:0:0:0:
192,192,7118,1,2,0:0:0:0:
448,192,7118,1,0,0:0:0:0:
64,192,7280,1,0,0:0:0:0:
320,192,7442,1,0,0:0:0:0:
192,192,7605,1,0,0:0:0:0:
320,192,7767,1,2,0:0:0:0:
448,192,7767,1,0,0:0:0:0:
64,192,7929,1,0,0:0:0:0:
192,192,8091,1,0,0:0:0:0:
448,192,8253,1,0,0:0:0:0:
64,192,8415,1,2,0:0:0:0:
320,192,8415,1,0,0:0:0:0:
192,192,8578,1,0,0:0:0:0:
320,192,8740,1,2,0:0:0:0:
448,192,8740,1,0,0:0:0:0:
64,192,8902,1,0,0:0:0:0:
192,192,9064,1,2,0:0:0:0:
320,192,9064,1,0,0:0:0:0:
448,192,9226,1,0,0:0:0:0:
64,192,9388,1,2,0:0:0:0:
192,192,9388,1,8,0:0:0:0:
320,192,9388,1,0,0:0:0:0:
320,192,9551,1,0,0:0:0:0:
64,192,9713,1,2,0:0:0:0:
448,192,9713,1,0,0:0:0:0:
64,192,9875,1,0,0:0:0:0:
192,192,10037,1,2,0:0:0:0:
320,192,10037,1,8,0:0:0:0:
448,192,10037,1,0,0:0:0:0:
320,192,10199,1,0,0:0:0:0:
64,192,10361,1,2,0:0:0:0:
192,192,10361,1,0,0:0:0:0:
192,192,10524,1,0,0:0:0:0:
64,192,10686,1,2,0:0:0:0:
320,192,10686,1,8,0:0:0:0:
448,192,10686,1,0,0:0:0:0:
192,192,10848,1,2,0:0:0:0:
448,192,10848,1,0,0:0:0:0:
192,192,11010,1,2,0:0:0:0:
320,192,11010,1,0,0:0:0:0:
64,192,11172,1,2,0:0:0:0:
320,192,11172,1,0,0:0:0:0:
64,192,11334,1,2,0:0:0:0:
448,192,11334,1,0,0:0:0:0:
320,192,11659,1,2,0:0:0:0:
448,192,11659,1,0,0:0:0:0:
192,192,11821,1,0,0:0:0:0:
64,192,11983,1,2,0:0:0:0:
448,192,11983,1,0,0:0:0:0:
192,192,12145,1,0,0:0:0:0:
320,192,12226,1,0,0:0:0:0:
64,192,12307,1,2,0:0:0:0:
448,192,12307,1,0,0:0:0:0:
192,192,12388,1,0,0:0:0:0:
320,192,12469,1,0,0:0:0:0:
192,192,12551,1,0,0:0:0:0:
64,192,12632,1,2,0:0:0:0:
448,192,12632,1,0,0:0:0:0:
64,192,12794,1,0,0:0:0:0:
192,192,12956,1,2,0:0:0:0:
320,192,12956,1,0,0:0:0:0:
448,192,13118,1,0,0:0:0:0:
64,192,13280,1,2,0:0:0:0:
448,192,13280,1,0,0:0:0:0:
192,192,13442,1,0,0:0:0:0:
320,192,13524,1,0,0:0:0:0:
192,192,13605,1,2,0:0:0:0:
448,192,13605,1,0,0:0:0:0:
64,192,13686,1,0,0:0:0:0:
320,192,13767,1,0,0:0:0:0:
192,192,13848,1,0,0:0:0:0:
64,192,13929,1,8,0:0:0:0:
320,192,13929,1,2,0:0:0:0:
448,192,13929,1,0,0:0:0:0:
448,192,14091,1,0,0:0:0:0:
192,192,14253,1,2,0:0:0:0:
320,192,14253,1,0,0:0:0:0:
64,192,14415,1,0,0:0:0:0:
64,192,14578,1,8,0:0:0:0:
192,192,14578,1,2,0:0:0:0:
448,192,14578,1,0,0:0:0:0:
320,192,14740,1,0,0:0:0:0:
192,192,14821,1,0,0:0:0:0:
64,192,14902,1,2,0:0:0:0:
448,192,14902,1,0,0:0:0:0:
320,192,14983,1,0,0:0:0:0:
192,192,15064,1,0,0:0:0:0:
320,192,15145,1,0,0:0:0:0:
64,192,15226,1,8,0:0:0:0:
192,192,15226,1,2,0:0:0:0:
448,192,15226,1,0,0:0:0:0:
64,192,15388,1,0,0:0:0:0:
192,192,15551,1,2,0:0:0:0:
320,192,15551,1,0,0:0:0:0:
448,192,15713,1,0,0:0:0:0:
64,192,15875,1,8,0:0:0:0:
320,192,15875,1,2,0:0:0:0:
448,192,15875,1,0,0:0:0:0:
192,192,16037,1,0,0:0:0:0:
320,192,16118,1,0,0:0:0:0:
64,192,16199,1,2,0:0:0:0:
448,192,16199,1,0,0:0:0:0:
192,192,16280,1,0,0:0:0:0:
320,192,16361,1,0,0:0:0:0:
192,192,16442,1,0,0:0:0:0:
64,192,16524,1,8,0:0:0:0:
448,192,16524,1,0,0:0:0:0:
448,192,16686,1,0,0:0:0:0:
192,192,16848,1,2,0:0:0:0:
320,192,16848,1,0,0:0:0:0:
64,192,17010,1,0,0:0:0:0:
64,192,17172,1,2,0:0:0:0:
320,192,17172,1,8,0:0:0:0:
448,192,17172,1,0,0:0:0:0:
192,192,17334,1,0,0:0:0:0:
320,192,17415,1,0,0:0:0:0:
64,192,17497,1,2,0:0:0:0:
448,192,17497,1,0,0:0:0:0:
192,192,17578,1,0,0:0:0:0:
320,192,17659,1,0,0:0:0:0:
192,192,17740,1,0,0:0:0:0:
64,192,17821,1,8,0:0:0:0:
320,192,17821,1,2,0:0:0:0:
448,192,17821,1,0,0:0:0:0:
64,192,17983,1,0,0:0:0:0:
192,192,18145,1,2,0:0:0:0:
320,192,18145,1,0,0:0:0:0:
448,192,18307,1,0,0:0:0:0:
64,192,18469,1,8,0:0:0:0:
192,192,18469,1,2,0:0:0:0:
448,192,18469,1,0,0:0:0:0:
320,192,18632,1,0,0:0:0:0:
192,192,18713,1,0,0:0:0:0:
64,192,18794,1,2,0:0:0:0:
320,192,18794,1,0,0:0:0:0:
448,192,18875,1,0,0:0:0:0:
192,192,18956,1,0,0:0:0:0:
320,192,19037,1,0,0:0:0:0:
64,192,19118,1,8,0:0:0:0:
192,192,19118,1,2,0:0:0:0:
448,192,19118,1,0,0:0:0:0:
448,192,19280,1,0,0:0:0:0:
192,192,19442,1,2,0:0:0:0:
320,192,19442,1,0,0:0:0:0:
64,192,19605,1,0,0:0:0:0:
64,192,19767,1,8,0:0:0:0:
320,192,19767,1,2,0:0:0:0:
448,192,19767,1,0,0:0:0:0:
192,192,19929,1,0,0:0:0:0:
320,192,20010,1,0,0:0:0:0:
64,192,20091,1,2,0:0:0:0:
448,192,20091,1,0,0:0:0:0:
192,192,20172,1,0,0:0:0:0:
320,192,20253,1,0,0:0:0:0:
192,192,20334,1,0,0:0:0:0:
64,192,20415,1,8,0:0:0:0:
320,192,20415,1,2,0:0:0:0:
448,192,20415,1,0,0:0:0:0:
64,192,20578,1,0,0:0:0:0:
192,192,20740,1,2,0:0:0:0:
320,192,20740,1,0,0:0:0:0:
448,192,20902,1,0,0:0:0:0:
64,192,21064,1,4,0:0:0:0:
192,192,21064,1,8,0:0:0:0:
448,192,21064,1,2,0:0:0:0:
192,192,21226,1,0,0:0:0:0:
64,192,21388,1,2,0:0:0:0:
320,192,21388,1,4,0:0:0:0:
448,192,21388,1,0,0:0:0:0:
64,192,21551,1,4,0:0:0:0:
320,192,21551,1,2,0:0:0:0:
448,192,21551,1,0,0:0:0:0:
192,192,21713,1,8,0:0:0:0:
320,192,21713,1,0,0:0:0:0:
64,192,21875,1,4,0:0:0:0:
192,192,21875,1,2,0:0:0:0:
448,192,21875,1,0,0:0:0:0:
64,192,22037,1,4,0:0:0:0:
320,192,22037,1,2,0:0:0:0:
448,192,22037,1,0,0:0:0:0:
192,192,22199,1,0,0:0:0:0:
320,192,22280,1,0,0:0:0:0:
64,192,22361,1,2,0:0:0:0:
192,192,22361,1,8,0:0:0:0:
448,192,22361,1,0,0:0:0:0:
64,192,22524,1,0,0:0:0:0:
192,192,22686,1,2,0:0:0:0:
448,192,22686,1,0,0:0:0:0:
448,192,22848,1,0,0:0:0:0:
64,192,23010,1,8,0:0:0:0:
192,192,23010,1,2,0:0:0:0:
320,192,23010,1,0,0:0:0:0:
192,192,23172,1,0,0:0:0:0:
64,192,23334,1,2,0:0:0:0:
448,192,23334,1,0,0:0:0:0:
320,192,23497,1,0,0:0:0:0:
64,192,23659,1,8,0:0:0:0:
320,192,23659,1,2,0:0:0:0:
448,192,23659,1,0,0:0:0:0:
192,192,23821,1,0,0:0:0:0:
192,192,23983,1,2,0:0:0:0:
448,192,23983,1,0,0:0:0:0:
448,192,24145,1,0,0:0:0:0:
64,192,24307,1,8,0:0:0:0:
192,192,24307,1,2,0:0:0:0:
320,192,24307,1,0,0:0:0:0:
64,192,24469,1,0,0:0:0:0:
192,192,24632,1,2,0:0:0:0:
448,192,24632,1,0,0:0:0:0:
448,192,24794,1,0,0:0:0:0:
64,192,24956,1,8,0:0:0:0:
192,192,24956,1,2,0:0:0:0:
320,192,24956,1,0,0:0:0:0:
192,192,25118,1,0,0:0:0:0:
320,192,25280,1,2,0:0:0:0:
448,192,25280,1,0,0:0:0:0:
320,192,25442,1,0,0:0:0:0:
64,192,25605,1,8,0:0:0:0:
192,192,25605,1,2,0:0:0:0:
448,192,25605,1,0,0:0:0:0:
64,192,25767,1,0,0:0:0:0:
320,192,25929,1,2,0:0:0:0:
448,192,25929,1,0,0:0:0:0:
192,192,26091,1,0,0:0:0:0:
320,192,26172,1,0,0:0:0:0:
64,192,26253,1,8,0:0:0:0:
192,192,26253,1,2,0:0:0:0:
448,192,26253,1,0,0:0:0:0:
320,192,26415,1,0,0:0:0:0:
64,192,26578,1,2,0:0:0:0:
320,192,26578,1,0,0:0:0:0:
64,192,26740,1,0,0:0:0:0:
192,192,26902,1,8,0:0:0:0:
320,192,26902,1,2,0:0:0:0:
448,192,26902,1,0,0:0:0:0:
448,192,27064,1,0,0:0:0:0:
64,192,27226,1,8,0:0:0:0:
192,192,27226,1,2,0:0:0:0:
320,192,27226,1,0,0:0:0:0:
64,192,27388,1,2,0:0:0:0:
192,192,27388,1,0,0:0:0:0:
192,192,27551,1,8,0:0:0:0:
320,192,27551,1,2,0:0:0:0:
448,192,27551,1,0,0:0:0:0:
320,192,27713,1,2,0:0:0:0:
448,192,27713,1,0,0:0:0:0:
64,192,27875,1,8,0:0:0:0:
192,192,27875,1,2,0:0:0:0:
448,192,27875,1,0,0:0:0:0:
192,192,28037,1,2,0:0:0:0:
320,192,28037,1,0,0:0:0:0:
64,192,28199,1,8,0:0:0:0:
320,192,28199,1,2,0:0:0:0:
448,192,28199,1,0,0:0:0:0:
64,192,28361,1,2,0:0:0:0:
192,192,28361,1,0,0:0:0:0:
192,192,28524,1,2,0:0:0:0:
320,192,28524,1,8,0:0:0:0:
448,192,28524,1,0,0:0:0:0:
64,192,28686,1,2,0:0:0:0:
320,192,28686,1,0,0:0:0:0:
64,192,28848,1,2,0:0:0:0:
192,192,28848,1,8,0:0:0:0:
448,192,28848,1,0,0:0:0:0:
320,192,29010,1,2,0:0:0:0:
448,192,29010,1,0,0:0:0:0:
64,192,29172,1,8,0:0:0:0:
192,192,29172,1,2,0:0:0:0:
320,192,29172,1,0,0:0:0:0:
192,192,29334,1,2,0:0:0:0:
448,192,29334,1,0,0:0:0:0:
64,192,29497,1,8,0:0:0:0:
320,192,29497,1,2,0:0:0:0:
448,192,29497,1,0,0:0:0:0:
64,192,29659,1,2,0:0:0:0:
192,192,29659,1,0,0:0:0:0:
320,192,29821,1,8,0:0:0:0:
448,192,29821,1,2,0:0:0:0:
64,192,29902,1,2,0:0:0:0:
192,192,29902,1,0,0:0:0:0:
320,192,29983,1,2,0:0:0:0:
448,192,29983,1,0,0:0:0:0:
64,192,30064,1,2,0:0:0:0:
192,192,30064,1,0,0:0:0:0:
320,192,30145,1,2,0:0:0:0:
448,192,30145,1,8,0:0:0:0:
64,192,30226,1,2,0:0:0:0:
192,192,30226,1,0,0:0:0:0:
320,192,30307,1,2,0:0:0:0:
448,192,30307,1,0,0:0:0:0:
64,192,30388,1,2,0:0:0:0:
192,192,30388,1,0,0:0:0:0:
320,192,30469,1,8,0:0:0:0:
448,192,30469,1,2,0:0:0:0:
64,192,30551,1,2,0:0:0:0:
192,192,30551,1,0,0:0:0:0:
320,192,30632,1,2,0:0:0:0:
448,192,30632,1,0,0:0:0:0:
64,192,30713,1,2,0:0:0:0:
192,192,30713,1,0,0:0:0:0:
320,192,30794,1,8,0:0:0:0:
448,192,30794,1,2,0:0:0:0:
64,192,30875,1,2,0:0:0:0:
192,192,30875,1,0,0:0:0:0:
320,192,30956,1,2,0:0:0:0:
448,192,30956,1,0,0:0:0:0:
64,192,31037,1,2,0:0:0:0:
192,192,31037,1,0,0:0:0:0:
320,192,31118,1,2,0:0:0:0:
448,192,31118,1,0,0:0:0:0:
192,192,31280,1,8,0:0:0:0:
64,192,31442,1,2,0:0:0:0:
320,192,31442,1,0,0:0:0:0:
448,192,31442,1,0,0:0:0:0:
448,192,31605,1,0,0:0:0:0:
64,192,31767,1,2,0:0:0:0:
192,192,31767,1,0,0:0:0:0:
320,192,31767,1,0,0:0:0:0:
64,192,31929,1,0,0:0:0:0:
192,192,32091,1,2,0:0:0:0:
320,192,32091,1,0,0:0:0:0:
448,192,32091,1,0,0:0:0:0:
320,192,32253,1,0,0:0:0:0:
64,192,32415,1,0,0:0:0:0:
448,192,32415,1,0,0:0:0:0:
192,192,32578,1,0,0:0:0:0:
320,192,32740,1,0,0:0:0:0:
448,192,32902,1,0,0:0:0:0:
320,192,32983,1,0,0:0:0:0:
64,192,33064,1,0,0:0:0:0:
192,192,33064,1,0,0:0:0:0:
64,192,33226,1,0,0:0:0:0:
448,192,33226,1,0,0:0:0:0:
192,192,33388,1,0,0:0:0:0:
448,192,33388,1,0,0:0:0:0:
64,192,33551,1,0,0:0:0:0:
320,192,33551,1,0,0:0:0:0:
64,192,33713,1,0,0:0:0:0:
448,192,33713,1,0,0:0:0:0:
320,192,33875,1,0,0:0:0:0:
192,192,34037,1,0,0:0:0:0:
64,192,34199,1,0,0:0:0:0:
192,192,34280,1,0,0:0:0:0:
320,192,34361,1,0,0:0:0:0:
448,192,34361,1,0,0:0:0:0:
64,192,34524,1,0,0:0:0:0:
64,192,34686,1,0,0:0:0:0:
448,192,34686,1,0,0:0:0:0:
192,192,34848,1,0,0:0:0:0:
448,192,34848,1,0,0:0:0:0:
320,192,35010,1,0,0:0:0:0:
192,192,35172,1,0,0:0:0:0:
64,192,35334,1,0,0:0:0:0:
448,192,35334,1,0,0:0:0:0:
320,192,35497,1,0,0:0:0:0:
192,192,35578,1,0,0:0:0:0:
64,192,35659,1,0,0:0:0:0:
448,192,35659,1,0,0:0:0:0:
320,192,35821,1,0,0:0:0:0:
64,192,35983,1,0,0:0:0:0:
192,192,35983,1,0,0:0:0:0:
320,192,36145,1,0,0:0:0:0:
64,192,36307,1,0,0:0:0:0:
448,192,36307,1,0,0:0:0:0:
192,192,36469,1,0,0:0:0:0:
320,192,36632,1,0,0:0:0:0:
448,192,36632,1,0,0:0:0:0:
192,192,36794,1,0,0:0:0:0:
320,192,36875,1,0,0:0:0:0:
64,192,36956,1,0,0:0:0:0:
448,192,36956,1,0,0:0:0:0:
192,192,37118,1,0,0:0:0:0:
64,192,37280,128,0,37361:0:0:0:0:
448,192,37280,1,0,0:0:0:0:
192,192,37361,128,0,37442:0:0:0:0:
320,192,37442,128,0,37524:0:0:0:0:
192,192,37524,128,0,37605:0:0:0:0:
64,192,37605,1,0,0:0:0:0:
448,192,37605,128,0,38578:0:0:0:0:
192,192,37767,1,0,0:0:0:0:
192,192,37929,1,0,0:0:0:0:
320,192,37929,1,0,0:0:0:0:
64,192,38091,1,0,0:0:0:0:
192,192,38172,1,0,0:0:0:0:
320,192,38253,1,0,0:0:0:0:
64,192,38415,1,0,0:0:0:0:
64,192,38578,1,0,0:0:0:0:
320,192,38578,1,0,0:0:0:0:
192,192,38740,1,0,0:0:0:0:
64,192,38902,128,0,39226:0:0:0:0:
448,192,38902,1,0,0:0:0:0:
320,192,39064,1,0,0:0:0:0:
192,192,39226,1,0,0:0:0:0:
320,192,39226,1,0,0:0:0:0:
448,192,39388,128,0,39469:0:0:0:0:
320,192,39469,128,0,39551:0:0:0:0:
64,192,39551,1,0,0:0:0:0:
192,192,39551,128,0,39875:0:0:0:0:
448,192,39713,1,0,0:0:0:0:
64,192,39875,1,0,0:0:0:0:
320,192,39875,1,0,0:0:0:0:
192,192,40037,1,0,0:0:0:0:
448,192,40037,128,0,40361:0:0:0:0:
320,192,40199,1,0,0:0:0:0:
64,192,40361,128,0,40524:0:0:0:0:
192,192,40524,128,0,40686:0:0:0:0:
320,192,40524,1,0,0:0:0:0:
448,192,40686,128,0,40848:0:0:0:0:
64,192,40848,1,0,0:0:0:0:
320,192,40848,128,0,41010:0:0:0:0:
192,192,41010,128,0,41172:0:0:0:0:
448,192,41010,1,0,0:0:0:0:
64,192,41172,1,0,0:0:0:0:
320,192,41172,128,0,41334:0:0:0:0:
64,192,41334,128,2,41497:0:0:0:0:
192,192,41334,1,4,0:0:0:0:
448,192,41334,1,0,0:0:0:0:
192,192,41497,128,0,41659:0:0:0:0:
320,192,41497,1,0,0:0:0:0:
64,192,41659,1,4,0:0:0:0:
320,192,41659,1,2,0:0:0:0:
448,192,41659,128,0,41821:0:0:0:0:
64,192,41983,1,4,0:0:0:0:
192,192,41983,128,2,42145:0:0:0:0:
320,192,41983,1,0,0:0:0:0:
320,192,42226,1,2,0:0:0:0:
448,192,42226,1,0,0:0:0:0:
64,192,42307,1,4,0:0:0:0:
192,192,42307,1,2,0:0:0:0:
448,192,42469,1,2,0:0:0:0:
320,192,42510,1,2,0:0:0:0:
64,192,42551,1,2,0:0:0:0:
192,192,42591,1,2,0:0:0:0:
320,192,42632,1,2,0:0:0:0:
448,192,42632,1,0,0:0:0:0:
64,192,42794,1,4,0:0:0:0:
192,192,42794,128,2,42956:0:0:0:0:
448,192,42794,1,0,0:0:0:0:
320,192,42956,128,0,43118:0:0:0:0:
64,192,43118,1,8,0:0:0:0:
192,192,43118,1,2,0:0:0:0:
448,192,43118,1,0,0:0:0:0:
64,192,43280,128,0,43767:0:0:0:0:
192,192,43442,1,2,0:0:0:0:
320,192,43442,1,0,0:0:0:0:
448,192,43605,1,0,0:0:0:0:
192,192,43767,1,8,0:0:0:0:
320,192,43767,1,2,0:0:0:0:
448,192,43767,128,0,43929:0:0:0:0:
320,192,43929,128,0,44091:0:0:0:0:
64,192,44091,1,2,0:0:0:0:
192,192,44091,128,0,44253:0:0:0:0:
320,192,44253,128,0,44415:0:0:0:0:
64,192,44415,128,2,44578:0:0:0:0:
192,192,44415,1,8,0:0:0:0:
448,192,44415,1,0,0:0:0:0:
448,192,44578,128,0,44902:0:0:0:0:
192,192,44740,1,2,0:0:0:0:
320,192,44740,1,0,0:0:0:0:
64,192,44902,128,0,45064:0:0:0:0:
192,192,45064,128,8,45226:0:0:0:0:
320,192,45064,1,2,0:0:0:0:
448,192,45064,1,0,0:0:0:0:
320,192,45226,128,0,45388:0:0:0:0:
64,192,45388,1,2,0:0:0:0:
448,192,45388,1,0,0:0:0:0:
192,192,45551,1,0,0:0:0:0:
64,192,45713,1,8,0:0:0:0:
192,192,45713,1,2,0:0:0:0:
448,192,45713,128,0,46037:0:0:0:0:
320,192,45875,1,0,0:0:0:0:
64,192,46037,128,2,46199:0:0:0:0:
192,192,46037,1,0,0:0:0:0:
320,192,46199,128,0,46361:0:0:0:0:
64,192,46361,1,2,0:0:0:0:
192,192,46361,128,8,46524:0:0:0:0:
448,192,46361,1,0,0:0:0:0:
448,192,46524,128,0,46686:0:0:0:0:
64,192,46686,128,2,46848:0:0:0:0:
320,192,46686,1,0,0:0:0:0:
192,192,46848,128,0,47010:0:0:0:0:
64,192,47010,1,2,0:0:0:0:
320,192,47010,128,8,47172:0:0:0:0:
448,192,47010,1,0,0:0:0:0:
448,192,47172,128,0,47334:0:0:0:0:
64,192,47334,1,2,0:0:0:0:
192,192,47334,128,0,47497:0:0:0:0:
320,192,47497,128,0,47659:0:0:0:0:
64,192,47659,128,8,47821:0:0:0:0:
192,192,47659,1,2,0:0:0:0:
448,192,47659,1,0,0:0:0:0:
320,192,47821,1,0,0:0:0:0:
64,192,47983,1,8,0:0:0:0:
320,192,47983,1,2,0:0:0:0:
448,192,47983,1,0,0:0:0:0:
64,192,48145,1,2,0:0:0:0:
192,192,48145,1,0,0:0:0:0:
192,192,48307,1,2,0:0:0:0:
320,192,48307,1,8,0:0:0:0:
448,192,48307,1,0,0:0:0:0:
320,192,48469,1,2,0:0:0:0:
448,192,48469,1,0,0:0:0:0:
64,192,48632,1,8,0:0:0:0:
192,192,48632,1,2,0:0:0:0:
320,192,48632,1,0,0:0:0:0:
64,192,48794,1,2,0:0:0:0:
192,192,48794,1,0,0:0:0:0:
64,192,48956,1,8,0:0:0:0:
320,192,48956,1,2,0:0:0:0:
448,192,48956,1,0,0:0:0:0:
192,192,49118,1,2,0:0:0:0:
320,192,49118,1,0,0:0:0:0:
64,192,49280,1,2,0:0:0:0:
192,192,49280,1,8,0:0:0:0:
448,192,49280,1,0,0:0:0:0:
320,192,49442,1,2,0:0:0:0:
448,192,49442,1,0,0:0:0:0:
64,192,49605,1,2,0:0:0:0:
192,192,49605,1,8,0:0:0:0:
448,192,49605,1,0,0:0:0:0:
192,192,49767,1,2,0:0:0:0:
320,192,49767,1,0,0:0:0:0:
64,192,49929,1,8,0:0:0:0:
320,192,49929,1,2,0:0:0:0:
448,192,49929,1,0,0:0:0:0:
192,192,50091,1,8,0:0:0:0:
320,192,50091,128,2,50415:0:0:0:0:
448,192,50091,1,0,0:0:0:0:
64,192,50415,1,8,0:0:0:0:
192,192,50415,1,2,0:0:0:0:
448,192,50415,1,0,0:0:0:0:
320,192,50578,1,0,0:0:0:70:LR_TomR2.wav
192,192,50659,1,0,0:0:0:70:LR_TomR2.wav
64,192,50740,1,8,0:0:0:0:
448,192,50740,1,2,0:0:0:0:
320,192,50821,1,0,0:0:0:70:LR_TomR2.wav
64,192,50902,1,2,0:0:0:0:
192,192,50902,1,0,0:0:0:0:
320,192,51064,1,2,0:0:0:0:
448,192,51064,1,0,0:0:0:0:
64,192,51145,1,2,0:0:0:0:
192,192,51145,1,0,0:0:0:0:
320,192,51226,1,2,0:0:0:0:
448,192,51226,1,0,0:0:0:0:
64,192,51388,1,8,0:0:0:0:
192,192,51388,1,4,0:0:0:0:
448,192,51388,1,2,0:0:0:0:
320,192,51551,1,2,0:0:0:0:
192,192,51632,128,0,51875:0:0:0:0:
64,192,51875,128,4,52199:0:0:0:0:
320,192,51875,1,2,0:0:0:0:
448,192,51875,128,0,52524:0:0:0:0:
64,192,52524,1,4,0:0:0:0:
192,192,52524,128,2,52848:0:0:0:0:
320,192,52524,128,0,53172:0:0:0:0:
64,192,53172,1,4,0:0:0:0:
192,192,53172,1,2,0:0:0:0:
448,192,53172,1,0,0:0:0:0:
320,192,53334,128,0,53497:0:0:0:0:
192,192,53497,128,0,53659:0:0:0:0:
64,192,53659,128,0,53821:0:0:0:0:
192,192,53821,1,8,0:0:0:0:
320,192,53821,1,2,0:0:0:0:
448,192,53821,1,0,0:0:0:0:
192,192,53983,128,0,54145:0:0:0:0:
320,192,54145,128,0,54307:0:0:0:0:
64,192,54307,128,0,54469:0:0:0:0:
320,192,54469,1,2,0:0:0:0:
448,192,54469,1,0,0:0:0:0:
192,192,54632,128,0,54794:0:0:0:0:
320,192,54794,128,0,54956:0:0:0:0:
448,192,54956,128,0,55118:0:0:0:0:
64,192,55118,1,8,0:0:0:0:
192,192,55118,1,2,0:0:0:0:
320,192,55118,1,0,0:0:0:0:
320,192,55280,128,0,55442:0:0:0:0:
192,192,55442,128,0,55605:0:0:0:0:
320,192,55605,1,2,0:0:0:0:
448,192,55605,128,0,55767:0:0:0:0:
64,192,55767,1,2,0:0:0:0:
192,192,55767,1,0,0:0:0:0:
320,192,55929,1,0,0:0:0:0:
64,192,56091,1,8,0:0:0:0:
320,192,56091,1,2,0:0:0:0:
448,192,56091,1,0,0:0:0:0:
192,192,56253,1,0,0:0:0:0:
64,192,56415,1,2,0:0:0:0:
448,192,56415,1,0,0:0:0:0:
320,192,56578,1,0,0:0:0:0:
64,192,56740,1,8,0:0:0:0:
192,192,56740,1,2,0:0:0:0:
320,192,56740,1,0,0:0:0:0:
192,192,56902,1,0,0:0:0:0:
64,192,57064,1,2,0:0:0:0:
448,192,57064,1,0,0:0:0:0:
320,192,57226,1,0,0:0:0:0:
64,192,57307,1,2,0:0:0:0:
192,192,57307,1,0,0:0:0:0:
320,192,57388,1,8,0:0:0:0:
448,192,57388,1,2,0:0:0:0:
64,192,57551,1,2,0:0:0:0:
192,192,57551,1,0,0:0:0:0:
320,192,57713,1,2,0:0:0:0:
448,192,57713,1,0,0:0:0:0:
64,192,57875,1,0,0:0:0:0:
192,192,58037,1,8,0:0:0:0:
320,192,58037,1,2,0:0:0:0:
448,192,58037,1,0,0:0:0:0:
320,192,58199,1,2,0:0:0:0:
448,192,58199,1,0,0:0:0:0:
64,192,58361,1,2,0:0:0:0:
192,192,58361,1,0,0:0:0:0:
320,192,58524,1,0,0:0:0:0:
64,192,58686,1,8,0:0:0:0:
320,192,58686,1,2,0:0:0:0:
448,192,58686,1,0,0:0:0:0:
192,192,58848,1,0,0:0:0:0:
64,192,59010,1,2,0:0:0:0:
448,192,59010,1,0,0:0:0:0:
320,192,59172,1,0,0:0:0:0:
64,192,59334,1,8,0:0:0:0:
192,192,59334,1,2,0:0:0:0:
320,192,59334,1,0,0:0:0:0:
192,192,59497,1,0,0:0:0:0:
64,192,59659,1,2,0:0:0:0:
448,192,59659,1,0,0:0:0:0:
320,192,59821,1,0,0:0:0:0:
192,192,59983,1,8,0:0:0:0:
320,192,59983,1,2,0:0:0:0:
448,192,59983,1,0,0:0:0:0:
64,192,60145,1,0,0:0:0:0:
192,192,60307,1,2,0:0:0:0:
320,192,60307,1,0,0:0:0:0:
448,192,60469,1,0,0:0:0:0:
64,192,60551,1,2,0:0:0:0:
192,192,60551,1,0,0:0:0:0:
320,192,60632,1,8,0:0:0:0:
448,192,60632,1,0,0:0:0:0:
64,192,60794,1,2,0:0:0:0:
192,192,60794,1,0,0:0:0:0:
320,192,60956,1,2,0:0:0:0:
448,192,60956,1,0,0:0:0:0:
64,192,61118,1,0,0:0:0:0:
320,192,61199,1,2,0:0:0:0:
448,192,61199,1,0,0:0:0:0:
64,192,61280,1,8,0:0:0:0:
192,192,61280,1,0,0:0:0:0:
320,192,61442,1,2,0:0:0:0:
448,192,61442,1,0,0:0:0:0:
64,192,61605,1,2,0:0:0:0:
192,192,61605,1,0,0:0:0:0:
320,192,61767,1,0,0:0:0:0:
64,192,61848,1,2,0:0:0:0:
192,192,61848,1,0,0:0:0:0:
320,192,61929,1,8,0:0:0:0:
448,192,61929,1,0,0:0:0:0:
64,192,62091,1,2,0:0:0:0:
192,192,62091,1,0,0:0:0:0:
64,192,62253,1,2,0:0:0:0:
320,192,62253,1,0,0:0:0:0:
320,192,62415,1,2,0:0:0:0:
448,192,62415,1,0,0:0:0:0:
192,192,62578,1,2,0:0:0:0:
448,192,62578,1,0,0:0:0:0:
64,192,62740,1,2,0:0:0:0:
192,192,62740,1,0,0:0:0:0:
320,192,62902,1,2,0:0:0:0:
448,192,62902,1,0,0:0:0:0:
64,192,62983,1,2,0:0:0:0:
192,192,62983,1,0,0:0:0:0:
320,192,63064,1,2,0:0:0:0:
448,192,63064,1,0,0:0:0:0:
64,192,63145,1,2,0:0:0:0:
192,192,63145,1,0,0:0:0:0:
320,192,63226,1,2,0:0:0:0:
448,192,63226,1,0,0:0:0:0:
64,192,63307,1,2,0:0:0:0:
192,192,63307,1,0,0:0:0:0:
320,192,63388,1,2,0:0:0:0:
448,192,63388,1,0,0:0:0:0:
64,192,63469,1,2,0:0:0:0:
192,192,63469,1,0,0:0:0:0:
320,192,63551,1,2,0:0:0:0:
448,192,63551,1,0,0:0:0:0:
64,192,63713,1,0,0:0:0:0:
64,192,63875,1,2,0:0:0:0:
192,192,63875,1,8,0:0:0:0:
448,192,63875,1,0,0:0:0:0:
320,192,64037,1,0,0:0:0:0:
64,192,64199,1,2,0:0:0:0:
448,192,64199,1,0,0:0:0:0:
192,192,64361,1,0,0:0:0:0:
192,192,64524,1,8,0:0:0:0:
320,192,64524,1,2,0:0:0:0:
448,192,64524,1,0,0:0:0:0:
448,192,64686,1,0,0:0:0:0:
64,192,64848,1,2,0:0:0:0:
320,192,64848,1,0,0:0:0:0:
192,192,65010,1,0,0:0:0:0:
64,192,65172,1,8,0:0:0:0:
192,192,65172,1,2,0:0:0:0:
448,192,65172,1,0,0:0:0:0:
320,192,65334,1,0,0:0:0:0:
64,192,65497,1,2,0:0:0:0:
448,192,65497,1,0,0:0:0:0:
192,192,65659,1,0,0:0:0:0:
192,192,65821,1,8,0:0:0:0:
320,192,65821,1,2,0:0:0:0:
448,192,65821,1,0,0:0:0:0:
64,192,65983,1,0,0:0:0:0:
64,192,66145,1,2,0:0:0:0:
320,192,66145,1,0,0:0:0:0:
448,192,66307,1,0,0:0:0:0:
64,192,66469,1,8,0:0:0:0:
192,192,66469,1,2,0:0:0:0:
320,192,66469,1,0,0:0:0:0:
192,192,66632,1,0,0:0:0:0:
64,192,66794,1,2,0:0:0:0:
448,192,66794,1,0,0:0:0:0:
320,192,66956,1,0,0:0:0:0:
192,192,67118,1,8,0:0:0:0:
320,192,67118,1,2,0:0:0:0:
448,192,67118,1,0,0:0:0:0:
64,192,67280,1,0,0:0:0:0:
64,192,67442,1,2,0:0:0:0:
320,192,67442,1,0,0:0:0:0:
448,192,67605,1,0,0:0:0:0:
64,192,67767,1,8,0:0:0:0:
192,192,67767,1,2,0:0:0:0:
320,192,67767,1,0,0:0:0:0:
192,192,67929,1,0,0:0:0:0:
64,192,68091,1,2,0:0:0:0:
448,192,68091,1,0,0:0:0:0:
64,192,68253,1,0,0:0:0:0:
320,192,68253,1,0,0:0:0:0:
192,192,68415,1,8,0:0:0:0:
320,192,68415,1,2,0:0:0:0:
448,192,68415,1,0,0:0:0:0:
64,192,68578,1,0,0:0:0:0:
448,192,68578,1,0,0:0:0:0:
64,192,68740,1,2,0:0:0:0:
192,192,68740,1,8,0:0:0:0:
320,192,68740,1,0,0:0:0:0:
192,192,68902,1,0,0:0:0:0:
64,192,69064,1,2,0:0:0:0:
320,192,69064,1,8,0:0:0:0:
448,192,69064,1,0,0:0:0:0:
320,192,69226,1,0,0:0:0:0:
64,192,69388,1,2,0:0:0:0:
192,192,69388,1,8,0:0:0:0:
448,192,69388,1,0,0:0:0:0:
192,192,69551,1,0,0:0:0:0:
64,192,69713,1,2,0:0:0:0:
320,192,69713,1,8,0:0:0:0:
448,192,69713,1,0,0:0:0:0:
448,192,69875,1,0,0:0:0:0:
64,192,70037,1,2,0:0:0:0:
192,192,70037,1,8,0:0:0:0:
320,192,70037,1,0,0:0:0:0:
64,192,70199,1,0,0:0:0:0:
192,192,70361,1,2,0:0:0:0:
320,192,70361,1,8,0:0:0:0:
448,192,70361,1,0,0:0:0:0:
320,192,70524,1,0,0:0:0:0:
64,192,70686,1,2,0:0:0:0:
192,192,70686,1,8,0:0:0:0:
448,192,70686,1,0,0:0:0:0:
192,192,70848,1,0,0:0:0:0:
64,192,71010,1,8,0:0:0:0:
320,192,71010,1,2,0:0:0:0:
448,192,71010,1,0,0:0:0:0:
64,192,71172,1,0,0:0:0:0:
320,192,71334,1,2,0:0:0:0:
448,192,71334,1,0,0:0:0:0:
192,192,71415,1,0,0:0:0:0:
64,192,71497,1,0,0:0:0:0:
448,192,71497,1,0,0:0:0:0:
320,192,71578,1,0,0:0:0:0:
64,192,71659,1,2,0:0:0:0:
192,192,71659,1,0,0:0:0:0:
320,192,71740,1,0,0:0:0:0:
64,192,71821,1,0,0:0:0:0:
448,192,71821,1,0,0:0:0:0:
192,192,71902,1,0,0:0:0:0:
320,192,71983,1,2,0:0:0:0:
448,192,71983,1,0,0:0:0:0:
64,192,72064,1,0,0:0:0:0:
192,192,72064,1,0,0:0:0:0:
320,192,72145,1,0,0:0:0:0:
448,192,72145,1,0,0:0:0:0:
64,192,72226,1,0,0:0:0:0:
192,192,72226,1,0,0:0:0:0:
320,192,72307,1,2,0:0:0:0:
448,192,72307,1,0,0:0:0:0:
64,192,72388,1,0,0:0:0:0:
192,192,72388,1,0,0:0:0:0:
320,192,72469,1,0,0:0:0:0:
448,192,72469,1,0,0:0:0:0:
64,192,72551,1,0,0:0:0:0:
192,192,72551,1,0,0:0:0:0:
320,192,72632,128,0,72794:0:0:0:0:
448,192,72632,1,0,0:0:0:0:
64,192,72794,1,2,0:0:0:0:
192,192,72794,128,0,72956:0:0:0:0:
64,192,72956,128,4,73118:0:0:0:0:
320,192,72956,1,2,0:0:0:0:
448,192,72956,1,0,0:0:0:0:
320,192,73280,128,0,73442:0:0:0:0:
192,192,73442,1,8,0:0:0:0:
448,192,73442,128,0,73605:0:0:0:0:
64,192,73605,1,0,0:0:0:0:
192,192,73605,128,4,73767:0:0:0:0:
320,192,73605,1,8,0:0:0:0:
64,192,73767,128,0,73929:0:0:0:0:
320,192,73929,1,2,0:0:0:0:
448,192,73929,1,0,0:0:0:0:
64,192,74091,1,0,0:0:0:0:
320,192,74091,1,0,0:0:0:0:
64,192,74253,1,8,0:0:0:0:
192,192,74253,1,2,0:0:0:0:
448,192,74253,1,0,0:0:0:0:
192,192,74415,1,0,0:0:0:0:
320,192,74415,1,0,0:0:0:0:
64,192,74578,1,2,0:0:0:0:
320,192,74578,1,0,0:0:0:0:
448,192,74740,1,0,0:0:0:0:
64,192,74902,1,8,0:0:0:0:
192,192,74902,1,2,0:0:0:0:
448,192,74902,1,0,0:0:0:0:
192,192,75064,1,0,0:0:0:0:
320,192,75226,1,2,0:0:0:0:
448,192,75226,1,0,0:0:0:0:
64,192,75334,1,0,0:0:0:0:
320,192,75388,1,0,0:0:0:0:
64,192,75551,1,8,0:0:0:0:
192,192,75551,1,2,0:0:0:0:
448,192,75551,1,0,0:0:0:0:
320,192,75713,1,0,0:0:0:0:
448,192,75713,1,0,0:0:0:0:
64,192,75875,1,2,0:0:0:0:
192,192,75875,1,0,0:0:0:0:
320,192,76037,1,0,0:0:0:0:
64,192,76199,1,8,0:0:0:0:
320,192,76199,1,2,0:0:0:0:
448,192,76199,1,0,0:0:0:0:
192,192,76361,1,0,0:0:0:0:
448,192,76469,1,0,0:0:0:0:
320,192,76524,1,2,0:0:0:0:
64,192,76686,1,0,0:0:0:0:
64,192,76848,1,8,0:0:0:0:
320,192,76848,1,2,0:0:0:0:
448,192,76848,1,0,0:0:0:0:
192,192,77010,1,0,0:0:0:0:
448,192,77010,1,0,0:0:0:0:
192,192,77172,1,2,0:0:0:0:
320,192,77172,1,0,0:0:0:0:
64,192,77334,1,0,0:0:0:0:
320,192,77334,1,0,0:0:0:0:
64,192,77497,1,8,0:0:0:0:
192,192,77497,1,2,0:0:0:0:
448,192,77497,1,0,0:0:0:0:
448,192,77659,1,0,0:0:0:0:
64,192,77821,1,2,0:0:0:0:
320,192,77821,1,0,0:0:0:0:
192,192,77983,1,0,0:0:0:0:
64,192,78145,1,8,0:0:0:0:
192,192,78145,1,2,0:0:0:0:
448,192,78145,1,0,0:0:0:0:
320,192,78307,1,0,0:0:0:0:
64,192,78469,1,2,0:0:0:0:
320,192,78469,1,0,0:0:0:0:
192,192,78632,1,0,0:0:0:0:
448,192,78632,1,0,0:0:0:0:
64,192,78794,1,8,0:0:0:0:
320,192,78794,1,2,0:0:0:0:
448,192,78794,1,0,0:0:0:0:
64,192,78956,1,0,0:0:0:0:
192,192,78956,1,0,0:0:0:0:
192,192,79118,1,2,0:0:0:0:
448,192,79118,1,0,0:0:0:0:
320,192,79280,1,0,0:0:0:0:
64,192,79442,1,8,0:0:0:0:
192,192,79442,1,2,0:0:0:0:
320,192,79442,1,0,0:0:0:0:
64,192,79605,1,0,0:0:0:0:
192,192,79605,1,0,0:0:0:0:
320,192,79767,1,2,0:0:0:0:
448,192,79767,1,0,0:0:0:0:
192,192,79929,1,0,0:0:0:0:
448,192,79929,1,0,0:0:0:0:
64,192,80091,1,8,0:0:0:0:
320,192,80091,1,2,0:0:0:0:
192,192,80253,1,0,0:0:0:0:
320,192,80415,1,2,0:0:0:0:
448,192,80415,1,0,0:0:0:0:
64,192,80524,1,0,0:0:0:0:
192,192,80578,1,0,0:0:0:0:
64,192,80740,1,2,0:0:0:0:
320,192,80740,1,8,0:0:0:0:
448,192,80740,1,0,0:0:0:0:
192,192,80902,1,0,0:0:0:0:
448,192,80902,1,0,0:0:0:0:
192,192,81064,1,2,0:0:0:0:
320,192,81064,1,0,0:0:0:0:
64,192,81226,1,0,0:0:0:0:
64,192,81388,1,2,0:0:0:0:
320,192,81388,1,8,0:0:0:0:
448,192,81388,1,0,0:0:0:0:
192,192,81551,1,0,0:0:0:0:
448,192,81659,1,0,0:0:0:0:
320,192,81713,1,2,0:0:0:0:
64,192,81875,1,0,0:0:0:0:
64,192,82037,1,2,0:0:0:0:
320,192,82037,1,8,0:0:0:0:
448,192,82037,1,0,0:0:0:0:
192,192,82199,1,0,0:0:0:0:
448,192,82199,1,0,0:0:0:0:
192,192,82361,1,2,0:0:0:0:
320,192,82361,1,0,0:0:0:0:
64,192,82524,1,0,0:0:0:0:
320,192,82524,1,0,0:0:0:0:
64,192,82686,1,2,0:0:0:0:
192,192,82686,1,8,0:0:0:0:
448,192,82686,1,0,0:0:0:0:
320,192,82848,1,0,0:0:0:0:
64,192,82956,1,0,0:0:0:0:
448,192,83010,1,2,0:0:0:0:
192,192,83172,1,0,0:0:0:0:
320,192,83280,1,0,0:0:0:0:
64,192,83334,1,2,0:0:0:0:
448,192,83334,1,8,0:0:0:0:
192,192,83497,1,0,0:0:0:0:
64,192,83659,1,2,0:0:0:0:
448,192,83659,1,0,0:0:0:0:
192,192,83821,1,0,0:0:0:0:
320,192,83821,1,0,0:0:0:0:
64,192,83983,1,8,0:0:0:0:
320,192,83983,1,2,0:0:0:0:
448,192,83983,1,0,0:0:0:0:
192,192,84145,1,0,0:0:0:0:
448,192,84145,1,0,0:0:0:0:
64,192,84307,1,2,0:0:0:0:
320,192,84307,1,0,0:0:0:0:
64,192,84469,1,0,0:0:0:0:
192,192,84469,1,0,0:0:0:0:
448,192,84469,1,0,0:0:0:0:
192,192,84632,1,10,0:0:0:0:
64,192,84794,1,0,0:0:0:0:
320,192,84794,1,0,0:0:0:0:
192,192,84956,1,2,0:0:0:0:
448,192,84956,1,0,0:0:0:0:
320,192,85118,1,0,0:0:0:0:
64,192,85280,1,8,0:0:0:0:
320,192,85280,1,2,0:0:0:0:
448,192,85280,1,0,0:0:0:0:
192,192,85442,1,0,0:0:0:0:
320,192,85605,1,2,0:0:0:0:
448,192,85605,1,0,0:0:0:0:
64,192,85713,1,0,0:0:0:0:
192,192,85767,1,0,0:0:0:0:
64,192,85929,1,8,0:0:0:0:
320,192,85929,1,2,0:0:0:0:
448,192,85929,1,0,0:0:0:0:
448,192,86091,1,0,0:0:0:0:
64,192,86253,1,2,0:0:0:0:
192,192,86253,1,0,0:0:0:0:
320,192,86415,1,0,0:0:0:0:
64,192,86578,1,8,0:0:0:0:
320,192,86578,1,2,0:0:0:0:
448,192,86578,1,0,0:0:0:0:
192,192,86740,1,0,0:0:0:0:
320,192,86848,1,0,0:0:0:0:
448,192,86902,1,2,0:0:0:0:
64,192,87064,1,0,0:0:0:0:
64,192,87226,1,2,0:0:0:0:
320,192,87226,1,8,0:0:0:0:
448,192,87226,1,0,0:0:0:0:
192,192,87388,1,0,0:0:0:0:
320,192,87388,1,0,0:0:0:0:
192,192,87551,1,2,0:0:0:0:
64,192,87713,1,0,0:0:0:0:
320,192,87713,1,0,0:0:0:0:
64,192,87875,1,2,0:0:0:0:
192,192,87875,1,8,0:0:0:0:
448,192,87875,1,0,0:0:0:0:
448,192,88037,1,0,0:0:0:0:
64,192,88199,1,2,0:0:0:0:
320,192,88199,1,0,0:0:0:0:
64,192,88361,1,0,0:0:0:0:
192,192,88524,1,2,0:0:0:0:
320,192,88524,1,8,0:0:0:0:
448,192,88524,1,0,0:0:0:0:
320,192,88686,1,0,0:0:0:0:
64,192,88848,1,2,0:0:0:0:
192,192,88848,1,0,0:0:0:0:
192,192,89010,1,0,0:0:0:0:
320,192,89010,1,0,0:0:0:0:
64,192,89172,1,2,0:0:0:0:
320,192,89172,1,8,0:0:0:0:
448,192,89172,1,0,0:0:0:0:
192,192,89334,1,0,0:0:0:0:
448,192,89334,1,0,0:0:0:0:
64,192,89497,1,2,0:0:0:0:
320,192,89497,1,0,0:0:0:0:
192,192,89659,1,2,0:0:0:0:
320,192,89659,1,0,0:0:0:0:
64,192,89821,1,2,0:0:0:0:
192,192,89821,1,8,0:0:0:0:
448,192,89821,1,0,0:0:0:0:
320,192,89983,1,2,0:0:0:0:
448,192,89983,1,0,0:0:0:0:
192,192,90145,1,2,0:0:0:0:
320,192,90145,1,0,0:0:0:0:
64,192,90307,1,2,0:0:0:0:
192,192,90307,1,0,0:0:0:0:
64,192,90469,1,2,0:0:0:0:
320,192,90469,1,8,0:0:0:0:
448,192,90469,1,0,0:0:0:0:
192,192,90632,1,2,0:0:0:0:
320,192,90632,1,0,0:0:0:0:
192,192,90794,1,2,0:0:0:0:
448,192,90794,1,0,0:0:0:0:
64,192,90956,1,2,0:0:0:0:
448,192,90956,1,0,0:0:0:0:
64,192,91118,1,8,0:0:0:0:
192,192,91118,1,2,0:0:0:0:
320,192,91118,1,0,0:0:0:0:
192,192,91280,1,2,0:0:0:0:
448,192,91280,1,0,0:0:0:0:
320,192,91442,1,2,0:0:0:0:
448,192,91442,1,0,0:0:0:0:
64,192,91605,1,2,0:0:0:0:
320,192,91605,1,0,0:0:0:0:
64,192,91767,1,8,0:0:0:0:
192,192,91767,1,2,0:0:0:0:
448,192,91767,1,0,0:0:0:0:
192,192,91929,1,2,0:0:0:0:
320,192,91929,1,0,0:0:0:0:
320,192,92091,1,2,0:0:0:0:
448,192,92091,1,0,0:0:0:0:
64,192,92172,1,2,0:0:0:0:
192,192,92172,1,0,0:0:0:0:
320,192,92253,1,2,0:0:0:0:
448,192,92253,1,0,0:0:0:0:
64,192,92334,1,2,0:0:0:0:
192,192,92334,1,0,0:0:0:0:
320,192,92415,1,2,0:0:0:0:
448,192,92415,1,0,0:0:0:0:
64,192,92497,1,2,0:0:0:0:
192,192,92497,1,0,0:0:0:0:
320,192,92578,1,2,0:0:0:0:
448,192,92578,1,0,0:0:0:0:
64,192,92659,1,2,0:0:0:0:
192,192,92659,1,0,0:0:0:0:
320,192,92740,1,2,0:0:0:0:
448,192,92740,1,0,0:0:0:0:
64,192,92821,1,2,0:0:0:0:
192,192,92821,1,0,0:0:0:0:
320,192,92902,1,2,0:0:0:0:
448,192,92902,1,0,0:0:0:0:
64,192,92983,1,2,0:0:0:0:
192,192,92983,1,0,0:0:0:0:
320,192,93064,1,2,0:0:0:0:
448,192,93064,1,0,0:0:0:0:
64,192,93145,1,2,0:0:0:0:
192,192,93145,1,0,0:0:0:0:
320,192,93226,1,2,0:0:0:0:
448,192,93226,1,0,0:0:0:0:
64,192,93307,1,2,0:0:0:0:
192,192,93307,1,0,0:0:0:0:
320,192,93388,1,2,0:0:0:0:
448,192,93388,1,0,0:0:0:0:
192,192,93551,1,0,0:0:0:0:
64,192,93713,1,2,0:0:0:0:
448,192,93713,1,0,0:0:0:0:
320,192,93875,1,0,0:0:0:0:
64,192,94037,1,2,0:0:0:0:
448,192,94037,1,0,0:0:0:0:
192,192,94199,1,0,0:0:0:0:
320,192,94361,1,2,0:0:0:0:
448,192,94361,1,0,0:0:0:0:
192,192,94524,1,0,0:0:0:0:
64,192,94686,1,2,0:0:0:0:
448,192,94686,128,0,95010:0:0:0:0:
192,192,95010,1,2,0:0:0:0:
320,192,95010,128,0,95334:0:0:0:0:
64,192,95334,1,2,0:0:0:0:
192,192,95334,128,0,95659:0:0:0:0:
64,192,95659,128,2,95983:0:0:0:0:
448,192,95659,1,0,0:0:0:0:
192,192,95983,1,2,0:0:0:0:
320,192,95983,128,0,96307:0:0:0:0:
64,192,96307,1,2,0:0:0:0:
448,192,96307,128,0,96632:0:0:0:0:
192,192,96632,128,2,96956:0:0:0:0:
320,192,96632,1,0,0:0:0:0:
64,192,96956,1,2,0:0:0:0:
320,192,96956,128,0,97280:0:0:0:0:
64,192,97280,1,4,0:0:0:0:
192,192,97280,1,2,0:0:0:0:
448,192,97280,1,0,0:0:0:0:
64,192,97442,1,0,0:0:0:0:
320,192,97442,1,0,0:0:0:0:
192,192,97605,1,8,0:0:0:0:
320,192,97605,1,2,0:0:0:0:
448,192,97605,1,0,0:0:0:0:
64,192,97767,1,0,0:0:0:0:
448,192,97767,1,0,0:0:0:0:
64,192,97929,1,2,0:0:0:0:
320,192,97929,1,0,0:0:0:0:
192,192,98091,1,0,0:0:0:0:
448,192,98091,1,0,0:0:0:0:
192,192,98253,1,8,0:0:0:0:
320,192,98253,1,2,0:0:0:0:
448,192,98253,1,0,0:0:0:0:
64,192,98415,1,0,0:0:0:0:
320,192,98415,1,0,0:0:0:0:
192,192,98578,1,2,0:0:0:0:
448,192,98578,1,0,0:0:0:0:
64,192,98740,1,0,0:0:0:0:
64,192,98902,1,8,0:0:0:0:
320,192,98902,1,2,0:0:0:0:
448,192,98902,1,0,0:0:0:0:
192,192,99064,1,0,0:0:0:0:
448,192,99064,1,0,0:0:0:0:
64,192,99226,1,2,0:0:0:0:
320,192,99226,1,0,0:0:0:0:
64,192,99388,1,0,0:0:0:0:
448,192,99388,1,0,0:0:0:0:
192,192,99551,1,8,0:0:0:0:
320,192,99551,1,2,0:0:0:0:
448,192,99551,1,0,0:0:0:0:
64,192,99713,1,0,0:0:0:0:
320,192,99713,1,0,0:0:0:0:
64,192,99875,1,2,0:0:0:0:
448,192,99875,1,0,0:0:0:0:
192,192,100037,1,0,0:0:0:0:
64,192,100199,1,2,0:0:0:0:
320,192,100199,1,8,0:0:0:0:
448,192,100199,1,0,0:0:0:0:
64,192,100361,1,0,0:0:0:0:
192,192,100361,1,0,0:0:0:0:
320,192,100524,1,2,0:0:0:0:
448,192,100524,1,0,0:0:0:0:
64,192,100632,1,0,0:0:0:0:
320,192,100686,1,0,0:0:0:0:
64,192,100848,1,2,0:0:0:0:
192,192,100848,1,8,0:0:0:0:
448,192,100848,1,0,0:0:0:0:
448,192,101010,1,0,0:0:0:0:
192,192,101172,1,2,0:0:0:0:
320,192,101172,1,0,0:0:0:0:
64,192,101334,1,0,0:0:0:0:
64,192,101497,1,8,0:0:0:0:
192,192,101497,1,2,0:0:0:0:
448,192,101497,1,0,0:0:0:0:
320,192,101659,1,0,0:0:0:0:
64,192,101821,1,2,0:0:0:0:
448,192,101821,1,0,0:0:0:0:
192,192,101983,1,0,0:0:0:0:
64,192,102145,1,8,0:0:0:0:
320,192,102145,1,2,0:0:0:0:
448,192,102145,1,0,0:0:0:0:
192,192,102307,1,0,0:0:0:0:
64,192,102469,1,2,0:0:0:0:
448,192,102469,1,0,0:0:0:0:
64,192,102632,1,0,0:0:0:0:
192,192,102632,1,0,0:0:0:0:
192,192,102794,1,2,0:0:0:0:
320,192,102794,1,8,0:0:0:0:
448,192,102794,1,0,0:0:0:0:
64,192,102956,1,0,0:0:0:0:
320,192,102956,1,0,0:0:0:0:
192,192,103118,1,2,0:0:0:0:
448,192,103118,1,0,0:0:0:0:
320,192,103280,1,0,0:0:0:0:
448,192,103280,1,0,0:0:0:0:
64,192,103442,1,2,0:0:0:0:
192,192,103442,1,8,0:0:0:0:
320,192,103442,1,0,0:0:0:0:
192,192,103605,1,0,0:0:0:0:
448,192,103605,1,0,0:0:0:0:
64,192,103767,1,2,0:0:0:0:
320,192,103767,1,0,0:0:0:0:
192,192,103929,1,0,0:0:0:0:
64,192,104091,1,8,0:0:0:0:
320,192,104091,1,2,0:0:0:0:
448,192,104091,1,0,0:0:0:0:
192,192,104253,1,0,0:0:0:0:
320,192,104253,1,0,0:0:0:0:
64,192,104415,1,2,0:0:0:0:
192,192,104415,1,0,0:0:0:0:
320,192,104578,1,0,0:0:0:0:
448,192,104578,1,0,0:0:0:0:
64,192,104740,1,8,0:0:0:0:
192,192,104740,1,2,0:0:0:0:
448,192,104740,1,0,0:0:0:0:
192,192,104902,1,0,0:0:0:0:
320,192,104902,1,0,0:0:0:0:
64,192,105064,1,2,0:0:0:0:
320,192,105064,1,8,0:0:0:0:
448,192,105064,1,0,0:0:0:0:
64,192,105226,1,0,0:0:0:0:
192,192,105388,1,8,0:0:0:0:
320,192,105388,1,2,0:0:0:0:
448,192,105388,1,0,0:0:0:0:
64,192,105551,1,0,0:0:0:0:
320,192,105551,1,0,0:0:0:0:
64,192,105713,1,8,0:0:0:0:
192,192,105713,1,2,0:0:0:0:
448,192,105713,1,0,0:0:0:0:
320,192,105821,1,0,0:0:0:0:
192,192,105875,1,0,0:0:0:0:
64,192,106037,1,2,0:0:0:0:
320,192,106037,1,8,0:0:0:0:
448,192,106037,1,0,0:0:0:0:
448,192,106199,1,0,0:0:0:0:
64,192,106361,1,8,0:0:0:0:
192,192,106361,1,2,0:0:0:0:
320,192,106361,1,0,0:0:0:0:
192,192,106524,1,0,0:0:0:0:
64,192,106686,1,8,0:0:0:0:
320,192,106686,1,2,0:0:0:0:
448,192,106686,1,0,0:0:0:0:
320,192,106848,1,0,0:0:0:0:
64,192,107010,1,2,0:0:0:0:
192,192,107010,1,8,0:0:0:0:
448,192,107010,1,0,0:0:0:0:
64,192,107172,1,0,0:0:0:0:
192,192,107334,1,8,0:0:0:0:
320,192,107334,1,2,0:0:0:0:
448,192,107334,1,0,0:0:0:0:
192,192,107497,1,0,0:0:0:0:
64,192,107659,1,8,0:0:0:0:
320,192,107659,1,2,0:0:0:0:
448,192,107659,1,0,0:0:0:0:
192,192,107821,1,0,0:0:0:0:
448,192,107821,1,0,0:0:0:0:
64,192,107983,1,2,0:0:0:0:
192,192,107983,1,8,0:0:0:0:
320,192,107983,1,0,0:0:0:0:
64,192,108145,1,0,0:0:0:0:
448,192,108145,1,0,0:0:0:0:
192,192,108307,1,8,0:0:0:0:
320,192,108307,1,2,0:0:0:0:
448,192,108307,1,0,0:0:0:0:
64,192,108469,1,0,0:0:0:0:
192,192,108469,1,0,0:0:0:0:
64,192,108632,1,2,0:0:0:0:
320,192,108632,1,8,0:0:0:0:
448,192,108632,1,0,0:0:0:0:
192,192,108794,1,0,0:0:0:0:
448,192,108794,1,0,0:0:0:0:
64,192,108956,1,8,0:0:0:0:
192,192,108956,1,2,0:0:0:0:
320,192,108956,1,0,0:0:0:0:
320,192,109118,1,0,0:0:0:0:
64,192,109280,1,2,0:0:0:0:
192,192,109280,1,8,0:0:0:0:
448,192,109280,1,0,0:0:0:0:
192,192,109442,1,0,0:0:0:0:
320,192,109442,1,0,0:0:0:0:
64,192,109605,1,2,0:0:0:0:
320,192,109605,1,8,0:0:0:0:
448,192,109605,1,0,0:0:0:0:
192,192,109767,1,0,0:0:0:0:
448,192,109767,1,0,0:0:0:0:
64,192,109929,1,8,0:0:0:0:
192,192,109929,1,2,0:0:0:0:
320,192,109929,1,0,0:0:0:0:
64,192,110091,1,0,0:0:0:0:
448,192,110091,1,0,0:0:0:0:
64,192,110253,1,2,0:0:0:0:
320,192,110253,1,8,0:0:0:0:
448,192,110253,1,0,0:0:0:0:
192,192,110415,1,8,0:0:0:0:
320,192,110415,1,2,0:0:0:0:
448,192,110415,1,0,0:0:0:0:
64,192,110578,1,2,0:0:0:0:
192,192,110578,1,8,0:0:0:0:
320,192,110578,1,0,0:0:0:0:
64,192,110740,1,2,0:0:0:0:
192,192,110740,1,8,0:0:0:0:
448,192,110740,1,0,0:0:0:0:
64,192,110902,1,8,0:0:0:0:
320,192,110902,1,2,0:0:0:0:
448,192,110902,1,0,0:0:0:0:
192,192,111064,1,8,0:0:0:0:
320,192,111064,1,2,0:0:0:0:
448,192,111064,1,0,0:0:0:0:
64,192,111226,1,2,0:0:0:0:
192,192,111226,1,8,0:0:0:0:
320,192,111226,1,0,0:0:0:0:
64,192,111388,1,8,0:0:0:0:
192,192,111388,1,2,0:0:0:0:
448,192,111388,1,0,0:0:0:0:
64,192,111551,1,2,0:0:0:0:
320,192,111551,1,8,0:0:0:0:
448,192,111551,1,0,0:0:0:0:
192,192,111713,1,2,0:0:0:0:
320,192,111713,1,8,0:0:0:0:
448,192,111713,1,0,0:0:0:0:
64,192,111875,1,8,0:0:0:0:
192,192,111875,1,2,0:0:0:0:
320,192,111875,1,0,0:0:0:0:
64,192,112037,1,8,0:0:0:0:
192,192,112037,1,2,0:0:0:0:
448,192,112037,1,0,0:0:0:0:
64,192,112199,1,2,0:0:0:0:
320,192,112199,1,8,0:0:0:0:
448,192,112199,1,0,0:0:0:0:
192,192,112361,1,8,0:0:0:0:
320,192,112361,1,2,0:0:0:0:
448,192,112361,1,0,0:0:0:0:
64,192,112524,1,8,0:0:0:0:
192,192,112524,1,2,0:0:0:0:
320,192,112524,1,0,0:0:0:0:
64,192,112686,1,8,0:0:0:0:
192,192,112686,1,2,0:0:0:0:
448,192,112686,1,0,0:0:0:0:
320,192,112848,1,2,0:0:0:0:
448,192,112848,1,0,0:0:0:0:
64,192,112929,1,2,0:0:0:0:
192,192,112929,1,0,0:0:0:0:
320,192,113010,1,2,0:0:0:0:
448,192,113010,1,0,0:0:0:0:
64,192,113091,1,2,0:0:0:0:
192,192,113091,1,0,0:0:0:0:
320,192,113172,1,2,0:0:0:0:
448,192,113172,1,0,0:0:0:0:
64,192,113253,1,2,0:0:0:0:
192,192,113253,1,0,0:0:0:0:
320,192,113334,1,2,0:0:0:0:
448,192,113334,1,0,0:0:0:0:
64,192,113415,1,2,0:0:0:0:
192,192,113415,1,0,0:0:0:0:
320,192,113497,1,2,0:0:0:0:
448,192,113497,1,0,0:0:0:0:
64,192,113578,1,2,0:0:0:0:
192,192,113578,1,0,0:0:0:0:
320,192,113659,1,2,0:0:0:0:
448,192,113659,1,0,0:0:0:0:
64,192,113740,1,2,0:0:0:0:
192,192,113740,1,0,0:0:0:0:
320,192,113821,1,2,0:0:0:0:
448,192,113821,1,0,0:0:0:0:
64,192,113902,1,2,0:0:0:0:
192,192,113902,1,0,0:0:0:0:
320,192,113983,1,2,0:0:0:0:
448,192,113983,1,0,0:0:0:0:
64,192,114064,1,2,0:0:0:0:
192,192,114064,1,0,0:0:0:0:
320,192,114145,1,0,0:0:0:0:
448,192,114145,1,0,0:0:0:0:
64,192,114469,1,0,0:0:0:0:
448,192,114469,1,0,0:0:0:0:
192,192,114632,1,0,0:0:0:0:
320,192,114632,1,0,0:0:0:0:
320,192,114794,1,0,0:0:0:0:
448,192,114794,1,0,0:0:0:0:
64,192,114956,1,0,0:0:0:0:
448,192,114956,1,0,0:0:0:0:
64,192,115118,1,4,0:0:0:0:
192,192,115118,1,2,0:0:0:0:
320,192,115118,1,0,0:0:0:0:
192,192,115280,1,2,0:0:0:0:
448,192,115280,1,0,0:0:0:0:
64,192,115442,1,4,0:0:0:0:
320,192,115442,128,2,115605:0:0:0:0:
448,192,115442,1,0,0:0:0:0:
64,192,115605,128,0,115767:0:0:0:0:
192,192,115767,1,8,0:0:0:0:
320,192,115767,1,2,0:0:0:0:
448,192,115767,1,0,0:0:0:0:
448,192,115929,128,0,116415:0:0:0:0:
192,192,116091,1,2,0:0:0:0:
320,192,116091,1,0,0:0:0:0:
64,192,116253,1,0,0:0:0:0:
64,192,116415,128,8,116578:0:0:0:0:
192,192,116415,1,2,0:0:0:0:
320,192,116415,1,0,0:0:0:0:
192,192,116578,128,0,116740:0:0:0:0:
320,192,116740,128,2,116902:0:0:0:0:
448,192,116740,1,0,0:0:0:0:
192,192,116902,128,0,117064:0:0:0:0:
64,192,117064,1,8,0:0:0:0:
320,192,117064,1,2,0:0:0:0:
448,192,117064,128,0,117226:0:0:0:0:
64,192,117226,128,0,117551:0:0:0:0:
192,192,117388,1,2,0:0:0:0:
320,192,117388,1,0,0:0:0:0:
448,192,117551,128,0,117713:0:0:0:0:
64,192,117713,1,8,0:0:0:0:
192,192,117713,1,2,0:0:0:0:
320,192,117713,128,0,117875:0:0:0:0:
192,192,117875,128,0,118037:0:0:0:0:
64,192,118037,1,2,0:0:0:0:
448,192,118037,1,0,0:0:0:0:
320,192,118199,1,0,0:0:0:0:
64,192,118361,128,2,118686:0:0:0:0:
320,192,118361,1,8,0:0:0:0:
448,192,118361,1,0,0:0:0:0:
192,192,118524,1,0,0:0:0:0:
320,192,118686,1,2,0:0:0:0:
448,192,118686,128,0,118848:0:0:0:0:
192,192,118848,128,0,119010:0:0:0:0:
64,192,119010,1,2,0:0:0:0:
320,192,119010,128,8,119172:0:0:0:0:
448,192,119010,1,0,0:0:0:0:
64,192,119172,128,0,119334:0:0:0:0:
192,192,119334,1,2,0:0:0:0:
448,192,119334,128,0,119497:0:0:0:0:
320,192,119497,128,0,119659:0:0:0:0:
64,192,119659,1,8,0:0:0:0:
192,192,119659,128,2,119821:0:0:0:0:
448,192,119659,1,0,0:0:0:0:
64,192,119821,128,0,119983:0:0:0:0:
320,192,119983,128,2,120145:0:0:0:0:
448,192,119983,1,0,0:0:0:0:
192,192,120145,128,0,120307:0:0:0:0:
64,192,120307,1,8,0:0:0:0:
320,192,120307,1,2,0:0:0:0:
448,192,120307,128,0,120469:0:0:0:0:
192,192,120469,1,0,0:0:0:0:
64,192,120632,1,8,0:0:0:0:
192,192,120632,1,2,0:0:0:0:
448,192,120632,1,0,0:0:0:0:
320,192,120794,1,2,0:0:0:0:
448,192,120794,1,0,0:0:0:0:
64,192,120956,1,8,0:0:0:0:
192,192,120956,1,2,0:0:0:0:
320,192,120956,1,0,0:0:0:0:
64,192,121118,1,2,0:0:0:0:
192,192,121118,1,0,0:0:0:0:
64,192,121280,1,8,0:0:0:0:
320,192,121280,1,2,0:0:0:0:
448,192,121280,1,0,0:0:0:0:
192,192,121442,1,2,0:0:0:0:
320,192,121442,1,0,0:0:0:0:
64,192,121605,1,8,0:0:0:0:
192,192,121605,1,2,0:0:0:0:
448,192,121605,1,0,0:0:0:0:
320,192,121767,1,2,0:0:0:0:
448,192,121767,1,0,0:0:0:0:
64,192,121929,1,8,0:0:0:0:
192,192,121929,1,2,0:0:0:0:
320,192,121929,1,0,0:0:0:0:
64,192,122091,1,2,0:0:0:0:
192,192,122091,1,0,0:0:0:0:
64,192,122253,1,8,0:0:0:0:
320,192,122253,1,2,0:0:0:0:
448,192,122253,1,0,0:0:0:0:
320,192,122415,1,2,0:0:0:0:
448,192,122415,1,0,0:0:0:0:
64,192,122578,1,8,0:0:0:0:
192,192,122578,1,2,0:0:0:0:
448,192,122578,1,0,0:0:0:0:
64,192,122740,1,8,0:0:0:0:
192,192,122740,128,2,123064:0:0:0:0:
320,192,122740,1,0,0:0:0:0:
64,192,123064,1,8,0:0:0:0:
320,192,123064,1,2,0:0:0:0:
448,192,123064,1,0,0:0:0:0:
192,192,123226,1,0,0:0:0:70:LR_TomR2.wav
320,192,123307,1,0,0:0:0:70:LR_TomR2.wav
64,192,123388,1,8,0:0:0:0:
448,192,123388,1,2,0:0:0:0:
192,192,123469,1,0,0:0:0:70:LR_TomR2.wav
320,192,123551,1,2,0:0:0:0:
448,192,123551,1,0,0:0:0:70:LR_TomR2.wav
64,192,123713,1,2,0:0:0:0:
192,192,123713,1,0,0:0:0:0:
320,192,123794,1,2,0:0:0:0:
448,192,123794,1,0,0:0:0:0:
64,192,123875,1,2,0:0:0:0:
192,192,123875,1,0,0:0:0:0:
64,192,124037,1,4,0:0:0:0:
320,192,124037,1,8,0:0:0:0:
448,192,124037,1,2,0:0:0:0:
192,192,124199,1,2,0:0:0:0:
320,192,124280,128,0,124524:0:0:0:0:
64,192,124524,128,4,125172:0:0:0:0:
192,192,124524,1,2,0:0:0:0:
448,192,124524,128,8,124848:0:0:0:0:
192,192,125172,128,4,125821:0:0:0:0:
320,192,125172,128,2,125497:0:0:0:0:
448,192,125172,1,0,0:0:0:0:
64,192,125821,1,0,0:0:0:0:
448,192,125821,128,0,127767:0:0:0:0:
320,192,126145,1,0,0:0:0:0:
64,192,126307,1,0,0:0:0:0:
192,192,126469,1,0,0:0:0:0:
64,192,126632,1,0,0:0:0:0:
320,192,126794,1,0,0:0:0:0:
192,192,126956,1,0,0:0:0:0:
64,192,127118,1,0,0:0:0:0:
192,192,127280,1,0,0:0:0:0:
320,192,127442,1,0,0:0:0:0:
192,192,127605,1,0,0:0:0:0:
64,192,127767,1,0,0:0:0:0:
320,192,127767,128,0,128091:0:0:0:0:
448,192,127929,1,0,0:0:0:0:
64,192,128091,1,0,0:0:0:0:
192,192,128091,128,0,128415:0:0:0:0:
320,192,128253,1,0,0:0:0:0:
64,192,128415,128,0,129713:0:0:0:0:
448,192,128415,1,0,0:0:0:0:
320,192,128578,1,0,0:0:0:0:
192,192,128740,1,0,0:0:0:0:
320,192,128902,1,0,0:0:0:0:
192,192,129064,1,0,0:0:0:0:
320,192,129226,1,0,0:0:0:0:
448,192,129388,1,0,0:0:0:0:
192,192,129551,1,0,0:0:0:0:
320,192,129713,128,0,130361:0:0:0:0:
448,192,129713,1,0,0:0:0:0:
192,192,129875,1,0,0:0:0:0:
64,192,130037,1,0,0:0:0:0:
192,192,130199,1,0,0:0:0:0:
64,192,130361,1,0,0:0:0:0:
448,192,130361,128,0,131010:0:0:0:0:
192,192,130524,1,0,0:0:0:0:
320,192,130686,1,0,0:0:0:0:
64,192,130848,1,0,0:0:0:0:
192,192,131010,128,0,132956:0:0:0:0:
320,192,131010,1,0,0:0:0:0:
448,192,131172,1,0,0:0:0:0:
320,192,131334,1,0,0:0:0:0:
64,192,131497,1,0,0:0:0:0:
448,192,131659,1,0,0:0:0:0:
320,192,131821,1,0,0:0:0:0:
64,192,131983,1,0,0:0:0:0:
320,192,132145,1,0,0:0:0:0:
448,192,132307,1,0,0:0:0:0:
64,192,132469,1,0,0:0:0:0:
320,192,132632,1,0,0:0:0:0:
64,192,132794,1,0,0:0:0:0:
320,192,132956,1,0,0:0:0:0:
448,192,132956,128,0,133280:0:0:0:0:
64,192,133118,1,0,0:0:0:0:
192,192,133280,1,0,0:0:0:0:
320,192,133280,128,0,133605:0:0:0:0:
448,192,133442,1,0,0:0:0:0:
64,192,133605,128,0,134902:0:0:0:0:
192,192,133605,1,0,0:0:0:0:
320,192,133767,1,0,0:0:0:0:
448,192,133929,1,0,0:0:0:0:
192,192,134091,1,0,0:0:0:0:
320,192,134253,1,0,0:0:0:0:
192,192,134415,1,0,0:0:0:0:
448,192,134578,1,0,0:0:0:0:
320,192,134740,1,0,0:0:0:0:
192,192,134902,1,0,0:0:0:0:
448,192,134902,128,0,135713:0:0:0:0:
320,192,135064,1,0,0:0:0:0:
64,192,135226,1,0,0:0:0:0:
192,192,135388,1,0,0:0:0:0:
320,192,135551,1,0,0:0:0:0:
64,192,135713,1,0,0:0:0:0:
192,192,136037,1,0,0:0:0:0:
