osu file format v14

[General]
AudioFilename: audio.mp3
AudioLeadIn: 0
PreviewTime: 65556
Countdown: 0
SampleSet: Soft
StackLeniency: 0.7
Mode: 2
LetterboxInBreaks: 0
WidescreenStoryboard: 0

[Editor]
DistanceSpacing: 1
BeatDivisor: 4
GridSize: 16
TimelineZoom: 3.699999

[Metadata]
Title:Starlight Express
TitleUnicode:Starlight Express
Artist:ginkiha
ArtistUnicode:ginkiha
Creator:raianshimuzu
Version:GRAVITY
Source:SOUND VOLTEX II -infinite infection-
Tags:sdvx konami bemani NiZi-RiNGO Starlight Express Compilation 制作決定記念 オリジナル楽曲コンテスト production confirmation commemorative original song contest
BeatmapID:1182556
BeatmapSetID:559151

[Difficulty]
HPDrainRate:6
CircleSize:4
OverallDifficulty:9.6
ApproachRate:9.6
SliderMultiplier:1.9
SliderTickRate:2

[Events]
//Background and Video events
0,0,"BG.png",0,0
//Break Periods
//Storyboard Layer 0 (Background)
//Storyboard Layer 1 (Fail)
//Storyboard Layer 2 (Pass)
//Storyboard Layer 3 (Foreground)
//Storyboard Sound Samples

[TimingPoints]
491,300,4,2,0,60,1,0
7691,-100,4,1,0,40,0,0
7991,-100,4,1,0,45,0,0
8291,-100,4,1,0,50,0,0
8591,-100,4,1,0,55,0,0
8891,-100,4,2,1,55,0,0
10091,-100,4,2,1,60,0,1
19691,-100,4,2,1,60,0,0
29891,-100,4,1,0,60,0,0
30491,-100,4,2,0,60,0,1
40091,-100,4,2,1,30,0,0
41291,-100,4,2,1,30,0,0
46091,-100,4,1,1,45,0,0
50891,-100,4,3,0,60,0,0
60491,260.869565217391,4,2,1,60,1,0
61534,218.181818181818,4,2,1,60,1,1
62406,187.5,4,2,1,60,1,1
63156,150,4,2,1,60,1,1
64356,300,4,2,1,60,1,0
65556,-100,4,2,1,60,0,1
83631,-100,4,1,0,60,0,1
83856,-100,4,1,0,45,0,1
84156,-100,4,2,1,60,0,1
85956,-100,4,2,0,60,0,0
95631,-100,4,2,0,5,0,0

[Colours]
Combo1 : 128,255,0
Combo2 : 128,128,255
Combo3 : 255,0,255
Combo4 : 0,128,255

[HitObjects]
160,176,491,6,0,L|272:176,1,95
352,176,791,2,0,L|448:176,1,95,8|0,0:0|0:0,0:0:0:0:
352,112,1091,2,0,L|256:112,1,95
96,80,1391,2,0,L|192:80,1,95,8|0,0:0|0:0,0:0:0:0:
336,96,1691,6,0,L|432:96,2,95,0|0|8,0:0|0:0|0:0,0:0:0:0:
208,96,2141,2,0,P|160:128|208:240,1,190
304,240,2591,1,8,0:0:0:0:
416,240,2741,1,0,0:0:0:0:
160,224,2891,6,0,L|32:224,1,95
160,160,3191,2,0,L|256:160,1,95,8|0,0:0|0:0,0:0:0:0:
352,144,3491,2,0,L|256:144,1,95
112,128,3791,2,0,L|16:128,1,95,8|0,0:0|0:0,0:0:0:0:
176,128,4091,5,0,0:0:0:0:
320,128,4241,1,0,0:0:0:0:
464,128,4391,1,8,0:0:0:0:
320,128,4541,2,0,L|112:128,1,190,0|8,0:0|0:0,0:0:0:0:
272,112,4991,2,0,L|176:112,1,95,8|0,0:0|0:0,0:0:0:0:
432,112,5291,6,0,L|496:208,1,95
384,160,5591,2,0,L|448:240,1,95,8|0,0:0|0:0,0:0:0:0:
336,176,5891,2,0,L|368:288,1,95
224,224,6191,2,0,L|336:208,1,95,8|0,0:0|0:0,0:0:0:0:
176,160,6491,6,0,L|48:160,2,95,0|0|8,0:0|0:0|0:0,0:0:0:0:
304,112,6941,2,0,L|112:112,1,190
240,80,7391,2,0,L|352:80,1,95,8|0,0:0|0:0,0:0:0:0:
176,80,7691,6,0,L|128:80,1,47.5
112,128,7841,2,0,L|176:128,1,47.5
336,160,7991,2,0,L|384:160,1,47.5
400,208,8141,2,0,L|352:208,1,47.5
128,208,8291,6,0,L|80:208,1,47.5
304,208,8441,2,0,L|352:208,1,47.5
96,208,8591,2,0,L|48:208,1,47.5
336,208,8741,2,0,L|384:208,1,47.5
144,208,8891,6,0,L|192:96,1,95,4|0,0:1|0:0,0:0:0:0:
192,96,9116,1,0,0:0:0:0:
416,192,9191,2,0,L|320:112,1,95,4|0,0:1|0:0,0:0:0:0:
304,96,9416,1,0,0:0:0:0:
80,112,9491,2,0,L|176:112,1,95,4|0,0:1|0:0,0:0:0:0:
224,112,9716,1,0,0:0:0:0:
432,112,9791,2,0,L|336:112,1,95,4|0,0:1|0:0,0:0:0:0:
112,96,10091,5,2,0:0:0:0:
64,112,10166,1,0,0:0:0:0:
32,144,10241,1,0,0:0:0:0:
16,192,10316,1,0,0:0:0:0:
208,160,10391,2,0,L|320:160,1,95,8|0,0:0|0:0,0:0:0:0:
352,160,10616,1,0,0:0:0:0:
400,160,10691,1,2,0:0:0:0:
224,112,10841,2,0,L|112:112,1,95,0|8,0:0|0:0,0:0:0:0:
32,112,11141,1,0,0:0:0:0:
384,96,11291,5,2,0:0:0:0:
384,96,11441,2,0,L|272:96,2,95,0|8|0,0:0|0:0|0:0,0:0:0:0:
240,96,11891,1,2,0:0:0:0:
96,96,12041,2,0,L|224:96,1,95,0|8,0:0|0:0,0:0:0:0:
368,96,12341,1,0,0:0:0:0:
80,96,12491,5,2,0:0:0:0:
192,96,12641,1,0,0:0:0:0:
304,96,12791,1,8,0:0:0:0:
400,96,12941,2,0,L|448:96,1,47.5
192,112,13091,1,2,0:0:0:0:
96,112,13241,2,0,L|48:112,1,47.5
368,112,13391,1,8,0:0:0:0:
480,112,13541,1,0,0:0:0:0:
144,112,13691,5,2,0:0:0:0:
144,112,13841,1,0,0:0:0:0:
320,96,13991,2,0,L|208:96,2,95,8|0|2,0:0|0:0|0:0,0:0:0:0:
448,96,14441,2,0,L|320:96,1,95,0|8,0:0|0:0,0:0:0:0:
48,112,14741,1,0,0:0:0:0:
480,112,14891,6,0,L|432:112,1,47.5,2|0,0:0|0:0,0:0:0:0:
208,112,15041,1,0,0:0:0:0:
464,112,15191,2,0,L|416:112,1,47.5,8|0,0:0|0:0,0:0:0:0:
176,112,15341,1,0,0:0:0:0:
448,112,15491,2,0,L|400:112,1,47.5,2|0,0:0|0:0,0:0:0:0:
144,112,15641,1,0,0:0:0:0:
432,112,15791,2,0,L|384:112,1,47.5,8|0,0:0|0:0,0:0:0:0:
112,112,15941,1,0,0:0:0:0:
32,112,16091,6,0,L|80:112,1,47.5,2|0,0:0|0:0,0:0:0:0:
304,112,16241,1,0,0:0:0:0:
48,112,16391,2,0,L|96:112,1,47.5,8|0,0:0|0:0,0:0:0:0:
336,112,16541,1,0,0:0:0:0:
64,112,16691,2,0,L|112:112,1,47.5,2|0,0:0|0:0,0:0:0:0:
368,112,16841,1,0,0:0:0:0:
80,112,16991,2,0,L|128:112,1,47.5,8|0,0:0|0:0,0:0:0:0:
400,112,17141,1,0,0:0:0:0:
144,160,17291,6,0,L|208:160,1,47.5,2|0,0:0|0:0,0:0:0:0:
368,160,17441,1,0,0:0:0:0:
448,160,17591,2,0,L|400:160,1,47.5,8|0,0:0|0:0,0:0:0:0:
128,160,17741,1,0,0:0:0:0:
48,160,17891,2,0,L|95:160,1,47.5,2|0,0:0|0:0,0:0:0:0:
416,160,18041,1,0,0:0:0:0:
496,160,18191,2,0,L|448:160,1,47.5,8|0,0:0|0:0,0:0:0:0:
64,160,18341,1,0,0:0:0:0:
320,160,18491,6,0,L|384:160,1,47.5,2|0,0:0|0:0,0:0:0:0:
160,128,18641,2,0,L|48:128,1,95,0|8,0:0|0:0,0:0:0:0:
16,128,18866,1,0,0:0:0:0:
320,128,18941,2,0,L|432:128,1,95,0|2,0:0|0:0,0:0:0:0:
320,96,19241,2,0,L|272:96,1,47.5
32,96,19391,2,0,L|112:96,1,47.5,8|0,0:0|0:0,0:0:0:0:
128,96,19541,1,0,0:0:0:0:
400,144,19691,6,0,L|192:144,1,190,2|8,0:0|0:0,0:0:0:0:
320,144,20141,1,0,0:0:0:0:
144,144,20291,1,2,0:0:0:0:
288,144,20441,2,0,L|400:144,1,95,2|8,0:0|0:0,0:0:0:0:
480,144,20741,1,0,0:0:0:0:
160,144,20891,6,0,L|80:144,1,47.5,2|0,0:0|0:0,0:0:0:0:
304,128,21041,1,2,0:0:0:0:
352,144,21116,1,0,0:0:0:0:
384,176,21191,1,8,0:0:0:0:
400,224,21266,1,0,0:0:0:0:
400,224,21341,1,0,0:0:0:0:
384,176,21416,1,0,0:0:0:0:
352,144,21491,5,0,0:0:0:0:
304,128,21566,1,0,0:0:0:0:
144,112,21641,2,0,L|80:112,1,47.5,2|0,0:0|0:0,0:0:0:0:
352,128,21791,2,0,L|400:128,1,47.5,8|0,0:0|0:0,0:0:0:0:
416,160,21941,2,0,L|352:160,1,47.5
128,64,22091,6,0,L|64:64,1,47.5,2|0,0:0|0:0,0:0:0:0:
128,64,22241,1,0,0:0:0:0:
176,80,22316,1,0,0:0:0:0:
208,112,22391,1,8,0:0:0:0:
224,144,22466,1,0,0:0:0:0:
208,192,22541,1,0,0:0:0:0:
176,224,22616,1,0,0:0:0:0:
368,144,22691,5,0,0:0:0:0:
416,144,22766,1,0,0:0:0:0:
464,144,22841,2,0,L|416:144,1,47.5,2|0,0:0|0:0,0:0:0:0:
224,144,22991,1,8,0:0:0:0:
192,144,23066,1,0,0:0:0:0:
160,144,23141,1,0,0:0:0:0:
128,144,23216,1,0,0:0:0:0:
400,160,23291,6,0,L|464:160,1,47.5,2|0,0:0|0:0,0:0:0:0:
144,144,23441,2,0,L|80:144,1,47.5,2|0,0:0|0:0,0:0:0:0:
384,112,23591,1,8,0:0:0:0:
336,128,23666,1,0,0:0:0:0:
304,160,23741,1,0,0:0:0:0:
288,208,23816,1,0,0:0:0:0:
336,256,23891,6,0,L|400:256,2,47.5,0|0|2,0:0|0:0|0:0,0:0:0:0:
96,240,24116,1,0,0:0:0:0:
64,192,24191,1,8,0:0:0:0:
48,144,24266,1,0,0:0:0:0:
64,96,24341,1,0,0:0:0:0:
96,64,24416,1,0,0:0:0:0:
320,80,24491,6,0,L|384:80,1,47.5,2|0,0:0|0:0,0:0:0:0:
320,80,24641,2,0,L|272:80,1,47.5
80,128,24791,2,0,L|32:128,1,47.5,8|0,0:0|0:0,0:0:0:0:
80,128,24941,2,0,L|128:128,1,47.5
304,128,25091,5,0,0:0:0:0:
368,128,25166,1,0,0:0:0:0:
432,128,25241,1,2,0:0:0:0:
496,128,25316,1,0,0:0:0:0:
176,160,25391,1,8,0:0:0:0:
128,160,25466,1,0,0:0:0:0:
80,160,25541,1,0,0:0:0:0:
32,160,25616,1,0,0:0:0:0:
400,160,25691,6,0,L|464:160,1,47.5,2|0,0:0|0:0,0:0:0:0:
240,160,25841,2,0,L|192:160,1,47.5,2|0,0:0|0:0,0:0:0:0:
48,80,25991,1,8,0:0:0:0:
16,112,26066,1,0,0:0:0:0:
16,160,26141,1,0,0:0:0:0:
48,192,26216,1,0,0:0:0:0:
80,224,26291,6,0,L|128:224,1,47.5
416,160,26441,2,0,L|368:160,1,47.5,2|0,0:0|0:0,0:0:0:0:
160,144,26591,2,0,L|112:144,1,47.5,8|0,0:0|0:0,0:0:0:0:
96,96,26741,2,0,L|160:96,1,47.5
448,96,26891,6,0,L|464:144,3,47.5,2|0|0|0,0:0|0:0|0:0|0:0,0:0:0:0:
224,48,27191,1,8,0:0:0:0:
176,64,27266,1,0,0:0:0:0:
144,96,27341,1,0,0:0:0:0:
128,144,27416,1,0,0:0:0:0:
144,192,27491,5,0,0:0:0:0:
176,224,27566,1,0,0:0:0:0:
432,240,27641,2,0,L|496:240,1,47.5,2|0,0:0|0:0,0:0:0:0:
208,240,27791,2,0,L|144:240,1,47.5,8|0,0:0|0:0,0:0:0:0:
112,240,27941,2,0,L|64:240,1,47.5
320,144,28091,5,2,0:0:0:0:
368,144,28166,1,0,0:0:0:0:
416,144,28241,1,0,0:0:0:0:
464,144,28316,1,0,0:0:0:0:
224,144,28391,1,8,0:0:0:0:
176,144,28466,1,0,0:0:0:0:
128,144,28541,1,0,0:0:0:0:
80,144,28616,1,0,0:0:0:0:
352,144,28691,5,2,0:0:0:0:
400,144,28766,1,0,0:0:0:0:
448,144,28841,1,0,0:0:0:0:
496,144,28916,1,0,0:0:0:0:
160,160,28991,1,8,0:0:0:0:
112,160,29066,1,0,0:0:0:0:
64,160,29141,1,0,0:0:0:0:
16,160,29216,1,0,0:0:0:0:
256,144,29291,6,0,L|320:144,1,47.5,2|0,0:0|0:0,0:0:0:0:
496,144,29441,2,0,L|448:144,1,47.5,2|0,0:0|0:0,0:0:0:0:
240,208,29591,2,0,L|192:208,1,47.5,10|0,0:0|0:0,0:0:0:0:
16,128,29741,2,0,L|64:128,1,47.5,2|0,0:0|0:0,0:0:0:0:
320,208,29891,6,0,L|384:208,1,47.5
384,160,30041,2,0,L|320:160,1,47.5
128,176,30191,1,0,0:0:0:0:
96,160,30228,1,0,0:0:0:0:
64,128,30266,1,0,0:0:0:0:
48,96,30303,1,0,0:0:0:0:
64,128,30341,1,0,0:0:0:0:
96,160,30378,1,0,0:0:0:0:
128,176,30416,1,0,0:0:0:0:
304,160,30491,5,0,0:0:0:0:
352,160,30566,1,0,0:0:0:0:
400,160,30641,2,8,L|496:160,1,95,8|8,3:0|3:0,3:0:0:0:
336,128,30941,1,0,1:0:0:0:
288,128,31016,1,0,1:0:0:0:
240,128,31091,1,0,1:0:0:0:
64,128,31166,2,0,L|0:128,1,47.5,0|0,1:0|0:0,0:0:0:0:
352,128,31391,2,0,L|352:240,1,95,0|0,3:0|3:0,3:0:0:0:
80,176,31691,5,0,1:0:0:0:
256,128,31766,1,0,0:0:0:0:
304,144,31841,1,0,0:0:0:0:
336,176,31916,1,0,0:0:0:0:
352,208,31991,2,0,L|352:272,1,47.5,0|0,1:0|0:0,0:0:0:0:
96,208,32141,2,0,L|96:272,1,47.5,0|0,1:0|0:0,0:0:0:0:
448,240,32291,1,8,3:0:0:0:
160,224,32441,1,8,3:0:0:0:
256,208,32591,2,0,L|400:208,1,142.5
160,128,32891,6,0,L|96:128,2,47.5,0|0|0,1:0|0:0|0:0,0:0:0:0:
304,128,33191,2,0,L|368:128,2,47.5,0|0|0,1:0|0:0|0:0,0:0:0:0:
32,96,33491,1,8,3:0:0:0:
320,112,33641,1,8,3:0:0:0:
64,112,33791,2,0,L|16:112,1,47.5,0|0,1:0|1:0,1:0:0:0:
304,112,33941,2,0,L|352:112,1,47.5,0|0,1:0|1:0,1:0:0:0:
128,80,34091,6,0,B|16:112|16:112|128:128,1,190
288,144,34466,1,0,1:0:0:0:
336,144,34541,1,0,1:0:0:0:
384,144,34616,1,0,1:0:0:0:
96,144,34691,6,0,L|48:144,1,47.5,0|0,1:0|1:0,1:0:0:0:
272,192,34841,2,0,L|208:192,1,47.5,0|0,1:0|1:0,1:0:0:0:
16,192,34991,2,0,L|176:192,1,142.5
400,144,35291,6,0,L|512:144,2,95,4|0|0,0:1|0:0|0:0,0:0:0:0:
304,144,35741,1,8,3:0:0:0:
128,144,35816,1,8,3:0:0:0:
80,144,35891,2,0,L|208:144,3,95
480,128,36491,6,0,L|416:128,1,47.5,0|0,1:0|1:0,1:0:0:0:
192,128,36641,2,0,L|144:128,1,47.5,0|0,1:0|1:0,1:0:0:0:
352,128,36791,2,0,L|448:128,2,95,0|8|8,0:0|3:0|3:0,0:0:0:0:
144,112,37166,2,2,L|96:112,2,47.5,2|2|2,3:0|3:0|3:0,3:0:0:0:
368,112,37391,2,0,L|368:256,1,142.5
112,176,37691,6,0,L|64:176,1,47.5,4|0,0:1|1:0,0:0:0:0:
272,176,37841,2,0,L|320:176,1,47.5,0|0,1:0|1:0,1:0:0:0:
112,144,37991,1,0,1:0:0:0:
64,144,38066,1,0,1:0:0:0:
16,144,38141,2,0,L|112:144,1,95
288,144,38366,1,8,3:0:0:0:
336,144,38441,1,8,3:0:0:0:
384,144,38516,1,8,3:0:0:0:
192,128,38591,2,0,L|64:128,1,95
352,112,38891,6,0,L|432:112,2,63.3333333333333,4|0|0,0:1|0:0|0:0,0:0:0:0:
96,112,39191,2,0,L|80:160,3,47.5,4|0|0|0,0:1|0:0|0:0|0:0,0:0:0:0:
336,176,39491,6,0,L|256:176,1,47.5,0|0,1:0|1:0,1:0:0:0:
80,160,39641,2,0,L|32:160,1,47.5,0|0,1:0|1:0,1:0:0:0:
288,128,39791,2,0,L|336:128,1,47.5,0|0,1:0|1:0,1:0:0:0:
48,96,39941,2,0,L|96:96,1,47.5,0|0,1:0|1:0,1:0:0:0:
320,96,40091,6,0,L|448:96,1,95,4|0,0:1|0:0,0:0:0:0:
432,224,40391,2,0,L|320:224,1,95,8|0,0:0|0:0,0:0:0:0:
192,224,40691,2,2,L|96:224,1,95
96,112,40991,2,0,L|224:112,1,95,8|0,0:0|0:0,0:0:0:0:
464,112,41291,6,0,L|368:112,1,95
272,112,41591,1,8,0:0:0:0:
336,144,41741,1,0,0:0:0:0:
368,208,41891,1,0,0:0:0:0:
352,272,42041,1,0,0:0:0:0:
272,272,42191,2,0,L|400:272,1,95,8|0,0:0|0:0,0:0:0:0:
208,256,42491,5,0,0:0:0:0:
144,208,42641,1,0,0:0:0:0:
112,144,42791,1,8,0:0:0:0:
128,80,42941,1,0,0:0:0:0:
176,48,43091,1,0,0:0:0:0:
256,80,43241,2,0,L|352:80,2,95,0|8|0,0:0|0:0|0:0,0:0:0:0:
112,112,43691,5,0,0:0:0:0:
208,112,43841,1,0,0:0:0:0:
304,112,43991,1,8,0:0:0:0:
144,96,44141,1,0,0:0:0:0:
272,96,44291,1,0,0:0:0:0:
384,96,44441,1,0,0:0:0:0:
256,64,44591,2,0,L|160:64,1,95,8|0,0:0|0:0,0:0:0:0:
304,64,44891,5,0,0:0:0:0:
448,64,45041,1,0,0:0:0:0:
384,112,45191,1,8,0:0:0:0:
352,176,45341,1,0,0:0:0:0:
384,240,45491,1,0,0:0:0:0:
448,288,45641,2,0,L|320:288,2,95,0|8|0,0:0|0:0|0:0,0:0:0:0:
288,240,46091,6,0,L|96:240,1,190,0|8,0:0|2:0,0:0:0:0:
224,160,46691,2,0,L|32:160,1,190,0|8,0:0|2:0,0:0:0:0:
272,96,47291,6,0,L|480:96,1,190,0|8,0:0|2:0,0:0:0:0:
240,144,47891,2,0,L|448:144,1,190,0|8,0:0|2:0,0:0:0:0:
96,96,48491,6,0,L|96:288,1,190,0|8,0:0|2:0,0:0:0:0:
288,96,49091,2,0,L|288:288,1,190,0|8,0:0|2:0,0:0:0:0:
496,80,49691,6,0,L|496:272,1,190,0|8,0:0|2:0,0:0:0:0:
304,112,50291,1,0,0:0:0:0:
256,112,50366,1,0,0:0:0:0:
208,112,50441,1,0,0:0:0:0:
112,112,50591,2,0,L|16:112,1,95
304,128,50891,6,0,L|416:128,2,95,8|8|2,0:0|0:0|0:0,0:0:0:0:
160,128,51341,2,0,L|112:160,4,47.5,0|2|0|2|0,0:0|0:0|0:0|0:0|0:0,0:0:0:0:
256,160,51791,2,0,L|144:224,1,95,2|0,0:0|0:0,0:0:0:0:
480,144,52091,5,8,0:0:0:0:
384,144,52241,1,8,0:0:0:0:
288,144,52391,1,2,0:0:0:0:
160,144,52541,1,0,0:0:0:0:
112,144,52616,1,2,0:0:0:0:
64,144,52691,1,0,0:0:0:0:
112,144,52766,1,2,0:0:0:0:
160,144,52841,1,0,0:0:0:0:
288,96,52991,2,0,L|192:96,1,95,2|0,0:0|0:0,0:0:0:0:
448,160,53291,6,0,L|336:160,2,95,8|8|2,0:0|0:0|0:0,0:0:0:0:
288,96,53741,1,0,0:0:0:0:
336,96,53816,1,2,0:0:0:0:
384,96,53891,1,0,0:0:0:0:
432,96,53966,1,2,0:0:0:0:
480,96,54041,1,0,0:0:0:0:
384,96,54191,2,0,L|288:96,1,95,2|0,0:0|0:0,0:0:0:0:
48,160,54491,6,0,L|160:160,2,95,8|8|2,0:0|0:0|0:0,0:0:0:0:
208,96,54941,1,0,0:0:0:0:
160,96,55016,1,2,0:0:0:0:
112,96,55091,1,0,0:0:0:0:
64,96,55166,1,2,0:0:0:0:
16,96,55241,1,0,0:0:0:0:
112,96,55391,2,0,L|208:96,1,95,8|0,0:0|0:0,0:0:0:0:
464,144,55691,5,8,0:0:0:0:
368,144,55841,1,8,0:0:0:0:
272,144,55991,1,2,0:0:0:0:
384,112,56141,1,0,0:0:0:0:
336,112,56216,1,2,0:0:0:0:
288,112,56291,1,0,0:0:0:0:
240,112,56366,1,2,0:0:0:0:
192,112,56441,1,0,0:0:0:0:
352,80,56591,2,0,L|240:80,1,95,2|0,0:0|0:0,0:0:0:0:
16,160,56891,5,8,0:0:0:0:
112,160,57041,1,8,0:0:0:0:
208,160,57191,1,2,0:0:0:0:
112,96,57341,1,0,0:0:0:0:
160,96,57416,1,2,0:0:0:0:
208,96,57491,1,0,0:0:0:0:
160,96,57566,1,2,0:0:0:0:
112,96,57641,1,0,0:0:0:0:
240,80,57791,2,0,L|112:80,1,95,2|0,0:0|0:0,0:0:0:0:
400,96,58091,6,0,L|496:96,2,95,8|8|2,0:0|0:0|0:0,0:0:0:0:
304,96,58541,1,0,0:0:0:0:
256,96,58616,1,2,0:0:0:0:
208,96,58691,1,0,0:0:0:0:
160,96,58766,1,2,0:0:0:0:
112,96,58841,1,0,0:0:0:0:
240,80,58991,2,0,L|352:80,1,95
96,112,59291,6,0,L|0:112,2,95,0|0|2,0:0|0:0|0:0,0:0:0:0:
208,112,59741,2,0,L|304:112,2,95
464,96,60191,2,0,L|368:96,1,95
176,128,60491,5,2,0:0:0:0:
48,128,60621,2,0,L|144:128,1,95,0|8,0:0|0:0,0:0:0:0:
272,96,60882,1,0,0:0:0:0:
144,96,61012,1,2,0:0:0:0:
16,96,61143,1,0,0:0:0:0:
320,96,61273,2,0,L|432:96,1,95,8|0,0:0|0:0,0:0:0:0:
64,112,61534,5,2,0:0:0:0:
352,112,61643,1,0,0:0:0:0:
240,112,61752,1,8,0:0:0:0:
352,112,61861,1,0,0:0:0:0:
240,112,61970,1,2,0:0:0:0:
496,112,62079,2,0,L|496:208,1,95,0|8,0:0|0:0,0:0:0:0:
176,160,62297,1,0,0:0:0:0:
32,128,62406,5,2,0:0:0:0:
128,128,62499,1,0,0:0:0:0:
224,128,62593,1,8,0:0:0:0:
336,128,62687,1,0,0:0:0:0:
432,128,62781,1,0,0:0:0:0:
160,112,62874,5,0,0:0:0:0:
112,112,62921,1,0,0:0:0:0:
64,112,62968,1,0,0:0:0:0:
112,112,63015,1,0,0:0:0:0:
160,112,63062,1,0,0:0:0:0:
208,112,63109,1,0,0:0:0:0:
416,48,63156,5,2,3:0:0:0:
448,64,63193,1,2,3:0:0:0:
480,96,63231,1,2,3:0:0:0:
496,128,63268,1,2,3:0:0:0:
496,128,63306,1,2,3:0:0:0:
480,96,63343,1,2,3:0:0:0:
448,64,63381,1,2,3:0:0:0:
416,48,63418,1,2,3:0:0:0:
224,48,63456,5,0,0:0:0:0:
192,56,63493,1,0,0:0:0:0:
160,72,63531,1,0,0:0:0:0:
136,104,63568,1,0,0:0:0:0:
128,144,63606,1,0,0:0:0:0:
136,192,63643,1,0,0:0:0:0:
168,216,63681,1,0,0:0:0:0:
208,224,63718,1,0,0:0:0:0:
416,144,63756,6,0,L|480:144,1,47.5
416,144,63831,2,0,L|477:160,1,47.5
416,144,63906,2,0,L|471:176,1,47.5,0|0,3:0|3:0,3:0:0:0:
416,144,63981,2,0,L|461:189,1,47.5,0|0,3:0|3:0,3:0:0:0:
416,144,64056,6,0,L|448:199,1,47.5,0|0,1:0|1:0,1:0:0:0:
416,144,64131,2,0,L|432:205,1,47.5,0|0,1:0|1:0,1:0:0:0:
416,144,64206,2,0,L|416:208,1,47.5,0|0,1:0|1:0,1:0:0:0:
416,144,64281,2,0,L|399:205,1,47.5,0|0,1:0|1:0,1:0:0:0:
48,192,64356,1,4,1:0:0:0:
256,192,64506,12,0,65256,0:0:0:0:
256,176,65556,5,2,0:0:0:0:
400,144,65706,2,0,L|288:144,2,95,0|8|0,0:0|0:0|0:0,0:0:0:0:
240,96,66156,1,2,0:0:0:0:
336,96,66306,2,0,L|384:96,1,47.5
160,96,66456,1,8,0:0:0:0:
80,96,66606,2,0,L|32:96,1,47.5
336,96,66756,5,2,0:0:0:0:
432,80,66906,1,0,0:0:0:0:
304,64,67056,1,8,0:0:0:0:
176,64,67206,1,0,0:0:0:0:
272,64,67356,2,0,L|384:64,2,95,2|0|8,0:0|0:0|0:0,0:0:0:0:
144,64,67806,1,0,0:0:0:0:
432,112,67956,5,2,0:0:0:0:
304,112,68106,2,0,L|192:112,2,95,0|8|0,0:0|0:0|0:0,0:0:0:0:
176,112,68556,1,2,0:0:0:0:
80,80,68706,2,0,L|128:80,1,47.5
288,80,68856,1,8,0:0:0:0:
368,80,69006,2,0,L|320:80,1,47.5
128,80,69156,5,2,0:0:0:0:
240,80,69306,2,0,L|272:80,1,23.75
48,80,69456,2,0,L|16:80,1,23.75,8|0,0:0|0:0,0:0:0:0:
224,80,69606,2,0,L|336:80,1,95,0|2,0:0|0:0,0:0:0:0:
432,80,69906,2,0,L|320:80,2,95,0|8|0,0:0|0:0|0:0,0:0:0:0:
320,80,70356,5,2,0:0:0:0:
32,144,70506,1,0,0:0:0:0:
336,176,70656,1,8,0:0:0:0:
208,160,70806,1,0,0:0:0:0:
480,160,70956,1,2,0:0:0:0:
176,160,71106,1,0,0:0:0:0:
304,192,71256,1,8,0:0:0:0:
16,160,71406,1,0,0:0:0:0:
320,160,71556,5,2,0:0:0:0:
48,112,71706,2,0,L|144:112,1,95,0|8,0:0|0:0,0:0:0:0:
432,96,72006,2,0,L|304:96,1,95,0|2,0:0|0:0,0:0:0:0:
80,80,72306,2,0,L|192:80,1,95,0|8,0:0|0:0,0:0:0:0:
464,96,72606,1,0,0:0:0:0:
128,144,72756,6,0,L|32:144,1,95,2|0,0:0|0:0,0:0:0:0:
272,112,73056,2,0,L|144:112,1,95,8|0,0:0|0:0,0:0:0:0:
416,64,73356,2,0,L|304:64,1,95,2|0,0:0|0:0,0:0:0:0:
48,64,73656,2,0,L|160:64,1,95,8|0,0:0|0:0,0:0:0:0:
400,96,73956,6,0,L|496:96,1,95,2|0,0:0|0:0,0:0:0:0:
256,96,74256,2,0,L|368:96,1,95,8|0,0:0|0:0,0:0:0:0:
112,96,74556,2,0,L|224:96,1,95,2|0,0:0|0:0,0:0:0:0:
448,96,74856,2,0,L|336:96,1,95,8|2,0:0|0:0,0:0:0:0:
96,96,75156,6,0,L|0:96,2,95,6|0|8,0:0|0:0|0:0,0:0:0:0:
224,96,75606,2,0,L|352:96,1,95,0|2,0:0|0:0,0:0:0:0:
192,96,75906,2,0,L|80:96,1,95,0|8,0:0|0:0,0:0:0:0:
224,96,76206,1,0,0:0:0:0:
496,96,76356,6,0,L|496:192,1,95,2|0,0:0|0:0,0:0:0:0:
496,240,76581,1,0,0:0:0:0:
496,240,76656,1,8,0:0:0:0:
384,224,76806,1,0,0:0:0:0:
304,176,76956,1,2,0:0:0:0:
272,96,77106,1,0,0:0:0:0:
304,32,77256,2,0,L|416:32,1,95,8|0,0:0|0:0,0:0:0:0:
144,48,77556,6,0,L|80:48,1,47.5,2|0,0:0|0:0,0:0:0:0:
80,96,77706,2,0,L|128:96,1,47.5
336,128,77856,2,0,L|400:128,1,47.5,8|0,0:0|0:0,0:0:0:0:
128,176,78006,2,0,L|80:176,1,47.5
368,224,78156,6,0,L|416:224,1,47.5,2|0,0:0|0:0,0:0:0:0:
416,176,78306,2,0,L|352:176,1,47.5
128,144,78456,2,0,L|64:144,1,47.5,8|0,0:0|0:0,0:0:0:0:
384,112,78606,2,0,L|448:112,1,47.5
160,48,78756,5,2,0:0:0:0:
112,64,78831,1,0,0:0:0:0:
80,96,78906,1,0,0:0:0:0:
64,144,78981,1,0,0:0:0:0:
240,160,79056,2,0,L|272:112,3,47.5,8|0|0|0,0:0|0:0|0:0|0:0,0:0:0:0:
432,144,79356,5,2,0:0:0:0:
480,176,79431,1,0,0:0:0:0:
480,224,79506,1,0,0:0:0:0:
432,256,79581,1,0,0:0:0:0:
256,256,79656,2,0,L|224:192,3,47.5,8|0|0|0,0:0|1:0|1:0|1:0,0:0:0:0:
64,176,79956,5,6,0:0:0:0:
80,128,80031,1,0,0:0:0:0:
112,96,80106,1,0,0:0:0:0:
160,80,80181,1,0,0:0:0:0:
368,128,80256,2,0,L|416:128,1,47.5,8|0,0:0|0:0,0:0:0:0:
208,128,80406,5,0,0:0:0:0:
160,128,80481,1,0,0:0:0:0:
112,128,80556,1,2,0:0:0:0:
64,128,80631,1,0,0:0:0:0:
352,128,80706,2,0,L|400:128,1,47.5
160,128,80856,2,0,L|96:128,1,47.5,8|0,0:0|0:0,0:0:0:0:
112,176,81006,2,0,L|160:176,1,47.5
368,192,81156,6,0,L|400:256,2,63.3333333333333,2|0|0,0:0|0:0|0:0,0:0:0:0:
144,192,81456,2,0,L|84:231,2,63.3333333333333,8|0|0,0:0|0:0|0:0,0:0:0:0:
368,192,81756,2,0,L|439:196,2,63.3333333333333,2|0|0,0:0|0:0|0:0,0:0:0:0:
144,192,82056,2,0,L|87:163,2,63.3333333333333,8|0|0,0:0|0:0|0:0,0:0:0:0:
384,144,82356,5,2,0:0:0:0:
288,144,82506,1,2,0:0:0:0:
192,144,82656,1,8,0:0:0:0:
496,144,82806,2,2,L|384:144,1,95,4|2,0:1|0:0,0:0:0:0:
16,128,83106,2,0,L|144:128,1,95,4|8,0:1|0:0,0:0:0:0:
432,128,83406,6,0,L|336:128,1,95,4|0,0:1|0:0,0:0:0:0:
288,128,83631,1,0,0:0:0:0:
112,128,83706,2,0,L|48:128,1,47.5
272,208,83856,5,0,0:0:0:0:
296,200,83893,1,0,0:0:0:0:
320,184,83931,1,0,0:0:0:0:
336,160,83968,1,0,0:0:0:0:
344,128,84006,1,0,0:0:0:0:
336,96,84043,1,0,0:0:0:0:
312,72,84081,1,0,0:0:0:0:
280,56,84118,1,0,0:0:0:0:
80,48,84156,6,0,P|80:96|256:272,1,285
256,192,84756,12,0,85806,0:0:0:0:
240,160,85956,6,0,L|144:160,1,95
64,128,86256,2,0,L|192:128,1,95,8|0,0:0|0:0,0:0:0:0:
256,112,86556,1,0,0:0:0:0:
400,112,86706,1,0,0:0:0:0:
320,112,86856,2,0,L|208:112,1,95,8|0,0:0|0:0,0:0:0:0:
96,112,87156,6,0,L|16:112,1,47.5
32,176,87306,2,0,L|96:176,1,47.5
128,176,87456,2,0,L|224:176,1,95,8|0,0:0|0:0,0:0:0:0:
240,112,87906,1,0,0:0:0:0:
320,112,88056,1,8,0:0:0:0:
400,112,88206,1,0,0:0:0:0:
128,48,88356,5,0,0:0:0:0:
80,80,88506,1,0,0:0:0:0:
48,128,88656,1,8,0:0:0:0:
64,176,88806,1,0,0:0:0:0:
112,208,88956,1,0,0:0:0:0:
256,208,89106,2,0,L|368:176,2,95,0|8|0,0:0|0:0|0:0,0:0:0:0:
96,160,89556,5,0,0:0:0:0:
224,160,89706,2,0,L|320:160,1,95,0|8,0:0|0:0,0:0:0:0:
48,144,90006,1,0,0:0:0:0:
240,144,90306,1,0,0:0:0:0:
336,144,90456,1,8,0:0:0:0:
432,144,90606,1,0,0:0:0:0:
304,144,90756,6,0,L|192:144,1,95
128,144,91056,2,0,L|16:144,1,95,8|0,0:0|0:0,0:0:0:0:
144,96,91356,1,0,0:0:0:0:
256,96,91506,1,0,0:0:0:0:
352,96,91656,2,0,L|224:96,1,95,8|0,0:0|0:0,0:0:0:0:
128,96,91956,6,0,L|160:144,3,47.5
192,144,92256,2,0,L|288:144,1,95,8|0,0:0|0:0,0:0:0:0:
320,64,92706,1,0,0:0:0:0:
224,64,92856,1,8,0:0:0:0:
128,64,93006,1,0,0:0:0:0:
272,96,93156,6,0,L|384:96,1,95
272,96,93456,2,0,L|368:96,1,95,8|0,0:0|0:0,0:0:0:0:
224,96,93756,2,0,L|128:96,1,95
224,96,94056,2,0,L|128:96,1,95,8|0,0:0|0:0,0:0:0:0:
288,160,94356,6,0,L|448:160,1,142.5,4|0,0:1|0:0,0:0:0:0:
208,192,94656,2,0,L|64:192,1,142.5,4|0,0:1|0:0,0:0:0:0:
320,208,94956,2,0,L|464:208,1,142.5,4|0,0:1|0:0,0:0:0:0:
176,240,95256,2,0,L|48:240,1,95,4|0,0:1|0:0,0:0:0:0:
480,256,95556,1,4,0:1:0:0:
256,192,95631,12,0,98256,0:0:0:0:
