osu file format v14

[General]
AudioFilename: audio.mp3
AudioLeadIn: 0
PreviewTime: 64103
Countdown: 0
SampleSet: Normal
StackLeniency: 0.7
Mode: 1
LetterboxInBreaks: 0
WidescreenStoryboard: 0

[Editor]
Bookmarks: 330,5879,11428,22526,44723,61370,66919,86341,97439,108537
DistanceSpacing: 1
BeatDivisor: 4
GridSize: 4
TimelineZoom: 2.7

[Metadata]
Title:Star Chaser!
TitleUnicode:Star Chaser!
Artist:ginkiha
ArtistUnicode:ginkiha
Creator:komasy
Version:Muzukashii!
Source:osu!
Tags:Electronic Instrumental J-Core Hardcore ステラのまほう Sutera no Mahou Magic of Stella すたーちぇいさー! Mappers Guild MG FA Featured Artist
BeatmapID:2348937
BeatmapSetID:1124089

[Difficulty]
HPDrainRate:6
CircleSize:6
OverallDifficulty:5
ApproachRate:6
SliderMultiplier:1.4
SliderTickRate:1

[Events]
//Background and Video events
0,0,"5698.jpg",0,0
//Break Periods
//Storyboard Layer 0 (Background)
//Storyboard Layer 1 (Fail)
//Storyboard Layer 2 (Pass)
//Storyboard Layer 3 (Foreground)
//Storyboard Layer 4 (Overlay)
//Storyboard Sound Samples

[TimingPoints]
332,346.820809248555,4,1,0,60,1,0
5794,-100,4,1,0,80,0,0
44725,346.820809248555,3,1,0,80,1,0
61285,-100,3,1,0,60,0,0
61372,346.820809248555,4,1,0,60,1,0
61458,-100,4,1,0,60,0,0
64233,-100,4,1,0,50,0,0
66227,-100,4,1,0,80,0,0
66834,-100,4,1,0,90,0,0
66921,-100,4,1,0,90,0,1
86343,-100,4,1,0,90,0,0
86429,-100,4,1,0,60,0,0
97354,-100,4,1,0,80,0,0

[HitObjects]
160,96,332,5,0,0:0:0:0:
160,96,852,1,0,0:0:0:0:
160,96,1199,1,0,0:0:0:0:
352,96,1545,1,8,0:0:0:0:
352,96,3106,1,8,0:0:0:0:
352,96,3626,1,8,0:0:0:0:
352,96,3973,1,8,0:0:0:0:
160,96,4320,1,0,0:0:0:0:
160,96,5881,1,0,0:0:0:0:
160,96,6227,1,0,0:0:0:0:
352,96,6401,1,8,0:0:0:0:
352,96,6748,1,8,0:0:0:0:
352,96,7095,1,8,0:0:0:0:
160,96,7268,1,0,0:0:0:0:
160,96,7355,1,0,0:0:0:0:
160,96,7441,1,0,0:0:0:0:
352,96,7615,1,8,0:0:0:0:
160,96,7788,1,0,0:0:0:0:
352,96,7962,1,8,0:0:0:0:
352,96,8308,1,8,0:0:0:0:
160,96,8482,1,0,0:0:0:0:
352,96,8655,1,8,0:0:0:0:
160,96,8829,1,0,0:0:0:0:
160,96,9002,1,0,0:0:0:0:
352,96,9175,1,8,0:0:0:0:
160,96,9349,1,0,0:0:0:0:
352,96,9522,1,8,0:0:0:0:
160,96,9696,1,0,0:0:0:0:
352,96,9869,1,8,0:0:0:0:
291,130,10042,2,0,L|261:170,8,35
160,96,11083,1,0,0:0:0:0:
160,96,11170,1,0,0:0:0:0:
160,96,11256,1,0,0:0:0:0:
352,288,11430,1,12,0:0:0:0:
160,96,11777,1,0,0:0:0:0:
160,96,11950,1,0,0:0:0:0:
352,96,12123,1,8,0:0:0:0:
160,96,12470,1,0,0:0:0:0:
352,96,12644,1,8,0:0:0:0:
160,96,12990,1,0,0:0:0:0:
352,96,13164,1,8,0:0:0:0:
352,96,13337,1,8,0:0:0:0:
160,96,13684,1,0,0:0:0:0:
352,96,13858,1,8,0:0:0:0:
352,96,14031,1,8,0:0:0:0:
160,96,14204,1,0,0:0:0:0:
160,96,14551,1,0,0:0:0:0:
160,96,14725,1,0,0:0:0:0:
352,96,14898,1,8,0:0:0:0:
160,96,15245,1,0,0:0:0:0:
352,96,15418,1,8,0:0:0:0:
352,96,15765,1,8,0:0:0:0:
160,96,15938,1,0,0:0:0:0:
352,96,16112,1,8,0:0:0:0:
352,96,16459,1,8,0:0:0:0:
160,96,16979,1,0,0:0:0:0:
160,96,17326,1,0,0:0:0:0:
160,96,17499,1,0,0:0:0:0:
352,96,17673,1,8,0:0:0:0:
160,96,18019,1,0,0:0:0:0:
352,96,18193,1,8,0:0:0:0:
160,96,18540,1,0,0:0:0:0:
352,96,18713,1,8,0:0:0:0:
352,96,18886,1,8,0:0:0:0:
160,96,19233,1,0,0:0:0:0:
352,96,19407,1,8,0:0:0:0:
352,96,19580,1,8,0:0:0:0:
160,288,19753,5,4,0:0:0:0:
160,96,19927,1,0,0:0:0:0:
352,96,20100,1,8,0:0:0:0:
352,96,20447,1,8,0:0:0:0:
352,96,20621,1,0,0:0:0:0:
352,96,20794,1,8,0:0:0:0:
160,96,21141,1,8,0:0:0:0:
160,96,21314,1,0,0:0:0:0:
352,96,21488,1,8,0:0:0:0:
352,96,21661,1,8,0:0:0:0:
160,96,21834,1,0,0:0:0:0:
160,96,21921,1,0,0:0:0:0:
160,96,22008,1,0,0:0:0:0:
160,96,22181,1,0,0:0:0:0:
352,96,22355,1,8,0:0:0:0:
160,288,22528,1,4,0:0:0:0:
352,96,23048,1,8,0:0:0:0:
352,96,23395,1,8,0:0:0:0:
352,96,23742,1,0,0:0:0:0:
160,96,24089,1,0,0:0:0:0:
352,96,24262,1,8,0:0:0:0:
352,96,24436,1,8,0:0:0:0:
352,96,24782,1,8,0:0:0:0:
160,96,24956,1,0,0:0:0:0:
352,96,25303,1,8,0:0:0:0:
160,96,25649,1,0,0:0:0:0:
160,96,25823,1,0,0:0:0:0:
352,96,26170,1,8,0:0:0:0:
160,96,26516,1,0,0:0:0:0:
160,96,26863,1,0,0:0:0:0:
352,96,27037,1,8,0:0:0:0:
352,96,27210,1,8,0:0:0:0:
160,96,27557,1,0,0:0:0:0:
352,96,27730,1,8,0:0:0:0:
352,96,27904,1,8,0:0:0:0:
160,96,28077,1,0,0:0:0:0:
352,96,28597,1,8,0:0:0:0:
352,96,28944,1,8,0:0:0:0:
352,96,29291,1,0,0:0:0:0:
160,96,29638,1,0,0:0:0:0:
352,96,29811,1,8,0:0:0:0:
352,96,29985,1,8,0:0:0:0:
352,96,30332,1,8,0:0:0:0:
160,96,30505,1,0,0:0:0:0:
160,96,30852,1,0,0:0:0:0:
352,96,31199,1,0,0:0:0:0:
352,96,31372,1,8,0:0:0:0:
160,96,31719,1,0,0:0:0:0:
352,96,32066,1,8,0:0:0:0:
160,96,32412,1,0,0:0:0:0:
352,96,32586,1,8,0:0:0:0:
352,96,32759,1,8,0:0:0:0:
352,96,32846,1,8,0:0:0:0:
352,96,32933,1,8,0:0:0:0:
352,96,33106,1,8,0:0:0:0:
160,96,33279,1,0,0:0:0:0:
352,288,33626,1,12,0:0:0:0:
352,96,34147,1,8,0:0:0:0:
352,96,34493,1,8,0:0:0:0:
352,96,34840,1,8,0:0:0:0:
160,96,35014,1,0,0:0:0:0:
160,96,35187,1,0,0:0:0:0:
352,96,35360,1,8,0:0:0:0:
352,96,35534,1,8,0:0:0:0:
352,96,35881,1,8,0:0:0:0:
160,96,36054,1,0,0:0:0:0:
352,96,36401,1,8,0:0:0:0:
352,96,36574,1,8,0:0:0:0:
160,96,36748,1,0,0:0:0:0:
160,96,36921,1,0,0:0:0:0:
352,96,37268,1,8,0:0:0:0:
160,96,37615,1,0,0:0:0:0:
160,96,37962,1,0,0:0:0:0:
352,96,38135,1,8,0:0:0:0:
352,96,38308,1,8,0:0:0:0:
160,96,38655,1,0,0:0:0:0:
352,96,38829,1,8,0:0:0:0:
352,96,39002,1,8,0:0:0:0:
160,96,39175,1,0,0:0:0:0:
352,96,39696,1,8,0:0:0:0:
352,96,40042,1,8,0:0:0:0:
352,96,40389,1,8,0:0:0:0:
160,96,40563,1,0,0:0:0:0:
160,96,40736,1,0,0:0:0:0:
352,96,40910,1,8,0:0:0:0:
352,96,41083,1,8,0:0:0:0:
352,96,41430,1,8,0:0:0:0:
160,96,41603,1,0,0:0:0:0:
160,96,41950,1,0,0:0:0:0:
160,96,42123,1,0,0:0:0:0:
352,96,42297,1,8,0:0:0:0:
160,96,42470,1,0,0:0:0:0:
160,96,42817,1,0,0:0:0:0:
352,96,42990,1,8,0:0:0:0:
160,96,43164,1,0,0:0:0:0:
352,96,43337,1,8,0:0:0:0:
352,96,43684,5,8,0:0:0:0:
352,96,43858,1,8,0:0:0:0:
160,96,44031,1,0,0:0:0:0:
160,96,44118,1,0,0:0:0:0:
160,96,44204,1,0,0:0:0:0:
352,96,44378,1,8,0:0:0:0:
160,96,44551,1,0,0:0:0:0:
352,288,44725,5,12,0:0:0:0:
352,96,45245,1,8,0:0:0:0:
160,96,45418,1,0,0:0:0:0:
160,96,45592,1,0,0:0:0:0:
352,96,45765,1,8,0:0:0:0:
352,96,46112,1,8,0:0:0:0:
160,96,46285,1,0,0:0:0:0:
352,96,46459,1,8,0:0:0:0:
352,96,46632,1,8,0:0:0:0:
160,96,46805,5,0,0:0:0:0:
160,96,47152,1,0,0:0:0:0:
352,96,47326,1,8,0:0:0:0:
160,96,47499,1,0,0:0:0:0:
160,96,47672,1,0,0:0:0:0:
352,96,47846,1,8,0:0:0:0:
352,96,48193,1,8,0:0:0:0:
160,96,48366,1,0,0:0:0:0:
352,96,48540,1,8,0:0:0:0:
352,96,48713,1,8,0:0:0:0:
160,96,48886,5,0,0:0:0:0:
352,96,49407,1,8,0:0:0:0:
160,96,49580,1,0,0:0:0:0:
160,96,49753,1,0,0:0:0:0:
352,96,49927,1,8,0:0:0:0:
352,96,50274,1,8,0:0:0:0:
160,96,50447,1,0,0:0:0:0:
352,96,50620,1,8,0:0:0:0:
352,96,50794,1,8,0:0:0:0:
160,96,50967,5,0,0:0:0:0:
160,96,51314,1,0,0:0:0:0:
352,96,51488,1,8,0:0:0:0:
160,96,51661,1,0,0:0:0:0:
160,96,51834,1,0,0:0:0:0:
352,96,52008,1,8,0:0:0:0:
352,96,52355,1,8,0:0:0:0:
160,96,52528,1,8,0:0:0:0:
352,96,52701,1,0,0:0:0:0:
352,96,52875,1,0,0:0:0:0:
352,288,53048,1,12,0:0:0:0:
160,96,53568,1,0,0:0:0:0:
352,96,53742,1,8,0:0:0:0:
160,96,53915,1,0,0:0:0:0:
352,96,54089,1,8,0:0:0:0:
352,96,54435,1,8,0:0:0:0:
160,96,54609,1,0,0:0:0:0:
352,96,54782,1,8,0:0:0:0:
352,96,55129,1,8,0:0:0:0:
160,96,55303,1,0,0:0:0:0:
352,96,55476,1,8,0:0:0:0:
160,96,55649,1,0,0:0:0:0:
352,96,55823,1,8,0:0:0:0:
349,109,56170,1,8,0:0:0:0:
336,136,56256,1,8,0:0:0:0:
337,166,56343,1,8,0:0:0:0:
352,96,56516,1,8,0:0:0:0:
352,96,56863,1,8,0:0:0:0:
352,96,57037,1,8,0:0:0:0:
160,96,57210,1,0,0:0:0:0:
352,96,57730,1,8,0:0:0:0:
160,96,57904,1,0,0:0:0:0:
160,96,58077,1,0,0:0:0:0:
352,96,58251,1,8,0:0:0:0:
352,96,58597,1,8,0:0:0:0:
160,96,58771,1,0,0:0:0:0:
352,96,58944,1,8,0:0:0:0:
352,96,59118,1,8,0:0:0:0:
160,96,59291,1,0,0:0:0:0:
160,96,59638,1,0,0:0:0:0:
352,96,59811,1,8,0:0:0:0:
160,96,59985,1,0,0:0:0:0:
160,96,60071,1,0,0:0:0:0:
160,96,60158,1,0,0:0:0:0:
352,96,60331,1,8,0:0:0:0:
352,96,60505,1,8,0:0:0:0:
160,96,60678,1,0,0:0:0:0:
160,96,60852,1,0,0:0:0:0:
352,96,61025,1,8,0:0:0:0:
160,96,61198,1,0,0:0:0:0:
352,288,61372,1,12,0:0:0:0:
352,96,61892,1,8,0:0:0:0:
352,96,62239,1,8,0:0:0:0:
160,96,62585,1,0,0:0:0:0:
160,96,62932,1,0,0:0:0:0:
352,96,63106,1,8,0:0:0:0:
352,96,63279,1,8,0:0:0:0:
352,96,63626,1,8,0:0:0:0:
160,96,63799,1,0,0:0:0:0:
352,288,64146,1,12,0:0:0:0:
160,96,66400,1,0,0:0:0:0:
352,96,66574,1,8,0:0:0:0:
352,96,66661,1,8,0:0:0:0:
352,96,66747,1,8,0:0:0:0:
352,288,66921,1,12,0:0:0:0:
160,96,67094,1,0,0:0:0:0:
352,96,67267,1,8,0:0:0:0:
160,96,67441,1,0,0:0:0:0:
160,96,67788,1,0,0:0:0:0:
352,96,67961,1,8,0:0:0:0:
160,96,68135,1,0,0:0:0:0:
160,96,68481,1,0,0:0:0:0:
352,96,68655,1,8,0:0:0:0:
352,96,68828,1,8,0:0:0:0:
352,96,68915,1,8,0:0:0:0:
352,96,69002,1,8,0:0:0:0:
160,96,69175,1,0,0:0:0:0:
352,96,69348,1,8,0:0:0:0:
160,96,69695,1,0,0:0:0:0:
352,96,70042,1,8,0:0:0:0:
160,96,70215,1,0,0:0:0:0:
160,96,70562,1,0,0:0:0:0:
352,96,70736,1,8,0:0:0:0:
160,96,70909,1,0,0:0:0:0:
160,96,71256,1,0,0:0:0:0:
352,96,71429,1,8,0:0:0:0:
352,96,71603,1,8,0:0:0:0:
160,96,71776,1,0,0:0:0:0:
160,96,71950,1,0,0:0:0:0:
352,96,72123,1,8,0:0:0:0:
160,96,72470,1,0,0:0:0:0:
352,96,72817,1,8,0:0:0:0:
352,96,72990,1,8,0:0:0:0:
160,96,73337,1,0,0:0:0:0:
352,96,73510,1,8,0:0:0:0:
352,96,73684,1,8,0:0:0:0:
160,96,74030,1,0,0:0:0:0:
352,96,74204,1,8,0:0:0:0:
352,96,74377,1,8,0:0:0:0:
352,96,74464,1,8,0:0:0:0:
352,96,74551,1,8,0:0:0:0:
160,96,74724,1,0,0:0:0:0:
352,96,74898,1,8,0:0:0:0:
352,288,75244,1,12,0:0:0:0:
352,96,75765,1,8,0:0:0:0:
160,96,75938,1,0,0:0:0:0:
352,96,76111,1,8,0:0:0:0:
456,180,76458,1,8,0:0:0:0:
408,132,76632,1,0,0:0:0:0:
160,96,76805,1,0,0:0:0:0:
352,96,76978,1,8,0:0:0:0:
352,96,77152,1,8,0:0:0:0:
352,96,77499,1,8,0:0:0:0:
160,96,77672,1,0,0:0:0:0:
352,96,78019,1,8,0:0:0:0:
352,96,78366,1,8,0:0:0:0:
160,96,78539,1,8,0:0:0:0:
352,96,78713,1,0,0:0:0:0:
160,96,78886,1,8,0:0:0:0:
352,96,79233,1,8,0:0:0:0:
160,96,79406,1,0,0:0:0:0:
160,96,79580,1,0,0:0:0:0:
352,96,79753,1,8,0:0:0:0:
352,96,79926,1,8,0:0:0:0:
352,96,80013,1,8,0:0:0:0:
352,96,80100,1,8,0:0:0:0:
160,96,80273,1,0,0:0:0:0:
352,96,80447,1,8,0:0:0:0:
160,96,80793,1,0,0:0:0:0:
352,96,81314,1,8,0:0:0:0:
160,96,81487,1,0,0:0:0:0:
352,96,81661,1,8,0:0:0:0:
352,96,82007,1,8,0:0:0:0:
160,96,82181,1,0,0:0:0:0:
160,96,82354,1,0,0:0:0:0:
352,96,82528,1,8,0:0:0:0:
352,96,82701,1,8,0:0:0:0:
160,96,83048,1,8,0:0:0:0:
352,96,83221,1,0,0:0:0:0:
160,96,83568,1,0,0:0:0:0:
160,96,83741,1,0,0:0:0:0:
352,96,83915,1,8,0:0:0:0:
160,96,84088,1,0,0:0:0:0:
160,96,84435,1,0,0:0:0:0:
352,96,84608,1,8,0:0:0:0:
160,96,84782,1,0,0:0:0:0:
352,96,84955,1,8,0:0:0:0:
352,96,85302,1,8,0:0:0:0:
352,96,85476,1,8,0:0:0:0:
160,96,85649,1,0,0:0:0:0:
160,96,85736,1,0,0:0:0:0:
160,96,85822,1,0,0:0:0:0:
352,96,85996,1,8,0:0:0:0:
160,96,86169,1,0,0:0:0:0:
352,288,86343,1,12,0:0:0:0:
160,96,86863,1,0,0:0:0:0:
160,96,87210,1,0,0:0:0:0:
352,96,87556,1,8,0:0:0:0:
352,96,89117,1,8,0:0:0:0:
352,96,89637,1,8,0:0:0:0:
352,96,89984,1,8,0:0:0:0:
160,96,90331,1,0,0:0:0:0:
160,96,91892,1,0,0:0:0:0:
160,96,92412,1,0,0:0:0:0:
352,96,92585,1,8,0:0:0:0:
160,96,92759,1,0,0:0:0:0:
352,96,93106,1,8,0:0:0:0:
160,96,93452,1,0,0:0:0:0:
352,96,93626,1,8,0:0:0:0:
160,96,93799,1,0,0:0:0:0:
160,96,93973,1,0,0:0:0:0:
352,96,94319,1,8,0:0:0:0:
352,96,94666,1,8,0:0:0:0:
352,96,95187,1,8,0:0:0:0:
160,96,95360,1,0,0:0:0:0:
352,96,95533,1,8,0:0:0:0:
160,96,95880,1,0,0:0:0:0:
352,96,96227,1,8,0:0:0:0:
352,96,96574,1,8,0:0:0:0:
160,96,96747,1,0,0:0:0:0:
160,96,96834,1,0,0:0:0:0:
160,96,96921,1,0,0:0:0:0:
352,96,97094,1,8,0:0:0:0:
160,288,97441,5,4,0:0:0:0:
160,96,97961,1,0,0:0:0:0:
352,96,98135,1,8,0:0:0:0:
160,96,98308,1,0,0:0:0:0:
160,96,98481,1,0,0:0:0:0:
352,96,98655,1,8,0:0:0:0:
352,96,98828,1,8,0:0:0:0:
352,96,98915,1,8,0:0:0:0:
352,96,99002,1,8,0:0:0:0:
160,96,99175,1,0,0:0:0:0:
228,120,99348,1,8,0:0:0:0:
216,132,99695,1,0,0:0:0:0:
248,144,99782,1,0,0:0:0:0:
276,152,99869,1,0,0:0:0:0:
352,96,100042,1,8,0:0:0:0:
160,96,100215,5,0,0:0:0:0:
352,96,100562,1,8,0:0:0:0:
160,96,100736,1,0,0:0:0:0:
352,96,100909,1,8,0:0:0:0:
160,96,101082,1,0,0:0:0:0:
160,96,101256,1,0,0:0:0:0:
352,96,101429,1,8,0:0:0:0:
160,96,101603,1,0,0:0:0:0:
160,96,101689,1,0,0:0:0:0:
160,96,101776,1,0,0:0:0:0:
352,96,101950,1,8,0:0:0:0:
344,172,102123,1,0,0:0:0:0:
352,96,102470,1,0,0:0:0:0:
332,112,102556,1,0,0:0:0:0:
352,96,102643,1,8,0:0:0:0:
352,96,102817,1,8,0:0:0:0:
160,96,102990,1,0,0:0:0:0:
160,96,103510,1,0,0:0:0:0:
352,96,103684,1,8,0:0:0:0:
160,96,103857,1,0,0:0:0:0:
352,96,104030,1,8,0:0:0:0:
352,96,104117,1,8,0:0:0:0:
352,96,104204,1,8,0:0:0:0:
160,96,104377,1,0,0:0:0:0:
160,96,104464,1,0,0:0:0:0:
160,96,104551,1,0,0:0:0:0:
352,96,104724,1,8,0:0:0:0:
160,96,104898,1,0,0:0:0:0:
352,96,105071,1,8,0:0:0:0:
352,96,105418,1,8,0:0:0:0:
160,96,105591,1,0,0:0:0:0:
352,96,105765,1,8,0:0:0:0:
160,96,105938,1,0,0:0:0:0:
160,96,106111,1,0,0:0:0:0:
352,96,106285,1,8,0:0:0:0:
160,96,106458,1,0,0:0:0:0:
352,96,106632,1,8,0:0:0:0:
160,96,106805,1,0,0:0:0:0:
352,96,106978,1,8,0:0:0:0:
124,151,107152,2,0,L|166:181,8,35
160,96,108192,1,0,0:0:0:0:
160,96,108279,1,0,0:0:0:0:
160,96,108366,1,0,0:0:0:0:
352,288,108539,1,12,0:0:0:0:
