osu file format v14

[General]
AudioFilename: audio.mp3
AudioLeadIn: 0
PreviewTime: 64103
Countdown: 0
SampleSet: Normal
StackLeniency: 0.7
Mode: 1
LetterboxInBreaks: 0
WidescreenStoryboard: 0

[Editor]
Bookmarks: 330,5879,11428,22526,44723,61370,66919,86341,97439,108537
DistanceSpacing: 1
BeatDivisor: 4
GridSize: 4
TimelineZoom: 2.7

[Metadata]
Title:Star Chaser!
TitleUnicode:Star Chaser!
Artist:ginkiha
ArtistUnicode:ginkiha
Creator:komasy
Version:Inner Oni!
Source:osu!
Tags:Electronic Instrumental J-Core Hardcore ステラのまほう Sutera no Mahou Magic of Stella すたーちぇいさー! Mappers Guild MG FA Featured Artist
BeatmapID:2348881
BeatmapSetID:1124089

[Difficulty]
HPDrainRate:5
CircleSize:6
OverallDifficulty:6.5
ApproachRate:6
SliderMultiplier:1.4
SliderTickRate:1

[Events]
//Background and Video events
0,0,"5698.jpg",0,0
//Break Periods
//Storyboard Layer 0 (Background)
//Storyboard Layer 1 (Fail)
//Storyboard Layer 2 (Pass)
//Storyboard Layer 3 (Foreground)
//Storyboard Layer 4 (Overlay)
//Storyboard Sound Samples

[TimingPoints]
332,346.820809248555,4,1,0,60,1,0
332,-125,4,1,0,60,0,0
5794,-100,4,1,0,80,0,0
44725,346.820809248555,3,1,0,80,1,0
61285,-100,3,1,0,60,0,0
61372,346.820809248555,4,1,0,60,1,0
61458,-111.111111111111,4,1,0,60,0,0
64233,-125,4,1,0,50,0,0
66227,-100,4,1,0,80,0,0
66834,-86.9565217391304,4,1,0,90,0,0
66921,-86.9565217391304,4,1,0,90,0,1
86343,-95.2380952380952,4,1,0,90,0,0
86429,-125,4,1,0,60,0,0
97354,-100,4,1,0,80,0,0

[HitObjects]
160,96,332,5,0,0:0:0:0:
352,96,678,5,8,0:0:0:0:
160,96,852,1,0,0:0:0:0:
160,96,1199,1,0,0:0:0:0:
352,96,1372,1,8,0:0:0:0:
352,96,1545,1,8,0:0:0:0:
352,96,3106,1,8,0:0:0:0:
160,96,3453,1,0,0:0:0:0:
352,96,3626,1,8,0:0:0:0:
352,96,3973,1,8,0:0:0:0:
352,96,4147,1,8,0:0:0:0:
160,96,4320,1,0,0:0:0:0:
160,96,5881,1,0,0:0:0:0:
160,96,6227,1,0,0:0:0:0:
352,96,6401,1,8,0:0:0:0:
160,96,6574,1,0,0:0:0:0:
352,96,6748,1,8,0:0:0:0:
352,96,6834,1,8,0:0:0:0:
160,96,6921,1,0,0:0:0:0:
352,96,7095,1,8,0:0:0:0:
160,96,7268,1,0,0:0:0:0:
160,96,7355,1,0,0:0:0:0:
352,96,7441,1,8,0:0:0:0:
160,96,7528,1,0,0:0:0:0:
352,96,7615,1,8,0:0:0:0:
352,96,7701,1,8,0:0:0:0:
160,96,7788,1,0,0:0:0:0:
352,96,7962,1,8,0:0:0:0:
160,96,8019,1,0,0:0:0:0:
160,96,8077,1,0,0:0:0:0:
352,96,8135,1,8,0:0:0:0:
160,96,8193,1,0,0:0:0:0:
160,96,8251,1,0,0:0:0:0:
352,96,8308,1,8,0:0:0:0:
352,96,8395,1,8,0:0:0:0:
160,96,8482,1,0,0:0:0:0:
160,96,8568,1,0,0:0:0:0:
352,96,8655,1,8,0:0:0:0:
160,96,8829,1,0,0:0:0:0:
352,96,8915,1,8,0:0:0:0:
160,96,9002,1,0,0:0:0:0:
352,96,9175,1,8,0:0:0:0:
160,96,9349,1,0,0:0:0:0:
160,96,9436,1,0,0:0:0:0:
352,96,9522,1,8,0:0:0:0:
352,96,9609,1,8,0:0:0:0:
160,96,9696,1,0,0:0:0:0:
352,96,9869,1,8,0:0:0:0:
160,96,10042,1,0,0:0:0:0:
160,96,10129,1,0,0:0:0:0:
352,96,10216,1,8,0:0:0:0:
160,96,10303,1,0,0:0:0:0:
352,96,10389,1,8,0:0:0:0:
352,96,10476,1,8,0:0:0:0:
160,96,10563,1,0,0:0:0:0:
160,96,10649,1,0,0:0:0:0:
352,96,10736,1,8,0:0:0:0:
160,96,10823,1,0,0:0:0:0:
160,96,10996,1,0,0:0:0:0:
352,96,11083,1,8,0:0:0:0:
352,96,11141,1,8,0:0:0:0:
352,96,11199,1,8,0:0:0:0:
160,96,11256,1,0,0:0:0:0:
160,288,11430,1,4,0:0:0:0:
352,96,11777,1,8,0:0:0:0:
352,96,11950,1,8,0:0:0:0:
160,96,12123,1,0,0:0:0:0:
160,96,12210,1,0,0:0:0:0:
160,96,12297,1,0,0:0:0:0:
352,96,12470,1,8,0:0:0:0:
160,96,12644,1,0,0:0:0:0:
160,96,12990,1,0,0:0:0:0:
352,96,13164,1,8,0:0:0:0:
352,96,13337,1,8,0:0:0:0:
160,96,13511,1,0,0:0:0:0:
160,96,13684,1,0,0:0:0:0:
160,96,13771,1,0,0:0:0:0:
352,96,13858,1,8,0:0:0:0:
352,96,14031,1,8,0:0:0:0:
160,96,14204,1,0,0:0:0:0:
352,96,14551,1,8,0:0:0:0:
352,96,14725,1,8,0:0:0:0:
160,96,14898,1,0,0:0:0:0:
352,96,14985,1,8,0:0:0:0:
160,96,15071,1,0,0:0:0:0:
352,96,15245,1,8,0:0:0:0:
160,96,15418,1,0,0:0:0:0:
160,96,15765,1,0,0:0:0:0:
352,96,15938,1,8,0:0:0:0:
160,96,16112,1,0,0:0:0:0:
352,96,16199,1,8,0:0:0:0:
352,96,16285,1,8,0:0:0:0:
160,96,16459,1,0,0:0:0:0:
352,96,16632,1,8,0:0:0:0:
352,96,16805,1,8,0:0:0:0:
352,96,16892,1,8,0:0:0:0:
160,96,16979,1,0,0:0:0:0:
352,96,17326,1,8,0:0:0:0:
352,96,17499,1,8,0:0:0:0:
160,96,17673,1,0,0:0:0:0:
160,96,17759,1,0,0:0:0:0:
160,96,17846,1,0,0:0:0:0:
352,96,18019,1,8,0:0:0:0:
160,96,18193,1,0,0:0:0:0:
160,96,18540,1,0,0:0:0:0:
352,96,18713,1,8,0:0:0:0:
352,96,18886,1,8,0:0:0:0:
160,96,19060,1,0,0:0:0:0:
352,96,19147,1,8,0:0:0:0:
160,96,19233,1,0,0:0:0:0:
160,96,19320,1,0,0:0:0:0:
352,96,19407,1,8,0:0:0:0:
352,96,19580,1,8,0:0:0:0:
160,288,19753,5,4,0:0:0:0:
160,96,19927,1,0,0:0:0:0:
160,96,20014,1,0,0:0:0:0:
352,96,20100,1,8,0:0:0:0:
160,96,20274,1,0,0:0:0:0:
352,96,20447,1,8,0:0:0:0:
352,96,20534,1,8,0:0:0:0:
160,96,20621,1,0,0:0:0:0:
352,96,20794,1,8,0:0:0:0:
160,96,20967,1,0,0:0:0:0:
352,96,21141,1,8,0:0:0:0:
352,96,21227,1,8,0:0:0:0:
160,96,21314,1,0,0:0:0:0:
160,96,21401,1,0,0:0:0:0:
352,96,21488,1,8,0:0:0:0:
352,96,21661,1,8,0:0:0:0:
160,96,21834,1,0,0:0:0:0:
352,96,21921,1,8,0:0:0:0:
160,96,22008,1,0,0:0:0:0:
352,96,22066,1,8,0:0:0:0:
352,96,22123,1,8,0:0:0:0:
160,96,22181,1,0,0:0:0:0:
352,96,22355,1,8,0:0:0:0:
160,288,22528,1,4,0:0:0:0:
160,96,22701,1,0,0:0:0:0:
160,96,22788,1,0,0:0:0:0:
352,96,22875,1,8,0:0:0:0:
352,96,23048,1,8,0:0:0:0:
160,96,23395,1,0,0:0:0:0:
352,96,23568,1,8,0:0:0:0:
160,96,23742,1,0,0:0:0:0:
160,96,23829,1,0,0:0:0:0:
160,96,23915,1,0,0:0:0:0:
160,96,24089,1,0,0:0:0:0:
352,96,24262,1,8,0:0:0:0:
352,96,24436,1,8,0:0:0:0:
352,96,24522,1,8,0:0:0:0:
160,96,24609,1,0,0:0:0:0:
160,96,24782,1,0,0:0:0:0:
352,96,24956,1,8,0:0:0:0:
352,96,25303,1,8,0:0:0:0:
160,96,25476,1,0,0:0:0:0:
160,96,25563,1,0,0:0:0:0:
352,96,25649,1,8,0:0:0:0:
160,96,25823,1,0,0:0:0:0:
160,96,26170,1,0,0:0:0:0:
352,96,26343,1,8,0:0:0:0:
160,96,26516,1,0,0:0:0:0:
160,96,26603,1,0,0:0:0:0:
160,96,26690,1,0,0:0:0:0:
160,96,26863,1,0,0:0:0:0:
352,96,27037,1,8,0:0:0:0:
160,96,27210,1,0,0:0:0:0:
160,96,27297,1,0,0:0:0:0:
352,96,27384,1,8,0:0:0:0:
352,96,27470,1,8,0:0:0:0:
160,96,27557,1,0,0:0:0:0:
352,96,27730,1,8,0:0:0:0:
352,96,27904,1,8,0:0:0:0:
160,96,28077,1,0,0:0:0:0:
160,96,28251,1,0,0:0:0:0:
160,96,28337,1,0,0:0:0:0:
352,96,28424,1,8,0:0:0:0:
352,96,28597,1,8,0:0:0:0:
160,96,28944,1,0,0:0:0:0:
352,96,29118,1,8,0:0:0:0:
160,96,29291,1,0,0:0:0:0:
160,96,29378,1,0,0:0:0:0:
160,96,29464,1,0,0:0:0:0:
160,96,29638,1,0,0:0:0:0:
352,96,29811,1,8,0:0:0:0:
352,96,29985,1,8,0:0:0:0:
352,96,30071,1,8,0:0:0:0:
160,96,30158,1,0,0:0:0:0:
160,96,30332,1,0,0:0:0:0:
352,96,30505,1,8,0:0:0:0:
160,96,30852,1,0,0:0:0:0:
160,96,31025,1,0,0:0:0:0:
160,96,31112,1,0,0:0:0:0:
352,96,31199,1,8,0:0:0:0:
352,96,31372,1,8,0:0:0:0:
160,96,31719,1,0,0:0:0:0:
352,96,31892,1,8,0:0:0:0:
352,96,32066,1,8,0:0:0:0:
352,96,32152,1,8,0:0:0:0:
352,96,32239,1,8,0:0:0:0:
160,96,32412,1,0,0:0:0:0:
352,96,32586,1,8,0:0:0:0:
160,96,32759,1,0,0:0:0:0:
352,96,32846,1,8,0:0:0:0:
352,96,32933,1,8,0:0:0:0:
352,96,33019,1,8,0:0:0:0:
160,96,33106,1,0,0:0:0:0:
352,96,33279,1,8,0:0:0:0:
160,96,33453,1,0,0:0:0:0:
352,288,33626,1,12,0:0:0:0:
160,96,33800,1,0,0:0:0:0:
160,96,33886,1,0,0:0:0:0:
352,96,33973,1,8,0:0:0:0:
352,96,34147,1,8,0:0:0:0:
160,96,34493,1,0,0:0:0:0:
352,96,34667,1,8,0:0:0:0:
160,96,34840,1,0,0:0:0:0:
160,96,34927,1,0,0:0:0:0:
160,96,35014,1,0,0:0:0:0:
160,96,35187,1,0,0:0:0:0:
352,96,35360,1,8,0:0:0:0:
352,96,35534,1,8,0:0:0:0:
352,96,35621,1,8,0:0:0:0:
160,96,35707,1,0,0:0:0:0:
352,96,35794,1,8,0:0:0:0:
160,96,35881,1,0,0:0:0:0:
352,96,36054,1,8,0:0:0:0:
352,96,36401,1,8,0:0:0:0:
160,96,36574,1,0,0:0:0:0:
160,96,36661,1,0,0:0:0:0:
352,96,36748,1,8,0:0:0:0:
160,96,36921,1,0,0:0:0:0:
160,96,37268,1,0,0:0:0:0:
352,96,37441,1,8,0:0:0:0:
160,96,37615,1,0,0:0:0:0:
160,96,37701,1,0,0:0:0:0:
160,96,37788,1,0,0:0:0:0:
160,96,37962,1,0,0:0:0:0:
352,96,38135,1,8,0:0:0:0:
160,96,38308,1,0,0:0:0:0:
160,96,38395,1,0,0:0:0:0:
352,96,38482,1,8,0:0:0:0:
352,96,38568,1,8,0:0:0:0:
160,96,38655,1,0,0:0:0:0:
352,96,38829,1,8,0:0:0:0:
160,96,39002,1,0,0:0:0:0:
352,96,39089,1,8,0:0:0:0:
160,96,39175,1,0,0:0:0:0:
160,96,39349,1,0,0:0:0:0:
160,96,39436,1,0,0:0:0:0:
352,96,39522,1,8,0:0:0:0:
352,96,39696,1,8,0:0:0:0:
160,96,40042,1,0,0:0:0:0:
352,96,40216,1,8,0:0:0:0:
160,96,40389,1,0,0:0:0:0:
160,96,40476,1,0,0:0:0:0:
160,96,40563,1,0,0:0:0:0:
160,96,40736,1,0,0:0:0:0:
352,96,40910,1,8,0:0:0:0:
352,96,41083,1,8,0:0:0:0:
352,96,41170,1,8,0:0:0:0:
160,96,41256,1,0,0:0:0:0:
352,96,41343,1,8,0:0:0:0:
160,96,41430,1,0,0:0:0:0:
352,96,41603,1,8,0:0:0:0:
160,96,41777,1,0,0:0:0:0:
160,96,41950,1,0,0:0:0:0:
160,96,42123,1,0,0:0:0:0:
160,96,42210,1,0,0:0:0:0:
352,96,42297,1,8,0:0:0:0:
160,96,42470,1,0,0:0:0:0:
352,96,42644,1,8,0:0:0:0:
352,96,42730,1,8,0:0:0:0:
160,96,42817,1,0,0:0:0:0:
352,96,42990,1,8,0:0:0:0:
160,96,43164,1,0,0:0:0:0:
352,96,43337,1,8,0:0:0:0:
352,96,43424,1,8,0:0:0:0:
160,96,43511,1,0,0:0:0:0:
160,96,43597,1,0,0:0:0:0:
352,96,43684,5,8,0:0:0:0:
352,96,43858,1,8,0:0:0:0:
160,96,44031,1,0,0:0:0:0:
352,96,44118,1,8,0:0:0:0:
160,96,44204,1,0,0:0:0:0:
160,96,44262,1,0,0:0:0:0:
160,96,44320,1,0,0:0:0:0:
352,96,44378,1,8,0:0:0:0:
352,96,44464,1,8,0:0:0:0:
160,96,44551,1,0,0:0:0:0:
352,288,44725,5,12,0:0:0:0:
160,96,45071,1,0,0:0:0:0:
352,96,45245,1,8,0:0:0:0:
160,96,45418,1,0,0:0:0:0:
160,96,45505,1,0,0:0:0:0:
160,96,45592,1,0,0:0:0:0:
160,96,45678,1,0,0:0:0:0:
352,96,45765,1,8,0:0:0:0:
160,96,45938,1,0,0:0:0:0:
352,96,46112,1,8,0:0:0:0:
160,96,46285,1,0,0:0:0:0:
352,96,46459,1,8,0:0:0:0:
352,96,46545,1,8,0:0:0:0:
352,96,46632,1,8,0:0:0:0:
352,96,46719,1,8,0:0:0:0:
160,96,46805,5,0,0:0:0:0:
352,96,47066,1,8,0:0:0:0:
160,96,47152,1,0,0:0:0:0:
352,96,47326,1,8,0:0:0:0:
160,96,47499,1,0,0:0:0:0:
160,96,47586,1,0,0:0:0:0:
160,96,47672,1,0,0:0:0:0:
160,96,47759,1,0,0:0:0:0:
352,96,47846,1,8,0:0:0:0:
160,96,48019,1,0,0:0:0:0:
160,96,48106,1,0,0:0:0:0:
352,96,48193,1,8,0:0:0:0:
160,96,48366,1,0,0:0:0:0:
352,96,48540,1,8,0:0:0:0:
352,96,48626,1,8,0:0:0:0:
352,96,48713,1,8,0:0:0:0:
352,96,48800,1,8,0:0:0:0:
160,96,48886,5,0,0:0:0:0:
160,96,49233,1,0,0:0:0:0:
352,96,49407,1,8,0:0:0:0:
160,96,49580,1,0,0:0:0:0:
160,96,49667,1,0,0:0:0:0:
160,96,49753,1,0,0:0:0:0:
160,96,49840,1,0,0:0:0:0:
352,96,49927,1,8,0:0:0:0:
160,96,50100,1,0,0:0:0:0:
352,96,50274,1,8,0:0:0:0:
160,96,50447,1,0,0:0:0:0:
352,96,50620,1,8,0:0:0:0:
352,96,50707,1,8,0:0:0:0:
352,96,50794,1,8,0:0:0:0:
352,96,50881,1,8,0:0:0:0:
160,96,50967,5,0,0:0:0:0:
352,96,51141,1,8,0:0:0:0:
352,96,51227,1,8,0:0:0:0:
160,96,51314,1,0,0:0:0:0:
352,96,51488,1,8,0:0:0:0:
160,96,51661,1,0,0:0:0:0:
160,96,51748,1,0,0:0:0:0:
160,96,51834,1,0,0:0:0:0:
160,96,51921,1,0,0:0:0:0:
352,96,52008,1,8,0:0:0:0:
160,96,52181,1,0,0:0:0:0:
160,96,52268,1,0,0:0:0:0:
352,96,52355,1,8,0:0:0:0:
160,96,52528,1,0,0:0:0:0:
352,96,52701,1,8,0:0:0:0:
352,96,52788,1,8,0:0:0:0:
160,96,52875,1,0,0:0:0:0:
160,96,52961,1,0,0:0:0:0:
352,96,53048,1,8,0:0:0:0:
160,96,53308,1,0,0:0:0:0:
352,96,53395,1,8,0:0:0:0:
160,96,53568,1,0,0:0:0:0:
352,96,53742,1,8,0:0:0:0:
160,96,53829,1,0,0:0:0:0:
160,96,53915,1,0,0:0:0:0:
160,96,54002,1,0,0:0:0:0:
352,96,54089,1,8,0:0:0:0:
160,96,54262,1,0,0:0:0:0:
160,96,54349,1,0,0:0:0:0:
352,96,54435,1,8,0:0:0:0:
160,96,54609,1,0,0:0:0:0:
352,96,54782,1,8,0:0:0:0:
160,96,54869,1,0,0:0:0:0:
160,96,54956,1,0,0:0:0:0:
352,96,55129,1,8,0:0:0:0:
352,96,55216,1,8,0:0:0:0:
160,96,55303,1,0,0:0:0:0:
160,96,55389,1,0,0:0:0:0:
352,96,55476,1,8,0:0:0:0:
160,96,55649,1,0,0:0:0:0:
352,96,55823,1,8,0:0:0:0:
160,96,55996,1,0,0:0:0:0:
160,96,56083,1,0,0:0:0:0:
352,96,56170,1,8,0:0:0:0:
160,96,56343,1,0,0:0:0:0:
352,96,56516,1,8,0:0:0:0:
160,96,56603,1,0,0:0:0:0:
160,96,56690,1,0,0:0:0:0:
160,96,56777,1,0,0:0:0:0:
352,96,56863,1,8,0:0:0:0:
352,96,57037,1,8,0:0:0:0:
160,96,57210,1,0,0:0:0:0:
160,96,57383,1,0,0:0:0:0:
160,96,57470,1,0,0:0:0:0:
352,96,57557,1,8,0:0:0:0:
160,96,57730,1,0,0:0:0:0:
352,96,57904,1,8,0:0:0:0:
352,96,57991,1,8,0:0:0:0:
160,96,58077,1,0,0:0:0:0:
352,96,58251,1,8,0:0:0:0:
160,96,58424,1,0,0:0:0:0:
160,96,58511,1,0,0:0:0:0:
352,96,58597,1,8,0:0:0:0:
352,96,58684,1,8,0:0:0:0:
160,96,58771,1,0,0:0:0:0:
352,96,58944,1,8,0:0:0:0:
160,96,59118,1,0,0:0:0:0:
160,96,59204,1,0,0:0:0:0:
352,96,59291,1,8,0:0:0:0:
160,96,59378,1,0,0:0:0:0:
352,96,59464,1,8,0:0:0:0:
160,96,59638,1,0,0:0:0:0:
352,96,59811,1,8,0:0:0:0:
352,96,59898,1,8,0:0:0:0:
160,96,59985,1,0,0:0:0:0:
160,96,60071,1,0,0:0:0:0:
352,96,60158,1,8,0:0:0:0:
160,96,60245,1,0,0:0:0:0:
352,96,60331,1,8,0:0:0:0:
160,96,60505,1,0,0:0:0:0:
352,96,60678,1,8,0:0:0:0:
160,96,60765,1,0,0:0:0:0:
160,96,60852,1,0,0:0:0:0:
160,96,60938,1,0,0:0:0:0:
352,96,61025,1,8,0:0:0:0:
352,96,61112,1,8,0:0:0:0:
160,96,61198,1,0,0:0:0:0:
352,288,61372,1,12,0:0:0:0:
352,96,61718,1,8,0:0:0:0:
160,96,61892,1,0,0:0:0:0:
352,96,61978,1,8,0:0:0:0:
352,96,62152,1,8,0:0:0:0:
160,96,62239,1,0,0:0:0:0:
352,96,62585,1,8,0:0:0:0:
160,96,62759,1,0,0:0:0:0:
160,96,62932,1,0,0:0:0:0:
352,96,63106,1,8,0:0:0:0:
160,96,63279,1,0,0:0:0:0:
352,96,63626,1,8,0:0:0:0:
352,96,63799,1,8,0:0:0:0:
352,96,63886,1,8,0:0:0:0:
160,96,63973,1,0,0:0:0:0:
352,288,64146,1,12,0:0:0:0:
160,96,66400,1,0,0:0:0:0:
352,96,66574,1,8,0:0:0:0:
352,96,66632,1,8,0:0:0:0:
352,96,66689,1,8,0:0:0:0:
160,96,66747,1,0,0:0:0:0:
352,288,66921,1,12,0:0:0:0:
160,96,67094,1,0,0:0:0:0:
160,96,67181,1,0,0:0:0:0:
352,96,67267,1,8,0:0:0:0:
160,96,67441,1,0,0:0:0:0:
352,96,67614,1,8,0:0:0:0:
352,96,67701,1,8,0:0:0:0:
160,96,67788,1,0,0:0:0:0:
352,96,67961,1,8,0:0:0:0:
160,96,68135,1,0,0:0:0:0:
160,96,68221,1,0,0:0:0:0:
352,96,68395,1,8,0:0:0:0:
160,96,68481,1,0,0:0:0:0:
352,96,68655,1,8,0:0:0:0:
160,96,68828,1,0,0:0:0:0:
160,96,68915,1,0,0:0:0:0:
352,96,69002,1,8,0:0:0:0:
352,96,69088,1,8,0:0:0:0:
160,96,69175,1,0,0:0:0:0:
352,96,69348,1,8,0:0:0:0:
352,96,69522,1,8,0:0:0:0:
352,96,69608,1,8,0:0:0:0:
160,96,69695,1,0,0:0:0:0:
160,96,69955,1,0,0:0:0:0:
352,96,70042,1,8,0:0:0:0:
160,96,70215,1,0,0:0:0:0:
352,96,70389,1,8,0:0:0:0:
352,96,70476,1,8,0:0:0:0:
160,96,70562,1,0,0:0:0:0:
352,96,70736,1,8,0:0:0:0:
160,96,70909,1,0,0:0:0:0:
160,96,70996,1,0,0:0:0:0:
352,96,71169,1,8,0:0:0:0:
160,96,71256,1,0,0:0:0:0:
352,96,71429,1,8,0:0:0:0:
160,96,71603,1,0,0:0:0:0:
160,96,71689,1,0,0:0:0:0:
352,96,71776,1,8,0:0:0:0:
160,96,71950,1,0,0:0:0:0:
352,96,72123,1,8,0:0:0:0:
160,96,72296,1,0,0:0:0:0:
160,96,72383,1,0,0:0:0:0:
160,96,72470,1,0,0:0:0:0:
160,96,72643,1,0,0:0:0:0:
352,96,72817,1,8,0:0:0:0:
160,96,72990,1,0,0:0:0:0:
352,96,73077,1,8,0:0:0:0:
352,96,73163,1,8,0:0:0:0:
160,96,73337,1,0,0:0:0:0:
352,96,73510,1,8,0:0:0:0:
160,96,73684,1,0,0:0:0:0:
352,96,73770,1,8,0:0:0:0:
352,96,73944,1,8,0:0:0:0:
160,96,74030,1,0,0:0:0:0:
352,96,74204,1,8,0:0:0:0:
160,96,74377,1,0,0:0:0:0:
352,96,74464,1,8,0:0:0:0:
352,96,74551,1,8,0:0:0:0:
352,96,74637,1,8,0:0:0:0:
160,96,74724,1,0,0:0:0:0:
160,96,74811,1,0,0:0:0:0:
352,96,74898,1,8,0:0:0:0:
160,96,75071,1,0,0:0:0:0:
352,288,75244,1,12,0:0:0:0:
352,96,75504,1,8,0:0:0:0:
160,96,75591,1,0,0:0:0:0:
352,96,75765,1,8,0:0:0:0:
160,96,75938,1,0,0:0:0:0:
352,96,76025,1,8,0:0:0:0:
352,96,76198,1,8,0:0:0:0:
160,96,76285,1,0,0:0:0:0:
352,96,76458,1,8,0:0:0:0:
160,96,76632,1,0,0:0:0:0:
160,96,76718,1,0,0:0:0:0:
352,96,76805,1,8,0:0:0:0:
160,96,76978,1,0,0:0:0:0:
352,96,77152,1,8,0:0:0:0:
352,96,77239,1,8,0:0:0:0:
160,96,77325,1,0,0:0:0:0:
352,96,77499,1,8,0:0:0:0:
160,96,77672,1,0,0:0:0:0:
160,96,77759,1,0,0:0:0:0:
352,96,77845,1,8,0:0:0:0:
352,96,77932,1,8,0:0:0:0:
160,96,78019,1,0,0:0:0:0:
160,96,78192,1,0,0:0:0:0:
352,96,78279,1,8,0:0:0:0:
160,96,78366,1,0,0:0:0:0:
352,96,78539,1,8,0:0:0:0:
160,96,78713,1,0,0:0:0:0:
352,96,78799,1,8,0:0:0:0:
352,96,78973,1,8,0:0:0:0:
160,96,79059,1,0,0:0:0:0:
160,96,79146,1,0,0:0:0:0:
352,96,79233,1,8,0:0:0:0:
160,96,79406,1,0,0:0:0:0:
352,96,79580,1,8,0:0:0:0:
352,96,79666,1,8,0:0:0:0:
160,96,79753,1,0,0:0:0:0:
352,96,79926,1,8,0:0:0:0:
160,96,80100,1,0,0:0:0:0:
160,96,80187,1,0,0:0:0:0:
352,96,80273,1,8,0:0:0:0:
160,96,80360,1,0,0:0:0:0:
352,96,80447,1,8,0:0:0:0:
352,96,80533,1,8,0:0:0:0:
160,96,80620,1,0,0:0:0:0:
160,96,80793,1,0,0:0:0:0:
352,96,80967,1,8,0:0:0:0:
160,96,81054,1,0,0:0:0:0:
160,96,81140,1,0,0:0:0:0:
352,96,81314,1,8,0:0:0:0:
160,96,81487,1,0,0:0:0:0:
352,96,81574,1,8,0:0:0:0:
352,96,81747,1,8,0:0:0:0:
160,96,81834,1,0,0:0:0:0:
352,96,82007,1,8,0:0:0:0:
160,96,82181,1,0,0:0:0:0:
160,96,82267,1,0,0:0:0:0:
352,96,82354,1,8,0:0:0:0:
160,96,82528,1,0,0:0:0:0:
352,96,82701,1,8,0:0:0:0:
352,96,82788,1,8,0:0:0:0:
160,96,82874,1,0,0:0:0:0:
160,96,82961,1,0,0:0:0:0:
352,96,83048,1,8,0:0:0:0:
160,96,83221,1,0,0:0:0:0:
352,96,83395,1,8,0:0:0:0:
160,96,83481,1,0,0:0:0:0:
160,96,83568,1,0,0:0:0:0:
160,96,83741,1,0,0:0:0:0:
352,96,83915,1,8,0:0:0:0:
160,96,84088,1,0,0:0:0:0:
160,96,84175,1,0,0:0:0:0:
352,96,84262,1,8,0:0:0:0:
160,96,84435,1,0,0:0:0:0:
352,96,84608,1,8,0:0:0:0:
352,96,84695,1,8,0:0:0:0:
160,96,84782,1,0,0:0:0:0:
352,96,84955,1,8,0:0:0:0:
160,96,85129,1,0,0:0:0:0:
160,96,85215,1,0,0:0:0:0:
352,96,85302,1,8,0:0:0:0:
160,96,85389,1,0,0:0:0:0:
352,96,85476,1,8,0:0:0:0:
160,96,85649,1,0,0:0:0:0:
352,96,85736,1,8,0:0:0:0:
160,96,85822,1,0,0:0:0:0:
160,96,85880,1,0,0:0:0:0:
160,96,85938,1,0,0:0:0:0:
352,96,85996,1,8,0:0:0:0:
352,96,86082,1,8,0:0:0:0:
160,96,86169,1,0,0:0:0:0:
352,288,86343,1,12,0:0:0:0:
352,96,86689,1,8,0:0:0:0:
160,96,86863,1,0,0:0:0:0:
160,96,87210,1,0,0:0:0:0:
352,96,87383,1,8,0:0:0:0:
352,96,87556,1,8,0:0:0:0:
352,96,89117,1,8,0:0:0:0:
160,96,89464,1,0,0:0:0:0:
352,96,89637,1,8,0:0:0:0:
352,96,89984,1,8,0:0:0:0:
352,96,90158,1,8,0:0:0:0:
160,96,90331,1,0,0:0:0:0:
160,96,91892,1,0,0:0:0:0:
352,96,92239,1,8,0:0:0:0:
160,96,92412,1,0,0:0:0:0:
352,96,92585,1,8,0:0:0:0:
352,96,92672,1,8,0:0:0:0:
160,96,92759,1,0,0:0:0:0:
160,96,92845,1,0,0:0:0:0:
352,96,92932,1,8,0:0:0:0:
352,96,93106,1,8,0:0:0:0:
160,96,93452,1,0,0:0:0:0:
352,96,93626,1,8,0:0:0:0:
160,96,93799,1,0,0:0:0:0:
160,96,93973,1,0,0:0:0:0:
160,96,94059,1,0,0:0:0:0:
160,96,94146,1,0,0:0:0:0:
160,96,94233,1,0,0:0:0:0:
352,96,94319,1,8,0:0:0:0:
352,96,94666,1,8,0:0:0:0:
160,96,95013,1,0,0:0:0:0:
352,96,95187,1,8,0:0:0:0:
160,96,95360,1,0,0:0:0:0:
160,96,95447,1,0,0:0:0:0:
352,96,95533,1,8,0:0:0:0:
352,96,95620,1,8,0:0:0:0:
352,96,95707,1,8,0:0:0:0:
160,96,95880,1,0,0:0:0:0:
160,96,96227,1,0,0:0:0:0:
352,96,96400,1,8,0:0:0:0:
352,96,96574,1,8,0:0:0:0:
160,96,96747,1,0,0:0:0:0:
352,96,96834,1,8,0:0:0:0:
160,96,96921,1,0,0:0:0:0:
160,96,97007,1,0,0:0:0:0:
352,96,97094,1,8,0:0:0:0:
352,96,97181,1,8,0:0:0:0:
160,96,97267,1,0,0:0:0:0:
160,288,97441,5,4,0:0:0:0:
352,96,97614,1,8,0:0:0:0:
160,96,97701,1,0,0:0:0:0:
352,96,97788,1,8,0:0:0:0:
352,96,97874,1,8,0:0:0:0:
160,96,97961,1,0,0:0:0:0:
160,96,98048,1,0,0:0:0:0:
352,96,98135,1,8,0:0:0:0:
160,96,98221,1,0,0:0:0:0:
160,96,98308,1,0,0:0:0:0:
160,96,98395,1,0,0:0:0:0:
352,96,98481,1,8,0:0:0:0:
352,96,98568,1,8,0:0:0:0:
160,96,98655,1,0,0:0:0:0:
160,96,98741,1,0,0:0:0:0:
352,96,98828,1,8,0:0:0:0:
160,96,98915,1,0,0:0:0:0:
160,96,99002,1,0,0:0:0:0:
352,96,99088,1,8,0:0:0:0:
352,96,99175,1,8,0:0:0:0:
352,96,99262,1,8,0:0:0:0:
160,96,99348,1,0,0:0:0:0:
160,96,99435,1,0,0:0:0:0:
352,96,99522,1,8,0:0:0:0:
160,96,99608,1,0,0:0:0:0:
352,96,99695,1,8,0:0:0:0:
352,96,99782,1,8,0:0:0:0:
160,96,99869,1,0,0:0:0:0:
160,96,99955,1,0,0:0:0:0:
352,96,100042,1,8,0:0:0:0:
160,96,100129,1,0,0:0:0:0:
160,96,100215,1,0,0:0:0:0:
352,96,100302,1,8,0:0:0:0:
160,96,100389,1,0,0:0:0:0:
352,96,100476,1,8,0:0:0:0:
352,96,100562,1,8,0:0:0:0:
352,96,100649,1,8,0:0:0:0:
160,96,100736,1,0,0:0:0:0:
160,96,100822,1,0,0:0:0:0:
352,96,100909,1,8,0:0:0:0:
160,96,100996,1,0,0:0:0:0:
160,96,101082,1,0,0:0:0:0:
160,96,101169,1,0,0:0:0:0:
352,96,101256,1,8,0:0:0:0:
352,96,101343,1,8,0:0:0:0:
160,96,101429,1,0,0:0:0:0:
352,96,101516,1,8,0:0:0:0:
160,96,101603,1,0,0:0:0:0:
160,96,101689,1,0,0:0:0:0:
352,96,101776,1,8,0:0:0:0:
160,96,101863,1,0,0:0:0:0:
160,96,101950,1,0,0:0:0:0:
352,96,102036,1,8,0:0:0:0:
352,96,102123,1,8,0:0:0:0:
160,96,102210,1,0,0:0:0:0:
352,96,102296,1,8,0:0:0:0:
352,96,102383,1,8,0:0:0:0:
160,96,102470,1,0,0:0:0:0:
160,96,102556,1,0,0:0:0:0:
352,96,102643,1,8,0:0:0:0:
160,96,102730,1,0,0:0:0:0:
352,96,102817,1,8,0:0:0:0:
352,96,102903,1,8,0:0:0:0:
160,96,102990,1,0,0:0:0:0:
160,96,103163,1,0,0:0:0:0:
160,96,103250,1,0,0:0:0:0:
352,96,103337,1,8,0:0:0:0:
160,96,103510,1,0,0:0:0:0:
352,96,103597,1,8,0:0:0:0:
160,96,103684,1,0,0:0:0:0:
160,96,103770,1,0,0:0:0:0:
160,96,103944,1,0,0:0:0:0:
352,96,104030,1,8,0:0:0:0:
160,96,104117,1,0,0:0:0:0:
352,96,104204,1,8,0:0:0:0:
352,96,104291,1,8,0:0:0:0:
160,96,104377,1,0,0:0:0:0:
160,96,104551,1,0,0:0:0:0:
160,96,104637,1,0,0:0:0:0:
352,96,104724,1,8,0:0:0:0:
352,96,104811,1,8,0:0:0:0:
160,96,104898,1,0,0:0:0:0:
352,96,105071,1,8,0:0:0:0:
160,96,105129,1,0,0:0:0:0:
160,96,105187,1,0,0:0:0:0:
352,96,105244,1,8,0:0:0:0:
160,96,105302,1,0,0:0:0:0:
160,96,105360,1,0,0:0:0:0:
352,96,105418,1,8,0:0:0:0:
352,96,105504,1,8,0:0:0:0:
160,96,105591,1,0,0:0:0:0:
160,96,105678,1,0,0:0:0:0:
352,96,105765,1,8,0:0:0:0:
160,96,105938,1,0,0:0:0:0:
352,96,106025,1,8,0:0:0:0:
160,96,106111,1,0,0:0:0:0:
160,96,106285,1,0,0:0:0:0:
160,96,106372,1,0,0:0:0:0:
352,96,106458,1,8,0:0:0:0:
160,96,106545,1,0,0:0:0:0:
160,96,106632,1,0,0:0:0:0:
160,96,106718,1,0,0:0:0:0:
352,96,106805,1,8,0:0:0:0:
352,96,106892,1,8,0:0:0:0:
160,96,106978,1,0,0:0:0:0:
352,96,107152,1,8,0:0:0:0:
160,96,107239,1,0,0:0:0:0:
160,96,107325,1,0,0:0:0:0:
160,96,107412,1,0,0:0:0:0:
352,96,107499,1,8,0:0:0:0:
352,96,107585,1,8,0:0:0:0:
160,96,107672,1,0,0:0:0:0:
352,96,107759,1,8,0:0:0:0:
160,96,107845,1,0,0:0:0:0:
160,96,107932,1,0,0:0:0:0:
352,96,108019,1,8,0:0:0:0:
160,96,108106,1,0,0:0:0:0:
352,96,108192,1,8,0:0:0:0:
352,96,108250,1,8,0:0:0:0:
352,96,108308,1,8,0:0:0:0:
160,96,108366,1,0,0:0:0:0:
352,288,108539,1,12,0:0:0:0:
