osu file format v14

[General]
AudioFilename: audio.mp3
AudioLeadIn: 0
PreviewTime: 66745
Countdown: 0
SampleSet: Soft
StackLeniency: 0.7
Mode: 3
LetterboxInBreaks: 0
SpecialStyle: 0
WidescreenStoryboard: 0

[Editor]
DistanceSpacing: 0.8
BeatDivisor: 4
GridSize: 32
TimelineZoom: 1.7

[Metadata]
Title:Snowscapes
TitleUnicode:Snowscapes
Artist:ginkiha
ArtistUnicode:ginkiha
Creator:Wonki
Version:Shana's Another
Source:MÚSECA
Tags:Reba [Shana_Lesus] Fontes Fresh_Chicken
BeatmapID:1124011
BeatmapSetID:530201

[Difficulty]
HPDrainRate:8
CircleSize:4
OverallDifficulty:8
ApproachRate:5
SliderMultiplier:1.4
SliderTickRate:1

[Events]
//Background and Video events
0,0,"BG.jpg",0,0
//Break Periods
//Storyboard Layer 0 (Background)
//Storyboard Layer 1 (Fail)
//Storyboard Layer 2 (Pass)
//Storyboard Layer 3 (Foreground)
//Storyboard Sound Samples

[TimingPoints]
2388,335.195530726257,4,2,1,50,1,0
77471,-100,4,2,1,50,0,1
88198,-100,4,2,1,50,0,0

[HitObjects]
448,192,2388,5,0,0:0:0:30:twinkling.wav
64,192,2388,1,0,0:0:0:70:Ringing.wav
192,192,2555,1,0,0:0:0:0:
320,192,2723,1,0,0:0:0:0:
448,192,2723,1,0,0:0:0:0:
64,192,2890,1,0,0:0:0:0:
192,192,2890,1,0,0:0:0:0:
320,192,3058,1,0,0:0:0:0:
448,192,3225,1,0,0:0:0:0:
192,192,3393,1,0,0:0:0:0:
320,192,3477,1,0,0:0:0:0:
64,192,3561,1,0,0:0:0:0:
448,192,3561,1,0,0:0:0:0:
320,192,3728,1,0,0:0:0:0:
64,192,4063,1,0,0:0:0:0:
64,192,4231,1,0,0:0:0:0:
448,192,4231,1,0,0:0:0:0:
192,192,4399,1,0,0:0:0:0:
320,192,4566,1,0,0:0:0:0:
64,192,4566,1,0,0:0:0:0:
192,192,4734,1,0,0:0:0:0:
448,192,4734,1,0,0:0:0:0:
64,192,4901,1,0,0:0:0:0:
448,192,4901,1,0,0:0:0:0:
320,192,5069,1,0,0:0:0:0:
64,192,5069,1,0,0:0:0:0:
192,192,5404,1,0,0:0:0:0:
64,192,5404,1,0,0:0:0:0:
320,192,5572,1,0,0:0:0:0:
448,192,5572,1,0,0:0:0:0:
192,192,5907,1,0,0:0:0:0:
448,192,5907,1,0,0:0:0:0:
64,192,6075,1,0,0:0:0:0:
64,192,6242,1,0,0:0:0:0:
320,192,6242,1,0,0:0:0:0:
448,192,6410,1,0,0:0:0:0:
192,192,6577,1,0,0:0:0:0:
448,192,6577,1,0,0:0:0:0:
320,192,6745,1,0,0:0:0:0:
192,192,6745,1,0,0:0:0:0:
64,192,6913,1,0,0:0:0:0:
192,192,7080,1,0,0:0:0:0:
448,192,7080,1,0,0:0:0:0:
320,192,7248,1,0,0:0:0:0:
64,192,7248,1,0,0:0:0:0:
192,192,7415,1,0,0:0:0:0:
64,192,7415,1,0,0:0:0:0:
320,192,7583,1,0,0:0:0:0:
192,192,7583,1,0,0:0:0:0:
320,192,7751,1,0,0:0:0:0:
448,192,7751,1,0,0:0:0:0:
192,192,7918,1,0,0:0:0:0:
64,192,8086,1,0,0:0:0:0:
320,192,8086,1,0,0:0:0:0:
448,192,8253,1,0,0:0:0:0:
192,192,8253,1,0,0:0:0:0:
320,192,8421,1,0,0:0:0:0:
64,192,8589,1,0,0:0:0:0:
192,192,8589,1,0,0:0:0:0:
320,192,8756,1,0,0:0:0:0:
192,192,8840,1,0,0:0:0:0:
64,192,8924,1,0,0:0:0:0:
448,192,8924,1,0,0:0:0:0:
320,192,9091,1,0,0:0:0:0:
64,192,9427,1,0,0:0:0:0:
448,192,9427,1,0,0:0:0:0:
448,192,9594,1,0,0:0:0:0:
64,192,9594,1,0,0:0:0:0:
192,192,9762,1,0,0:0:0:0:
320,192,9929,1,0,0:0:0:0:
448,192,9929,1,0,0:0:0:0:
192,192,10097,1,0,0:0:0:0:
64,192,10097,1,0,0:0:0:0:
320,192,10265,1,0,0:0:0:0:
192,192,10265,1,0,0:0:0:0:
448,192,10432,1,0,0:0:0:0:
64,192,10432,1,0,0:0:0:0:
320,192,10600,1,0,0:0:0:0:
448,192,10600,1,0,0:0:0:0:
64,192,10684,1,0,0:0:0:0:
320,192,10767,1,0,0:0:0:0:
192,192,10767,1,0,0:0:0:0:
192,192,10935,1,0,0:0:0:0:
64,192,10935,1,0,0:0:0:0:
320,192,11103,1,0,0:0:0:0:
448,192,11103,1,0,0:0:0:0:
192,192,11270,1,0,0:0:0:0:
320,192,11270,1,0,0:0:0:0:
64,192,11438,1,0,0:0:0:0:
192,192,11605,1,0,0:0:0:0:
448,192,11605,1,0,0:0:0:0:
320,192,11773,1,0,0:0:0:0:
64,192,11773,1,0,0:0:0:0:
64,192,11941,1,0,0:0:0:0:
448,192,11941,1,0,0:0:0:0:
192,192,12108,1,0,0:0:0:0:
448,192,12108,1,0,0:0:0:0:
320,192,12276,1,0,0:0:0:0:
192,192,12276,1,0,0:0:0:0:
320,192,12443,1,0,0:0:0:0:
448,192,12443,1,0,0:0:0:0:
64,192,12611,1,0,0:0:0:0:
192,192,12611,1,0,0:0:0:0:
320,192,12779,1,0,0:0:0:0:
192,192,12946,1,0,0:0:0:0:
448,192,13114,128,0,14790:0:0:0:70:Ringing.wav
64,192,13114,1,2,0:0:0:0:
192,192,13617,1,0,0:0:0:0:
320,192,13617,1,0,0:0:0:0:
64,192,14119,1,0,0:0:0:0:
320,192,14119,1,0,0:0:0:0:
64,192,14455,1,0,0:0:0:0:
192,192,14455,1,0,0:0:0:0:
64,192,14790,128,0,15293:0:0:0:0:
192,192,14957,1,0,0:0:0:0:
448,192,14957,1,0,0:0:0:0:
320,192,15293,128,0,15460:0:0:0:0:
448,192,15460,128,0,15628:0:0:0:0:
192,192,15628,128,0,15795:0:0:0:0:
320,192,15795,128,0,17136:0:0:0:0:
64,192,15795,1,0,0:0:0:0:
192,192,16298,1,0,0:0:0:0:
448,192,16298,1,0,0:0:0:0:
192,192,16801,1,0,0:0:0:0:
64,192,16801,1,0,0:0:0:0:
64,192,17136,128,0,18477:0:0:0:0:
448,192,17136,1,0,0:0:0:0:
192,192,17639,1,0,0:0:0:0:
320,192,17639,1,0,0:0:0:0:
320,192,18142,1,0,0:0:0:0:
448,192,18142,1,0,0:0:0:0:
192,192,18477,1,0,0:0:0:0:
448,192,18477,1,0,0:0:0:0:
320,192,18644,1,0,0:0:0:0:
192,192,18812,1,0,0:0:0:0:
64,192,18812,1,0,0:0:0:0:
320,192,18980,1,0,0:0:0:0:
192,192,19063,1,0,0:0:0:0:
64,192,19147,1,0,0:0:0:0:
448,192,19147,1,0,0:0:0:0:
192,192,19315,1,0,0:0:0:0:
320,192,19315,1,0,0:0:0:0:
64,192,19482,1,0,0:0:0:0:
192,192,19566,1,0,0:0:0:0:
448,192,19650,1,0,0:0:0:0:
320,192,19734,1,0,0:0:0:0:
64,192,19818,1,0,0:0:0:0:
192,192,19818,1,0,0:0:0:0:
320,192,19985,1,0,0:0:0:0:
448,192,20153,1,0,0:0:0:0:
64,192,20153,1,0,0:0:0:0:
192,192,20320,1,0,0:0:0:0:
320,192,20404,1,0,0:0:0:0:
448,192,20488,1,0,0:0:0:0:
192,192,20572,1,0,0:0:0:0:
64,192,20656,1,0,0:0:0:0:
448,192,20656,1,0,0:0:0:0:
320,192,20823,1,0,0:0:0:0:
192,192,20907,1,0,0:0:0:0:
448,192,20991,1,0,0:0:0:0:
320,192,21075,1,0,0:0:0:0:
192,192,21158,1,0,0:0:0:0:
64,192,21158,1,0,0:0:0:0:
320,192,21326,1,0,0:0:0:0:
448,192,21494,1,0,0:0:0:0:
64,192,21494,1,0,0:0:0:0:
192,192,21661,1,0,0:0:0:0:
320,192,21745,1,0,0:0:0:0:
448,192,21829,1,0,0:0:0:0:
64,192,21829,1,0,0:0:0:0:
192,192,21996,1,0,0:0:0:0:
320,192,22164,1,0,0:0:0:0:
448,192,22248,1,0,0:0:0:0:
64,192,22332,1,0,0:0:0:0:
192,192,22415,1,0,0:0:0:0:
320,192,22499,1,0,0:0:0:70:Ringing.wav
448,192,22499,1,8,0:0:0:0:
64,192,22499,1,0,0:0:0:0:
192,192,22667,1,0,0:0:0:0:
320,192,22834,1,0,0:0:0:0:
64,192,23002,1,0,0:0:0:0:
448,192,23002,1,8,0:0:0:0:
320,192,23170,1,8,0:0:0:0:
192,192,23170,1,0,0:0:0:0:
448,192,23337,1,8,0:0:0:0:
64,192,23505,1,0,0:0:0:0:
192,192,23505,1,8,0:0:0:0:
448,192,23589,1,8,0:0:0:0:
320,192,23672,1,8,0:0:0:0:
192,192,23672,1,0,0:0:0:0:
64,192,23756,1,8,0:0:0:0:
320,192,23840,1,8,0:0:0:0:
448,192,23840,1,0,0:0:0:70:Ringing.wav
192,192,24008,1,0,0:0:0:0:
64,192,24175,1,0,0:0:0:0:
320,192,24175,1,8,0:0:0:0:
448,192,24175,1,0,0:0:0:0:
192,192,24343,1,0,0:0:0:0:
320,192,24510,1,8,0:0:0:0:
448,192,24510,1,0,0:0:0:0:
64,192,24678,1,0,0:0:0:0:
192,192,24846,1,0,0:0:0:0:
448,192,24846,1,0,0:0:0:0:
320,192,24846,1,8,0:0:0:0:
64,192,25013,1,0,0:0:0:0:
192,192,25181,1,0,0:0:0:0:
320,192,25181,1,8,0:0:0:0:
448,192,25348,1,0,0:0:0:0:
320,192,25516,1,8,0:0:0:0:
64,192,25516,1,0,0:0:0:0:
192,192,25516,1,0,0:0:0:0:
448,192,25684,1,0,0:0:0:0:
64,192,25851,1,0,0:0:0:0:
320,192,25851,1,8,0:0:0:0:
192,192,26019,1,0,0:0:0:0:
320,192,26103,1,0,0:0:0:0:
448,192,26186,1,8,0:0:0:0:
192,192,26186,1,0,0:0:0:0:
64,192,26186,1,0,0:0:0:0:
320,192,26354,1,0,0:0:0:0:
448,192,26354,1,8,0:0:0:0:
192,192,26522,1,8,0:0:0:0:
64,192,26522,1,0,0:0:0:0:
320,192,26689,1,0,0:0:0:0:
448,192,26857,1,0,0:0:0:0:
192,192,26857,1,8,0:0:0:0:
64,192,26857,1,0,0:0:0:0:
320,192,27024,1,0,0:0:0:0:
448,192,27192,1,8,0:0:0:0:
64,192,27192,1,0,0:0:0:0:
192,192,27360,1,0,0:0:0:0:
320,192,27527,1,0,0:0:0:0:
448,192,27527,1,8,0:0:0:0:
64,192,27527,1,0,0:0:0:0:
192,192,27695,1,0,0:0:0:0:
320,192,27862,1,8,0:0:0:0:
64,192,27862,1,0,0:0:0:0:
448,192,28030,1,0,0:0:0:0:
192,192,28198,1,0,0:0:0:0:
64,192,28198,1,0,0:0:0:0:
320,192,28198,1,8,0:0:0:0:
448,192,28365,1,0,0:0:0:0:
64,192,28533,1,8,0:0:0:0:
192,192,28533,1,0,0:0:0:0:
320,192,28644,1,8,0:0:0:0:
448,192,28644,1,0,0:0:0:0:
64,192,28756,1,0,0:0:0:0:
192,192,28756,1,8,0:0:0:0:
320,192,28868,1,8,0:0:0:0:
448,192,28868,1,0,0:0:0:0:
192,192,28980,1,0,0:0:0:0:
64,192,28980,1,0,0:0:0:0:
448,192,29036,1,0,0:0:0:0:
320,192,29091,1,0,0:0:0:0:
192,192,29147,1,0,0:0:0:0:
64,192,29203,1,0,0:0:0:0:
448,192,29203,1,8,0:0:0:0:
64,192,29538,1,0,0:0:0:0:
448,192,29538,1,8,0:0:0:0:
192,192,29538,1,4,0:0:0:0:
320,192,29874,1,8,0:0:0:0:
448,192,29874,1,0,0:0:0:0:
64,192,29874,1,0,0:0:0:0:
64,192,30209,1,0,0:0:0:0:
192,192,30209,1,0,0:0:0:0:
320,192,30209,1,8,0:0:0:0:
192,192,30544,1,0,0:0:0:0:
448,192,30544,1,0,0:0:0:0:
320,192,30544,1,8,0:0:0:0:
64,192,30879,1,0,0:0:0:0:
192,192,30879,1,0,0:0:0:0:
448,192,30879,1,8,0:0:0:0:
320,192,31214,1,8,0:0:0:0:
64,192,31214,1,0,0:0:0:0:
448,192,31214,1,0,0:0:0:0:
192,192,31550,1,8,0:0:0:0:
64,192,31550,1,0,0:0:0:0:
320,192,31550,1,0,0:0:0:0:
448,192,31717,1,8,0:0:0:0:
320,192,31801,1,8,0:0:0:0:
192,192,31885,1,8,0:0:0:0:
64,192,31885,1,0,0:0:0:0:
64,192,32052,1,0,0:0:0:0:
192,192,32052,1,8,0:0:0:0:
320,192,32220,1,8,0:0:0:0:
448,192,32220,1,0,0:0:0:0:
448,192,32388,1,0,0:0:0:0:
320,192,32388,1,8,0:0:0:0:
64,192,32555,1,0,0:0:0:0:
192,192,32555,1,8,0:0:0:0:
64,192,32723,1,0,0:0:0:0:
192,192,32723,1,8,0:0:0:0:
320,192,32890,1,8,0:0:0:0:
448,192,32890,1,0,0:0:0:0:
192,192,33058,1,8,0:0:0:0:
64,192,33058,1,0,0:0:0:0:
320,192,33142,1,8,0:0:0:0:
448,192,33142,1,0,0:0:0:0:
192,192,33225,1,8,0:0:0:0:
64,192,33225,1,0,0:0:0:0:
320,192,33309,1,8,0:0:0:0:
448,192,33393,1,0,0:0:0:0:
192,192,33393,1,8,0:0:0:0:
64,192,33477,1,8,0:0:0:0:
320,192,33561,1,8,0:0:0:0:
448,192,33561,1,0,0:0:0:0:
192,192,33644,1,8,0:0:0:0:
320,192,33728,1,8,0:0:0:0:
64,192,33728,1,0,0:0:0:0:
448,192,33812,1,8,0:0:0:0:
192,192,33896,1,0,0:0:0:0:
320,192,33896,1,8,0:0:0:0:
64,192,33980,1,8,0:0:0:0:
192,192,34063,1,8,0:0:0:0:
448,192,34063,1,0,0:0:0:0:
320,192,34147,1,8,0:0:0:0:
192,192,34231,1,8,0:0:0:0:
64,192,34231,1,0,0:0:0:0:
448,192,34315,1,8,0:0:0:0:
320,192,34399,1,8,0:0:0:0:
192,192,34399,1,0,0:0:0:0:
64,192,34482,1,8,0:0:0:0:
192,192,34566,1,0,0:0:0:70:Ringing.wav
448,192,34566,1,0,0:0:0:30:twinkling.wav
320,192,34734,128,0,34901:0:0:0:0:
64,192,34901,128,0,35069:0:0:0:0:
448,192,35069,128,0,35404:0:0:0:0:
320,192,35404,128,0,35572:0:0:0:0:
192,192,35572,128,0,35739:0:0:0:0:
64,192,35739,128,0,35907:0:0:0:0:
320,192,35907,1,0,0:0:0:0:
448,192,35907,1,0,0:0:0:0:
192,192,36075,128,0,36242:0:0:0:0:
320,192,36242,128,0,36410:0:0:0:0:
64,192,36410,128,0,36745:0:0:0:0:
192,192,36745,128,0,36913:0:0:0:0:
320,192,36913,128,0,37080:0:0:0:0:
448,192,37080,128,0,37248:0:0:0:0:
64,192,37248,128,0,37332:0:0:0:0:
192,192,37332,128,0,37415:0:0:0:0:
320,192,37415,128,0,37499:0:0:0:0:
64,192,37499,128,0,37583:0:0:0:0:
448,192,37583,128,0,37695:0:0:0:30:Impact.wav
320,192,37695,128,0,37806:0:0:0:0:
192,192,37806,128,0,37918:0:0:0:0:
448,192,37918,128,0,38030:0:0:0:0:
64,192,38030,128,0,38142:0:0:0:0:
192,192,38142,128,0,38253:0:0:0:30:Impact.wav
320,192,38253,128,0,38365:0:0:0:0:
448,192,38365,128,0,38477:0:0:0:0:
64,192,38477,128,0,38589:0:0:0:0:
320,192,38589,128,0,38672:0:0:0:0:
192,192,38672,128,0,38756:0:0:0:0:
64,192,38756,128,0,38840:0:0:0:0:
448,192,38840,128,0,38924:0:0:0:0:
320,192,38924,128,0,39008:0:0:0:0:
192,192,39008,128,0,39091:0:0:0:0:
64,192,39091,128,0,39175:0:0:0:0:
320,192,39175,128,0,39259:0:0:0:0:
448,192,39259,128,0,39343:0:0:0:0:
192,192,39343,128,0,39427:0:0:0:0:
64,192,39427,128,0,39510:0:0:0:0:
448,192,39510,128,0,39594:0:0:0:0:
320,192,39594,128,0,39678:0:0:0:0:
64,192,39678,128,0,39762:0:0:0:0:
192,192,39762,128,0,39846:0:0:0:0:
320,192,39846,128,0,39929:0:0:0:0:
64,192,39929,1,0,0:0:0:0:
448,192,39929,1,0,0:0:0:0:
192,192,40097,128,0,40265:0:0:0:0:
64,192,40265,128,0,40432:0:0:0:30:Impact.wav
320,192,40432,128,0,40767:0:0:0:0:
192,192,40767,128,0,40935:0:0:0:30:Impact.wav
448,192,40935,128,0,41103:0:0:0:0:
64,192,41103,128,0,41270:0:0:0:0:
192,192,41270,1,0,0:0:0:0:
320,192,41270,1,0,0:0:0:0:
448,192,41438,128,0,41605:0:0:0:0:
192,192,41605,128,0,41773:0:0:0:30:Impact.wav
320,192,41773,128,0,42108:0:0:0:0:
64,192,42108,128,0,42276:0:0:0:30:Impact.wav
448,192,42276,128,0,42443:0:0:0:0:
192,192,42443,128,0,42611:0:0:0:0:
320,192,42611,1,0,0:0:0:0:
64,192,42611,1,0,0:0:0:0:
448,192,42779,128,0,42946:0:0:0:0:
320,192,42946,128,0,43114:0:0:0:30:Impact.wav
192,192,43114,128,0,43281:0:0:0:0:
448,192,43281,1,0,0:0:0:0:
64,192,43449,128,0,43784:0:0:0:30:Impact.wav
448,192,43784,128,0,43952:0:0:0:0:
192,192,43952,128,0,44119:0:0:0:0:
320,192,44119,128,0,44287:0:0:0:0:
64,192,44287,128,0,44455:0:0:0:0:
448,192,44455,128,0,44622:0:0:0:0:
192,192,44622,128,0,44790:0:0:0:0:
320,192,44790,128,0,44957:0:0:0:0:
448,192,44957,128,0,45125:0:0:0:0:
64,192,45125,128,0,45293:0:0:0:0:
448,192,45293,1,8,0:0:0:70:Ringing.wav
192,192,45293,1,8,0:0:0:0:
320,192,45460,128,0,45628:0:0:0:0:
192,192,45628,128,0,45795:0:0:0:0:
64,192,45628,1,8,0:0:0:0:
448,192,45795,128,0,45963:0:0:0:0:
64,192,45963,128,0,46131:0:0:0:0:
320,192,45963,1,8,0:0:0:0:
192,192,46131,128,0,46298:0:0:0:0:
448,192,46298,128,0,46466:0:0:0:0:
320,192,46298,1,8,0:0:0:0:
64,192,46466,128,0,46801:0:0:0:0:
192,192,46633,1,8,0:0:0:0:
320,192,46801,128,0,46969:0:0:0:0:
192,192,46969,128,0,47136:0:0:0:0:
448,192,46969,1,8,0:0:0:0:
448,192,47136,1,0,0:0:0:0:
320,192,47220,1,0,0:0:0:0:
192,192,47304,1,0,0:0:0:0:
64,192,47304,128,0,47471:0:0:0:0:
320,192,47471,128,0,47639:0:0:0:0:
448,192,47639,128,0,47806:0:0:0:0:
64,192,47639,1,8,0:0:0:0:
192,192,47806,128,0,47974:0:0:0:0:
320,192,47806,1,8,0:0:0:0:
64,192,47974,1,8,0:0:0:0:
320,192,48142,128,0,48309:0:0:0:0:
64,192,48309,128,0,48477:0:0:0:0:
192,192,48309,1,8,0:0:0:0:
448,192,48477,128,0,48644:0:0:0:0:
192,192,48644,128,0,48812:0:0:0:0:
64,192,48644,1,8,0:0:0:0:
320,192,48812,128,0,48980:0:0:0:0:
64,192,48980,128,0,49147:0:0:0:0:
448,192,48980,1,8,0:0:0:0:
448,192,49147,128,0,49482:0:0:0:0:
192,192,49315,1,8,0:0:0:0:
320,192,49482,128,0,49650:0:0:0:0:
192,192,49650,128,0,49818:0:0:0:0:
64,192,49650,1,8,0:0:0:0:
448,192,49818,128,0,49985:0:0:0:0:
64,192,49985,128,0,50153:0:0:0:0:
320,192,49985,1,8,0:0:0:0:
448,192,50097,1,8,0:0:0:0:
192,192,50153,128,0,50320:0:0:0:0:
320,192,50209,1,8,0:0:0:0:
448,192,50320,128,0,50488:0:0:0:0:
64,192,50320,1,8,0:0:0:0:
192,192,50432,1,8,0:0:0:0:
320,192,50488,128,0,50656:0:0:0:0:
64,192,50544,1,8,0:0:0:0:
448,192,50656,1,0,0:0:0:0:
192,192,50656,1,8,0:0:0:0:
64,192,50823,128,0,50991:0:0:0:0:
320,192,50991,128,4,51158:0:0:0:0:
192,192,50991,1,8,0:0:0:0:
448,192,51158,128,0,51326:0:0:0:0:
192,192,51326,128,0,51494:0:0:0:0:
64,192,51326,1,8,0:0:0:0:
320,192,51494,128,0,51661:0:0:0:0:
64,192,51661,128,0,51829:0:0:0:0:
448,192,51661,1,8,0:0:0:0:
192,192,51829,128,0,51996:0:0:0:0:
320,192,51996,1,8,0:0:0:0:
448,192,52164,128,0,52332:0:0:0:0:
64,192,52332,128,0,52499:0:0:0:0:
192,192,52332,1,8,0:0:0:0:
320,192,52499,128,0,52667:0:0:0:0:
192,192,52667,128,0,52834:0:0:0:0:
448,192,52667,1,8,0:0:0:0:
448,192,52834,128,0,53002:0:0:0:0:
320,192,53002,128,0,53170:0:0:0:0:
64,192,53002,1,8,0:0:0:0:
64,192,53170,1,0,0:0:0:0:
192,192,53170,1,8,0:0:0:0:
448,192,53253,1,0,0:0:0:0:
320,192,53253,1,8,0:0:0:0:
64,192,53337,1,0,0:0:0:0:
192,192,53337,1,8,0:0:0:0:
320,192,53505,1,8,0:0:0:0:
448,192,53505,1,0,0:0:0:0:
192,192,53672,1,0,0:0:0:0:
320,192,53672,1,8,0:0:0:0:
64,192,53840,1,0,0:0:0:0:
192,192,53840,1,8,0:0:0:0:
320,192,54008,1,0,0:0:0:0:
448,192,54008,1,8,0:0:0:0:
64,192,54175,1,0,0:0:0:0:
192,192,54175,1,8,0:0:0:0:
192,192,54343,1,0,0:0:0:0:
320,192,54343,1,8,0:0:0:0:
448,192,54510,1,8,0:0:0:0:
320,192,54510,1,0,0:0:0:0:
192,192,54594,1,8,0:0:0:0:
64,192,54678,1,0,0:0:0:70:Ringing.wav
320,192,54846,128,0,55013:0:0:0:0:
192,192,55013,128,0,55181:0:0:0:0:
448,192,55181,128,0,55348:0:0:0:0:
320,192,55348,128,0,55516:0:0:0:0:
64,192,55516,128,0,55684:0:0:0:0:
192,192,55684,128,0,55851:0:0:0:0:
320,192,55851,128,0,56019:0:0:0:0:
448,192,56019,1,0,0:0:0:30:twinkling.wav
64,192,56019,1,0,0:0:0:70:Ringing.wav
192,192,56186,1,0,0:0:0:0:
320,192,56354,1,0,0:0:0:0:
448,192,56354,128,0,56522:0:0:0:0:
192,192,56522,1,0,0:0:0:0:
64,192,56522,128,0,56857:0:0:0:0:
320,192,56689,1,0,0:0:0:0:
448,192,56857,128,0,57024:0:0:0:0:
320,192,57024,128,0,57192:0:0:0:0:
192,192,57192,1,0,0:0:0:0:
64,192,57192,128,0,57695:0:0:0:0:
448,192,57695,128,0,57862:0:0:0:0:
192,192,57862,128,0,58198:0:0:0:0:
320,192,58198,128,0,58365:0:0:0:0:
448,192,58365,128,0,58533:0:0:0:0:
64,192,58533,128,0,58700:0:0:0:0:
448,192,58700,1,0,0:0:0:0:
320,192,58700,1,0,0:0:0:0:
192,192,58868,128,0,59036:0:0:0:0:
320,192,59036,128,0,59203:0:0:0:0:
448,192,59203,128,0,59538:0:0:0:0:
64,192,59538,1,0,0:0:0:0:
192,192,59538,1,0,0:0:0:0:
320,192,59706,1,0,0:0:0:0:
448,192,59874,1,0,0:0:0:0:
64,192,59874,1,0,0:0:0:0:
192,192,60041,1,0,0:0:0:0:
320,192,60209,1,0,0:0:0:0:
448,192,60209,1,0,0:0:0:0:
192,192,60376,128,0,60544:0:0:0:0:
64,192,60544,128,0,60712:0:0:0:0:
320,192,60712,128,0,60879:0:0:0:0:
192,192,60879,128,0,61047:0:0:0:0:
448,192,61047,128,0,61214:0:0:0:0:
320,192,61214,128,0,61382:0:0:0:0:
64,192,61382,1,0,0:0:0:70:Ringing.wav
192,192,61382,1,2,0:0:0:0:
448,192,61550,128,0,61717:0:0:0:0:
64,192,61717,128,0,61885:0:0:0:0:
320,192,61885,128,0,62220:0:0:0:0:
192,192,62220,128,0,62555:0:0:0:0:
64,192,62555,1,0,0:0:0:0:
448,192,62555,128,0,63058:0:0:0:0:
64,192,63058,1,0,0:0:0:0:
192,192,63058,1,0,0:0:0:0:
320,192,63225,1,0,0:0:0:0:
448,192,63225,1,0,0:0:0:0:
192,192,63309,1,0,0:0:0:0:
64,192,63393,1,0,0:0:0:0:
320,192,63477,1,0,0:0:0:0:
448,192,63561,1,0,0:0:0:0:
192,192,63561,1,0,0:0:0:0:
64,192,63728,1,0,0:0:0:0:
192,192,63812,1,0,0:0:0:0:
320,192,63896,1,0,0:0:0:0:
448,192,63896,1,0,0:0:0:0:
64,192,63980,1,0,0:0:0:0:
192,192,64063,1,0,0:0:0:0:
320,192,64063,1,0,0:0:0:0:
192,192,64231,1,0,0:0:0:0:
448,192,64231,1,0,0:0:0:0:
448,192,64399,1,0,0:0:0:0:
64,192,64399,1,0,0:0:0:0:
64,192,64566,1,0,0:0:0:0:
320,192,64566,1,0,0:0:0:0:
192,192,64734,1,0,0:0:0:0:
320,192,64734,1,0,0:0:0:0:
64,192,64901,1,0,0:0:0:0:
192,192,64901,1,0,0:0:0:0:
448,192,64901,128,0,65404:0:0:0:0:
320,192,65069,1,0,0:0:0:0:
192,192,65237,1,0,0:0:0:0:
64,192,65404,1,8,0:0:0:0:
192,192,65404,1,0,0:0:0:70:Ringing.wav
320,192,65404,1,0,0:0:0:0:
192,192,65739,1,0,0:0:0:0:
320,192,65739,1,0,0:0:0:0:
448,192,65739,1,8,0:0:0:0:
64,192,65907,1,0,0:0:0:0:
192,192,65991,1,0,0:0:0:0:
320,192,66075,1,0,0:0:0:0:
448,192,66075,1,8,0:0:0:0:
64,192,66242,1,8,0:0:0:0:
192,192,66326,1,8,0:0:0:0:
320,192,66326,1,0,0:0:0:0:
448,192,66410,1,8,0:0:0:0:
64,192,66494,1,0,0:0:0:0:
192,192,66494,1,8,0:0:0:0:
448,192,66577,1,8,0:0:0:0:
320,192,66619,1,8,0:0:0:0:
192,192,66661,1,8,0:0:0:0:
64,192,66703,1,8,0:0:0:0:
320,192,66745,1,8,0:0:0:0:
448,192,66745,1,0,0:0:0:0:
320,192,66913,1,0,0:0:0:0:
192,192,66913,1,0,0:0:0:0:
192,192,67080,1,8,0:0:0:0:
64,192,67080,1,2,0:0:0:0:
448,192,67080,1,0,0:0:0:70:Ringing.wav
320,192,67248,1,0,0:0:0:0:
64,192,67248,1,0,0:0:0:0:
192,192,67415,1,8,0:0:0:0:
448,192,67415,1,0,0:0:0:0:
192,192,67583,1,0,0:0:0:0:
320,192,67583,1,0,0:0:0:0:
64,192,67751,1,0,0:0:0:0:
320,192,67751,1,8,0:0:0:0:
448,192,67751,1,0,0:0:0:0:
192,192,67918,1,0,0:0:0:0:
64,192,67918,1,0,0:0:0:0:
320,192,68086,1,8,0:0:0:0:
448,192,68086,1,0,0:0:0:0:
192,192,68253,1,0,0:0:0:0:
448,192,68253,1,0,0:0:0:0:
320,192,68421,1,8,0:0:0:0:
64,192,68421,1,0,0:0:0:0:
192,192,68421,1,0,0:0:0:0:
320,192,68589,1,0,0:0:0:0:
448,192,68589,1,0,0:0:0:0:
64,192,68756,1,0,0:0:0:0:
192,192,68756,1,8,0:0:0:0:
192,192,68924,1,0,0:0:0:0:
320,192,68924,1,0,0:0:0:0:
320,192,69091,1,8,0:0:0:0:
448,192,69091,1,0,0:0:0:0:
64,192,69091,1,0,0:0:0:0:
192,192,69259,1,0,0:0:0:0:
64,192,69259,1,8,0:0:0:0:
192,192,69427,1,8,0:0:0:0:
320,192,69427,1,0,0:0:0:0:
320,192,69594,1,0,0:0:0:0:
64,192,69594,1,0,0:0:0:0:
448,192,69762,1,0,0:0:0:0:
192,192,69762,1,8,0:0:0:0:
64,192,69762,1,0,0:0:0:0:
320,192,69929,1,0,0:0:0:0:
448,192,69929,1,0,0:0:0:0:
192,192,70097,1,8,0:0:0:0:
320,192,70097,1,0,0:0:0:0:
192,192,70265,1,0,0:0:0:0:
448,192,70265,1,0,0:0:0:0:
320,192,70432,1,8,0:0:0:0:
64,192,70432,1,0,0:0:0:0:
448,192,70432,1,0,0:0:0:0:
192,192,70600,1,0,0:0:0:0:
320,192,70600,1,0,0:0:0:0:
64,192,70767,1,0,0:0:0:0:
192,192,70767,1,8,0:0:0:0:
320,192,70935,1,0,0:0:0:0:
448,192,70935,1,0,0:0:0:0:
64,192,71103,1,0,0:0:0:0:
192,192,71103,1,8,0:0:0:0:
448,192,71103,1,0,0:0:0:0:
320,192,71270,1,0,0:0:0:0:
64,192,71270,1,0,0:0:0:0:
448,192,71438,1,0,0:0:0:0:
64,192,71438,1,8,0:0:0:0:
192,192,71605,1,0,0:0:0:0:
448,192,71605,1,0,0:0:0:0:
320,192,71773,1,0,0:0:0:0:
64,192,71773,1,0,0:0:0:0:
192,192,71773,1,8,0:0:0:0:
448,192,71941,1,0,0:0:0:0:
64,192,71941,1,0,0:0:0:0:
192,192,72108,1,8,0:0:0:0:
448,192,72108,1,0,0:0:0:0:
320,192,72276,1,0,0:0:0:0:
64,192,72443,1,0,0:0:0:0:
192,192,72443,1,8,0:0:0:0:
448,192,72443,1,0,0:0:0:0:
320,192,72611,1,0,0:0:0:0:
320,192,72779,1,8,0:0:0:0:
448,192,72779,1,0,0:0:0:0:
64,192,72779,1,0,0:0:0:0:
192,192,72946,1,0,0:0:0:0:
192,192,73114,1,0,0:0:0:0:
64,192,73114,1,0,0:0:0:0:
320,192,73114,1,8,0:0:0:0:
448,192,73281,1,0,0:0:0:0:
448,192,73449,1,0,0:0:0:0:
320,192,73449,1,8,0:0:0:0:
192,192,73449,1,0,0:0:0:0:
64,192,73617,1,0,0:0:0:0:
64,192,73784,1,0,0:0:0:0:
320,192,73784,1,8,0:0:0:0:
448,192,73784,1,0,0:0:0:0:
192,192,73952,1,0,0:0:0:0:
192,192,74119,1,8,0:0:0:0:
448,192,74119,1,0,0:0:0:0:
64,192,74119,1,0,0:0:0:0:
320,192,74287,1,0,0:0:0:0:
448,192,74455,1,0,0:0:0:0:
320,192,74455,1,0,0:0:0:0:
192,192,74455,1,8,0:0:0:0:
64,192,74622,1,0,0:0:0:0:
192,192,74622,1,8,0:0:0:0:
448,192,74706,1,8,0:0:0:0:
320,192,74706,1,0,0:0:0:0:
64,192,74790,1,0,0:0:0:0:
192,192,74790,1,8,0:0:0:0:
320,192,74957,1,8,0:0:0:0:
448,192,74957,1,0,0:0:0:0:
448,192,75125,1,0,0:0:0:0:
320,192,75125,1,8,0:0:0:0:
64,192,75293,1,0,0:0:0:0:
192,192,75293,1,8,0:0:0:0:
64,192,75460,1,0,0:0:0:0:
192,192,75460,1,8,0:0:0:0:
320,192,75628,1,8,0:0:0:0:
448,192,75628,1,0,0:0:0:0:
448,192,75795,1,0,0:0:0:0:
320,192,75795,1,8,0:0:0:0:
64,192,75963,1,0,0:0:0:0:
192,192,75963,1,8,0:0:0:0:
320,192,76047,1,8,0:0:0:0:
448,192,76131,1,0,0:0:0:0:
192,192,76131,1,8,0:0:0:0:
64,192,76214,1,8,0:0:0:0:
320,192,76298,1,8,0:0:0:0:
448,192,76298,1,0,0:0:0:0:
192,192,76382,1,8,0:0:0:0:
320,192,76466,1,8,0:0:0:0:
64,192,76466,1,0,0:0:0:0:
448,192,76550,1,8,0:0:0:0:
192,192,76633,1,8,0:0:0:0:
320,192,76633,1,0,0:0:0:0:
64,192,76717,1,8,0:0:0:0:
192,192,76801,1,8,0:0:0:0:
448,192,76801,1,0,0:0:0:0:
320,192,76885,1,8,0:0:0:0:
64,192,76969,1,0,0:0:0:0:
192,192,76969,1,8,0:0:0:0:
448,192,77052,1,8,0:0:0:0:
320,192,77136,1,8,0:0:0:0:
192,192,77136,1,0,0:0:0:0:
64,192,77220,1,8,0:0:0:0:
320,192,77304,1,8,0:0:0:0:
448,192,77304,1,0,0:0:0:0:
192,192,77388,1,8,0:0:0:0:
448,192,77471,1,14,0:0:0:0:
64,192,77471,128,0,77555:0:0:0:30:twinkling.wav
192,192,77555,128,0,77639:0:0:0:0:
320,192,77639,128,0,77723:0:0:0:0:
448,192,77723,128,0,77806:0:0:0:0:
64,192,77806,1,0,0:0:0:0:
192,192,77806,1,8,0:0:0:0:
320,192,77890,128,0,77974:0:0:0:0:
64,192,77974,128,0,78058:0:0:0:0:
192,192,78058,128,0,78142:0:0:0:0:
448,192,78142,1,8,0:0:0:0:
192,192,78309,128,0,78393:0:0:0:0:
320,192,78393,128,0,78477:0:0:0:0:
448,192,78477,1,8,0:0:0:0:
64,192,78477,1,0,0:0:0:0:
192,192,78561,128,0,78644:0:0:0:0:
64,192,78644,128,0,78728:0:0:0:0:
320,192,78728,128,0,78812:0:0:0:0:
192,192,78812,1,8,0:0:0:0:
448,192,78896,128,0,78980:0:0:0:0:
320,192,78980,128,0,79063:0:0:0:0:
64,192,79063,128,0,79147:0:0:0:0:
192,192,79147,128,0,79231:0:0:0:0:
448,192,79147,1,8,0:0:0:0:
320,192,79231,128,0,79315:0:0:0:0:
64,192,79315,128,0,79399:0:0:0:0:
448,192,79399,128,0,79482:0:0:0:0:
192,192,79482,128,0,79566:0:0:0:0:
320,192,79482,1,8,0:0:0:0:
64,192,79566,128,0,79650:0:0:0:0:
320,192,79650,128,0,79734:0:0:0:0:
192,192,79734,128,0,79818:0:0:0:0:
64,192,79818,1,8,0:0:0:0:
448,192,79818,128,0,79901:0:0:0:0:
320,192,79901,128,0,79985:0:0:0:0:
64,192,79985,128,0,80069:0:0:0:0:
192,192,80069,128,0,80153:0:0:0:0:
320,192,80153,1,8,0:0:0:0:
448,192,80153,1,0,0:0:0:0:
448,192,80265,1,0,0:0:0:0:
192,192,80265,1,8,0:0:0:0:
320,192,80376,1,0,0:0:0:0:
64,192,80376,1,8,0:0:0:0:
192,192,80488,1,0,0:0:0:0:
64,192,80488,1,8,0:0:0:0:
320,192,80572,128,0,80656:0:0:0:0:
448,192,80656,128,0,80739:0:0:0:0:
64,192,80739,128,0,80823:0:0:0:0:
192,192,80823,1,8,0:0:0:0:
320,192,80823,1,0,0:0:0:0:
320,192,80935,1,8,0:0:0:0:
448,192,80935,1,0,0:0:0:0:
192,192,81047,1,8,0:0:0:0:
64,192,81047,1,0,0:0:0:0:
320,192,81158,1,8,0:0:0:0:
192,192,81158,1,0,0:0:0:0:
448,192,81242,128,0,81326:0:0:0:0:
320,192,81326,128,0,81410:0:0:0:0:
192,192,81410,128,0,81494:0:0:0:0:
64,192,81494,1,8,0:0:0:0:
320,192,81577,128,0,81661:0:0:0:0:
192,192,81661,128,0,81745:0:0:0:0:
64,192,81745,128,0,81829:0:0:0:0:
320,192,81829,1,8,0:0:0:0:
448,192,81829,1,0,0:0:0:0:
192,192,81913,128,0,81996:0:0:0:0:
448,192,81996,128,0,82080:0:0:0:0:
64,192,82080,128,0,82164:0:0:0:0:
320,192,82164,1,8,0:0:0:0:
192,192,82164,1,0,0:0:0:0:
448,192,82276,1,8,0:0:0:0:
192,192,82276,1,0,0:0:0:0:
448,192,82388,1,8,0:0:0:0:
64,192,82388,1,0,0:0:0:0:
192,192,82499,1,0,0:0:0:0:
320,192,82499,1,8,0:0:0:0:
64,192,82583,128,0,82667:0:0:0:0:
448,192,82667,128,0,82751:0:0:0:0:
192,192,82751,128,0,82834:0:0:0:0:
320,192,82834,128,0,82918:0:0:0:0:
64,192,82834,1,8,0:0:0:0:
448,192,82918,128,0,83002:0:0:0:0:
192,192,83002,128,0,83086:0:0:0:0:
64,192,83086,128,0,83170:0:0:0:0:
320,192,83170,1,8,0:0:0:0:
448,192,83170,1,0,0:0:0:0:
192,192,83253,128,0,83337:0:0:0:0:
320,192,83337,128,0,83421:0:0:0:0:
448,192,83421,128,0,83505:0:0:0:0:
192,192,83505,1,8,0:0:0:0:
64,192,83505,1,0,0:0:0:0:
320,192,83672,128,0,83756:0:0:0:0:
192,192,83756,128,0,83840:0:0:0:0:
64,192,83840,1,0,0:0:0:0:
448,192,83840,1,8,0:0:0:0:
320,192,83924,128,0,84008:0:0:0:0:
64,192,84008,128,8,84091:0:0:0:0:
192,192,84091,128,8,84175:0:0:0:0:
320,192,84175,1,8,0:0:0:0:
448,192,84175,128,0,84259:0:0:0:0:
64,192,84259,128,0,84343:0:0:0:0:
320,192,84343,128,8,84427:0:0:0:0:
192,192,84427,128,0,84510:0:0:0:0:
448,192,84510,1,8,0:0:0:0:
64,192,84510,128,0,84594:0:0:0:0:
320,192,84594,128,0,84678:0:0:0:0:
448,192,84678,128,0,84762:0:0:0:0:
192,192,84678,1,8,0:0:0:0:
64,192,84762,128,0,84846:0:0:0:0:
192,192,84846,128,0,84929:0:0:0:0:
320,192,84846,1,8,0:0:0:0:
448,192,84929,128,0,85013:0:0:0:0:
320,192,85013,128,0,85097:0:0:0:0:
64,192,85013,1,8,0:0:0:0:
192,192,85097,128,0,85181:0:0:0:0:
448,192,85181,1,8,0:0:0:0:
64,192,85265,128,0,85348:0:0:0:0:
320,192,85348,128,8,85432:0:0:0:0:
448,192,85432,128,8,85516:0:0:0:0:
64,192,85516,1,2,0:0:0:0:
192,192,85516,1,8,0:0:0:0:
320,192,85628,1,0,0:0:0:0:
192,192,85628,1,0,0:0:0:0:
320,192,85739,1,0,0:0:0:0:
64,192,85739,1,0,0:0:0:0:
448,192,85851,1,8,0:0:0:0:
64,192,85851,1,0,0:0:0:0:
192,192,85935,1,0,0:0:0:0:
320,192,86019,1,8,0:0:0:0:
448,192,86103,1,0,0:0:0:0:
192,192,86186,1,8,0:0:0:0:
64,192,86186,1,0,0:0:0:0:
448,192,86298,1,0,0:0:0:0:
320,192,86298,1,0,0:0:0:0:
192,192,86354,1,0,0:0:0:0:
64,192,86354,1,0,0:0:0:0:
448,192,86522,1,0,0:0:0:0:
64,192,86522,1,8,0:0:0:0:
320,192,86605,1,8,0:0:0:0:
64,192,86689,1,0,0:0:0:0:
448,192,86689,1,8,0:0:0:0:
192,192,86773,1,8,0:0:0:0:
320,192,86857,1,8,0:0:0:0:
448,192,86857,1,0,0:0:0:0:
64,192,87024,128,0,87192:0:0:0:0:
320,192,87192,128,0,87360:0:0:0:0:
64,192,87360,128,0,87527:0:0:0:0:
448,192,87527,128,0,87695:0:0:0:0:
320,192,87695,128,0,87862:0:0:0:0:
192,192,87862,128,0,88030:0:0:0:0:
64,192,88030,128,0,88198:0:0:0:0:
320,192,88198,1,0,0:0:0:0:
448,192,88198,1,8,0:0:0:0:
192,192,88365,1,0,0:0:0:0:
192,192,88533,1,2,0:0:0:0:
64,192,88533,1,0,0:0:0:70:Ringing.wav
448,192,88533,1,8,0:0:0:0:
320,192,88700,1,0,0:0:0:0:
448,192,88784,1,0,0:0:0:0:
64,192,88868,1,0,0:0:0:0:
192,192,88868,1,8,0:0:0:0:
192,192,89036,1,0,0:0:0:0:
320,192,89036,1,0,0:0:0:0:
320,192,89203,1,8,0:0:0:0:
448,192,89203,1,0,0:0:0:0:
64,192,89203,1,0,0:0:0:0:
192,192,89371,1,0,0:0:0:0:
320,192,89455,1,0,0:0:0:0:
64,192,89538,1,0,0:0:0:0:
448,192,89538,1,8,0:0:0:0:
320,192,89706,1,0,0:0:0:0:
320,192,89874,1,0,0:0:0:0:
448,192,89874,1,8,0:0:0:0:
64,192,89874,1,0,0:0:0:0:
192,192,90041,1,0,0:0:0:0:
320,192,90209,1,0,0:0:0:0:
448,192,90209,1,8,0:0:0:0:
64,192,90293,1,0,0:0:0:0:
192,192,90376,1,0,0:0:0:0:
320,192,90376,1,0,0:0:0:0:
64,192,90544,1,0,0:0:0:0:
192,192,90544,1,0,0:0:0:0:
448,192,90544,1,8,0:0:0:0:
320,192,90712,1,8,0:0:0:0:
192,192,90712,1,0,0:0:0:0:
320,192,90879,1,8,0:0:0:0:
448,192,90879,1,0,0:0:0:0:
192,192,91047,1,0,0:0:0:0:
64,192,91214,1,0,0:0:0:0:
192,192,91214,1,8,0:0:0:0:
448,192,91214,1,0,0:0:0:0:
320,192,91382,1,0,0:0:0:0:
192,192,91466,1,0,0:0:0:0:
448,192,91550,1,8,0:0:0:0:
64,192,91550,1,0,0:0:0:0:
320,192,91717,1,0,0:0:0:0:
192,192,91885,1,0,0:0:0:0:
320,192,91885,1,0,0:0:0:0:
448,192,91885,1,8,0:0:0:0:
64,192,92052,1,0,0:0:0:0:
448,192,92052,1,0,0:0:0:0:
192,192,92136,1,0,0:0:0:0:
320,192,92220,1,8,0:0:0:0:
448,192,92220,1,0,0:0:0:0:
192,192,92388,1,0,0:0:0:0:
192,192,92555,1,0,0:0:0:0:
320,192,92555,1,8,0:0:0:0:
64,192,92555,128,0,92723:0:0:0:0:
448,192,92723,128,0,92890:0:0:0:0:
64,192,92890,1,0,0:0:0:0:
192,192,92890,1,8,0:0:0:0:
192,192,93002,1,0,0:0:0:0:
320,192,93002,1,8,0:0:0:0:
320,192,93114,1,0,0:0:0:0:
448,192,93114,1,8,0:0:0:0:
64,192,93225,1,8,0:0:0:0:
192,192,93225,1,0,0:0:0:0:
192,192,93337,1,0,0:0:0:0:
320,192,93337,1,0,0:0:0:0:
320,192,93449,1,0,0:0:0:0:
448,192,93449,1,0,0:0:0:0:
192,192,93561,1,8,0:0:0:0:
64,192,93561,128,0,93728:0:0:0:0:
448,192,93728,1,0,0:0:0:0:
320,192,93896,1,8,0:0:0:0:
448,192,93896,1,2,0:0:0:0:
64,192,93896,1,0,0:0:0:0:
192,192,94063,1,0,0:0:0:0:
192,192,94231,1,8,0:0:0:0:
64,192,94231,1,0,0:0:0:0:
448,192,94231,1,0,0:0:0:0:
320,192,94399,1,0,0:0:0:0:
192,192,94566,1,0,0:0:0:0:
320,192,94566,1,8,0:0:0:0:
448,192,94566,1,0,0:0:0:0:
64,192,94734,1,0,0:0:0:0:
64,192,94901,1,0,0:0:0:0:
192,192,94901,1,8,0:0:0:0:
320,192,94901,1,0,0:0:0:0:
448,192,95069,1,0,0:0:0:0:
448,192,95237,1,0,0:0:0:0:
64,192,95237,1,0,0:0:0:0:
320,192,95237,1,8,0:0:0:0:
192,192,95404,1,0,0:0:0:0:
192,192,95572,1,0,0:0:0:0:
64,192,95572,1,0,0:0:0:0:
320,192,95572,1,8,0:0:0:0:
448,192,95739,1,0,0:0:0:0:
448,192,95907,1,0,0:0:0:0:
64,192,95907,1,0,0:0:0:0:
192,192,95907,1,8,0:0:0:0:
320,192,96075,1,8,0:0:0:0:
448,192,96075,1,0,0:0:0:0:
64,192,96158,1,0,0:0:0:0:
192,192,96158,1,8,0:0:0:0:
320,192,96242,1,8,0:0:0:0:
448,192,96242,1,0,0:0:0:0:
64,192,96410,1,0,0:0:0:0:
192,192,96410,1,8,0:0:0:0:
64,192,96577,1,0,0:0:0:0:
192,192,96577,1,8,0:0:0:0:
64,192,96745,1,0,0:0:0:0:
192,192,96745,1,8,0:0:0:0:
320,192,96913,1,8,0:0:0:0:
448,192,96913,1,0,0:0:0:0:
448,192,97080,1,0,0:0:0:0:
320,192,97080,1,8,0:0:0:0:
320,192,97248,1,8,0:0:0:0:
448,192,97248,1,0,0:0:0:0:
64,192,97415,1,0,0:0:0:0:
192,192,97415,1,8,0:0:0:0:
320,192,97499,1,8,0:0:0:0:
448,192,97583,1,8,0:0:0:0:
64,192,97583,1,0,0:0:0:0:
192,192,97667,1,8,0:0:0:0:
320,192,97751,1,8,0:0:0:0:
448,192,97751,1,0,0:0:0:0:
192,192,97834,1,8,0:0:0:0:
64,192,97918,1,0,0:0:0:0:
320,192,97918,1,8,0:0:0:0:
448,192,98002,1,8,0:0:0:0:
192,192,98086,1,8,0:0:0:0:
64,192,98086,1,0,0:0:0:0:
320,192,98170,1,8,0:0:0:0:
192,192,98253,1,0,0:0:0:0:
448,192,98253,1,8,0:0:0:0:
64,192,98337,1,8,0:0:0:0:
192,192,98421,1,8,0:0:0:0:
320,192,98421,1,0,0:0:0:0:
448,192,98505,1,8,0:0:0:0:
64,192,98589,1,0,0:0:0:0:
320,192,98589,1,8,0:0:0:0:
192,192,98672,1,8,0:0:0:0:
320,192,98756,1,8,0:0:0:0:
448,192,98756,1,0,0:0:0:0:
192,192,98840,1,8,0:0:0:0:
448,192,98924,1,2,0:0:0:0:
64,192,98924,128,0,101941:0:0:0:70:Ringing.wav
