osu file format v14

[General]
AudioFilename: audio.mp3
AudioLeadIn: 0
PreviewTime: 66745
Countdown: 0
SampleSet: Soft
StackLeniency: 0.7
Mode: 3
LetterboxInBreaks: 0
SpecialStyle: 0
WidescreenStoryboard: 0

[Editor]
Bookmarks: 13114,23840,34566,45293,56019,98924
DistanceSpacing: 0.8
BeatDivisor: 4
GridSize: 32
TimelineZoom: 1.7

[Metadata]
Title:Snowscapes
TitleUnicode:Snowscapes
Artist:ginkiha
ArtistUnicode:ginkiha
Creator:Wonki
Version:Reba's Hyper
Source:MÚSECA
Tags:Reba [Shana_Lesus] Fontes Fresh_Chicken
BeatmapID:1124013
BeatmapSetID:530201

[Difficulty]
HPDrainRate:7.5
CircleSize:4
OverallDifficulty:7.5
ApproachRate:5
SliderMultiplier:1.4
SliderTickRate:1

[Events]
//Background and Video events
0,0,"BG.jpg",0,0
//Break Periods
//Storyboard Layer 0 (Background)
//Storyboard Layer 1 (Fail)
//Storyboard Layer 2 (Pass)
//Storyboard Layer 3 (Foreground)
//Storyboard Sound Samples

[TimingPoints]
2388,335.195530726257,4,2,1,50,1,0
77471,-100,4,2,1,50,0,1
88198,-100,4,2,1,50,0,0

[HitObjects]
448,192,2388,5,0,0:0:0:70:Ringing.wav
64,192,2388,1,0,0:0:0:30:twinkling.wav
192,192,2555,1,0,0:0:0:0:
320,192,2723,1,0,0:0:0:0:
448,192,2890,128,0,3225:0:0:0:0:
64,192,3225,1,0,0:0:0:0:
192,192,3225,1,0,0:0:0:0:
320,192,3561,1,0,0:0:0:0:
448,192,3561,1,0,0:0:0:0:
64,192,4063,1,0,0:0:0:0:
64,192,4231,1,0,0:0:0:0:
320,192,4566,1,0,0:0:0:0:
192,192,4734,1,0,0:0:0:0:
320,192,4901,1,0,0:0:0:0:
448,192,5069,128,0,5404:0:0:0:0:
192,192,5404,1,0,0:0:0:0:
64,192,5572,128,0,5907:0:0:0:0:
448,192,5907,1,0,0:0:0:0:
320,192,5907,1,0,0:0:0:0:
192,192,6242,1,0,0:0:0:0:
320,192,6242,1,0,0:0:0:0:
64,192,6577,1,0,0:0:0:0:
192,192,6577,1,0,0:0:0:0:
448,192,6745,1,0,0:0:0:0:
320,192,6913,1,0,0:0:0:0:
192,192,7080,1,0,0:0:0:0:
448,192,7248,1,0,0:0:0:0:
64,192,7415,1,0,0:0:0:0:
320,192,7583,1,0,0:0:0:0:
64,192,7751,128,0,8086:0:0:0:0:
320,192,8086,1,0,0:0:0:0:
448,192,8253,128,0,8589:0:0:0:0:
192,192,8421,1,0,0:0:0:0:
64,192,8589,128,0,8924:0:0:0:0:
448,192,8840,1,0,0:0:0:0:
320,192,8924,1,0,0:0:0:0:
64,192,9427,1,0,0:0:0:0:
64,192,9594,1,0,0:0:0:0:
448,192,9594,128,0,9929:0:0:0:0:
64,192,9929,1,0,0:0:0:0:
192,192,9929,1,0,0:0:0:0:
192,192,10097,1,0,0:0:0:0:
320,192,10097,1,0,0:0:0:0:
320,192,10265,1,0,0:0:0:0:
448,192,10265,1,0,0:0:0:0:
448,192,10432,1,0,0:0:0:0:
320,192,10432,1,0,0:0:0:0:
64,192,10600,1,0,0:0:0:0:
448,192,10767,1,0,0:0:0:0:
192,192,10767,1,0,0:0:0:0:
320,192,10935,1,0,0:0:0:0:
64,192,10935,128,0,11270:0:0:0:0:
448,192,11270,1,0,0:0:0:0:
320,192,11270,1,0,0:0:0:0:
192,192,11605,1,0,0:0:0:0:
64,192,11605,1,0,0:0:0:0:
448,192,11941,1,0,0:0:0:0:
64,192,11941,1,0,0:0:0:0:
448,192,12108,1,0,0:0:0:0:
192,192,12108,1,0,0:0:0:0:
64,192,12276,1,0,0:0:0:0:
320,192,12276,1,0,0:0:0:0:
64,192,12443,1,0,0:0:0:0:
448,192,12443,128,0,13114:0:0:0:0:
320,192,13114,1,2,0:0:0:0:
64,192,13114,128,0,13281:0:0:0:70:Ringing.wav
192,192,13281,128,0,13449:0:0:0:0:
320,192,13449,128,0,13617:0:0:0:0:
448,192,13617,128,0,13784:0:0:0:0:
64,192,13952,128,0,14119:0:0:0:0:
448,192,14287,128,0,14455:0:0:0:0:
64,192,14790,1,0,0:0:0:0:
64,192,14957,128,0,15293:0:0:0:0:
192,192,15293,128,0,15460:0:0:0:0:
320,192,15460,128,0,15628:0:0:0:0:
192,192,15628,128,0,15795:0:0:0:0:
64,192,15795,128,0,15963:0:0:0:0:
320,192,15963,128,0,16131:0:0:0:0:
192,192,16131,128,0,16298:0:0:0:0:
448,192,16298,128,0,16466:0:0:0:0:
192,192,16633,1,0,0:0:0:0:
64,192,16633,1,0,0:0:0:0:
192,192,16969,1,0,0:0:0:0:
64,192,16969,1,0,0:0:0:0:
192,192,17304,1,0,0:0:0:0:
64,192,17304,1,0,0:0:0:0:
448,192,17471,128,0,17639:0:0:0:0:
320,192,17639,128,0,17806:0:0:0:0:
192,192,17806,128,0,17974:0:0:0:0:
64,192,17974,128,0,18142:0:0:0:0:
320,192,18142,128,0,18309:0:0:0:0:
448,192,18309,128,0,18477:0:0:0:0:
192,192,18477,1,0,0:0:0:0:
64,192,18477,1,0,0:0:0:0:
192,192,18644,1,0,0:0:0:0:
448,192,18812,1,0,0:0:0:0:
448,192,18980,1,0,0:0:0:0:
320,192,19063,1,0,0:0:0:0:
192,192,19147,1,0,0:0:0:0:
64,192,19315,1,0,0:0:0:0:
320,192,19482,1,0,0:0:0:0:
320,192,19650,1,0,0:0:0:0:
192,192,19734,1,0,0:0:0:0:
64,192,19818,1,0,0:0:0:0:
320,192,19985,1,0,0:0:0:0:
448,192,20153,1,0,0:0:0:0:
448,192,20320,1,0,0:0:0:0:
320,192,20404,1,0,0:0:0:0:
192,192,20488,1,0,0:0:0:0:
448,192,20572,1,0,0:0:0:0:
64,192,20656,1,0,0:0:0:0:
64,192,20823,1,0,0:0:0:0:
192,192,20907,1,0,0:0:0:0:
320,192,20991,1,0,0:0:0:0:
448,192,21075,1,0,0:0:0:0:
64,192,21158,1,0,0:0:0:0:
192,192,21326,1,0,0:0:0:0:
320,192,21494,1,0,0:0:0:0:
320,192,21661,1,0,0:0:0:0:
64,192,21745,1,0,0:0:0:0:
448,192,21829,1,0,0:0:0:0:
448,192,21996,128,0,22164:0:0:0:0:
320,192,22332,128,0,22499:0:0:0:0:
192,192,22499,1,0,0:0:0:70:Ringing.wav
64,192,22499,1,8,0:0:0:0:
448,192,22834,1,0,0:0:0:0:
192,192,23002,1,8,0:0:0:0:
64,192,23002,1,0,0:0:0:0:
192,192,23170,1,8,0:0:0:0:
64,192,23170,1,0,0:0:0:0:
320,192,23337,1,8,0:0:0:0:
448,192,23505,1,8,0:0:0:0:
64,192,23505,1,0,0:0:0:0:
192,192,23589,1,0,0:0:0:0:
320,192,23589,1,8,0:0:0:0:
64,192,23672,1,0,0:0:0:0:
448,192,23672,1,8,0:0:0:0:
192,192,23756,1,0,0:0:0:0:
320,192,23756,1,8,0:0:0:0:
448,192,23840,1,8,0:0:0:0:
64,192,23840,1,0,0:0:0:70:Ringing.wav
64,192,24175,1,0,0:0:0:0:
192,192,24175,1,8,0:0:0:0:
448,192,24510,1,8,0:0:0:0:
320,192,24846,1,8,0:0:0:0:
64,192,24846,1,0,0:0:0:0:
448,192,25181,1,8,0:0:0:0:
192,192,25516,1,8,0:0:0:0:
64,192,25516,1,0,0:0:0:0:
320,192,25851,1,8,0:0:0:0:
448,192,26186,1,8,0:0:0:0:
64,192,26186,1,0,0:0:0:0:
320,192,26354,1,8,0:0:0:0:
192,192,26522,1,8,0:0:0:0:
320,192,26857,1,8,0:0:0:0:
448,192,26857,1,0,0:0:0:0:
64,192,27192,1,8,0:0:0:0:
448,192,27527,1,0,0:0:0:0:
192,192,27527,1,8,0:0:0:0:
64,192,27862,1,8,0:0:0:0:
448,192,28198,1,0,0:0:0:0:
320,192,28198,1,8,0:0:0:0:
64,192,28533,1,0,0:0:0:0:
192,192,28533,1,8,0:0:0:0:
320,192,28644,1,8,0:0:0:0:
448,192,28644,1,0,0:0:0:0:
64,192,28756,1,0,0:0:0:0:
192,192,28756,1,8,0:0:0:0:
320,192,28868,1,8,0:0:0:0:
448,192,28868,1,0,0:0:0:0:
192,192,28980,1,0,0:0:0:0:
64,192,28980,1,0,0:0:0:0:
448,192,29091,1,0,0:0:0:0:
320,192,29091,1,0,0:0:0:0:
64,192,29203,128,8,29538:0:0:0:0:
448,192,29538,1,4,0:0:0:0:
320,192,29538,1,8,0:0:0:0:
448,192,29874,1,0,0:0:0:0:
320,192,29874,1,8,0:0:0:0:
448,192,30209,1,0,0:0:0:0:
320,192,30209,1,8,0:0:0:0:
448,192,30544,1,0,0:0:0:0:
320,192,30544,1,8,0:0:0:0:
192,192,30879,1,8,0:0:0:0:
64,192,30879,1,0,0:0:0:0:
64,192,31214,1,0,0:0:0:0:
192,192,31214,1,8,0:0:0:0:
192,192,31550,1,8,0:0:0:0:
64,192,31550,1,0,0:0:0:0:
448,192,31717,1,8,0:0:0:0:
320,192,31801,1,8,0:0:0:0:
192,192,31885,1,8,0:0:0:0:
64,192,31885,1,0,0:0:0:0:
320,192,32052,1,8,0:0:0:0:
192,192,32052,1,0,0:0:0:0:
448,192,32220,1,8,0:0:0:0:
320,192,32220,1,0,0:0:0:0:
192,192,32388,1,0,0:0:0:0:
320,192,32388,1,8,0:0:0:0:
448,192,32555,1,8,0:0:0:0:
64,192,32555,1,0,0:0:0:0:
320,192,32723,1,8,0:0:0:0:
64,192,32723,1,0,0:0:0:0:
448,192,32890,1,0,0:0:0:0:
192,192,32890,1,8,0:0:0:0:
320,192,33058,1,8,0:0:0:0:
192,192,33142,1,8,0:0:0:0:
64,192,33225,1,8,0:0:0:0:
448,192,33309,1,8,0:0:0:0:
64,192,33393,1,8,0:0:0:0:
448,192,33477,1,8,0:0:0:0:
192,192,33561,1,8,0:0:0:0:
320,192,33644,1,8,0:0:0:0:
192,192,33728,1,8,0:0:0:0:
320,192,33812,1,8,0:0:0:0:
448,192,33896,1,8,0:0:0:0:
192,192,33980,1,8,0:0:0:0:
448,192,34063,1,8,0:0:0:0:
192,192,34147,1,8,0:0:0:0:
64,192,34231,1,8,0:0:0:0:
320,192,34315,1,8,0:0:0:0:
64,192,34399,1,8,0:0:0:0:
320,192,34482,1,8,0:0:0:0:
448,192,34566,1,0,0:0:0:30:twinkling.wav
64,192,34734,1,0,0:0:0:0:
192,192,34818,1,0,0:0:0:0:
320,192,34901,128,0,35069:0:0:0:0:
64,192,35069,1,0,0:0:0:0:
448,192,35404,128,0,35572:0:0:0:0:
64,192,35572,128,0,35739:0:0:0:0:
448,192,35739,128,0,35907:0:0:0:0:
64,192,35907,1,0,0:0:0:0:
192,192,36075,1,0,0:0:0:0:
320,192,36158,1,0,0:0:0:0:
448,192,36242,128,0,36410:0:0:0:0:
64,192,36410,1,0,0:0:0:0:
320,192,36745,128,0,36913:0:0:0:0:
192,192,36913,128,0,37080:0:0:0:0:
64,192,37080,128,0,37248:0:0:0:0:
448,192,37248,1,0,0:0:0:0:
320,192,37332,1,0,0:0:0:0:
192,192,37415,1,0,0:0:0:0:
64,192,37499,1,0,0:0:0:0:
448,192,37583,128,0,37695:0:0:0:30:Impact.wav
192,192,37695,1,0,0:0:0:0:
320,192,37806,1,0,0:0:0:0:
64,192,37918,128,0,38030:0:0:0:0:
320,192,38030,1,0,0:0:0:0:
192,192,38142,1,0,0:0:0:30:Impact.wav
448,192,38253,128,0,38365:0:0:0:0:
192,192,38365,1,0,0:0:0:0:
320,192,38477,1,0,0:0:0:0:
448,192,38589,1,0,0:0:0:0:
64,192,38589,1,0,0:0:0:0:
192,192,38672,1,0,0:0:0:0:
320,192,38756,1,0,0:0:0:0:
448,192,38840,1,0,0:0:0:0:
64,192,38924,1,0,0:0:0:30:Impact.wav
192,192,39008,1,0,0:0:0:0:
320,192,39091,1,0,0:0:0:0:
192,192,39175,1,0,0:0:0:0:
64,192,39259,1,0,0:0:0:0:
448,192,39343,1,0,0:0:0:0:
320,192,39427,1,0,0:0:0:0:
192,192,39510,1,0,0:0:0:0:
64,192,39594,1,0,0:0:0:0:
320,192,39678,1,0,0:0:0:0:
192,192,39762,1,0,0:0:0:0:
320,192,39846,1,0,0:0:0:0:
64,192,39929,1,0,0:0:0:0:
448,192,39929,1,0,0:0:0:0:
320,192,40097,1,0,0:0:0:0:
64,192,40181,1,0,0:0:0:0:
448,192,40265,128,0,40432:0:0:0:30:Impact.wav
192,192,40432,1,0,0:0:0:0:
64,192,40767,128,0,40935:0:0:0:30:Impact.wav
192,192,40935,128,0,41103:0:0:0:0:
320,192,41103,128,0,41270:0:0:0:0:
448,192,41270,1,0,0:0:0:0:
64,192,41270,1,0,0:0:0:0:
192,192,41438,1,0,0:0:0:0:
448,192,41522,1,0,0:0:0:0:
64,192,41605,128,0,41773:0:0:0:30:Impact.wav
320,192,41773,1,0,0:0:0:0:
448,192,42108,128,0,42276:0:0:0:30:Impact.wav
320,192,42276,128,0,42443:0:0:0:0:
192,192,42443,128,0,42611:0:0:0:0:
64,192,42611,1,0,0:0:0:0:
448,192,42611,1,0,0:0:0:0:
320,192,42779,1,0,0:0:0:0:
64,192,42946,1,0,0:0:0:0:
192,192,42946,1,0,0:0:0:30:Impact.wav
320,192,43114,1,0,0:0:0:0:
192,192,43198,1,0,0:0:0:0:
64,192,43281,1,0,0:0:0:0:
448,192,43281,1,0,0:0:0:0:
320,192,43449,128,0,43784:0:0:0:30:Impact.wav
192,192,43449,128,0,43784:0:0:0:0:
448,192,43784,1,0,0:0:0:0:
64,192,43952,1,0,0:0:0:0:
192,192,43952,1,0,0:0:0:0:
448,192,44119,128,0,44287:0:0:0:0:
320,192,44287,128,0,44455:0:0:0:0:
192,192,44455,128,0,44622:0:0:0:0:
320,192,44622,128,0,44790:0:0:0:0:
192,192,44790,128,0,44957:0:0:0:0:
64,192,44957,128,0,45125:0:0:0:0:
192,192,45125,128,0,45293:0:0:0:0:
64,192,45293,1,8,0:0:0:70:Ringing.wav
448,192,45293,1,0,0:0:0:70:Ringing.wav
320,192,45293,1,0,0:0:0:0:
192,192,45460,1,0,0:0:0:0:
320,192,45628,1,8,0:0:0:0:
448,192,45628,1,0,0:0:0:0:
64,192,45795,1,0,0:0:0:0:
448,192,45963,1,8,0:0:0:0:
192,192,45963,1,0,0:0:0:0:
64,192,46131,1,0,0:0:0:0:
448,192,46298,1,8,0:0:0:0:
320,192,46298,1,0,0:0:0:0:
192,192,46466,1,0,0:0:0:0:
64,192,46633,1,0,0:0:0:0:
448,192,46633,1,8,0:0:0:0:
320,192,46801,1,0,0:0:0:0:
64,192,46969,1,0,0:0:0:0:
192,192,46969,1,8,0:0:0:0:
320,192,47136,1,0,0:0:0:0:
192,192,47220,1,0,0:0:0:0:
64,192,47304,1,0,0:0:0:0:
448,192,47304,128,8,47471:0:0:0:0:
320,192,47471,128,0,47639:0:0:0:0:
192,192,47639,128,0,47806:0:0:0:0:
448,192,47639,1,8,0:0:0:0:
64,192,47806,128,0,47974:0:0:0:0:
448,192,47806,1,8,0:0:0:0:
192,192,47974,1,0,0:0:0:0:
320,192,47974,1,8,0:0:0:0:
64,192,48142,1,0,0:0:0:0:
448,192,48309,1,0,0:0:0:0:
320,192,48309,1,8,0:0:0:0:
192,192,48477,1,0,0:0:0:0:
64,192,48644,1,0,0:0:0:0:
320,192,48644,1,8,0:0:0:0:
448,192,48812,1,0,0:0:0:0:
64,192,48980,1,0,0:0:0:0:
192,192,48980,1,8,0:0:0:0:
320,192,49147,1,0,0:0:0:0:
448,192,49315,1,8,0:0:0:0:
64,192,49315,1,0,0:0:0:0:
192,192,49482,1,0,0:0:0:0:
320,192,49650,1,0,0:0:0:0:
448,192,49650,1,8,0:0:0:0:
192,192,49818,1,0,0:0:0:0:
64,192,49985,1,0,0:0:0:0:
448,192,49985,1,8,0:0:0:0:
320,192,50097,1,8,0:0:0:0:
192,192,50097,1,0,0:0:0:0:
64,192,50209,1,0,0:0:0:0:
448,192,50209,1,8,0:0:0:0:
320,192,50320,1,8,0:0:0:0:
192,192,50320,1,0,0:0:0:0:
64,192,50432,1,0,0:0:0:0:
448,192,50432,1,8,0:0:0:0:
320,192,50544,1,8,0:0:0:0:
192,192,50544,1,0,0:0:0:0:
64,192,50656,128,8,50991:0:0:0:0:
448,192,50991,1,8,0:0:0:0:
320,192,50991,1,4,0:0:0:0:
192,192,51158,128,0,51326:0:0:0:0:
64,192,51326,1,0,0:0:0:0:
448,192,51326,1,8,0:0:0:0:
320,192,51494,128,0,51661:0:0:0:0:
192,192,51661,1,8,0:0:0:0:
64,192,51661,1,0,0:0:0:0:
448,192,51829,128,0,51996:0:0:0:0:
320,192,51996,1,8,0:0:0:0:
64,192,51996,1,0,0:0:0:0:
192,192,52164,128,0,52332:0:0:0:0:
448,192,52332,1,8,0:0:0:0:
64,192,52332,1,0,0:0:0:0:
320,192,52499,128,0,52667:0:0:0:0:
64,192,52667,1,0,0:0:0:0:
448,192,52667,1,8,0:0:0:0:
192,192,52834,128,0,53002:0:0:0:0:
448,192,53002,1,8,0:0:0:0:
64,192,53002,1,0,0:0:0:0:
64,192,53170,128,0,53337:0:0:0:0:
320,192,53170,1,8,0:0:0:0:
192,192,53253,1,8,0:0:0:0:
448,192,53337,1,0,0:0:0:0:
320,192,53337,1,8,0:0:0:0:
320,192,53505,1,8,0:0:0:0:
192,192,53505,1,0,0:0:0:0:
192,192,53672,1,8,0:0:0:0:
64,192,53672,1,0,0:0:0:0:
448,192,53840,1,0,0:0:0:0:
320,192,53840,1,8,0:0:0:0:
192,192,54008,1,8,0:0:0:0:
64,192,54008,1,0,0:0:0:0:
192,192,54175,1,0,0:0:0:0:
320,192,54175,1,8,0:0:0:0:
448,192,54343,1,8,0:0:0:0:
320,192,54343,1,0,0:0:0:0:
192,192,54510,1,8,0:0:0:0:
64,192,54510,1,0,0:0:0:0:
320,192,54594,1,8,0:0:0:0:
448,192,54678,128,0,56019:0:0:0:70:Ringing.wav
64,192,54846,1,0,0:0:0:0:
320,192,55013,1,0,0:0:0:0:
192,192,55181,1,0,0:0:0:0:
64,192,55348,1,0,0:0:0:0:
320,192,55516,1,0,0:0:0:0:
64,192,55684,1,0,0:0:0:0:
192,192,55851,1,0,0:0:0:0:
320,192,56019,128,0,56186:0:0:0:30:twinkling.wav
192,192,56186,128,0,56354:0:0:0:0:
64,192,56354,128,0,56522:0:0:0:0:
448,192,56522,1,0,0:0:0:0:
64,192,56857,1,0,0:0:0:0:
448,192,57192,1,0,0:0:0:0:
320,192,57192,1,0,0:0:0:0:
64,192,57695,1,0,0:0:0:0:
320,192,57695,1,0,0:0:0:0:
64,192,57862,1,0,0:0:0:0:
320,192,57862,1,0,0:0:0:0:
320,192,58198,1,0,0:0:0:0:
448,192,58365,1,0,0:0:0:0:
64,192,58533,1,0,0:0:0:0:
192,192,58700,128,0,58868:0:0:0:0:
448,192,58700,1,0,0:0:0:0:
320,192,58868,128,0,59036:0:0:0:0:
448,192,59036,128,0,59203:0:0:0:0:
64,192,59203,1,0,0:0:0:0:
192,192,59203,1,0,0:0:0:0:
192,192,59538,128,0,59706:0:0:0:0:
320,192,59538,128,0,59706:0:0:0:0:
192,192,59874,1,0,0:0:0:0:
320,192,59874,1,0,0:0:0:0:
192,192,60209,1,0,0:0:0:0:
320,192,60209,1,0,0:0:0:0:
64,192,60376,1,0,0:0:0:0:
448,192,60376,128,0,60544:0:0:0:0:
320,192,60544,128,0,60712:0:0:0:0:
192,192,60712,128,0,60879:0:0:0:0:
64,192,60879,128,0,61047:0:0:0:0:
320,192,61047,128,0,61214:0:0:0:0:
448,192,61214,128,0,61382:0:0:0:0:
64,192,61382,1,0,0:0:0:70:Ringing.wav
64,192,61717,1,0,0:0:0:0:
448,192,61885,1,0,0:0:0:0:
320,192,61969,1,0,0:0:0:0:
192,192,62052,1,0,0:0:0:0:
192,192,62220,1,0,0:0:0:0:
448,192,62388,1,0,0:0:0:0:
320,192,62471,1,0,0:0:0:0:
64,192,62555,1,0,0:0:0:0:
192,192,62639,1,0,0:0:0:0:
320,192,62723,1,0,0:0:0:0:
320,192,62890,1,0,0:0:0:0:
448,192,63058,1,0,0:0:0:0:
448,192,63225,1,0,0:0:0:0:
320,192,63309,1,0,0:0:0:0:
64,192,63393,1,0,0:0:0:0:
192,192,63477,1,0,0:0:0:0:
320,192,63561,1,0,0:0:0:0:
320,192,63728,1,0,0:0:0:0:
192,192,63812,1,0,0:0:0:0:
64,192,63896,1,0,0:0:0:0:
192,192,63980,1,0,0:0:0:0:
448,192,64063,1,0,0:0:0:0:
320,192,64063,1,0,0:0:0:0:
64,192,64231,128,0,64399:0:0:0:0:
448,192,64399,1,0,0:0:0:0:
320,192,64399,1,0,0:0:0:0:
192,192,64566,1,0,0:0:0:0:
320,192,64650,1,0,0:0:0:0:
448,192,64734,128,0,65404:0:0:0:0:
64,192,64901,1,0,0:0:0:0:
320,192,65237,1,0,0:0:0:0:
192,192,65404,1,8,0:0:0:0:
64,192,65404,1,0,0:0:0:70:Ringing.wav
320,192,65572,5,0,0:0:0:0:
448,192,65739,1,8,0:0:0:0:
64,192,65739,1,0,0:0:0:0:
320,192,65907,1,0,0:0:0:0:
192,192,65991,1,0,0:0:0:0:
64,192,66075,1,8,0:0:0:0:
448,192,66075,1,0,0:0:0:0:
448,192,66242,1,0,0:0:0:0:
64,192,66242,1,8,0:0:0:0:
320,192,66326,1,0,0:0:0:0:
192,192,66326,1,8,0:0:0:0:
64,192,66410,1,8,0:0:0:0:
448,192,66410,1,0,0:0:0:0:
192,192,66494,1,8,0:0:0:0:
320,192,66494,1,0,0:0:0:0:
448,192,66577,128,0,66745:0:0:0:0:
64,192,66577,128,8,66745:0:0:0:0:
320,192,66745,1,0,0:0:0:0:
192,192,66745,1,8,0:0:0:0:
448,192,66913,128,0,67080:0:0:0:0:
320,192,67080,1,0,0:0:0:70:Ringing.wav
192,192,67080,1,8,0:0:0:0:
64,192,67248,128,0,67415:0:0:0:0:
192,192,67415,1,8,0:0:0:0:
448,192,67583,128,0,67751:0:0:0:0:
64,192,67751,1,0,0:0:0:0:
320,192,67751,1,8,0:0:0:0:
448,192,67918,128,0,68086:0:0:0:0:
192,192,68086,1,8,0:0:0:0:
64,192,68253,1,0,0:0:0:0:
448,192,68421,1,8,0:0:0:0:
192,192,68421,1,0,0:0:0:0:
64,192,68589,128,0,68756:0:0:0:0:
320,192,68756,1,8,0:0:0:0:
448,192,68924,128,0,69091:0:0:0:0:
192,192,69091,1,8,0:0:0:0:
64,192,69091,1,0,0:0:0:0:
320,192,69259,128,0,69427:0:0:0:0:
192,192,69259,1,8,0:0:0:0:
448,192,69427,1,8,0:0:0:0:
192,192,69594,128,0,69762:0:0:0:0:
448,192,69762,1,0,0:0:0:0:
320,192,69762,1,8,0:0:0:0:
64,192,69929,128,0,70097:0:0:0:0:
320,192,70097,1,8,0:0:0:0:
64,192,70265,128,0,70432:0:0:0:0:
192,192,70432,1,8,0:0:0:0:
448,192,70432,1,0,0:0:0:0:
64,192,70600,128,0,70767:0:0:0:0:
320,192,70767,1,8,0:0:0:0:
64,192,70935,128,0,71103:0:0:0:0:
192,192,71103,1,8,0:0:0:0:
320,192,71103,1,0,0:0:0:0:
448,192,71270,128,0,71438:0:0:0:0:
320,192,71438,1,8,0:0:0:0:
64,192,71605,128,0,71773:0:0:0:0:
192,192,71773,1,0,0:0:0:0:
320,192,71773,1,8,0:0:0:0:
448,192,71941,128,0,72108:0:0:0:0:
64,192,72108,1,8,0:0:0:0:
192,192,72276,1,0,0:0:0:0:
448,192,72443,1,8,0:0:0:0:
320,192,72443,1,0,0:0:0:0:
64,192,72611,1,0,0:0:0:0:
320,192,72779,1,8,0:0:0:0:
448,192,72779,1,0,0:0:0:0:
192,192,72946,1,0,0:0:0:0:
448,192,73114,1,8,0:0:0:0:
64,192,73114,1,0,0:0:0:0:
320,192,73281,1,0,0:0:0:0:
192,192,73449,1,8,0:0:0:0:
64,192,73449,1,0,0:0:0:0:
448,192,73617,1,0,0:0:0:0:
192,192,73784,1,8,0:0:0:0:
64,192,73784,1,0,0:0:0:0:
320,192,73952,1,0,0:0:0:0:
448,192,74119,1,8,0:0:0:0:
64,192,74119,1,0,0:0:0:0:
192,192,74287,1,0,0:0:0:0:
448,192,74455,1,0,0:0:0:0:
320,192,74455,1,8,0:0:0:0:
192,192,74622,1,8,0:0:0:0:
320,192,74706,1,8,0:0:0:0:
448,192,74790,1,0,0:0:0:0:
64,192,74790,1,8,0:0:0:0:
320,192,74957,5,0,0:0:0:0:
192,192,74957,1,8,0:0:0:0:
448,192,75125,1,0,0:0:0:0:
64,192,75125,1,8,0:0:0:0:
320,192,75293,1,0,0:0:0:0:
192,192,75293,1,8,0:0:0:0:
448,192,75460,1,8,0:0:0:0:
320,192,75460,1,0,0:0:0:0:
192,192,75628,1,8,0:0:0:0:
64,192,75628,1,0,0:0:0:0:
320,192,75795,1,0,0:0:0:0:
448,192,75795,1,8,0:0:0:0:
192,192,75963,1,8,0:0:0:0:
64,192,75963,1,0,0:0:0:0:
320,192,76047,1,8,0:0:0:0:
448,192,76131,1,8,0:0:0:0:
192,192,76214,1,8,0:0:0:0:
448,192,76298,1,8,0:0:0:0:
64,192,76382,1,8,0:0:0:0:
320,192,76466,1,8,0:0:0:0:
64,192,76550,1,8,0:0:0:0:
448,192,76633,1,8,0:0:0:0:
192,192,76717,1,8,0:0:0:0:
448,192,76801,1,8,0:0:0:0:
320,192,76885,1,8,0:0:0:0:
192,192,76969,1,8,0:0:0:0:
448,192,77052,1,8,0:0:0:0:
64,192,77136,1,8,0:0:0:0:
192,192,77220,1,8,0:0:0:0:
320,192,77304,1,8,0:0:0:0:
192,192,77388,1,8,0:0:0:0:
448,192,77471,1,0,0:0:0:30:twinkling.wav
64,192,77471,1,14,0:0:0:0:
320,192,77555,1,0,0:0:0:0:
192,192,77639,1,0,0:0:0:0:
64,192,77723,1,0,0:0:0:0:
320,192,77806,1,8,0:0:0:0:
64,192,77890,1,0,0:0:0:0:
448,192,77974,1,0,0:0:0:0:
192,192,78058,1,0,0:0:0:0:
448,192,78142,128,8,78309:0:0:0:0:
64,192,78309,1,0,0:0:0:0:
320,192,78393,128,0,78561:0:0:0:0:
64,192,78561,1,0,0:0:0:0:
192,192,78644,128,0,78812:0:0:0:0:
448,192,78812,1,8,0:0:0:0:
320,192,78896,1,0,0:0:0:0:
192,192,78980,1,0,0:0:0:0:
320,192,79063,1,0,0:0:0:0:
448,192,79147,1,8,0:0:0:0:
64,192,79231,1,0,0:0:0:0:
320,192,79315,1,0,0:0:0:0:
192,192,79399,1,0,0:0:0:0:
64,192,79482,1,8,0:0:0:0:
448,192,79566,1,0,0:0:0:0:
192,192,79650,1,0,0:0:0:0:
448,192,79734,1,0,0:0:0:0:
64,192,79818,1,0,0:0:0:0:
192,192,79901,1,0,0:0:0:0:
320,192,79985,1,0,0:0:0:0:
448,192,80069,1,0,0:0:0:0:
192,192,80153,1,8,0:0:0:0:
64,192,80153,1,0,0:0:0:0:
320,192,80265,1,8,0:0:0:0:
448,192,80265,1,0,0:0:0:0:
192,192,80376,1,8,0:0:0:0:
64,192,80376,1,0,0:0:0:0:
320,192,80488,1,8,0:0:0:0:
448,192,80572,1,0,0:0:0:0:
192,192,80656,1,0,0:0:0:0:
320,192,80739,1,0,0:0:0:0:
64,192,80823,1,8,0:0:0:0:
448,192,80823,1,0,0:0:0:0:
192,192,80935,1,8,0:0:0:0:
320,192,80935,1,0,0:0:0:0:
448,192,81047,1,0,0:0:0:0:
64,192,81047,1,8,0:0:0:0:
320,192,81158,1,8,0:0:0:0:
192,192,81242,1,0,0:0:0:0:
448,192,81326,1,0,0:0:0:0:
320,192,81410,1,0,0:0:0:0:
192,192,81494,1,8,0:0:0:0:
448,192,81577,1,0,0:0:0:0:
64,192,81661,1,0,0:0:0:0:
320,192,81745,1,0,0:0:0:0:
64,192,81829,1,8,0:0:0:0:
448,192,81913,128,0,82080:0:0:0:0:
64,192,82080,1,0,0:0:0:0:
448,192,82164,1,0,0:0:0:0:
320,192,82164,1,8,0:0:0:0:
64,192,82276,1,0,0:0:0:0:
192,192,82276,1,8,0:0:0:0:
448,192,82388,1,0,0:0:0:0:
320,192,82388,1,8,0:0:0:0:
192,192,82499,1,8,0:0:0:0:
64,192,82499,1,0,0:0:0:0:
320,192,82583,1,0,0:0:0:0:
448,192,82667,1,0,0:0:0:0:
192,192,82751,1,0,0:0:0:0:
320,192,82834,1,8,0:0:0:0:
64,192,82918,1,0,0:0:0:0:
192,192,83002,1,0,0:0:0:0:
448,192,83086,1,0,0:0:0:0:
320,192,83170,1,8,0:0:0:0:
64,192,83253,1,0,0:0:0:0:
192,192,83337,1,0,0:0:0:0:
320,192,83421,1,0,0:0:0:0:
448,192,83505,128,8,83672:0:0:0:0:
64,192,83672,1,0,0:0:0:0:
320,192,83756,1,0,0:0:0:0:
320,192,83924,1,0,0:0:0:0:
64,192,84008,128,8,84175:0:0:0:0:
448,192,84175,1,8,0:0:0:0:
320,192,84259,1,0,0:0:0:0:
192,192,84343,1,8,0:0:0:0:
64,192,84427,1,0,0:0:0:0:
448,192,84510,1,8,0:0:0:0:
192,192,84594,1,0,0:0:0:0:
448,192,84678,1,8,0:0:0:0:
64,192,84762,1,0,0:0:0:0:
320,192,84846,1,8,0:0:0:0:
448,192,84929,1,0,0:0:0:0:
192,192,85013,1,8,0:0:0:0:
320,192,85097,1,0,0:0:0:0:
64,192,85181,1,8,0:0:0:0:
192,192,85265,1,0,0:0:0:0:
320,192,85348,1,8,0:0:0:0:
448,192,85432,1,8,0:0:0:0:
64,192,85516,1,8,0:0:0:0:
192,192,85516,128,2,85628:0:0:0:0:
320,192,85628,128,0,85739:0:0:0:0:
448,192,85739,128,0,85851:0:0:0:0:
64,192,85851,1,8,0:0:0:0:
192,192,85935,1,0,0:0:0:0:
320,192,86019,1,8,0:0:0:0:
448,192,86103,1,0,0:0:0:0:
64,192,86186,128,8,86298:0:0:0:0:
192,192,86298,1,0,0:0:0:0:
320,192,86354,1,0,0:0:0:0:
448,192,86354,1,0,0:0:0:0:
64,192,86522,1,8,0:0:0:0:
192,192,86522,1,0,0:0:0:0:
320,192,86605,1,8,0:0:0:0:
448,192,86605,1,0,0:0:0:0:
64,192,86689,1,8,0:0:0:0:
192,192,86689,1,0,0:0:0:0:
448,192,86773,1,0,0:0:0:0:
320,192,86773,1,8,0:0:0:0:
64,192,86857,1,8,0:0:0:0:
192,192,86857,1,0,0:0:0:0:
448,192,87024,128,0,87192:0:0:0:0:
320,192,87192,128,0,87360:0:0:0:0:
192,192,87360,128,0,87527:0:0:0:0:
64,192,87527,128,0,87695:0:0:0:0:
320,192,87695,128,0,87862:0:0:0:0:
192,192,87862,128,0,88030:0:0:0:0:
64,192,88030,128,0,88198:0:0:0:0:
448,192,88198,1,8,0:0:0:0:
320,192,88198,1,0,0:0:0:0:
448,192,88533,1,8,0:0:0:0:
192,192,88533,1,2,0:0:0:0:
64,192,88533,1,0,0:0:0:70:Ringing.wav
320,192,88700,1,0,0:0:0:0:
192,192,88784,1,0,0:0:0:0:
64,192,88868,1,0,0:0:0:0:
448,192,88868,1,8,0:0:0:0:
320,192,89036,1,0,0:0:0:0:
64,192,89203,1,0,0:0:0:0:
448,192,89203,1,8,0:0:0:0:
192,192,89371,1,0,0:0:0:0:
320,192,89455,1,0,0:0:0:0:
448,192,89538,1,8,0:0:0:0:
64,192,89538,1,0,0:0:0:0:
192,192,89706,1,0,0:0:0:0:
320,192,89874,1,0,0:0:0:0:
448,192,89874,1,8,0:0:0:0:
192,192,90041,1,0,0:0:0:0:
448,192,90125,1,0,0:0:0:0:
64,192,90209,1,0,0:0:0:0:
320,192,90209,1,8,0:0:0:0:
448,192,90293,1,0,0:0:0:0:
192,192,90376,1,0,0:0:0:0:
448,192,90544,1,0,0:0:0:0:
320,192,90544,1,8,0:0:0:0:
192,192,90712,1,8,0:0:0:0:
64,192,90712,1,0,0:0:0:0:
320,192,90795,1,0,0:0:0:0:
64,192,90879,1,8,0:0:0:0:
448,192,90879,1,0,0:0:0:0:
192,192,91047,1,0,0:0:0:0:
320,192,91214,1,8,0:0:0:0:
448,192,91214,1,0,0:0:0:0:
192,192,91382,1,0,0:0:0:0:
320,192,91466,1,0,0:0:0:0:
64,192,91550,1,0,0:0:0:0:
448,192,91550,1,8,0:0:0:0:
192,192,91717,1,0,0:0:0:0:
320,192,91885,1,0,0:0:0:0:
448,192,91885,1,8,0:0:0:0:
192,192,92052,1,0,0:0:0:0:
448,192,92136,1,0,0:0:0:0:
320,192,92220,1,8,0:0:0:0:
64,192,92220,1,0,0:0:0:0:
448,192,92388,1,0,0:0:0:0:
64,192,92555,1,0,0:0:0:0:
192,192,92555,1,8,0:0:0:0:
448,192,92723,1,0,0:0:0:0:
320,192,92806,1,0,0:0:0:0:
192,192,92890,1,8,0:0:0:0:
64,192,92890,1,0,0:0:0:0:
320,192,93002,1,8,0:0:0:0:
448,192,93002,1,0,0:0:0:0:
192,192,93114,1,8,0:0:0:0:
64,192,93114,1,0,0:0:0:0:
448,192,93225,1,0,0:0:0:0:
320,192,93225,1,8,0:0:0:0:
64,192,93337,1,0,0:0:0:0:
192,192,93337,1,0,0:0:0:0:
448,192,93449,1,0,0:0:0:0:
320,192,93449,1,0,0:0:0:0:
192,192,93561,128,8,93896:0:0:0:0:
448,192,93896,1,8,0:0:0:0:
64,192,93896,1,2,0:0:0:0:
320,192,93896,1,0,0:0:0:0:
192,192,94063,1,0,0:0:0:0:
64,192,94231,1,0,0:0:0:0:
448,192,94231,1,0,0:0:0:0:
192,192,94231,1,8,0:0:0:0:
320,192,94399,1,0,0:0:0:0:
448,192,94566,1,0,0:0:0:0:
320,192,94566,1,8,0:0:0:0:
64,192,94566,1,0,0:0:0:0:
192,192,94734,1,0,0:0:0:0:
448,192,94901,5,0,0:0:0:0:
320,192,94901,1,0,0:0:0:0:
192,192,94901,1,8,0:0:0:0:
64,192,95069,1,0,0:0:0:0:
192,192,95237,1,8,0:0:0:0:
64,192,95237,1,0,0:0:0:0:
448,192,95237,1,0,0:0:0:0:
320,192,95404,1,0,0:0:0:0:
320,192,95572,1,0,0:0:0:0:
192,192,95572,1,8,0:0:0:0:
64,192,95572,1,0,0:0:0:0:
448,192,95739,1,0,0:0:0:0:
448,192,95907,1,0,0:0:0:0:
320,192,95907,1,8,0:0:0:0:
64,192,95907,1,0,0:0:0:0:
192,192,96075,5,8,0:0:0:0:
320,192,96158,1,8,0:0:0:0:
448,192,96242,1,8,0:0:0:0:
64,192,96242,1,0,0:0:0:0:
320,192,96410,1,8,0:0:0:0:
192,192,96410,1,0,0:0:0:0:
448,192,96577,1,8,0:0:0:0:
320,192,96577,1,0,0:0:0:0:
192,192,96745,1,8,0:0:0:0:
64,192,96745,1,0,0:0:0:0:
448,192,96913,1,8,0:0:0:0:
192,192,96913,1,0,0:0:0:0:
320,192,97080,1,0,0:0:0:0:
64,192,97080,1,8,0:0:0:0:
192,192,97248,1,0,0:0:0:0:
64,192,97248,1,8,0:0:0:0:
448,192,97415,1,8,0:0:0:0:
320,192,97499,1,8,0:0:0:0:
192,192,97583,1,8,0:0:0:0:
448,192,97667,1,8,0:0:0:0:
64,192,97751,1,8,0:0:0:0:
320,192,97834,1,8,0:0:0:0:
192,192,97918,1,8,0:0:0:0:
64,192,98002,1,8,0:0:0:0:
448,192,98086,1,8,0:0:0:0:
192,192,98170,1,8,0:0:0:0:
320,192,98253,1,8,0:0:0:0:
448,192,98337,1,8,0:0:0:0:
64,192,98421,1,8,0:0:0:0:
320,192,98505,1,8,0:0:0:0:
192,192,98589,1,8,0:0:0:0:
64,192,98672,1,8,0:0:0:0:
448,192,98756,1,8,0:0:0:0:
192,192,98840,1,8,0:0:0:0:
320,192,98924,128,0,101941:0:0:0:70:Ringing.wav
