osu file format v14

[General]
AudioFilename: audio.mp3
AudioLeadIn: 0
PreviewTime: 56909
Countdown: 0
SampleSet: Soft
StackLeniency: 0.7
Mode: 0
LetterboxInBreaks: 0
WidescreenStoryboard: 1

[Editor]
Bookmarks: 140,13109,24080,35051,46023,56994,67966,78937,89909,100880,111851,122823,133794,135166,146137,157109,168080
DistanceSpacing: 1.1
BeatDivisor: 4
GridSize: 4
TimelineZoom: 2.3

[Metadata]
Title:Shadow Castle
TitleUnicode:Shadow Castle
Artist:ginkiha
ArtistUnicode:ginkiha
Creator:JeZag
Version:Normal
Source:
Tags:featured artist FA electronic instrumental neurofunk melodic dubstep orchestral drum'n'bass dnb mappers' guild mpg & silence records NIZI-RINGO gothic SBCD-0003 aeril gunner234 axaptice mint_ minticecream_ _destiny Dragonicz John mapping
BeatmapID:4146526
BeatmapSetID:1859697

[Difficulty]
HPDrainRate:4
CircleSize:3
OverallDifficulty:5
ApproachRate:5.5
SliderMultiplier:1.2
SliderTickRate:1

[Events]
//Background and Video events
0,0,"bg.jpg",0,0
//Break Periods
2,79137,88784
//Storyboard Layer 0 (Background)
//Storyboard Layer 1 (Fail)
//Storyboard Layer 2 (Pass)
//Storyboard Layer 3 (Foreground)
//Storyboard Layer 4 (Overlay)
//Storyboard Sound Samples

[TimingPoints]
146,428.571428571429,4,2,0,70,1,0
7003,398.671096345515,4,2,0,70,1,0
7801,396.694214876033,4,2,0,70,1,0
8594,396.039603960396,4,2,0,70,1,0
9782,387.722132471729,4,2,0,70,1,0
10557,377.358490566038,4,2,0,70,1,0
11311,369.79969183359,4,2,0,70,1,0
11680,-100,4,2,1,90,0,0
12050,352.422907488987,4,2,1,90,1,0
13109,342.857142857143,4,2,1,90,1,0
24079,-100,4,2,1,80,0,0
56994,-100,4,2,1,90,0,0
78937,-100,4,2,1,60,0,0
89909,-100,4,2,1,90,0,0
102251,-100,4,2,1,80,0,0
135166,-100,4,2,1,90,0,0
157109,-100,4,2,1,80,0,0

[Colours]
Combo1 : 186,171,232
Combo2 : 162,216,230
Combo3 : 173,130,253
Combo4 : 249,235,115
Combo5 : 220,204,133
Combo6 : 149,154,200
Combo7 : 207,161,202
Combo8 : 214,214,214

[HitObjects]
256,192,10169,12,10,11680,3:2:0:0:
133,89,12402,6,0,B|156:100|156:100|222:44|322:54,1,180,8|0,3:2|3:2,2:0:0:0:
361,76,13107,5,6,1:2:0:0:
474,144,13451,2,0,L|438:214,1,60,10|2,2:0|2:0,2:0:0:0:
478,255,13794,2,0,P|488:293|492:354,2,60,2|2|10,2:0|1:2|2:0,2:0:0:0:
345,251,14480,2,0,P|274:223|189:234,1,120,2|10,1:2|2:0,2:0:0:0:
165,228,14994,1,2,2:0:0:0:
139,288,15166,2,0,P|122:312|123:363,2,60,2|2|10,2:0|1:2|2:0,2:0:0:0:
267,307,15851,5,2,1:2:0:0:
318,185,16194,1,10,2:0:0:0:
214,102,16537,2,0,P|156:108|86:94,1,120,2|10,2:0|2:0,2:0:0:0:
20,207,17223,1,2,1:2:0:0:
89,319,17566,1,10,2:0:0:0:
220,305,17909,2,0,P|242:251|244:173,1,120,2|10,2:0|2:0,2:0:0:0:
207,137,18423,1,2,2:0:0:0:
250,87,18594,6,0,P|260:56|262:1,2,60,2|2|10,1:2|2:0|2:0,2:0:0:0:
349,174,19280,2,0,P|381:182|427:186,2,60,2|2|10,2:0|1:2|2:0,2:0:0:0:
240,249,19966,2,0,P|191:238|98:257,1,120,2|10,1:2|2:0,2:0:0:0:
58,228,20480,1,2,2:0:0:0:
28,169,20651,2,0,P|17:141|-14:106,2,60,2|2|10,2:0|1:2|2:0,2:0:0:0:
158,147,21337,5,2,1:2:0:0:
286,114,21680,1,10,1:2:0:0:
326,239,22023,1,2,1:2:0:0:
198,272,22366,1,10,1:2:0:0:
73,227,22709,6,0,P|49:199|26:154,1,60,10|10,1:2|1:2,2:0:0:0:
79,129,23051,2,0,P|67:93|64:41,1,60,10|10,1:2|1:2,2:0:0:0:
124,44,23394,2,0,P|191:115|179:269,1,240,10|4,1:2|1:2,2:0:0:0:
371,337,25451,6,2,B|424:345|421:375|486:383,2,120,0|8|0,1:2|2:0|2:0,2:0:0:0:
315,300,26309,2,0,L|238:310,1,60,0|8,3:2|2:0,2:0:0:0:
162,213,26823,6,0,P|109:170|45:162,1,120,0|8,1:2|2:0,2:0:0:0:
12,207,27337,1,0,3:2:0:0:
39,267,27509,2,2,P|109:268|232:149,1,240,0|2,3:2|1:2,2:0:0:0:
315,60,28537,1,10,2:0:0:0:
315,60,28709,2,0,P|384:69|411:180,1,180,2|8,3:2|3:2,2:0:0:0:
305,232,29566,6,0,B|251:223|254:193|189:186,2,120,0|8|0,1:2|2:0|2:0,2:0:0:0:
360,269,30423,2,0,L|419:261,1,60,0|8,1:2|2:0,2:0:0:0:
495,368,30937,2,2,L|374:383,1,120,0|8,1:2|2:0,2:0:0:0:
309,380,31451,2,0,P|239:331|256:248,1,180,0|8,3:2|2:0,2:0:0:0:
340,144,32309,6,2,P|218:115|84:241,1,300,0|0,1:2|1:2,2:0:0:0:
108,281,33337,2,2,L|181:299,1,60,8|0,2:0|2:0,2:0:0:0:
220,256,33680,6,0,P|225:190|163:72,2,180,8|8|8,2:0|2:0|2:0,2:0:0:0:
309,353,35051,5,4,1:2:0:0:
426,292,35394,2,0,P|451:236|458:163,1,120,8|0,2:0|2:0,2:0:0:0:
381,70,36080,2,0,L|301:53,1,60,8|0,2:0|1:2,2:0:0:0:
268,95,36423,2,2,L|129:70,2,120,0|8|0,1:2|2:0|2:0,2:0:0:0:
306,148,37280,2,0,L|289:228,1,60,0|8,1:2|2:0,2:0:0:0:
196,296,37794,5,0,1:2:0:0:
63,293,38137,2,0,B|-20:147|67:175|33:48,1,240,8|10,2:0|2:0,2:0:0:0:
157,7,39166,2,0,L|226:28,1,60,2|2,1:2|2:0,2:0:0:0:
263,77,39509,1,10,2:0:0:0:
263,77,39680,2,0,P|230:138|117:126,1,180,2|8,3:2|3:2,2:0:0:0:
22,214,40537,5,0,1:2:0:0:
89,327,40880,2,0,P|136:330|263:383,1,180,8|0,2:0|1:2,2:0:0:0:
320,358,41566,1,8,2:0:0:0:
396,250,41909,2,2,P|461:255|523:229,2,120,0|8|0,1:2|2:0|2:0,2:0:0:0:
342,211,42766,2,0,L|262:236,1,60,0|8,3:2|2:0,2:0:0:0:
169,164,43280,5,0,1:2:0:0:
57,234,43623,1,0,3:2:0:0:
5,112,43966,2,0,P|1:73|-15:39,1,60,0|0,3:2|3:2,2:0:0:0:
46,13,44309,2,0,P|85:9|131:-7,1,60,8|0,3:1|3:2,2:0:0:0:
154,47,44651,2,0,P|154:146|169:180,2,120,2|0|10,2:3|2:0|3:2,2:0:0:0:
281,10,45680,1,2,3:0:0:0:
392,80,46023,6,0,P|442:72|467:62,1,60,6|2,1:2|2:0,2:0:0:0:
498,115,46366,2,0,P|510:147|513:181,1,60,10|2,2:0|2:0,2:0:0:0:
481,230,46709,2,0,P|421:228|362:242,1,120,2|8,2:0|2:0,2:0:0:0:
241,190,47394,2,0,P|212:242|189:310,1,120,2|10,1:2|2:0,2:0:0:0:
134,333,47909,1,2,2:0:0:0:
85,288,48080,2,0,P|78:240|80:209,2,60,2|2|10,2:0|1:2|2:0,2:0:0:0:
181,379,48766,6,0,P|217:363|258:357,1,60,2|2,1:2|2:0,2:0:0:0:
258,296,49109,2,0,P|275:261|302:229,1,60,10|2,2:0|2:0,2:0:0:0:
251,189,49451,2,0,P|244:141|249:104,2,60,2|2|10,2:0|1:2|2:0,2:0:0:0:
140,249,50137,6,0,P|103:233|63:227,1,60,2|2,1:2|2:0,2:0:0:0:
63,166,50480,2,0,P|45:131|18:99,1,60,10|2,2:0|2:0,2:0:0:0:
60,54,50823,1,2,2:0:0:0:
186,15,51166,5,10,2:0:0:0:
229,64,51337,1,2,2:0:0:0:
290,39,51509,2,0,P|339:45|410:80,1,120,2|10,1:2|2:0,2:0:0:0:
430,134,52023,1,2,2:0:0:0:
385,182,52194,2,0,P|336:193|258:184,1,120,2|8,2:0|2:0,2:0:0:0:
217,231,52709,1,2,2:0:0:0:
166,272,52880,2,0,P|135:275|85:274,2,60,2|2|10,1:2|2:0|2:0,2:0:0:0:
256,368,53566,2,0,P|287:371|337:370,2,60,2|2|10,2:0|1:2|2:0,2:0:0:0:
252,236,54251,5,2,1:2:0:0:
349,146,54594,1,10,2:0:0:0:
442,239,54937,2,0,P|461:275|468:310,2,60,2|2|10,2:0|1:2|2:0,2:0:0:0:
309,249,55623,2,0,P|283:243|237:244,1,60,10|10,2:0|2:0,2:0:0:0:
203,194,55966,2,0,P|177:188|131:189,1,60,10|10,2:0|2:0,2:0:0:0:
86,153,56309,2,0,P|166:156|263:87,1,180,8|0,2:0|3:2,2:0:0:0:
301,64,56994,6,0,P|295:8|294:-19,1,60,6|2,1:2|2:0,2:0:0:0:
361,5,57337,2,0,P|417:-1|444:-2,1,60,10|2,1:2|2:0,2:0:0:0:
453,56,57680,2,0,P|484:51|532:44,2,60,2|2|10,1:2|2:0|1:2,2:0:0:0:
355,145,58366,5,2,1:2:0:0:
327,204,58537,1,2,2:0:0:0:
375,248,58709,2,0,P|406:235|444:225,1,60,10|2,1:2|2:0,2:0:0:0:
462,286,59051,2,0,P|495:290|540:299,2,60,2|2|10,1:2|2:0|1:2,2:0:0:0:
352,359,59737,6,0,P|296:353|269:352,1,60,2|2,1:2|2:0,2:0:0:0:
234,320,60080,2,0,P|204:317|174:313,1,60,10|2,1:2|2:0,2:0:0:0:
114,343,60423,1,2,1:2:0:0:
55,374,60594,1,2,2:0:0:0:
1,334,60766,1,10,1:2:0:0:
1,201,61109,6,0,B|48:166|116:168,1,120,2|10,1:2|1:2,2:0:0:0:
171,135,61623,1,2,2:0:0:0:
214,184,61794,2,0,P|237:191|272:214,1,60,2|2,1:2|2:0,2:0:0:0:
325,178,62137,2,0,P|332:154|357:118,1,60,10|2,1:2|2:0,2:0:0:0:
329,62,62480,5,2,1:2:0:0:
281,15,62651,1,2,2:0:0:0:
225,51,62823,1,10,1:2:0:0:
94,73,63166,2,0,P|63:54|34:23,2,60,2|2|10,1:2|2:0|1:2,2:0:0:0:
120,133,63680,1,2,2:0:0:0:
163,182,63851,6,0,P|144:230|141:251,1,60,2|2,1:2|2:0,2:0:0:0:
78,256,64194,2,0,P|62:275|44:321,1,60,10|2,1:2|2:0,2:0:0:0:
51,373,64537,2,0,P|31:357|-8:343,2,60,2|2|10,1:2|2:0|1:2,2:0:0:0:
183,368,65223,6,0,P|191:330|204:301,1,60,2|2,1:2|2:0,2:0:0:0:
259,283,65566,2,0,P|267:245|280:216,1,60,10|2,1:2|2:0,2:0:0:0:
210,209,65909,2,0,P|191:174|183:144,1,60,2|2,1:2|2:0,2:0:0:0:
215,96,66251,1,10,1:2:0:0:
318,13,66594,5,10,1:2:0:0:
382,0,66766,1,10,1:2:0:0:
421,49,66937,2,0,P|431:101|430:126,1,60,10|10,1:2|1:2,2:0:0:0:
469,161,67280,2,0,P|402:195|292:202,1,180,8|0,1:2|1:2,2:0:0:0:
236,225,67966,6,0,P|181:175|173:168,1,60,6|6,1:2|1:2,2:0:0:0:
139,144,68309,2,0,P|157:72|156:50,2,90,10|2|2,2:0|1:2|1:2,2:0:0:0:
73,153,68994,1,10,1:2:0:0:
6,266,69337,6,0,L|26:322,1,60,6|6,1:2|1:2,2:0:0:0:
92,323,69680,2,0,P|165:344|192:361,2,90,10|2|2,2:0|1:2|1:2,2:0:0:0:
114,260,70366,2,0,P|122:231|134:203,1,60,10|2,2:0|2:0,2:0:0:0:
199,197,70709,6,0,P|215:143|226:114,1,60,6|6,1:2|1:2,2:0:0:0:
275,110,71051,2,0,P|263:61|237:0,2,90,10|2|2,2:0|1:2|1:2,2:0:0:0:
322,155,71737,1,14,2:0:0:0:
453,148,72080,5,6,1:2:0:0:
477,87,72251,1,2,1:2:0:0:
450,26,72423,1,10,2:0:0:0:
317,27,72766,2,0,P|278:41|243:60,1,60,6|6,1:2|1:2,2:0:0:0:
238,112,73109,2,0,P|199:126|164:145,1,60,6|6,1:2|1:2,2:0:0:0:
160,196,73451,6,0,P|129:185|84:181,1,60,6|6,1:2|1:2,2:0:0:0:
55,134,73794,2,0,P|43:85|17:23,2,90,10|2|2,2:0|1:2|1:2,2:0:0:0:
12,184,74480,1,14,2:0:0:0:
61,306,74823,5,6,1:2:0:0:
119,336,74994,1,6,1:2:0:0:
172,297,75166,2,0,P|177:247|174:180,2,90,10|2|2,2:0|1:2|1:2,2:0:0:0:
213,348,75851,1,10,2:0:0:0:
340,312,76194,6,0,P|395:262|403:255,1,60,6|6,1:2|1:2,2:0:0:0:
423,217,76537,2,0,P|404:145|405:123,2,90,10|2|2,2:0|1:2|1:2,2:0:0:0:
487,225,77223,2,0,L|538:262,1,60,14|2,2:0|2:3,2:0:0:0:
511,321,77566,6,0,P|457:333|403:316,1,90,14|0,2:0|1:2,2:0:0:0:
342,254,78080,2,0,P|297:247|254:259,1,90,12|0,2:0|1:2,2:0:0:0:
153,231,78594,2,0,P|126:244|100:260,1,60,14|14,1:2|2:0,2:0:0:0:
91,325,78937,1,6,2:0:0:0:
151,308,89909,5,6,1:2:0:0:
38,240,90251,2,0,L|74:170,1,60,10|2,2:0|2:0,2:0:0:0:
34,129,90594,2,0,P|24:91|20:30,2,60,2|2|10,2:0|1:2|2:0,2:0:0:0:
167,133,91280,2,0,P|238:161|323:150,1,120,2|10,1:2|2:0,2:0:0:0:
347,156,91794,1,2,2:0:0:0:
373,96,91966,2,0,P|390:72|389:21,2,60,2|2|10,2:0|1:2|2:0,2:0:0:0:
245,77,92651,5,2,1:2:0:0:
194,199,92994,1,10,2:0:0:0:
298,282,93337,2,0,P|354:271|426:290,1,120,2|10,2:0|2:0,2:0:0:0:
492,177,94023,1,2,1:2:0:0:
423,65,94366,1,10,2:0:0:0:
292,79,94709,2,0,P|270:133|268:211,1,120,2|10,2:0|2:0,2:0:0:0:
305,247,95223,1,2,2:0:0:0:
262,297,95394,6,0,P|252:328|250:383,2,60,2|2|10,1:2|2:0|2:0,2:0:0:0:
163,210,96080,2,0,P|131:202|85:198,2,60,2|2|10,2:0|1:2|2:0,2:0:0:0:
272,135,96766,2,0,P|321:146|414:127,1,120,2|10,1:2|2:0,2:0:0:0:
454,156,97280,1,2,2:0:0:0:
484,215,97451,2,0,P|495:243|526:278,2,60,2|2|10,2:0|1:2|2:0,2:0:0:0:
354,237,98137,5,2,1:2:0:0:
226,270,98480,1,10,1:2:0:0:
186,145,98823,1,2,1:2:0:0:
314,112,99166,1,10,1:2:0:0:
439,157,99509,6,0,P|463:185|486:230,1,60,8|8,1:2|1:2,2:0:0:0:
433,255,99851,2,0,P|445:291|448:343,1,60,8|8,1:2|1:2,2:0:0:0:
388,340,100194,2,0,P|321:269|333:115,1,240,8|4,1:2|1:2,2:0:0:0:
141,47,102251,6,2,B|88:39|91:9|26:1,2,120,0|8|0,1:2|2:0|2:0,2:0:0:0:
197,84,103109,2,0,L|274:74,1,60,0|8,1:2|2:0,2:0:0:0:
350,171,103623,6,0,P|403:214|467:222,1,120,0|8,1:2|2:0,2:0:0:0:
500,177,104137,1,0,3:2:0:0:
473,117,104309,2,0,P|403:116|280:235,1,240,0|2,3:2|1:2,2:0:0:0:
197,324,105337,1,10,2:0:0:0:
197,324,105509,2,2,P|128:315|101:204,1,180,2|8,2:0|2:0,2:0:0:0:
207,152,106366,6,0,B|261:161|258:191|323:198,2,120,0|8|0,1:2|2:0|2:0,2:0:0:0:
152,115,107223,2,0,L|93:123,1,60,0|8,1:2|2:0,2:0:0:0:
17,16,107737,2,2,L|138:1,1,120,0|8,1:2|2:0,2:0:0:0:
203,4,108251,2,0,P|273:53|256:136,1,180,0|8,3:2|2:0,2:0:0:0:
172,240,109109,6,2,P|294:269|428:143,1,300,0|0,1:2|1:0,2:0:0:0:
404,103,110137,2,0,L|331:85,1,60,8|0,2:0|2:3,2:0:0:0:
292,128,110480,6,0,P|287:194|349:312,2,180,8|8|8,2:0|2:0|2:0,2:0:0:0:
203,31,111851,5,4,1:2:0:0:
86,92,112194,2,0,P|61:148|54:221,1,120,8|0,2:0|2:0,2:0:0:0:
131,314,112880,2,0,L|211:331,1,60,8|0,2:0|1:2,2:0:0:0:
244,289,113223,2,2,L|383:314,2,120,0|8|0,1:2|2:0|2:0,2:0:0:0:
206,236,114080,2,0,L|223:156,1,60,0|8,1:2|2:0,2:0:0:0:
316,88,114594,5,0,1:2:0:0:
449,91,114937,2,0,B|532:237|445:209|479:336,1,240,8|10,2:0|2:0,2:0:0:0:
355,377,115966,2,0,L|286:356,1,60,2|2,1:2|2:0,2:0:0:0:
256,315,116309,1,10,2:0:0:0:
256,315,116480,2,2,P|289:254|402:266,1,180,2|8,2:0|2:0,2:0:0:0:
490,170,117337,5,0,1:2:0:0:
423,57,117680,2,0,P|376:54|249:1,1,180,8|0,2:0|1:2,2:0:0:0:
192,26,118366,1,8,2:0:0:0:
116,134,118709,2,2,P|51:129|-11:155,2,120,0|8|0,1:2|2:0|2:0,2:0:0:0:
170,173,119566,2,0,L|250:148,1,60,0|8,1:2|2:0,2:0:0:0:
343,220,120080,5,8,2:0:0:0:
455,150,120423,1,8,2:0:0:0:
507,272,120766,2,0,P|511:311|527:345,1,60,8|0,2:0|3:2,2:0:0:0:
466,371,121109,2,0,P|427:375|381:391,1,60,8|0,3:1|3:2,2:0:0:0:
358,337,121451,2,0,P|358:238|343:204,2,120,2|0|10,2:3|2:0|3:2,2:0:0:0:
231,374,122480,1,2,1:3:0:0:
120,304,122823,6,0,P|70:312|45:322,1,60,6|2,1:2|2:0,2:0:0:0:
14,269,123166,2,0,P|2:237|-1:203,1,60,10|2,2:0|2:0,2:0:0:0:
31,154,123509,2,0,P|91:156|150:142,1,120,2|8,2:0|2:0,2:0:0:0:
271,194,124194,2,0,P|300:142|323:74,1,120,2|10,1:2|2:0,2:0:0:0:
378,51,124709,1,2,2:0:0:0:
427,96,124880,2,0,P|434:144|432:175,2,60,2|2|10,2:0|1:2|2:0,2:0:0:0:
331,5,125566,6,0,P|295:21|254:27,1,60,2|2,1:2|2:0,2:0:0:0:
254,88,125909,2,0,P|237:123|210:155,1,60,10|2,2:0|2:0,2:0:0:0:
261,195,126251,2,0,P|268:243|263:280,2,60,2|2|10,2:0|1:2|2:0,2:0:0:0:
372,135,126937,6,0,P|409:151|449:157,1,60,2|2,1:2|2:0,2:0:0:0:
449,218,127280,2,0,P|467:253|494:285,1,60,10|2,2:0|2:0,2:0:0:0:
452,330,127623,1,2,2:0:0:0:
326,369,127966,5,10,2:0:0:0:
283,320,128137,1,2,2:0:0:0:
222,345,128309,2,0,P|173:339|102:304,1,120,2|10,1:2|2:0,2:0:0:0:
82,250,128823,1,2,2:0:0:0:
127,202,128994,2,0,P|176:191|254:200,1,120,2|8,2:0|2:0,2:0:0:0:
295,153,129509,1,2,2:0:0:0:
346,112,129680,2,0,P|377:109|427:110,2,60,2|2|10,1:2|2:0|2:0,2:0:0:0:
256,16,130366,2,0,P|225:13|175:14,2,60,2|2|10,2:0|1:2|2:0,2:0:0:0:
260,148,131051,5,2,1:2:0:0:
163,238,131394,1,10,2:0:0:0:
70,145,131737,2,0,P|51:109|44:74,2,60,2|2|10,2:0|1:2|2:0,2:0:0:0:
203,135,132423,2,0,P|229:141|275:140,1,60,10|8,2:0|2:0,2:0:0:0:
309,190,132766,2,0,P|335:196|381:195,1,60,8|8,2:0|2:0,2:0:0:0:
426,231,133109,2,0,P|346:228|221:335,1,240,8|8,2:0|3:2,2:0:0:0:
111,144,134823,5,10,2:0:0:0:
211,64,135166,2,0,P|217:8|218:-19,1,60,6|2,1:2|2:0,2:0:0:0:
151,5,135509,2,0,P|95:-1|68:-2,1,60,10|2,1:2|2:0,2:0:0:0:
59,56,135851,2,0,P|28:51|-20:44,2,60,2|2|10,1:2|2:0|1:2,2:0:0:0:
157,145,136537,5,2,1:2:0:0:
185,204,136709,1,2,2:0:0:0:
137,248,136880,2,0,P|106:235|68:225,1,60,10|2,1:2|2:0,2:0:0:0:
50,286,137223,2,0,P|17:290|-28:299,2,60,2|2|10,1:2|2:0|1:2,2:0:0:0:
160,359,137909,6,0,P|216:353|243:352,1,60,2|2,1:2|2:0,2:0:0:0:
278,320,138251,2,0,P|308:317|338:313,1,60,10|2,1:2|2:0,2:0:0:0:
398,343,138594,1,2,1:2:0:0:
457,374,138766,1,2,2:0:0:0:
511,334,138937,1,10,1:2:0:0:
511,201,139280,6,0,B|464:166|396:168,1,120,2|10,1:2|1:2,2:0:0:0:
341,135,139794,1,2,2:0:0:0:
298,184,139966,2,0,P|275:191|240:214,1,60,2|2,1:2|2:0,2:0:0:0:
187,178,140309,2,0,P|180:154|155:118,1,60,10|2,1:2|2:0,2:0:0:0:
183,62,140651,5,2,1:2:0:0:
231,15,140823,1,2,2:0:0:0:
287,51,140994,1,10,1:2:0:0:
418,73,141337,2,0,P|449:54|478:23,2,60,2|2|10,1:2|2:0|1:2,2:0:0:0:
392,133,141851,1,2,2:0:0:0:
349,182,142023,6,0,P|368:230|371:251,1,60,2|2,1:2|2:0,2:0:0:0:
434,256,142366,2,0,P|449:275|468:321,1,60,10|2,1:2|2:0,2:0:0:0:
461,373,142709,2,0,P|481:357|520:343,2,60,2|2|10,1:2|2:0|1:2,2:0:0:0:
329,368,143394,6,0,P|321:330|308:301,1,60,2|2,1:2|2:0,2:0:0:0:
253,283,143737,2,0,P|245:245|232:216,1,60,10|2,1:2|2:0,2:0:0:0:
302,209,144080,2,0,P|320:174|328:144,1,60,2|2,1:2|2:0,2:0:0:0:
297,96,144423,1,10,1:2:0:0:
194,13,144766,5,8,1:2:0:0:
130,0,144937,1,8,1:2:0:0:
91,49,145109,2,0,P|81:101|82:126,1,60,8|8,1:2|1:2,2:0:0:0:
43,161,145451,2,0,P|109:195|219:202,1,180,8|0,1:2|1:2,2:0:0:0:
276,225,146137,6,0,P|331:175|339:168,1,60,6|6,1:2|1:2,2:0:0:0:
373,144,146480,2,0,P|354:72|355:50,2,90,10|2|2,2:0|1:2|1:2,2:0:0:0:
439,153,147166,1,10,2:0:0:0:
506,266,147509,6,0,L|485:322,1,60,6|6,1:2|1:2,2:0:0:0:
420,323,147851,2,0,P|346:344|319:361,2,90,10|2|2,2:0|1:2|1:2,2:0:0:0:
398,260,148537,2,0,P|389:231|377:203,1,60,10|2,2:0|2:0,2:0:0:0:
313,197,148880,6,0,P|297:143|286:114,1,60,6|6,1:2|1:2,2:0:0:0:
237,110,149223,2,0,P|248:61|274:0,2,90,10|2|2,2:0|1:2|1:2,2:0:0:0:
190,155,149909,1,12,2:0:0:0:
59,148,150251,5,6,1:2:0:0:
35,87,150423,1,2,1:2:0:0:
62,26,150594,1,10,2:0:0:0:
195,27,150937,2,0,P|233:41|268:60,1,60,6|6,1:2|1:2,2:0:0:0:
274,112,151280,2,0,P|312:126|347:145,1,60,14|6,1:2|1:2,2:0:0:0:
352,196,151623,6,0,P|382:185|427:181,1,60,6|6,1:2|1:2,2:0:0:0:
457,134,151966,2,0,P|468:85|494:23,2,90,10|2|2,2:0|1:2|1:2,2:0:0:0:
500,184,152651,1,14,2:0:0:0:
451,306,152994,5,6,1:2:0:0:
393,336,153166,1,6,1:2:0:0:
340,297,153337,2,0,P|334:247|337:180,2,90,10|2|2,2:0|1:2|1:2,2:0:0:0:
299,348,154023,1,10,2:0:0:0:
172,312,154366,6,0,P|117:262|109:255,1,60,6|6,1:2|1:2,2:0:0:0:
89,217,154709,2,0,P|107:145|106:123,2,90,10|2|2,2:0|1:2|1:2,2:0:0:0:
25,225,155394,2,0,L|-26:262,1,60,14|2,2:0|2:3,2:0:0:0:
1,321,155737,6,0,P|54:333|109:316,1,90,12|0,2:0|1:2,2:0:0:0:
162,259,156251,2,0,P|206:252|249:264,1,90,12|0,2:0|1:2,2:0:0:0:
344,235,156766,2,0,P|370:248|396:264,1,60,4|12,1:2|1:2,2:0:0:0:
431,320,157109,6,0,L|501:284,1,60,6|2,1:2|2:0,2:0:0:0:
510,234,157451,2,0,L|474:164,1,60,10|2,2:0|2:0,2:0:0:0:
462,117,157794,2,0,P|472:79|476:18,2,60,2|2|10,2:0|1:2|2:0,2:0:0:0:
345,133,158480,2,0,P|274:161|189:150,1,120,2|10,1:2|2:0,2:0:0:0:
165,156,158994,1,2,2:0:0:0:
139,96,159166,2,0,P|122:72|123:21,2,60,2|2|10,2:0|1:2|2:0,2:0:0:0:
267,77,159851,5,2,1:2:0:0:
318,199,160194,1,10,2:0:0:0:
214,282,160537,2,0,P|158:271|86:290,1,120,2|10,2:0|2:0,2:0:0:0:
20,177,161223,1,2,1:2:0:0:
89,65,161566,1,10,2:0:0:0:
220,79,161909,2,0,P|242:133|244:211,1,120,2|10,2:0|2:0,2:0:0:0:
207,247,162423,1,2,2:0:0:0:
250,297,162594,6,0,P|260:328|262:383,2,60,2|2|10,1:2|2:0|2:0,2:0:0:0:
349,210,163280,2,0,P|381:202|427:198,2,60,2|2|10,2:0|1:2|2:0,2:0:0:0:
240,135,163966,2,0,P|191:146|98:127,1,120,2|10,1:2|2:0,2:0:0:0:
58,156,164480,1,2,2:0:0:0:
28,215,164651,2,0,P|17:243|-14:278,2,60,2|2|8,2:0|1:2|2:0,2:0:0:0:
158,237,165337,5,2,1:2:0:0:
286,270,165680,1,10,1:2:0:0:
326,145,166023,1,2,1:2:0:0:
198,112,166366,1,10,1:2:0:0:
73,157,166709,6,0,P|49:185|26:230,1,60,8|8,1:2|1:2,2:0:0:0:
79,255,167051,2,0,P|67:291|64:343,1,60,8|8,1:2|1:2,2:0:0:0:
124,340,167394,2,0,P|191:269|179:115,1,240,10|4,1:2|2:0,2:0:0:0:
