osu file format v14

[General]
AudioFilename: audio.mp3
AudioLeadIn: 0
PreviewTime: 56909
Countdown: 0
SampleSet: Soft
StackLeniency: 0.7
Mode: 0
LetterboxInBreaks: 0
WidescreenStoryboard: 1

[Editor]
Bookmarks: 140,13109,24080,35051,46023,56994,67966,78937,89909,100880,111851,122823,133794,135166,146137,157109,168080
DistanceSpacing: 1.1
BeatDivisor: 4
GridSize: 4
TimelineZoom: 2.3

[Metadata]
Title:Shadow Castle
TitleUnicode:Shadow Castle
Artist:ginkiha
ArtistUnicode:ginkiha
Creator:JeZag
Version:Hard
Source:
Tags:featured artist FA electronic instrumental neurofunk melodic dubstep orchestral drum'n'bass dnb mappers' guild mpg & silence records NIZI-RINGO gothic SBCD-0003 aeril gunner234 axaptice mint_ minticecream_ _destiny Dragonicz John mapping
BeatmapID:4146524
BeatmapSetID:1859697

[Difficulty]
HPDrainRate:4
CircleSize:3.4
OverallDifficulty:7
ApproachRate:8
SliderMultiplier:1.4
SliderTickRate:1

[Events]
//Background and Video events
0,0,"bg.jpg",0,0
//Break Periods
//Storyboard Layer 0 (Background)
//Storyboard Layer 1 (Fail)
//Storyboard Layer 2 (Pass)
//Storyboard Layer 3 (Foreground)
//Storyboard Layer 4 (Overlay)
//Storyboard Sound Samples

[TimingPoints]
146,428.571428571429,4,2,0,70,1,0
7003,398.671096345515,4,2,0,70,1,0
7801,396.694214876033,4,2,0,70,1,0
8594,396.039603960396,4,2,0,70,1,0
9782,387.722132471729,4,2,0,70,1,0
10557,377.358490566038,4,2,0,70,1,0
11311,369.79969183359,4,2,0,70,1,0
11680,-100,4,2,1,90,0,0
12050,352.422907488987,4,2,1,90,1,0
13109,342.857142857143,4,2,1,90,1,0
24080,-100,4,2,1,80,0,0
56994,-100,4,2,1,90,0,0
78937,-100,4,2,1,60,0,0
89909,-100,4,2,1,90,0,0
102080,-100,4,2,1,80,0,0
135166,-100,4,2,1,90,0,0
157109,-100,4,2,1,80,0,0

[Colours]
Combo1 : 186,171,232
Combo2 : 162,216,230
Combo3 : 173,130,253
Combo4 : 249,235,115
Combo5 : 220,204,133
Combo6 : 149,154,200
Combo7 : 207,161,202
Combo8 : 214,214,214

[HitObjects]
215,262,146,6,0,P|249:224|268:187,1,70,2|2,2:0|2:0,2:0:0:0:
131,151,574,2,0,P|151:104|156:63,1,70,2|2,2:0|2:0,2:0:0:0:
226,34,1003,2,0,P|216:-7|218:-23,4,35,2|2|2|2|2,2:0|2:0|2:0|2:0|2:0,2:0:0:0:
244,116,1646,1,2,2:0:0:0:
376,85,1860,6,0,P|407:99|442:106,1,70,2|2,2:0|2:0,2:0:0:0:
490,193,2288,2,0,P|476:207|473:228,3,35,2|2|2|2,2:0|2:0|2:0|2:0,2:0:0:0:
435,222,2717,2,0,P|421:236|400:239,3,35,2|2|2|2,2:0|2:0|2:0|2:0,2:0:0:0:
419,267,3146,2,0,P|405:281|402:302,3,35,2|2|2|2,2:0|2:0|2:0|2:0,2:0:0:0:
414,327,3574,6,0,P|379:330|347:344,1,70,2|2,2:0|2:0,2:0:0:0:
259,254,4003,2,0,P|225:244|190:247,1,70,2|2,2:0|2:0,2:0:0:0:
106,349,4431,2,0,P|68:330|64:325,3,35,2|2|2|2,2:0|2:0|2:0|2:0,2:0:0:0:
64,357,4860,2,0,P|42:325|32:287,1,70,2|2,2:0|2:0,2:0:0:0:
76,186,5288,6,0,P|83:148|82:134,3,35,2|2|2|2,2:0|2:0|2:0|2:0,2:0:0:0:
105,160,5717,2,0,P|138:149|166:129,1,70,2|2,2:0|2:0,2:0:0:0:
267,207,6146,2,0,P|263:270|276:300,1,70,2|2,2:0|2:0,2:0:0:0:
156,341,6574,2,0,P|98:315|65:317,1,70,2|2,2:0|2:0,2:0:0:0:
80,219,7003,5,2,2:0:0:0:
126,142,7202,1,2,2:0:0:0:
221,154,7401,2,0,P|279:125|310:123,1,70,10|2,3:2|2:0,2:0:0:0:
316,45,7800,2,0,P|313:2|314:-7,3,35,2|2|2|2,2:0|2:0|2:0|2:0,2:0:0:0:
289,35,8197,2,0,P|243:12|216:-19,1,70,10|2,2:0|2:0,2:0:0:0:
138,27,8594,5,2,2:0:0:0:
80,129,8792,1,2,2:0:0:0:
188,164,8990,2,0,P|211:173|235:175,3,35,10|2|2|2,2:0|2:0|2:0|2:0,2:0:0:0:
248,150,9386,2,0,P|259:171|276:188,3,35,2|2|2|2,2:0|2:0|2:0|2:0,2:0:0:0:
295,189,9782,2,0,P|294:213|300:236,3,35,10|2|2|2,2:0|2:0|2:0|2:0,2:0:0:0:
288,250,10169,6,0,P|339:250|380:274,1,70,2|2,2:0|2:0,2:0:0:0:
446,242,10557,1,10,2:0:0:0:
512,170,10745,1,2,2:0:0:0:
453,92,10934,2,0,P|454:70|460:55,3,35,2|2|2|2,2:0|2:0|2:0|2:0,2:0:0:0:
457,41,11311,2,0,P|409:62|369:56,1,70,10|2,2:0|2:0,2:0:0:0:
303,90,11680,6,0,P|286:50|255:28,1,70,10|10,3:2|3:2,2:0:0:0:
132,72,12050,2,0,P|112:110|115:148,1,70,10|10,3:2|3:2,2:0:0:0:
215,188,12402,5,8,3:2:0:0:
224,180,12490,1,0,3:2:0:0:
231,172,12578,1,0,3:2:0:0:
237,165,12666,1,0,3:2:0:0:
220,144,12754,2,0,P|215:119|210:102,3,35,0|0|0|0,3:2|3:2|3:2|3:2,2:0:0:0:
178,82,13109,5,6,1:2:0:0:
170,68,13194,1,2,2:0:0:0:
153,63,13280,2,0,P|126:60|98:50,1,35,2|2,2:0|2:0,2:0:0:0:
73,80,13451,2,0,P|67:63|58:47,2,35,10|2|2,2:0|2:0|2:0,2:0:0:0:
128,171,13794,2,0,P|93:198|76:233,1,70,2|2,2:0|1:2,2:0:0:0:
25,338,14137,1,10,2:0:0:0:
118,339,14309,5,2,2:0:0:0:
126,328,14394,1,2,2:0:0:0:
131,313,14480,2,0,P|152:301|168:284,2,35,2|2|2,1:2|2:0|2:0,2:0:0:0:
231,345,14823,2,0,P|246:360|260:382,2,35,10|2|2,2:0|2:0|2:0,2:0:0:0:
297,276,15166,1,2,2:0:0:0:
306,271,15251,1,2,2:0:0:0:
318,273,15337,2,0,P|326:299|340:327,1,35,2|2,1:2|2:0,2:0:0:0:
332,333,15509,2,2,P|379:311|431:303,1,105,10|0,2:0|2:0,2:1:0:0:
443,267,15851,6,0,P|459:267|483:261,2,35,2|2|2,1:2|2:0|2:0,2:0:0:0:
350,191,16194,2,0,P|345:144|328:108,1,70,10|2,2:0|2:0,2:0:0:0:
442,52,16537,2,0,P|440:34|450:12,2,35,2|2|2,2:0|2:0|1:2,2:0:0:0:
495,164,16880,2,0,P|467:202|434:225,1,70,10|2,2:0|2:0,3:0:0:0:
380,279,17223,5,2,1:2:0:0:
368,285,17309,1,2,2:0:0:0:
355,284,17394,2,0,P|336:275|314:259,1,35,2|2,2:0|2:0,2:0:0:0:
279,272,17566,2,0,P|284:295|271:333,3,35,10|2|2|2,2:0|2:0|2:0|2:0,2:0:0:0:
256,270,17909,2,0,P|216:243|184:239,1,70,2|2,2:0|1:2,2:0:0:0:
128,158,18251,5,10,2:0:0:0:
117,147,18337,1,2,2:0:0:0:
110,132,18423,1,2,2:0:0:0:
107,116,18509,1,2,2:0:0:0:
109,99,18594,2,0,P|130:91|158:89,2,35,2|2|2,1:2|2:0|2:0,2:0:0:0:
7,140,18937,2,0,P|6:120|-3:91,2,35,10|2|2,2:0|2:0|2:0,2:0:0:0:
62,213,19280,1,2,2:0:0:0:
53,318,19451,2,0,P|39:327|-4:341,2,35,2|2|10,1:2|2:0|2:0,2:0:0:0:
127,362,19794,5,2,2:0:0:0:
146,357,19880,1,2,2:0:0:0:
158,339,19966,2,0,P|163:310|161:280,2,35,2|2|2,1:2|2:0|2:0,2:0:0:0:
246,289,20309,2,0,P|260:281|296:275,2,35,10|2|2,2:0|2:0|2:0,2:0:0:0:
188,200,20651,1,2,2:0:0:0:
185,184,20737,1,2,2:0:0:0:
172,173,20823,2,0,P|154:156|143:136,1,35,2|2,1:2|2:0,2:0:0:0:
166,110,20994,2,2,B|218:101|251:79|251:79|265:81,1,105,10|0,2:0|2:0,2:1:0:0:
287,67,21337,6,0,P|291:38|291:30,2,35,2|2|2,1:2|2:0|2:0,2:0:0:0:
391,85,21680,2,0,P|364:134|356:176,1,70,10|2,1:2|2:0,2:0:0:0:
406,251,22023,1,2,1:2:0:0:
414,257,22109,1,2,2:0:0:0:
428,257,22194,1,2,2:0:0:0:
506,193,22366,2,0,P|458:169|429:172,1,70,10|2,1:2|2:0,2:0:0:0:
334,182,22709,5,10,1:2:0:0:
357,266,22880,1,10,1:2:0:0:
273,301,23051,1,10,1:2:0:0:
213,243,23223,1,10,1:2:0:0:
138,284,23394,2,0,P|141:306|133:342,6,35,10|0|0|0|2|0|0,1:2|1:2|1:2|1:2|1:2|1:2|1:2,2:0:0:0:
56,354,24080,6,0,B|53:331|53:331|137:273|116:151,2,210,0|0|0,1:2|3:2|2:0,2:0:0:0:
133,377,25280,1,0,3:2:0:0:
188,307,25451,6,2,P|159:267|125:252,1,70,0|0,1:2|2:0,2:0:0:0:
50,269,25794,1,8,2:0:0:0:
139,234,25966,2,0,B|207:240|207:189|296:191,1,140,0|0,1:2|3:2,2:0:0:0:
283,179,26394,1,0,3:0:0:0:
299,170,26480,2,0,P|350:183|353:221,1,70,8|0,2:0|2:0,2:0:0:0:
460,282,26823,6,0,B|472:351|415:377|363:339|383:295,1,140,0|8,1:2|2:0,2:0:0:0:
375,212,27337,1,0,3:2:0:0:
283,264,27509,2,2,B|271:193|199:169|191:133,1,140,0|8,3:2|2:0,2:0:0:0:
120,87,28023,2,0,B|101:50|115:15|133:28,2,70,2|2|2,2:0|1:2|2:0,2:0:0:0:
56,144,28537,1,10,2:0:0:0:
172,166,28709,2,0,B|267:86|311:70|314:78,1,140,2|0,3:2|1:2,2:0:0:0:
303,71,29137,1,0,3:2:0:0:
317,56,29223,2,0,L|363:56,2,35,8|0|0,3:2|3:2|3:2,2:0:0:0:
233,22,29566,1,0,1:2:0:0:
359,164,29909,6,0,B|422:190|433:161|462:180,2,105,8|0|0,2:0|1:2|1:2,2:0:0:0:
342,174,30509,1,0,3:2:0:0:
323,187,30594,2,0,P|295:156|248:149,1,70,8|0,3:2|2:0,2:0:0:0:
217,248,30937,2,2,B|273:303|325:262|314:198|313:198,1,140,0|8,1:2|2:0,2:0:0:0:
263,117,31451,1,0,3:2:0:0:
247,110,31537,1,0,1:2:0:0:
227,119,31623,2,0,B|200:120|185:142|145:136,1,70,0|0,3:0|1:2,2:0:0:0:
27,187,31966,2,0,P|112:231|112:256,1,105,8|0,2:0|2:0,2:0:0:0:
83,240,32309,6,2,P|50:185|147:51,1,245,0|0,1:2|1:2,2:0:0:0:
156,66,32994,2,0,B|204:84|226:47|226:47,1,70,0|0,3:0|1:2,2:0:0:0:
370,20,33337,2,2,P|326:86|348:118,1,105,8|0,2:0|2:0,2:0:0:0:
368,112,33680,6,0,P|317:124|270:147,3,105,8|0|8|0,2:0|1:2|2:0|1:2,2:0:0:0:
136,208,34709,2,0,P|186:219|229:249,1,105,8|0,2:0|2:0,2:0:0:0:
256,251,35051,6,0,P|267:283|260:317,1,70,4|0,1:2|2:0,2:0:0:0:
174,353,35394,2,0,B|148:317|89:360|57:364,2,105,8|0|0,2:0|1:2|1:2,2:0:0:0:
176,368,35994,1,0,3:2:0:0:
164,383,36080,2,0,P|143:347|140:311,1,70,8|0,3:2|1:2,2:0:0:0:
214,239,36423,2,2,B|222:227|253:210|268:206|289:214,1,70,0|0,1:2|2:0,2:0:0:0:
273,111,36766,1,8,2:0:0:0:
169,96,36937,2,0,B|157:65|114:18|29:32,1,140,0|0,3:2|1:2,2:0:0:0:
43,37,37366,1,0,3:2:0:0:
29,55,37451,2,0,P|63:86|62:112,1,70,8|0,3:2|2:0,2:0:0:0:
11,185,37794,1,0,1:2:0:0:
162,296,38137,6,0,B|154:342|118:341|108:388,2,105,8|0|0,2:0|1:2|1:2,2:0:0:0:
152,282,38737,1,0,3:2:0:0:
140,262,38823,2,0,P|139:209|160:193,1,70,10|2,2:0|2:0,2:0:0:0:
221,127,39166,2,0,P|227:93|210:62,1,70,2|2,1:2|2:0,2:0:0:0:
309,34,39509,1,10,2:0:0:0:
422,61,39680,2,0,B|380:142|434:152|407:225,1,140,2|0,3:2|2:0,2:0:0:0:
399,206,40109,1,0,3:2:0:0:
385,215,40194,2,0,P|381:253|409:272,1,70,8|0,3:2|3:2,2:0:0:0:
504,264,40537,1,0,1:2:0:0:
317,376,40880,6,0,B|271:368|272:332|225:322,2,105,8|0|0,2:0|1:2|1:2,2:0:0:0:
339,370,41480,1,0,3:2:0:0:
360,354,41566,2,0,P|366:324|339:294,1,70,8|0,2:0|2:0,2:0:0:0:
258,214,41909,2,2,P|248:163|263:106,1,105,0|0,1:2|2:0,2:0:0:0:
249,102,42251,1,8,2:0:0:0:
343,148,42423,2,0,P|372:114|419:89,1,70,0|0,3:2|2:0,2:0:0:0:
499,62,42766,1,0,3:2:0:0:
505,48,42851,1,0,3:2:0:0:
500,42,42937,1,8,2:0:0:0:
423,199,43280,6,0,P|432:246|461:287,1,70,0|0,1:2|3:2,2:0:0:0:
390,365,43623,2,0,P|343:374|302:403,1,70,0|0,3:2|3:2,2:0:0:0:
227,317,43966,1,0,3:2:0:0:
233,305,44051,1,0,3:2:0:0:
234,289,44137,1,0,3:2:0:0:
232,276,44223,1,0,3:2:0:0:
223,260,44309,2,0,P|204:250|177:250,3,35,8|0|0|0,3:1|3:2|3:2|3:2,2:0:0:0:
169,232,44651,6,0,L|118:247,3,35,2|0|0|0,2:3|2:0|2:0|2:0,2:0:0:0:
173,204,44994,2,0,L|144:126,1,70,2|0,3:2|2:0,3:2:0:0:
38,89,45337,2,0,L|-2:99,3,35,10|2|2|2,3:2|1:2|3:2|3:2,2:0:0:0:
35,64,45680,2,0,L|113:35,1,70,2|0,3:0|2:0,3:2:0:0:
236,27,46023,5,6,1:2:0:0:
204,115,46194,1,2,2:0:0:0:
320,80,46366,2,0,P|340:40|400:8,2,105,10|0|0,2:0|1:2|1:2,2:0:0:0:
381,185,47051,1,8,2:0:0:0:
459,129,47223,2,0,P|485:140|494:158,1,35,2|2,2:0|2:0,2:0:0:0:
511,156,47394,6,0,L|501:203,3,35,2|2|2|2,1:2|2:0|2:0|2:0,2:0:0:0:
475,212,47737,2,0,L|485:259,3,35,10|2|2|2,2:0|2:0|2:0|1:2,2:0:0:0:
474,285,48080,2,0,P|427:259|384:261,1,70,2|2,2:0|1:2,2:0:0:0:
336,316,48423,1,10,2:0:0:0:
293,384,48594,1,2,2:0:0:0:
202,351,48766,6,0,P|184:350|164:340,2,35,2|2|2,1:2|2:0|2:0,2:0:0:0:
248,236,49109,2,0,P|249:218|259:198,2,35,10|2|2,2:0|2:0|2:0,2:0:0:0:
141,253,49451,2,0,P|101:254|87:251,4,35,2|2|2|2|10,2:0|2:0|1:2|2:0|2:0,2:0:0:0:
208,178,49966,5,2,2:0:0:0:
217,186,50051,1,2,2:0:0:0:
232,192,50137,2,0,P|250:191|270:181,2,35,2|2|2,1:2|2:0|2:0,2:0:0:0:
223,60,50480,2,0,P|222:42|212:22,2,35,10|2|2,2:0|2:0|2:0,2:0:0:0:
341,84,50823,2,0,P|381:85|395:82,4,35,2|2|2|2|10,2:0|2:0|1:2|2:0|2:0,2:0:0:0:
266,162,51337,1,2,2:0:0:0:
194,97,51509,5,2,1:2:0:0:
148,178,51680,1,2,2:0:0:0:
40,154,51851,2,0,B|32:101|-2:113|-1:52,2,105,10|0|0,2:0|1:2|1:2,2:0:0:0:
0,252,52537,1,8,2:0:0:0:
72,350,52709,6,0,P|98:331|111:331,1,35,2|2,2:0|2:0,2:0:0:0:
116,320,52880,2,0,P|155:324|169:331,3,35,2|2|2|2,1:2|2:0|2:0|2:0,2:0:0:0:
179,302,53223,2,0,P|201:313|229:330,3,35,10|2|2|2,2:0|2:0|2:0|1:2,2:0:0:0:
209,344,53566,5,2,2:0:0:0:
306,365,53737,1,2,1:2:0:0:
348,272,53909,2,0,P|340:223|321:188,1,70,10|2,2:0|2:0,2:0:0:0:
251,129,54251,6,0,L|234:80,2,35,2|2|2,1:2|2:0|2:0,2:0:0:0:
179,215,54594,2,0,L|117:193,2,35,10|2|2,2:0|2:0|2:0,2:0:0:0:
282,258,54937,2,0,P|305:251|344:231,4,35,2|2|2|2|10,2:0|2:0|1:2|2:0|2:0,2:0:0:0:
388,194,55451,5,2,2:0:0:0:
403,186,55537,1,2,2:0:0:0:
410,169,55623,1,10,2:0:0:0:
391,91,55794,1,10,2:0:0:0:
313,78,55966,1,10,2:0:0:0:
258,130,56137,1,10,2:0:0:0:
171,131,56309,5,8,2:0:0:0:
163,130,56394,1,0,3:2:0:0:
155,127,56480,1,0,3:2:0:0:
146,125,56566,1,0,3:2:0:0:
138,121,56651,2,0,P|194:98|258:104,1,105,0|0,3:2|3:2,2:0:0:0:
277,85,56994,6,0,P|292:127|301:172,1,70,6|2,1:2|2:0,2:0:0:0:
440,160,57337,2,0,P|447:207|446:247,1,70,10|2,1:2|2:0,2:0:0:0:
372,317,57680,2,0,P|364:343|363:369,4,35,2|2|2|2|10,1:2|2:0|2:0|2:0|1:2,2:0:0:0:
439,239,58194,1,2,2:0:0:0:
307,229,58366,6,0,P|284:198|279:151,1,70,2|2,1:2|2:0,2:0:0:0:
247,75,58709,2,0,P|256:58|268:47,2,35,10|2|2,1:2|2:0|2:0,2:0:0:0:
171,147,59051,2,0,P|183:157|194:179,2,35,2|2|2,1:2|2:0|2:0,2:0:0:0:
67,102,59394,1,10,1:2:0:0:
56,100,59480,1,2,2:0:0:0:
48,94,59566,1,2,2:0:0:0:
41,86,59651,1,2,2:0:0:0:
37,75,59737,6,0,P|72:62|126:57,1,70,2|2,1:2|2:0,2:0:0:0:
166,202,60080,2,0,P|214:192|256:186,1,70,10|2,1:2|2:0,2:0:0:0:
218,73,60423,2,0,P|241:44|246:17,4,35,2|2|2|2|10,1:2|2:0|2:0|2:0|1:2,2:0:0:0:
158,155,60937,1,2,2:0:0:0:
47,98,61109,6,0,B|42:57|9:22|9:22|15:-19,1,105,2|2,1:2|2:0,2:0:0:0:
60,8,61451,2,0,B|74:14|74:14|95:41|127:58,1,70,10|2,1:2|2:0,2:0:0:0:
116,149,61794,5,2,1:2:0:0:
166,214,61966,1,2,2:0:0:0:
244,231,62137,1,10,1:2:0:0:
315,198,62309,1,2,2:0:0:0:
398,236,62480,6,0,P|422:268|443:319,1,70,2|2,1:2|2:0,2:0:0:0:
308,384,62823,2,0,P|292:352|270:325,1,70,10|2,1:2|2:0,2:0:0:0:
238,235,63166,2,0,P|207:229|179:227,4,35,2|2|2|2|10,1:2|2:0|2:0|2:0|1:2,2:0:0:0:
319,246,63680,1,2,2:0:0:0:
448,308,63851,6,0,P|483:276|490:239,1,70,2|2,1:2|2:0,2:0:0:0:
418,176,64194,2,0,P|393:179|370:199,2,35,10|2|2,1:2|2:0|2:0,2:0:0:0:
338,255,64537,2,0,P|358:281|358:314,2,35,2|2|2,1:2|2:0|2:0,2:0:0:0:
249,242,64880,1,10,1:2:0:0:
236,245,64966,1,2,2:0:0:0:
227,251,65051,1,2,2:0:0:0:
223,259,65137,1,2,2:0:0:0:
224,274,65223,6,0,P|267:271|297:262,1,70,2|2,1:2|2:0,2:0:0:0:
250,89,65566,2,0,P|215:98|184:113,1,70,10|2,1:2|2:0,2:0:0:0:
145,206,65909,2,0,P|114:216|94:231,4,35,2|2|2|2|10,1:2|2:0|2:0|2:0|1:2,2:0:0:0:
314,40,66594,5,10,1:2:0:0:
239,27,66766,1,10,1:2:0:0:
159,30,66937,1,10,1:2:0:0:
83,46,67109,1,10,1:2:0:0:
11,79,67280,5,8,1:2:0:0:
9,83,67366,1,0,1:2:0:0:
11,88,67451,1,0,1:2:0:0:
13,91,67537,1,0,1:2:0:0:
17,96,67623,2,0,P|74:94|122:76,1,105,0|0,1:2|1:2,2:0:0:0:
170,71,67966,5,6,1:2:0:0:
280,49,68137,1,6,1:2:0:0:
292,53,68223,1,2,2:0:0:0:
307,59,68309,2,0,P|348:43|422:31,1,105,10|2,2:0|1:2,2:0:0:0:
431,17,68651,2,0,L|482:23,4,35,0|2|2|2|10,2:0|2:0|1:2|2:0|1:2,2:0:0:0:
371,126,69166,1,2,2:3:0:0:
247,86,69337,6,0,P|256:44|278:12,2,70,6|6|10,1:2|1:2|2:0,2:0:0:0:
281,306,69937,5,2,1:2:0:0:
281,306,70194,6,0,P|273:278|285:250,1,35,2|2,1:2|2:0,2:0:0:0:
240,267,70366,2,0,P|241:205|264:152,1,105,10|2,2:0|2:0,2:0:0:0:
232,164,70709,5,6,1:2:0:0:
142,249,70880,1,6,1:2:0:0:
130,253,70966,1,2,2:0:0:0:
119,255,71051,2,0,P|61:243|14:224,1,105,10|2,2:0|1:2,2:0:0:0:
0,189,71394,2,0,P|21:175|50:167,4,35,0|2|2|2|14,2:0|2:0|1:2|2:0|2:0,2:0:0:0:
262,240,72080,6,0,P|277:231|292:223,2,35,6|2|2,1:2|2:0|1:2,2:0:0:0:
209,330,72423,2,0,P|193:321|178:313,2,35,10|2|2,2:0|2:0|2:0,2:0:0:0:
235,333,72680,1,2,1:2:0:0:
252,332,72766,1,6,1:2:0:0:
334,303,72937,1,6,1:2:0:0:
394,242,73109,1,6,1:2:0:0:
419,320,73280,1,6,1:2:0:0:
494,349,73451,6,0,P|508:369|519:395,2,35,6|0|6,1:2|2:0|1:2,2:0:0:0:
480,235,73794,2,0,P|430:206|391:192,1,70,10|0,2:0|2:0,2:0:0:0:
391,214,74051,5,2,1:2:0:0:
230,116,74309,6,0,P|209:109|178:104,1,35,2|2,1:2|2:0,2:0:0:0:
170,101,74480,2,0,P|176:73|177:41,1,35,14|0,2:0|2:0,2:0:0:0:
21,174,74823,6,0,P|3:203|0:238,1,70,6|6,1:2|1:2,2:0:0:0:
94,248,75166,1,10,2:0:0:0:
8,380,75423,5,2,1:2:0:0:
8,380,75680,6,0,P|16:350|22:314,1,35,2|2,1:2|2:0,2:0:0:0:
43,320,75851,2,0,P|118:346|163:344,1,105,10|2,2:0|2:0,2:0:0:0:
156,315,76194,5,6,1:2:0:0:
263,256,76366,1,6,1:2:0:0:
276,254,76451,1,2,2:0:0:0:
293,250,76537,2,0,P|338:244|411:242,1,105,10|2,2:0|1:2,2:0:0:0:
398,208,76880,2,0,L|449:215,4,35,0|2|2|2|14,2:0|2:0|1:2|2:0|2:0,2:0:0:0:
259,191,77394,1,2,2:3:0:0:
146,174,77566,5,14,2:0:0:0:
357,137,77823,1,0,1:2:0:0:
209,294,78080,1,12,2:0:0:0:
235,75,78337,1,0,1:2:0:0:
341,261,78594,2,0,P|342:286|339:315,1,35,14|0,1:2|2:0,2:0:0:0:
364,315,78766,2,0,P|363:340|361:366,1,35,14|0,2:0|2:0,2:0:0:0:
379,362,78937,6,0,B|359:374|359:374|255:341|127:348|127:348|106:307,2,280,6|2|2,2:0|2:0|2:0,2:0:0:0:
129,64,81680,6,0,P|255:8|390:33,3,280,2|2|2|2,2:0|2:0|2:0|2:0,2:0:0:0:
55,257,84423,6,0,B|25:286|-13:273|-13:273|69:186|56:62,2,280,2|2|2,2:0|2:0|2:0,2:0:0:0:
249,178,86480,1,2,2:0:0:0:
493,187,87166,6,0,B|532:227|533:282|467:309|467:309|420:276|426:225|464:206,3,280,2|2|2|2,2:0|2:0|2:0|2:0,2:0:0:0:
417,297,89909,5,6,1:2:0:0:
394,303,89994,1,2,2:0:0:0:
371,294,90080,2,0,L|341:263,1,35,2|2,2:0|2:0,2:0:0:0:
365,247,90251,2,0,P|355:221|352:202,2,35,10|2|2,2:0|2:0|2:0,2:0:0:0:
385,140,90594,2,0,P|362:97|320:82,1,70,2|2,2:0|1:2,2:0:0:0:
247,73,90937,1,10,2:0:0:0:
170,141,91109,5,2,2:0:0:0:
163,129,91194,1,2,2:0:0:0:
153,124,91280,2,0,P|152:103|145:85,2,35,2|2|2,1:2|2:0|2:0,2:0:0:0:
257,34,91623,2,0,B|256:15|279:5|279:5|294:29|282:49,1,70,10|2,2:0|2:0,2:0:0:0:
264,151,91966,5,2,2:0:0:0:
264,151,92051,1,2,2:0:0:0:
264,151,92137,1,2,1:2:0:0:
241,283,92309,2,2,P|183:307|117:321,1,105,10|0,2:0|2:0,2:1:0:0:
111,331,92651,6,0,P|93:342|61:341,2,35,2|2|2,1:2|2:0|2:0,2:0:0:0:
125,240,92994,2,0,P|106:206|73:197,1,70,10|2,2:0|2:0,2:0:0:0:
3,248,93337,6,0,P|-2:264|0:281,2,35,2|2|2,2:0|2:0|1:2,2:0:0:0:
62,341,93680,2,0,P|112:336|132:302,1,70,10|2,2:0|2:0,2:0:0:0:
169,254,94023,5,2,1:2:0:0:
176,239,94109,1,2,2:0:0:0:
172,220,94194,1,2,2:0:0:0:
197,142,94366,2,0,P|219:131|245:147,2,35,10|2|2,2:0|2:0|2:0,2:0:0:0:
276,205,94709,6,0,P|275:251|289:298,1,70,2|2,2:0|1:2,2:0:0:0:
348,330,95051,1,10,2:0:0:0:
369,338,95137,1,2,2:0:0:0:
389,341,95223,1,2,2:0:0:0:
408,337,95309,1,2,2:0:0:0:
423,325,95394,2,0,P|421:299|416:273,2,35,2|2|2,1:2|2:0|2:0,2:0:0:0:
505,262,95737,2,0,P|503:241|506:213,2,35,10|2|2,2:0|2:0|2:0,2:0:0:0:
406,302,96080,1,2,2:0:0:0:
309,235,96251,2,0,P|305:204|305:176,2,35,2|2|10,1:2|2:0|2:0,2:0:0:0:
352,127,96594,5,2,2:0:0:0:
367,116,96680,1,2,2:0:0:0:
372,95,96766,2,0,P|366:67|353:39,2,35,2|2|2,1:2|2:0|2:0,2:0:0:0:
267,87,97109,2,0,P|241:87|219:90,2,35,10|2|2,2:0|2:0|2:0,2:0:0:0:
164,166,97451,1,2,2:0:0:0:
173,176,97537,1,2,2:0:0:0:
186,184,97623,2,0,P|211:171|234:152,1,35,2|2,1:2|2:0,2:0:0:0:
207,131,97794,2,2,P|152:104|79:90,1,105,10|0,2:0|2:0,2:1:0:0:
71,103,98137,6,0,P|57:114|43:124,2,35,2|2|2,1:2|2:0|2:0,2:0:0:0:
161,130,98480,2,0,P|172:178|188:217,1,70,10|2,1:2|2:0,2:0:0:0:
85,283,98823,1,2,1:2:0:0:
71,276,98908,1,2,2:0:0:0:
59,271,98994,1,2,2:0:0:0:
98,192,99166,2,0,P|137:174|191:169,1,70,10|2,1:2|2:0,2:0:0:0:
232,226,99509,5,8,1:2:0:0:
302,264,99680,1,8,1:2:0:0:
356,200,99851,1,8,1:2:0:0:
445,186,100023,1,8,1:2:0:0:
476,272,100194,2,0,P|479:294|471:330,7,35,8|0|0|0|0|0|0|0,1:2|1:2|1:2|1:2|1:2|1:2|1:2|2:0,2:0:0:0:
508,252,100880,6,0,B|484:248|484:248|439:173|431:78|431:78|419:68|414:81|414:81|425:177|401:257|401:257|372:277,1,420,0|0,1:2|2:0,2:0:0:0:
344,338,102080,1,0,3:2:0:0:
276,279,102251,6,2,P|278:215|300:191,1,70,0|0,1:2|2:0,2:0:0:0:
356,193,102594,1,8,2:0:0:0:
311,294,102766,2,0,B|294:305|294:305|221:285|150:301,1,140,0|0,3:0|1:2,2:0:0:0:
80,312,103280,1,8,2:0:0:0:
80,312,103623,6,0,B|93:263|154:271|154:271|142:306|160:323,1,140,0|8,1:2|2:0,2:0:0:0:
114,384,104137,1,0,3:2:0:0:
70,295,104309,2,0,B|67:197|137:215|126:158,1,140,0|10,3:2|2:0,2:0:0:0:
42,93,104823,6,0,B|54:69|39:46|5:54,2,70,2|2|2,2:0|1:2|2:0,2:0:0:0:
122,155,105337,1,10,2:0:0:0:
236,131,105509,2,0,B|290:102|299:58|232:21,1,140,2|0,2:0|2:0,2:0:0:0:
135,43,106023,1,8,2:0:0:0:
123,57,106109,1,0,3:2:0:0:
122,70,106194,1,0,3:2:0:0:
246,113,106366,1,0,1:2:0:0:
246,113,106709,6,0,B|283:83|320:79|320:79|330:59,2,105,8|0|0,2:0|1:2|1:2,2:0:0:0:
275,8,107394,1,8,2:0:0:0:
266,197,107737,6,2,B|258:221|287:234|295:223|340:246|351:296|326:322,1,140,0|8,1:2|2:0,2:0:0:0:
226,238,108251,2,0,P|209:254|196:278,1,35,0|0,3:2|1:2,2:0:0:0:
226,282,108423,2,0,B|225:265|192:308|240:380|288:332,1,105,0|0,2:0|3:2,2:0:0:0:
288,328,108766,1,8,3:2:0:0:
298,323,108851,1,0,3:0:0:0:
310,327,108937,1,0,3:0:0:0:
454,365,109109,6,2,B|460:347|460:347|412:278|337:254|249:295,1,245,0|0,1:2|1:0,2:0:0:0:
227,274,109794,2,0,P|181:297|165:344,1,70,2|0,2:0|1:0,2:0:0:0:
21,273,110137,2,0,B|7:278|13:295|13:295|43:309|72:353,1,105,8|0,2:0|2:0,2:0:0:0:
87,320,110480,5,8,2:0:0:0:
46,192,110737,5,0,1:2:0:0:
115,77,110994,5,8,2:0:0:0:
247,48,111251,5,0,1:2:0:0:
362,111,111509,6,0,P|349:173|352:218,1,105,8|0,2:0|2:0,2:0:0:0:
350,238,111851,6,0,P|403:224|392:169,1,105,4|0,1:2|2:0,2:0:0:0:
385,146,112194,1,8,2:0:0:0:
211,213,112451,2,0,B|184:202|180:175|210:140,1,70,0|0,1:2|2:0,2:0:0:0:
193,124,112709,6,0,P|231:102|259:65,2,70,0|8|0,1:2|2:0|1:2,2:0:0:0:
96,169,113223,2,2,B|58:163|-3:108|33:56,1,140,0|8,1:2|2:0,2:0:0:0:
135,40,113737,2,0,P|168:69|163:149,1,105,0|0,3:2|2:0,2:0:0:0:
183,147,114080,1,0,1:2:0:0:
76,220,114251,1,8,2:0:0:0:
76,220,114594,6,0,B|93:254|91:332|91:332|119:357,1,140,0|8,1:2|2:0,2:0:0:0:
221,281,115109,2,0,B|233:242|209:212|160:202,2,105,0|0|10,3:2|2:0|2:0,2:0:0:0:
220,372,115794,1,2,2:0:0:0:
308,284,115966,6,0,P|311:250|333:217,2,70,2|2|10,1:2|2:0|2:0,2:0:0:0:
432,353,116480,2,2,B|459:354|489:280|439:212,1,140,2|0,2:0|1:2,2:0:0:0:
379,185,116994,1,8,2:0:0:0:
365,196,117080,1,0,3:2:0:0:
367,216,117166,1,0,3:2:0:0:
463,214,117337,1,0,1:2:0:0:
463,214,117680,6,0,B|426:184|389:180|389:180|379:160,2,105,8|0|0,2:0|1:2|1:2,2:0:0:0:
451,102,118366,2,0,P|445:62|466:26,1,70,8|0,2:0|2:0,2:0:0:0:
354,61,118709,2,2,B|301:119|274:123|227:118,1,140,0|8,1:2|2:0,2:0:0:0:
159,0,119223,2,0,P|203:0|253:46,1,105,0|0,3:2|2:0,2:0:0:0:
242,39,119566,1,0,1:2:0:0:
155,138,119737,1,8,2:0:0:0:
155,138,120080,6,0,B|141:132|141:132|111:142|80:146,1,70,8|8,2:0|2:0,2:0:0:0:
6,200,120423,2,0,B|38:209|58:228|58:228|82:226,1,70,8|8,2:0|2:0,2:0:0:0:
98,221,120680,1,0,3:2:0:0:
118,238,120766,2,0,P|133:253|146:275,3,35,8|0|0|0,2:0|3:2|3:2|3:2,2:0:0:0:
115,303,121109,2,0,P|126:324|136:359,2,35,8|0|0,3:1|3:2|3:2,2:0:0:0:
198,384,121451,6,0,B|235:322|244:266|244:266|255:251,1,140,2|0,2:3|2:0,2:0:0:0:
206,152,121966,1,2,2:3:0:0:
190,143,122051,1,0,2:0:0:0:
165,139,122137,2,0,P|119:140|92:157,1,70,10|2,3:2|3:2,2:0:0:0:
120,275,122480,1,2,1:3:0:0:
381,164,122823,5,6,1:2:0:0:
449,246,122994,1,2,2:0:0:0:
339,255,123166,2,0,B|316:261|316:261|279:244|222:237,2,105,10|0|0,2:0|1:2|1:2,2:0:0:0:
382,143,123851,2,0,P|347:120|309:101,1,70,8|2,2:0|2:0,2:0:0:0:
308,81,124109,5,2,2:0:0:0:
297,92,124194,2,0,P|274:90|234:87,3,35,2|2|2|2,1:2|2:0|2:0|2:0,2:0:0:0:
231,114,124537,2,0,P|206:124|186:136,3,35,10|2|2|2,2:0|2:0|2:0|1:2,2:0:0:0:
275,137,124880,1,2,2:0:0:0:
289,147,124966,1,2,2:0:0:0:
291,162,125051,1,2,1:2:0:0:
228,247,125223,2,0,P|232:278|212:330,1,70,10|2,2:0|2:0,2:0:0:0:
93,353,125566,6,0,B|59:324|17:317|17:317|-8:302,1,105,2|2,1:2|2:0,2:0:0:0:
0,280,125909,2,0,B|34:282|60:269|60:269|82:285,1,70,10|2,2:0|2:0,2:0:0:0:
85,269,126166,1,2,1:2:0:0:
94,259,126251,1,2,2:0:0:0:
46,177,126423,1,2,1:2:0:0:
0,251,126594,1,10,2:0:0:0:
199,72,126937,6,0,B|188:79|188:79|163:123|132:165,1,105,2|2,1:2|2:0,2:0:0:0:
113,146,127280,2,0,P|63:139|45:112,1,70,10|2,2:0|2:0,2:0:0:0:
62,119,127537,1,2,1:2:0:0:
279,113,127794,1,2,1:2:0:0:
279,113,127966,2,0,P|222:117|186:167,1,105,10|0,2:0|2:0,2:0:0:0:
222,178,128309,6,0,B|229:169|229:169|291:177|348:148|348:148|376:165,2,140,2|10|2,1:2|2:0|2:0,2:0:0:0:
284,254,129166,1,0,1:2:0:0:
373,234,129337,2,0,P|369:204|343:165,1,70,8|2,2:0|2:0,2:0:0:0:
429,133,129680,6,0,P|439:108|440:81,3,35,2|2|2|2,1:2|2:0|2:0|2:0,2:0:0:0:
404,80,130023,2,0,P|406:50|405:20,2,35,10|2|2,2:0|2:0|2:0,2:0:0:0:
484,196,130366,2,0,P|501:216|518:229,4,35,2|2|2|2|10,2:0|2:0|1:2|2:0|2:0,2:0:0:0:
486,111,130880,1,2,2:0:0:0:
392,165,131051,6,0,B|357:178|337:228|337:228|356:268,1,105,2|2,1:2|2:0,2:0:0:0:
390,256,131394,2,0,P|376:296|377:342,1,70,10|2,2:0|2:0,2:0:0:0:
386,335,131651,1,2,1:2:0:0:
408,338,131737,1,2,2:0:0:0:
481,247,131909,1,2,1:2:0:0:
371,214,132080,1,10,2:0:0:0:
180,348,132423,5,10,2:0:0:0:
105,351,132594,1,8,2:0:0:0:
43,308,132766,1,8,2:0:0:0:
45,237,132937,1,8,2:0:0:0:
130,207,133109,5,8,2:0:0:0:
134,212,133194,1,0,3:2:0:0:
136,221,133280,1,0,3:2:0:0:
133,229,133366,1,0,3:2:0:0:
129,235,133451,2,0,P|68:234|21:184,1,105,0|0,3:2|3:2,2:0:0:0:
45,205,133794,5,8,2:0:0:0:
107,73,134051,5,0,1:2:0:0:
249,88,134309,5,8,2:0:0:0:
279,231,134566,5,0,1:2:0:0:
154,293,134823,5,10,2:0:0:0:
157,286,134909,1,2,2:0:0:0:
157,274,134994,1,2,1:2:0:0:
155,265,135080,1,2,2:0:0:0:
146,257,135166,2,0,P|97:275|74:290,1,70,6|2,1:2|2:0,2:0:0:0:
191,384,135509,2,0,P|222:368|255:358,1,70,10|2,1:2|2:0,2:0:0:0:
269,255,135851,2,0,P|242:264|215:275,4,35,2|2|2|2|10,1:2|2:0|2:0|2:0|1:2,2:0:0:0:
356,246,136366,1,2,2:0:0:0:
450,313,136537,6,0,P|443:354|426:380,1,70,2|2,1:2|2:0,2:0:0:0:
327,355,136880,2,0,P|302:373|272:394,2,35,10|2|2,1:2|2:0|2:0,2:0:0:0:
393,247,137223,2,0,P|366:241|336:231,2,35,2|2|2,1:2|2:0|2:0,2:0:0:0:
439,344,137566,1,10,1:2:0:0:
453,340,137651,1,2,2:0:0:0:
464,330,137737,1,2,2:0:0:0:
472,317,137823,1,2,2:0:0:0:
475,306,137909,6,0,P|484:251|487:208,1,70,2|2,1:2|2:0,2:0:0:0:
366,170,138251,2,0,P|356:204|344:237,1,70,10|2,1:2|2:0,2:0:0:0:
383,355,138594,2,0,P|387:338|388:320,4,35,2|2|2|2|10,1:2|2:0|2:0|2:0|1:2,2:0:0:0:
276,343,139109,1,2,2:0:0:0:
299,241,139280,6,0,P|292:225|289:208,2,35,2|2|2,1:2|2:0|2:0,2:0:0:0:
222,118,139623,2,0,P|243:97|276:86,2,35,10|2|2,1:2|2:0|2:0,2:0:0:0:
199,203,139966,1,2,1:2:0:0:
136,257,140137,1,2,2:0:0:0:
57,269,140309,1,10,1:2:0:0:
12,207,140480,1,2,2:0:0:0:
115,169,140651,6,0,P|130:120|134:78,1,70,2|2,1:2|2:0,2:0:0:0:
17,0,140994,2,0,P|11:33|0:67,1,70,10|2,1:2|2:0,2:0:0:0:
17,191,141337,2,0,P|27:162|33:134,4,35,2|2|2|2|10,1:2|2:0|2:0|2:0|1:2,2:0:0:0:
72,253,141851,1,2,2:0:0:0:
107,134,142023,6,0,P|146:115|188:112,1,70,2|2,1:2|2:0,2:0:0:0:
253,147,142366,2,0,P|273:154|300:169,2,35,10|2|2,1:2|2:0|2:0,2:0:0:0:
348,66,142709,2,0,P|361:64|395:51,2,35,2|2|2,1:2|2:0|2:0,2:0:0:0:
226,32,143051,1,10,1:2:0:0:
236,30,143137,1,2,2:0:0:0:
248,31,143223,1,2,2:0:0:0:
255,36,143309,1,2,2:0:0:0:
261,44,143394,6,0,P|292:70|336:92,1,70,2|2,1:2|2:0,2:0:0:0:
278,231,143737,2,0,P|247:213|221:190,1,70,10|2,1:2|2:0,2:0:0:0:
371,188,144080,2,0,P|392:183|420:170,4,35,2|2|2|2|10,1:2|2:0|2:0|2:0|1:2,2:0:0:0:
197,376,144766,5,8,1:2:0:0:
266,338,144937,1,8,1:2:0:0:
345,321,145109,1,8,1:2:0:0:
424,321,145280,1,8,1:2:0:0:
512,359,145451,5,8,1:2:0:0:
511,366,145537,1,0,1:2:0:0:
505,372,145623,1,0,1:2:0:0:
499,375,145709,1,0,1:2:0:0:
491,373,145794,2,0,P|428:353|367:325,1,105,0|0,1:2|1:2,2:0:0:0:
371,348,146137,5,6,1:2:0:0:
240,363,146309,1,6,1:2:0:0:
228,362,146394,1,2,2:0:0:0:
213,360,146480,2,0,P|166:340|100:303,1,105,10|2,2:0|1:2,2:0:0:0:
92,333,146823,2,0,P|101:348|108:365,4,35,0|2|2|2|10,2:0|2:0|1:2|2:0|2:0,2:0:0:0:
196,240,147337,1,2,2:3:0:0:
306,293,147509,6,0,P|315:338|321:383,2,70,6|6|10,1:2|1:2|2:0,2:0:0:0:
243,77,148109,5,2,1:2:0:0:
243,77,148366,6,0,P|245:106|249:140,1,35,2|2,1:2|2:0,2:0:0:0:
261,114,148537,2,0,P|261:156|281:225,1,105,10|2,2:0|2:0,2:0:0:0:
291,227,148880,5,6,1:2:0:0:
150,268,149051,1,6,1:2:0:0:
142,263,149137,1,2,2:0:0:0:
134,261,149223,2,0,P|89:267|26:293,1,105,10|2,2:0|1:2,2:0:0:0:
40,278,149566,2,0,L|-13:297,4,35,0|2|2|2|12,2:0|2:0|1:2|2:0|2:0,2:0:0:0:
369,192,150251,6,0,P|393:183|418:171,2,35,6|2|2,1:2|2:0|2:0,2:0:0:0:
298,289,150594,2,0,P|283:299|258:330,2,35,10|2|2,2:0|2:0|2:0,2:0:0:0:
315,272,150851,5,2,1:2:0:0:
321,257,150937,1,6,1:2:0:0:
289,183,151109,1,6,1:2:0:0:
219,147,151280,1,14,1:2:0:0:
196,73,151451,1,6,1:2:0:0:
251,18,151623,6,0,P|270:10|292:1,2,35,6|0|6,1:2|2:0|1:2,2:0:0:0:
366,116,151966,2,0,P|417:121|493:120,1,105,10|2,2:0|1:2,2:0:0:0:
489,152,152309,2,0,L|455:192,2,35,0|2|2,2:0|2:0|1:2,2:0:0:0:
406,22,152651,1,14,2:0:0:0:
263,101,152994,6,0,L|231:136,1,35,6|0,1:2|2:0,2:0:0:0:
222,141,153166,2,0,L|184:185,1,35,6|0,1:2|2:0,2:0:0:0:
171,139,153337,6,0,B|130:163|105:200|105:200|81:201,1,105,10|2,2:0|1:2,2:0:0:0:
269,60,153851,5,2,1:2:0:0:
269,60,154023,6,0,P|316:102|367:126,1,105,10|2,2:0|2:0,2:0:0:0:
374,119,154366,5,6,1:2:0:0:
270,192,154537,1,6,1:2:0:0:
262,205,154623,1,2,2:0:0:0:
256,220,154709,2,0,P|245:272|237:329,1,105,10|2,2:0|1:2,2:0:0:0:
284,340,155051,2,0,P|297:322|310:305,4,35,0|2|2|2|14,2:0|2:0|1:2|2:0|2:0,2:0:0:0:
366,174,155737,5,12,2:0:0:0:
174,265,155994,1,0,1:2:0:0:
277,75,156251,1,12,2:0:0:0:
303,294,156508,1,0,1:2:0:0:
155,137,156766,2,0,P|160:106|165:83,1,35,4|0,1:2|2:0,2:0:0:0:
155,93,156937,2,0,P|160:62|166:36,1,35,12|0,1:2|2:0,2:0:0:0:
144,35,157109,6,0,B|149:40|149:40|210:42|271:55|271:55|286:45,2,140,6|8|2,1:2|2:0|1:2,2:0:0:0:
73,91,157966,1,2,1:2:0:0:
147,180,158137,2,0,B|177:190|193:204|193:204|195:222,1,70,10|0,2:0|2:0,2:0:0:0:
208,238,158394,1,2,2:0:0:0:
217,256,158480,6,0,B|166:282|99:283|99:283|79:306,2,140,2|8|2,1:2|2:0|2:0,2:0:0:0:
282,174,159337,1,0,1:0:0:0:
379,281,159509,2,0,B|388:291|402:296|402:296|416:338,1,70,10|0,2:0|2:0,2:0:0:0:
408,350,159766,1,2,2:0:0:0:
394,352,159851,6,0,B|391:333|391:333|432:286|507:312,1,140,2|8,1:2|2:0,2:0:0:0:
478,209,160366,1,2,2:0:0:0:
353,181,160537,2,0,B|335:173|335:173|315:115|375:62,1,140,2|8,1:2|2:0,2:0:0:0:
456,34,161051,1,2,2:0:0:0:
434,163,161223,6,0,B|441:185|452:191|452:191|468:304,2,140,2|10|0,1:2|2:0|2:0,2:0:0:0:
339,129,162080,1,0,1:0:0:0:
224,77,162251,2,0,L|214:29,1,35,10|0,2:0|2:0,2:0:0:0:
200,49,162423,2,0,L|190:1,1,35,2|0,2:0|2:0,2:0:0:0:
176,38,162594,6,0,B|185:110|185:110|153:141|153:180,2,140,2|10|2,1:2|2:0|1:2,2:0:0:0:
76,36,163451,1,0,1:0:0:0:
132,165,163623,2,0,P|147:194|201:233,1,70,10|0,2:0|2:0,2:0:0:0:
193,218,163880,1,2,2:0:0:0:
223,218,163966,6,0,P|286:245|355:238,2,140,2|10|2,1:2|2:0|2:0,2:0:0:0:
118,215,164823,1,0,1:0:0:0:
2,291,164994,2,0,P|-8:341|24:357,1,70,10|0,2:0|2:0,2:0:0:0:
21,373,165251,1,2,2:0:0:0:
21,373,165337,6,0,P|72:353|97:346,1,70,2|0,1:2|2:0,2:0:0:0:
108,200,165680,2,0,B|114:213|114:213|153:220|182:234,1,70,10|0,1:2|2:0,2:0:0:0:
206,356,166023,2,0,P|257:371|297:362,1,70,2|0,1:2|2:0,2:0:0:0:
323,245,166366,2,0,L|409:228,1,70,10|0,1:2|2:0,2:0:0:0:
482,89,166709,6,0,P|475:71|473:52,3,35,8|0|8|0,1:2|2:0|1:2|2:0,2:0:0:0:
478,142,167051,2,0,P|484:159|494:186,3,35,8|0|8|0,1:2|2:0|1:2|2:0,2:0:0:0:
434,125,167394,5,10,1:2:0:0:
310,247,167737,5,10,3:2:0:0:
463,306,168080,5,4,2:0:0:0:
