osu file format v14

[General]
AudioFilename: audio.mp3
AudioLeadIn: 0
PreviewTime: 56909
Countdown: 0
SampleSet: Soft
StackLeniency: 0.7
Mode: 0
LetterboxInBreaks: 0
WidescreenStoryboard: 1

[Editor]
Bookmarks: 140,13109,24080,35051,46023,56994,67966,78937,89909,100880,111851,122823,133794,135166,146137,157109,168080
DistanceSpacing: 1.1
BeatDivisor: 4
GridSize: 8
TimelineZoom: 2.3

[Metadata]
Title:Shadow Castle
TitleUnicode:Shadow Castle
Artist:ginkiha
ArtistUnicode:ginkiha
Creator:JeZag
Version:Baroque
Source:
Tags:featured artist FA electronic instrumental neurofunk melodic dubstep orchestral drum'n'bass dnb mappers' guild mpg & silence records NIZI-RINGO gothic SBCD-0003 aeril gunner234 axaptice mint_ minticecream_ _destiny Dragonicz John mapping
BeatmapID:3822820
BeatmapSetID:1859697

[Difficulty]
HPDrainRate:4
CircleSize:4.2
OverallDifficulty:9
ApproachRate:9.6
SliderMultiplier:2.1
SliderTickRate:1

[Events]
//Background and Video events
0,0,"bg.jpg",0,0
//Break Periods
//Storyboard Layer 0 (Background)
//Storyboard Layer 1 (Fail)
//Storyboard Layer 2 (Pass)
//Storyboard Layer 3 (Foreground)
//Storyboard Layer 4 (Overlay)
//Storyboard Sound Samples

[TimingPoints]
146,428.571428571429,4,2,0,70,1,0
7003,398.671096345515,4,2,0,70,1,0
7801,396.694214876033,4,2,0,70,1,0
8594,396.039603960396,4,2,0,70,1,0
9782,387.722132471729,4,2,0,70,1,0
10557,377.358490566038,4,2,0,70,1,0
11311,369.79969183359,4,2,0,70,1,0
11680,-66.6666666666667,4,2,1,90,0,0
12050,352.422907488987,4,2,1,90,1,0
12050,-83.3333333333333,4,2,1,90,0,0
13109,342.857142857143,4,2,1,90,1,0
13109,-66.6666666666667,4,2,1,90,0,0
15509,-50,4,2,1,90,0,0
15851,-66.6666666666667,4,2,1,90,0,0
20994,-50,4,2,1,90,0,0
21337,-66.6666666666667,4,2,1,90,0,0
22709,-55.5555555555556,4,2,1,90,0,0
23051,-76.9230769230769,4,2,1,90,0,0
24080,-142.857142857143,4,2,1,80,0,0
24594,-52.6315789473684,4,2,1,80,0,0
25280,-66.6666666666667,4,2,1,80,0,0
25451,-50,4,2,1,80,0,0
25794,-125,4,2,1,80,0,0
26480,-1000,4,2,1,80,0,0
26823,-66.6666666666667,4,2,1,80,0,0
26994,-50,4,2,1,80,0,0
27166,-66.6666666666667,4,2,1,80,0,0
27509,-142.857142857143,4,2,1,80,0,0
27851,-125,4,2,1,80,0,0
28537,-62.5,4,2,1,80,0,0
28709,-47.6190476190476,4,2,1,80,0,0
29223,-125,4,2,1,80,0,0
29909,-142.857142857143,4,2,1,80,0,0
30166,-66.6666666666667,4,2,1,80,0,0
30594,-100,4,2,1,80,0,0
30937,-58.8235294117647,4,2,1,80,0,0
31280,-76.9230769230769,4,2,1,80,0,0
31966,-55.5555555555556,4,2,1,80,0,0
32309,-55.5555555555556,4,2,1,80,0,0
32909,-111.111111111111,4,2,1,80,0,0
33166,-100,4,2,1,80,0,0
33337,-50,4,2,1,80,0,0
33680,-66.6666666666667,4,2,1,80,0,0
33937,-100,4,2,1,80,0,0
34194,-66.6666666666667,4,2,1,80,0,0
34451,-100,4,2,1,80,0,0
34709,-83.3333333333333,4,2,1,80,0,0
35051,-166.666666666667,4,2,1,80,0,0
35394,-50,4,2,1,80,0,0
35651,-83.3333333333333,4,2,1,80,0,0
36080,-55.5555555555556,4,2,1,80,0,0
36251,-83.3333333333333,4,2,1,80,0,0
36766,-55.5555555555556,4,2,1,80,0,0
36937,-83.3333333333333,4,2,1,80,0,0
38394,-58.8235294117647,4,2,1,80,0,0
38823,-125,4,2,1,80,0,0
39509,-62.5,4,2,1,80,0,0
39680,-47.6190476190476,4,2,1,80,0,0
40194,-125,4,2,1,80,0,0
40880,-142.857142857143,4,2,1,80,0,0
41137,-66.6666666666667,4,2,1,80,0,0
41394,-100,4,2,1,80,0,0
41566,-66.6666666666667,4,2,1,80,0,0
41909,-100,4,2,1,80,0,0
42251,-62.5,4,2,1,80,0,0
42766,-100,4,2,1,80,0,0
42937,-166.666666666667,4,2,1,80,0,0
43280,-66.6666666666667,4,2,1,80,0,0
43623,-100,4,2,1,80,0,0
43966,-66.6666666666667,4,2,1,80,0,0
44309,-66.6666666666667,4,2,0,80,0,0
44651,-166.666666666667,4,2,1,80,0,0
44909,-55.5555555555556,4,2,1,80,0,0
45166,-71.4285714285714,4,2,1,80,0,0
45337,-55.5555555555556,4,2,1,80,0,0
45680,-200,4,2,1,80,0,0
46023,-66.6666666666667,4,2,1,80,0,0
48423,-50,4,2,1,80,0,0
48594,-100,4,2,1,80,0,0
48766,-66.6666666666667,4,2,1,80,0,0
53909,-50,4,2,1,80,0,0
54080,-100,4,2,1,80,0,0
55623,-50,4,2,1,80,0,0
55966,-66.6666666666667,4,2,1,80,0,0
56994,-100,4,2,1,90,0,1
57037,-100,4,2,1,5,0,1
57166,-100,4,2,1,90,0,1
57209,-100,4,2,1,5,0,1
57337,-100,4,2,1,90,0,1
57380,-100,4,2,1,5,0,1
57509,-100,4,2,1,90,0,1
57551,-100,4,2,1,5,0,1
57680,-100,4,2,1,90,0,0
58066,-100,4,2,1,5,0,0
58194,-100,4,2,1,90,0,0
58237,-100,4,2,1,5,0,0
58366,-100,4,2,1,90,0,1
58409,-100,4,2,1,5,0,1
58537,-100,4,2,1,90,0,1
58580,-100,4,2,1,5,0,1
58709,-100,4,2,1,90,0,0
59737,-100,4,2,1,90,0,1
59780,-100,4,2,1,5,0,1
59909,-100,4,2,1,90,0,1
59951,-100,4,2,1,5,0,1
60080,-100,4,2,1,90,0,1
60123,-100,4,2,1,5,0,1
60251,-100,4,2,1,90,0,1
60294,-100,4,2,1,5,0,1
60423,-100,4,2,1,90,0,0
61837,-100,4,2,1,5,0,0
61966,-100,4,2,1,90,0,0
62009,-100,4,2,1,5,0,0
62137,-100,4,2,1,90,0,0
62180,-100,4,2,1,5,0,0
62309,-100,4,2,1,90,0,0
62351,-100,4,2,1,5,0,0
62480,-100,4,2,1,90,0,1
62523,-100,4,2,1,5,0,1
62651,-100,4,2,1,90,0,1
62694,-100,4,2,1,5,0,1
62823,-100,4,2,1,90,0,1
62866,-100,4,2,1,5,0,1
62994,-100,4,2,1,90,0,1
63037,-100,4,2,1,5,0,1
63166,-100,4,2,1,90,0,0
63551,-100,4,2,1,5,0,0
63680,-100,4,2,1,90,0,0
63723,-100,4,2,1,5,0,0
63851,-100,4,2,1,90,0,1
63894,-100,4,2,1,5,0,1
64023,-100,4,2,1,90,0,1
64066,-100,4,2,1,5,0,1
64194,-100,4,2,1,90,0,0
65223,-100,4,2,1,90,0,1
65266,-100,4,2,1,5,0,1
65394,-100,4,2,1,90,0,1
65437,-100,4,2,1,5,0,1
65566,-100,4,2,1,90,0,1
65609,-100,4,2,1,5,0,1
65737,-100,4,2,1,90,0,1
65780,-100,4,2,1,5,0,1
65909,-100,4,2,1,90,0,0
66594,-50,4,2,1,90,0,0
66937,-66.6666666666667,4,2,1,90,0,0
67966,-55.5555555555556,4,2,1,90,0,1
68309,-47.6190476190476,4,2,1,90,0,1
68566,-55.5555555555556,4,2,1,90,0,1
68994,-100,4,2,1,90,0,1
69166,-50,4,2,1,90,0,1
69337,-50,4,2,1,90,0,1
71309,-58.8235294117647,4,2,1,90,0,1
71725,-66.6666666666667,4,2,1,90,0,1
71909,-50,4,2,1,90,0,1
72080,-58.8235294117647,4,2,1,90,0,1
73109,-50,4,2,1,90,0,1
73451,-58.8235294117647,4,2,1,90,0,1
73794,-47.6190476190476,4,2,1,90,0,1
74137,-58.8235294117647,4,2,1,90,0,1
74480,-125,4,2,1,90,0,1
74823,-58.8235294117647,4,2,1,90,0,1
76537,-50,4,2,1,90,0,1
76880,-58.8235294117647,4,2,1,90,0,1
77566,-47.6190476190476,4,2,1,90,0,1
77823,-76.9230769230769,4,2,1,90,0,1
78080,-50,4,2,1,90,0,1
78337,-62.5,4,2,1,90,0,1
78594,-47.6190476190476,4,2,1,90,0,1
78937,-142.857142857143,4,2,1,60,0,0
89909,-50,4,2,1,90,0,0
99509,-71.4285714285714,4,2,1,90,0,0
100880,-55.5555555555556,4,2,1,90,0,0
101051,-100,4,2,1,90,0,0
101394,-52.6315789473684,4,2,1,90,0,0
102080,-55.5555555555556,4,2,1,80,0,0
102251,-45.4545454545454,4,2,1,80,0,0
102594,-71.4285714285714,4,2,1,80,0,0
103280,-333.333333333333,4,2,1,80,0,0
103623,-55.5555555555556,4,2,1,80,0,0
103794,-50,4,2,1,80,0,0
104137,-55.5555555555556,4,2,1,80,0,0
104651,-100,4,2,1,80,0,0
105337,-55.5555555555556,4,2,1,80,0,0
105509,-47.6190476190476,4,2,1,80,0,0
105851,-55.5555555555556,4,2,1,80,0,0
106023,-100,4,2,1,80,0,0
106366,-66.6666666666667,4,2,1,80,0,0
106709,-142.857142857143,4,2,1,80,0,0
106966,-66.6666666666667,4,2,1,80,0,0
107223,-66.6666666666667,4,2,1,80,0,0
107394,-142.857142857143,4,2,1,80,0,0
107737,-62.5,4,2,1,80,0,0
108080,-71.4285714285714,4,2,1,80,0,0
108766,-55.5555555555556,4,2,1,80,0,0
109109,-125,4,2,1,80,0,0
109451,-55.5555555555556,4,2,1,80,0,0
110137,-125,4,2,1,80,0,0
110309,-50,4,2,1,80,0,0
110480,-58.8235294117647,4,2,1,80,0,0
110737,-142.857142857143,4,2,1,80,0,0
110994,-58.8235294117647,4,2,1,80,0,0
111251,-166.666666666667,4,2,1,80,0,0
111509,-125,4,2,1,80,0,0
111851,-166.666666666667,4,2,1,80,0,0
112194,-50,4,2,1,80,0,0
112451,-100,4,2,1,80,0,0
112880,-50,4,2,1,80,0,0
113051,-83.3333333333333,4,2,1,80,0,0
113223,-71.4285714285714,4,2,1,80,0,0
114251,-55.5555555555556,4,2,1,80,0,0
114594,-71.4285714285714,4,2,1,80,0,0
114937,-55.5555555555556,4,2,1,80,0,0
115194,-142.857142857143,4,2,1,80,0,0
115623,-100,4,2,1,80,0,0
116309,-55.5555555555555,4,2,1,80,0,0
116480,-47.6190476190476,4,2,1,80,0,0
116994,-100,4,2,1,80,0,0
117337,-50,4,2,1,80,0,0
117680,-166.666666666667,4,2,1,80,0,0
117937,-66.6666666666667,4,2,1,80,0,0
118366,-166.666666666667,4,2,1,80,0,0
118709,-71.4285714285714,4,2,1,80,0,0
119051,-62.5,4,2,1,80,0,0
119223,-71.4285714285714,4,2,1,80,0,0
119737,-55.5555555555556,4,2,1,80,0,0
120080,-55.5555555555556,4,2,1,80,0,0
120423,-76.9230769230769,4,2,1,80,0,0
121109,-76.9230769230769,4,2,0,80,0,0
121451,-100,4,2,1,80,0,0
121709,-55.5555555555556,4,2,1,80,0,0
121966,-76.9230769230769,4,2,1,80,0,0
122480,-200,4,2,1,80,0,0
122823,-66.6666666666667,4,2,1,80,0,0
125223,-50,4,2,1,80,0,0
125394,-100,4,2,1,80,0,0
125566,-66.6666666666667,4,2,1,80,0,0
130709,-50,4,2,1,80,0,0
130880,-100,4,2,1,80,0,0
131051,-66.6666666666667,4,2,1,80,0,0
132423,-50,4,2,1,80,0,0
132766,-66.6666666666667,4,2,1,80,0,0
133109,-50,4,2,1,80,0,0
134051,-100,4,2,1,80,0,0
134309,-50,4,2,1,80,0,0
134566,-100,4,2,1,80,0,0
135166,-100,4,2,1,90,0,1
135209,-100,4,2,1,5,0,1
135337,-100,4,2,1,90,0,1
135380,-100,4,2,1,5,0,1
135509,-100,4,2,1,90,0,1
135551,-100,4,2,1,5,0,1
135680,-100,4,2,1,90,0,1
135723,-100,4,2,1,5,0,1
135851,-100,4,2,1,90,0,0
136237,-100,4,2,1,5,0,0
136366,-100,4,2,1,90,0,0
136409,-100,4,2,1,5,0,0
136537,-100,4,2,1,90,0,1
136580,-100,4,2,1,5,0,1
136709,-100,4,2,1,90,0,1
136751,-100,4,2,1,5,0,1
136880,-100,4,2,1,90,0,0
137909,-100,4,2,1,90,0,1
137951,-100,4,2,1,5,0,1
138080,-100,4,2,1,90,0,1
138123,-100,4,2,1,5,0,1
138251,-100,4,2,1,90,0,1
138294,-100,4,2,1,5,0,1
138423,-100,4,2,1,90,0,1
138466,-100,4,2,1,5,0,1
138594,-100,4,2,1,90,0,0
140009,-100,4,2,1,5,0,0
140137,-100,4,2,1,90,0,0
140180,-100,4,2,1,5,0,0
140309,-100,4,2,1,90,0,0
140351,-100,4,2,1,5,0,0
140480,-100,4,2,1,90,0,0
140523,-100,4,2,1,5,0,0
140651,-100,4,2,1,90,0,1
140694,-100,4,2,1,5,0,1
140823,-100,4,2,1,90,0,1
140866,-100,4,2,1,5,0,1
140994,-100,4,2,1,90,0,1
141037,-100,4,2,1,5,0,1
141166,-100,4,2,1,90,0,1
141209,-100,4,2,1,5,0,1
141337,-100,4,2,1,90,0,0
141723,-100,4,2,1,5,0,0
141851,-100,4,2,1,90,0,0
141894,-100,4,2,1,5,0,0
142023,-100,4,2,1,90,0,1
142066,-100,4,2,1,5,0,1
142194,-100,4,2,1,90,0,1
142237,-100,4,2,1,5,0,1
142366,-100,4,2,1,90,0,0
143394,-100,4,2,1,90,0,1
143437,-100,4,2,1,5,0,1
143566,-100,4,2,1,90,0,1
143609,-100,4,2,1,5,0,1
143737,-100,4,2,1,90,0,1
143780,-100,4,2,1,5,0,1
143909,-100,4,2,1,90,0,1
143951,-100,4,2,1,5,0,1
144080,-100,4,2,1,90,0,0
144766,-50,4,2,1,90,0,0
145109,-66.6666666666667,4,2,1,90,0,0
146137,-55.5555555555556,4,2,1,90,0,1
146480,-47.6190476190476,4,2,1,90,0,1
146737,-55.5555555555556,4,2,1,90,0,1
147166,-100,4,2,1,90,0,1
147337,-50,4,2,1,90,0,1
147509,-50,4,2,1,90,0,1
147851,-50,4,2,1,90,0,1
149480,-58.8235294117647,4,2,1,90,0,1
150080,-50,4,2,1,90,0,1
150251,-58.8235294117647,4,2,1,90,0,1
151280,-50,4,2,1,90,0,1
151623,-58.8235294117647,4,2,1,90,0,1
151966,-45.4545454545455,4,2,1,90,0,1
152223,-58.8235294117647,4,2,1,90,0,1
152651,-100,4,2,1,90,0,1
152994,-50,4,2,1,90,0,1
153337,-58.8235294117647,4,2,1,90,0,1
154366,-50,4,2,1,90,0,1
154709,-47.6190476190476,4,2,1,90,0,1
154966,-58.8235294117647,4,2,1,90,0,1
155737,-50,4,2,1,90,0,1
156080,-58.8235294117647,4,2,1,90,0,1
156251,-50,4,2,1,90,0,1
156594,-58.8235294117647,4,2,1,90,0,1
156766,-50,4,2,1,90,0,1
156937,-58.8235294117647,4,2,1,90,0,1
157109,-66.6666666666667,4,2,1,80,0,0
159509,-50,4,2,1,80,0,0
159851,-66.6666666666667,4,2,1,80,0,0
164994,-50,4,2,1,80,0,0
165337,-66.6666666666667,4,2,1,80,0,0
167051,-50,4,2,1,80,0,0
167394,-66.6666666666667,4,2,1,80,0,0
168080,-142.857142857143,4,2,1,80,0,0
168594,-142.857142857143,4,2,1,50,0,0
169109,-142.857142857143,4,2,1,20,0,0

[Colours]
Combo1 : 186,171,232
Combo2 : 162,216,230
Combo3 : 173,130,253
Combo4 : 249,235,115
Combo5 : 220,204,133
Combo6 : 149,154,200
Combo7 : 207,161,202
Combo8 : 214,214,214

[HitObjects]
512,12,146,5,2,0:2:0:0:
315,47,360,1,2,0:2:0:0:
282,241,574,5,2,0:2:0:0:
185,259,788,1,2,0:2:0:0:
28,129,1003,5,2,0:2:0:0:
86,65,1110,1,2,0:2:0:0:
157,111,1217,1,2,0:2:0:0:
94,85,1324,1,2,0:2:0:0:
45,148,1431,5,2,0:2:0:0:
58,173,1646,1,2,0:2:0:0:
278,135,1860,5,2,0:2:0:0:
307,48,2074,1,2,0:2:0:0:
487,257,2288,5,2,0:2:0:0:
472,331,2396,1,2,0:2:0:0:
390,336,2503,1,2,0:2:0:0:
435,303,2610,1,2,0:2:0:0:
376,266,2717,5,2,0:2:0:0:
395,233,2824,1,2,0:2:0:0:
338,199,2931,1,2,0:2:0:0:
350,275,3038,1,2,0:2:0:0:
280,243,3146,6,0,P|234:221|201:224,1,52.5,2|0,0:2|0:2,0:2:0:0:
190,288,3360,2,0,P|139:283|109:297,1,52.5,2|0,0:2|0:2,0:2:0:0:
0,358,3574,5,2,0:2:0:0:
47,164,3788,1,2,0:2:0:0:
226,124,4003,5,2,0:2:0:0:
242,49,4217,1,2,0:2:0:0:
503,74,4431,5,2,0:2:0:0:
454,12,4538,1,2,0:2:0:0:
387,52,4646,1,2,0:2:0:0:
427,42,4753,1,2,0:2:0:0:
464,103,4860,5,2,0:2:0:0:
431,89,4967,1,2,0:2:0:0:
382,132,5074,1,2,0:2:0:0:
399,191,5181,1,2,0:2:0:0:
417,162,5288,5,2,0:2:0:0:
490,184,5396,1,2,0:2:0:0:
417,194,5503,1,2,0:2:0:0:
397,246,5610,1,2,0:2:0:0:
379,222,5717,5,2,0:2:0:0:
397,283,5824,1,2,0:2:0:0:
357,259,5931,1,2,0:2:0:0:
336,280,6038,1,2,0:2:0:0:
289,218,6146,5,2,0:2:0:0:
36,150,6360,1,2,0:2:0:0:
158,15,6574,5,2,0:2:0:0:
229,6,6788,1,2,0:2:0:0:
278,80,7003,6,0,P|266:109|264:134,1,52.5,2|0,0:2|0:2,0:2:0:0:
180,110,7202,2,0,P|168:139|166:164,1,52.5,2|0,0:2|0:2,0:2:0:0:
27,266,7401,6,0,P|46:308|49:328,1,52.5,10|0,3:2|0:2,0:2:0:0:
119,283,7601,2,0,P|138:325|141:345,1,52.5,2|0,0:2|0:2,0:2:0:0:
356,384,7800,5,2,0:2:0:0:
403,331,7900,1,2,0:2:0:0:
337,356,7999,1,2,0:2:0:0:
286,320,8098,1,2,0:2:0:0:
339,267,8197,6,0,P|329:227|312:197,1,52.5,10|0,0:2|0:2,0:2:0:0:
354,253,8396,2,0,P|344:213|327:183,1,52.5,2|0,0:2|0:2,0:2:0:0:
141,47,8594,6,0,P|135:72|123:95,1,52.5,2|0,0:2|0:2,0:2:0:0:
246,171,8792,2,0,P|240:196|228:219,1,52.5,2|0,0:2|0:2,0:2:0:0:
480,112,8990,5,10,0:2:0:0:
508,44,9089,1,2,0:2:0:0:
458,3,9188,1,2,0:2:0:0:
472,46,9287,1,2,0:2:0:0:
428,86,9386,5,2,0:2:0:0:
433,54,9485,1,2,0:2:0:0:
385,89,9584,1,2,0:2:0:0:
337,46,9683,1,2,0:2:0:0:
365,25,9782,5,10,0:2:0:0:
338,64,9878,1,2,0:2:0:0:
289,40,9975,1,2,0:2:0:0:
292,54,10072,1,2,0:2:0:0:
217,87,10169,6,0,P|174:70|147:70,1,52.5,2|0,0:2|0:2,0:2:0:0:
236,190,10363,2,0,P|193:173|166:173,1,52.5,2|0,0:2|0:2,0:2:0:0:
412,200,10557,6,0,P|454:185|470:184,1,52.5,10|0,0:2|0:2,0:2:0:0:
388,284,10745,2,0,P|430:269|446:268,1,52.5,2|0,0:2|0:2,0:2:0:0:
189,376,10934,5,2,0:2:0:0:
262,384,11028,1,2,0:2:0:0:
210,366,11123,1,2,0:2:0:0:
213,322,11217,1,2,0:2:0:0:
149,259,11311,5,10,0:2:0:0:
191,318,11403,1,2,0:2:0:0:
156,356,11495,1,2,0:2:0:0:
110,329,11588,1,2,0:2:0:0:
32,342,11680,6,0,P|22:299|-7:247,1,78.7500030040742,10|0,3:2|0:2,0:2:0:0:
237,41,11865,2,0,P|247:84|276:136,1,78.7500030040742,10|0,3:2|0:2,0:2:0:0:
280,228,12050,6,0,P|223:202|203:202,1,62.9999980773926,10|0,3:2|0:2,0:2:0:0:
98,22,12226,2,0,P|155:48|175:48,1,62.9999980773926,10|0,3:2|0:2,0:2:0:0:
354,177,12402,5,8,3:2:0:0:
432,194,12490,1,0,3:2:0:0:
490,167,12578,1,0,3:2:0:0:
512,138,12666,1,0,3:2:0:0:
444,101,12754,5,0,3:2:0:0:
426,80,12842,1,0,3:2:0:0:
421,53,12931,1,0,3:2:0:0:
425,39,13019,1,0,3:2:0:0:
499,47,13109,5,6,1:2:0:0:
437,19,13194,1,2,0:2:0:0:
387,24,13280,1,2,0:2:0:0:
365,43,13366,1,2,0:2:0:0:
302,8,13451,5,10,0:2:0:0:
321,49,13537,1,2,0:2:0:0:
306,67,13623,1,2,0:2:0:0:
306,84,13708,1,2,0:2:0:0:
279,93,13794,5,2,0:2:0:0:
306,134,13880,1,2,0:2:0:0:
287,144,13966,1,2,1:2:0:0:
235,128,14051,1,2,0:2:0:0:
172,161,14137,6,0,P|174:189|154:249,1,78.7500030040742,10|0,0:2|0:2,0:2:0:0:
14,354,14309,5,2,0:2:0:0:
0,346,14394,1,2,0:2:0:0:
3,270,14480,5,2,1:2:0:0:
53,271,14566,1,2,0:2:0:0:
73,304,14651,1,2,0:2:0:0:
92,301,14737,1,2,0:2:0:0:
132,278,14823,5,10,0:2:0:0:
116,298,14909,1,2,0:2:0:0:
135,298,14994,1,2,0:2:0:0:
129,334,15080,1,2,0:2:0:0:
150,308,15166,5,2,0:2:0:0:
213,292,15251,1,2,0:2:0:0:
213,337,15337,1,2,1:2:0:0:
228,327,15423,1,2,0:2:0:0:
306,321,15509,6,2,B|351:336|370:304|465:257|473:443|338:366|338:366|333:337|303:321,1,315,10|0,0:2|0:2,0:1:0:0:
272,251,15851,5,2,1:2:0:0:
271,204,15937,1,2,0:2:0:0:
259,174,16023,1,2,0:2:0:0:
246,159,16109,1,2,0:2:0:0:
308,121,16194,5,10,0:2:0:0:
295,136,16280,1,2,0:2:0:0:
291,149,16366,1,2,0:2:0:0:
289,161,16451,1,2,0:2:0:0:
346,206,16537,5,2,0:2:0:0:
387,184,16623,1,2,0:2:0:0:
437,177,16709,1,2,1:2:0:0:
484,189,16794,1,2,0:2:0:0:
491,240,16880,5,10,0:2:0:0:
512,269,16966,1,2,0:2:0:0:
499,282,17051,1,2,0:2:0:0:
474,266,17137,1,2,0:2:0:0:
423,275,17224,5,2,1:2:0:0:
443,321,17309,1,2,0:2:0:0:
443,349,17395,1,2,0:2:0:0:
435,367,17481,1,2,0:2:0:0:
405,369,17566,5,10,0:2:0:0:
390,343,17651,1,2,0:2:0:0:
373,331,17737,1,2,0:2:0:0:
378,352,17823,1,2,0:2:0:0:
357,343,17909,5,2,0:2:0:0:
344,330,17994,1,2,0:2:0:0:
307,335,18080,1,2,1:2:0:0:
348,297,18166,1,2,0:2:0:0:
344,221,18251,5,10,0:2:0:0:
283,265,18337,1,2,0:2:0:0:
228,271,18423,1,2,0:2:0:0:
193,254,18509,1,2,0:2:0:0:
181,234,18594,5,2,1:2:0:0:
221,209,18680,1,2,0:2:0:0:
247,175,18766,1,2,0:2:0:0:
250,141,18851,1,2,0:2:0:0:
189,104,18937,5,10,0:2:0:0:
181,64,19023,1,2,0:2:0:0:
161,44,19109,1,2,0:2:0:0:
156,67,19194,1,2,0:2:0:0:
127,86,19280,5,2,0:2:0:0:
77,70,19366,1,2,0:2:0:0:
75,38,19451,1,2,1:2:0:0:
42,23,19537,1,2,0:2:0:0:
0,86,19623,6,0,P|20:150|10:186,1,78.7500030040742,10|0,0:2|0:2,0:2:0:0:
122,342,19794,1,2,0:2:0:0:
103,355,19880,1,2,0:2:0:0:
29,351,19966,5,2,1:2:0:0:
36,309,20051,1,2,0:2:0:0:
0,290,20137,1,2,0:2:0:0:
34,293,20223,1,2,0:2:0:0:
36,260,20309,5,10,0:2:0:0:
55,280,20394,1,2,0:2:0:0:
91,268,20480,1,2,0:2:0:0:
93,237,20566,1,2,0:2:0:0:
135,267,20651,5,2,0:2:0:0:
105,207,20737,1,2,0:2:0:0:
134,166,20823,1,2,1:2:0:0:
128,196,20909,1,2,0:2:0:0:
198,230,20994,6,2,B|271:156|271:33|271:33|284:31|284:31|287:80|330:116,1,315,10|0,0:2|0:2,0:1:0:0:
323,187,21337,5,2,1:2:0:0:
383,170,21423,1,2,0:2:0:0:
443,169,21509,1,2,0:2:0:0:
492,188,21594,1,2,0:2:0:0:
475,133,21680,5,10,1:2:0:0:
450,113,21766,1,2,0:2:0:0:
421,107,21851,1,2,0:2:0:0:
412,97,21937,1,2,0:2:0:0:
424,88,22023,5,2,1:2:0:0:
472,78,22109,1,2,0:2:0:0:
440,65,22194,1,2,0:2:0:0:
456,49,22280,1,2,0:2:0:0:
441,23,22366,5,10,1:2:0:0:
479,51,22451,1,2,0:2:0:0:
494,99,22537,1,2,0:2:0:0:
477,151,22623,1,2,0:2:0:0:
407,184,22709,6,0,P|356:148|306:150,1,94.499997116089,10|0,1:2|0:2,0:2:0:0:
142,13,22880,2,0,P|193:49|243:47,1,94.499997116089,10|0,1:2|0:2,0:2:0:0:
321,0,23051,6,0,P|306:41|321:80,1,68.2499968757631,10|0,1:2|0:2,0:2:0:0:
228,199,23223,2,0,P|243:158|228:119,1,68.2499968757631,10|0,1:2|0:2,0:2:0:0:
406,84,23394,5,10,1:2:0:0:
351,133,23480,1,0,1:2:0:0:
293,140,23566,1,0,1:2:0:0:
257,120,23651,1,0,1:2:0:0:
205,138,23737,5,2,1:2:0:0:
186,86,23823,1,0,1:2:0:0:
152,79,23909,1,0,1:2:0:0:
135,90,23994,1,0,1:2:0:0:
114,168,24080,6,0,B|86:211|8:203|3:150|65:97|99:177,1,183.749994392395,0|0,1:2|0:2,0:2:0:0:
181,221,24594,6,2,B|206:209|206:209|212:184|231:174|438:-47|123:-107|47:-4|123:252|273:34|288:240|288:240|327:258,1,598.499984018326,0|0,3:2|0:2,0:2:0:0:
366,181,25280,6,0,P|364:143|333:121,1,78.7500030040742,0|0,3:2|0:2,0:2:0:0:
416,375,25451,6,2,B|369:405|327:368|327:368|330:356|330:356|439:295|449:163,1,315,0|0,1:2|0:2,0:2:0:0:
488,121,25794,6,0,P|475:101|470:75,1,42,8|0,0:2|0:2,0:2:0:0:
461,101,25966,2,0,P|448:80|443:55,1,42,0|0,1:2|0:2,0:2:0:0:
498,0,26137,1,0,0:2:0:0:
498,0,26223,1,0,0:2:0:0:
498,0,26309,1,0,1:2:0:0:
268,135,26480,6,0,L|252:129,1,15.75,8|0,0:2|0:2,0:2:0:0:
274,164,26823,6,0,L|311:75,1,78.7500030040742,0|0,1:2|0:2,0:2:0:0:
188,199,26994,2,2,B|231:275|197:352|197:352|232:276|320:244,1,315,0|0,3:2|0:2,0:2:0:0:
433,289,27337,6,0,P|395:290|361:309,1,78.7500030040742,0|0,3:2|0:2,0:2:0:0:
116,235,27509,2,2,B|90:188|88:145|88:145|41:137,1,110.249996635437,0|0,3:2|0:2,0:2:0:0:
0,248,27851,6,0,P|5:227|17:210,1,42,8|0,0:2|0:2,0:2:0:0:
103,60,28023,2,0,P|92:42|86:21,1,42,2|0,0:2|0:2,0:2:0:0:
193,76,28194,2,0,P|180:91|168:108,1,42,2|0,1:2|0:2,0:2:0:0:
278,59,28366,2,0,B|273:67|271:101,1,42,2|0,0:2|0:2,0:2:0:0:
86,252,28537,6,0,P|140:232|176:241,1,84,10|0,0:2|0:2,0:2:0:0:
343,132,28709,5,2,3:2:0:0:
263,180,28794,2,2,B|195:200|223:73|65:112|88:254|190:297|210:174|289:178|333:215,1,330.749989906311,0|0,1:2|1:2,0:2:0:0:
366,264,29137,1,0,3:2:0:0:
396,189,29223,5,8,3:2:0:0:
420,181,29309,1,0,3:2:0:0:
431,183,29394,1,0,3:2:0:0:
435,190,29480,1,0,3:2:0:0:
504,149,29566,5,0,1:2:0:0:
504,149,29909,2,0,P|504:105|520:64,1,73.4999977569581,8|0,0:2|0:2,0:2:0:0:
448,35,30166,2,0,B|484:169|484:169|484:230,1,157.500006008148,0|0,1:2|0:2,0:2:0:0:
460,274,30423,2,0,L|480:357,1,78.7500030040742,0|0,1:2|0:2,0:2:0:0:
263,114,30594,6,0,P|230:92|103:79,1,157.5,8|0,0:2|0:2,0:2:0:0:
124,0,30937,6,2,P|225:87|143:203,1,267.750005106926,0|0,1:2|0:2,0:2:0:0:
92,153,31280,1,8,0:2:0:0:
280,205,31451,5,0,3:2:0:0:
229,268,31537,2,2,P|149:220|99:240,1,136.499993751526,0|0,1:2|0:2,0:2:0:0:
67,332,31794,5,0,1:2:0:0:
52,327,31880,1,0,3:2:0:0:
2,262,31966,2,0,B|30:235|120:188|170:293|124:350|201:372|263:350,1,283.499991348267,8|0,0:2|0:2,0:2:0:0:
403,377,32309,6,2,B|428:365|447:332|421:290|421:290|411:297|411:297|357:282|321:329|321:373|321:373|312:380|312:380|210:351|232:222|313:170|394:219,1,566.999982696534,0|0,1:2|0:2,0:2:0:0:
400,206,32909,6,0,P|367:191|333:136,1,94.499997116089,0|0,1:2|0:2,0:2:0:0:
502,254,33166,2,0,P|491:229|495:204,1,52.5,0|0,1:2|0:2,0:2:0:0:
294,251,33337,6,2,B|253:256|253:256|144:209|135:342|33:300|33:300|-21:313,1,315,8|0,0:2|0:2,0:2:0:0:
70,233,33680,6,0,B|58:188|39:169|39:169|41:162,1,78.7500030040742,8|0,0:2|0:2,0:2:0:0:
232,169,33851,1,0,3:2:0:0:
287,228,33937,2,0,P|312:182|317:111,1,105,0|0,1:2|0:2,0:2:0:0:
363,206,34194,6,0,B|350:197|350:197|344:162|324:122,1,78.7500030040742,8|0,0:2|0:2,0:2:0:0:
124,4,34365,1,0,3:2:0:0:
53,24,34451,2,0,P|66:73|114:126,1,105,0|0,1:2|0:2,0:2:0:0:
172,83,34709,6,0,B|186:62|186:62|259:63|326:41|326:41|351:61,1,188.999994232178,8|0,0:2|0:2,0:2:0:0:
463,24,35051,6,0,P|429:57|409:100,1,94.499997116089,4|0,1:2|0:2,0:2:0:0:
507,116,35394,6,0,P|405:114|312:181,1,210,8|0,0:2|0:2,0:2:0:0:
172,207,35651,2,0,P|233:217|279:259,1,125.999996154785,0|0,1:2|0:2,0:2:0:0:
364,347,35909,5,0,1:2:0:0:
369,361,35994,1,0,3:2:0:0:
442,333,36080,2,0,P|388:310|347:319,1,94.499997116089,8|0,0:2|0:2,0:2:0:0:
182,294,36251,2,0,P|154:309|140:337,1,62.9999980773926,0|0,1:2|0:2,0:2:0:0:
123,369,36423,6,2,B|154:281|30:247|106:149,1,188.999994232178,0|0,1:2|0:2,0:2:0:0:
4,277,36766,2,0,P|4:321|45:341,1,94.499997116089,8|0,0:2|0:2,0:2:0:0:
261,282,36937,5,0,3:2:0:0:
246,355,37023,2,2,P|290:295|400:255,1,188.999994232178,0|0,1:2|1:2,0:2:0:0:
465,308,37366,1,0,3:2:0:0:
414,245,37451,6,0,P|291:215|251:238,1,125.999996154785,8|0,0:2|0:2,0:2:0:0:
512,9,37794,5,0,1:2:0:0:
512,9,37880,1,0,3:2:0:0:
512,9,37966,1,0,3:2:0:0:
482,113,38137,6,0,P|430:79|424:19,1,125.999996154785,8|0,0:2|0:2,0:2:0:0:
500,96,38394,6,0,P|401:109|290:53,1,178.500003404617,0|0,1:2|0:2,0:2:0:0:
199,36,38651,2,0,P|243:10|289:17,1,89.2500017023087,0|0,1:2|0:2,0:2:0:0:
343,181,38823,6,0,P|314:180|291:189,1,42,10|0,0:2|0:2,0:2:0:0:
144,101,38994,2,0,P|125:74|117:52,1,42,2|0,0:2|0:2,0:2:0:0:
13,1,39166,2,0,P|17:34|11:56,1,42,2|0,1:2|0:2,0:2:0:0:
54,119,39337,2,0,P|42:136|33:155,1,42,2|0,0:2|0:2,0:2:0:0:
254,107,39509,6,0,P|191:180|183:208,1,84,10|0,0:2|0:2,0:2:0:0:
114,338,39680,5,2,3:2:0:0:
73,237,39766,2,2,B|23:246|48:262|7:288|7:288|11:304|11:304|73:243|167:242|243:284,1,330.749989906311,0|0,1:2|0:2,0:2:0:0:
264,351,40109,1,0,3:2:0:0:
326,301,40194,5,8,3:2:0:0:
353,307,40280,1,0,3:2:0:0:
360,323,40366,1,0,3:2:0:0:
371,319,40451,1,0,3:2:0:0:
417,379,40537,5,0,1:2:0:0:
417,379,40880,2,0,L|400:279,1,73.4999977569581,8|0,0:2|0:2,0:2:0:0:
504,318,41137,6,0,B|489:342|489:342|413:319|334:374,1,157.500006008148,0|0,1:2|0:2,0:2:0:0:
301,280,41394,5,0,1:2:0:0:
274,268,41480,1,0,3:2:0:0:
221,332,41566,2,0,P|314:284|407:140,1,236.250009012223,8|0,0:2|0:2,0:2:0:0:
386,64,41909,6,2,P|429:58|391:68,1,157.5,0|0,1:2|0:2,0:2:0:0:
512,117,42251,6,0,P|430:107|356:67,1,168,8|0,0:2|0:2,0:2:0:0:
284,22,42509,6,2,P|269:61|262:102,1,84,0|0,1:2|0:2,0:2:0:0:
85,167,42680,1,0,3:2:0:0:
49,164,42766,1,0,3:2:0:0:
79,151,42851,1,0,3:2:0:0:
26,90,42937,6,0,P|30:43|47:0,1,94.499997116089,8|0,0:2|0:2,0:2:0:0:
182,48,43280,6,0,P|152:73|113:76,1,78.7500030040742,0|0,1:2|0:2,0:2:0:0:
5,289,43451,2,0,P|36:264|74:260,1,78.7500030040742,0|0,3:2|0:2,0:2:0:0:
257,303,43623,6,0,P|230:275|223:239,1,52.5,0|0,3:2|0:2,0:2:0:0:
89,154,43794,2,0,P|117:181|123:217,1,52.5,0|0,3:2|0:2,0:2:0:0:
244,172,43966,5,0,3:2:0:0:
296,206,44051,1,0,3:2:0:0:
346,207,44137,1,0,3:2:0:0:
380,191,44223,1,0,3:2:0:0:
452,208,44309,5,8,3:1:0:0:
400,154,44394,1,0,3:2:0:0:
412,100,44480,1,0,3:2:0:0:
443,88,44566,1,0,3:2:0:0:
459,93,44651,6,0,L|509:72,1,31.4999990386963,2|0,0:3|0:2,0:2:0:0:
275,69,44823,5,0,0:2:0:0:
334,10,44909,2,0,B|350:25|350:25|374:178|374:178|340:232,1,188.999994232178,8|0,0:2|0:2,0:2:0:0:
297,246,45166,2,0,L|196:217,1,73.4999977569581,2|0,0:3|0:2,0:2:0:0:
512,268,45337,5,10,3:2:0:0:
445,242,45423,1,2,1:2:0:0:
381,276,45509,1,2,3:2:0:0:
355,343,45594,1,2,3:2:0:0:
373,333,45680,6,0,P|411:337|442:362,1,78.75,2|0,3:3|3:2,3:2:0:0:
512,315,46023,5,6,1:2:0:0:
289,156,46194,1,2,0:2:0:0:
144,384,46366,1,10,0:2:0:0:
240,340,46537,5,2,0:2:0:0:
222,334,46623,2,0,B|208:283|208:283|212:267|212:267|191:179,1,157.500006008148,0|0,1:2|0:2,0:2:0:0:
143,83,46880,2,0,L|162:159,1,78.7500030040742,0|0,1:2|0:2,0:2:0:0:
68,332,47051,6,0,P|95:303|107:266,1,78.7500030040742,8|0,0:2|0:2,0:2:0:0:
273,101,47223,5,2,0:2:0:0:
261,110,47309,1,2,0:2:0:0:
236,97,47394,5,2,1:2:0:0:
303,55,47480,1,2,0:2:0:0:
359,90,47566,1,2,0:2:0:0:
369,137,47651,1,2,0:2:0:0:
356,145,47737,5,10,0:2:0:0:
419,129,47823,1,2,0:2:0:0:
463,167,47909,1,2,0:2:0:0:
495,159,47994,1,2,1:2:0:0:
512,179,48080,5,2,0:2:0:0:
453,124,48166,1,2,0:2:0:0:
392,168,48251,1,2,1:2:0:0:
404,199,48337,1,2,0:2:0:0:
349,246,48423,6,0,P|305:222|242:221,1,105,10|0,0:2|0:2,0:2:0:0:
208,286,48594,2,0,P|183:294|163:312,1,52.5,2|0,0:2|0:2,0:2:0:0:
92,384,48766,5,2,1:2:0:0:
43,350,48851,1,2,0:2:0:0:
25,292,48937,1,2,0:2:0:0:
39,234,49023,1,2,0:2:0:0:
113,233,49109,5,10,0:2:0:0:
129,219,49194,1,2,0:2:0:0:
139,203,49280,1,2,0:2:0:0:
144,185,49366,1,2,1:2:0:0:
76,149,49451,5,2,0:2:0:0:
16,110,49537,1,2,0:2:0:0:
71,106,49623,1,2,1:2:0:0:
104,68,49709,1,2,0:2:0:0:
63,46,49794,5,10,0:2:0:0:
332,22,49966,5,2,0:2:0:0:
343,29,50051,1,2,0:2:0:0:
306,47,50137,5,2,1:2:0:0:
352,3,50223,1,2,0:2:0:0:
396,4,50309,1,2,0:2:0:0:
425,26,50394,1,2,0:2:0:0:
482,57,50480,5,10,0:2:0:0:
440,59,50566,1,2,0:2:0:0:
422,81,50651,1,2,0:2:0:0:
418,103,50737,1,2,1:2:0:0:
384,98,50823,5,2,0:2:0:0:
425,158,50909,1,2,0:2:0:0:
405,185,50994,1,2,1:2:0:0:
458,162,51080,1,2,0:2:0:0:
511,219,51166,5,10,0:2:0:0:
333,358,51337,1,2,0:2:0:0:
237,198,51509,5,2,1:2:0:0:
324,236,51680,1,2,0:2:0:0:
54,384,51851,1,10,0:2:0:0:
224,98,52023,5,2,0:2:0:0:
208,117,52109,2,0,B|117:105|117:105|110:98|110:98|23:84,1,157.500006008148,0|0,1:2|0:2,0:2:0:0:
1,40,52366,2,0,P|36:74|18:121,1,78.7500030040742,0|0,1:2|0:2,0:2:0:0:
252,183,52537,6,0,P|291:163|364:158,1,78.7500030040742,8|0,0:2|0:2,0:2:0:0:
43,213,52709,5,2,0:2:0:0:
30,206,52794,1,2,0:2:0:0:
54,190,52880,5,2,1:2:0:0:
114,236,52966,1,2,0:2:0:0:
98,295,53051,1,2,0:2:0:0:
70,312,53137,1,2,0:2:0:0:
83,282,53223,5,10,0:2:0:0:
138,253,53309,1,2,0:2:0:0:
169,276,53394,1,2,0:2:0:0:
184,269,53480,1,2,1:2:0:0:
190,309,53566,5,2,0:2:0:0:
259,270,53651,1,2,0:2:0:0:
311,315,53737,1,2,1:2:0:0:
299,343,53823,1,2,0:2:0:0:
358,384,53909,6,0,P|363:317|393:272,1,105,10|0,0:2|0:2,0:2:0:0:
323,215,54080,2,0,P|319:190|307:167,1,52.5,2|0,0:2|0:2,0:2:0:0:
389,90,54251,5,2,1:2:0:0:
449,105,54337,1,2,0:2:0:0:
490,136,54423,1,2,0:2:0:0:
512,180,54509,1,2,0:2:0:0:
506,268,54594,5,10,0:2:0:0:
471,253,54680,1,2,0:2:0:0:
447,252,54766,1,2,0:2:0:0:
428,258,54851,1,2,1:2:0:0:
354,220,54937,5,2,0:2:0:0:
359,296,55023,1,2,0:2:0:0:
315,322,55109,1,2,1:2:0:0:
327,291,55194,1,2,0:2:0:0:
278,235,55280,5,10,0:2:0:0:
21,315,55451,5,2,0:2:0:0:
3,328,55537,1,2,0:2:0:0:
86,360,55623,6,0,B|93:356|93:356|89:317|127:264,1,105,10|0,0:2|0:2,0:2:0:0:
124,343,55795,2,0,B|127:335|127:335|99:308|94:243,1,105,10|0,0:2|0:2,0:2:0:0:
231,33,55966,6,0,B|224:37|224:37|228:76|190:129,1,78.7500030040742,10|0,0:2|0:2,0:2:0:0:
193,50,56138,2,0,B|190:57|190:57|218:84|223:149,1,78.7500030040742,10|0,0:2|0:2,0:2:0:0:
318,77,56309,5,8,0:2:0:0:
327,69,56394,1,0,3:2:0:0:
339,65,56480,1,0,3:2:0:0:
357,68,56566,1,0,3:2:0:0:
386,82,56651,1,0,3:2:0:0:
417,119,56737,1,0,3:2:0:0:
438,167,56823,1,0,3:2:0:0:
447,237,56909,1,0,3:2:0:0:
434,313,56994,6,0,P|418:314|402:321,1,26.25,6|0,1:2|0:2,0:2:0:0:
393,298,57166,2,0,P|377:299|361:306,1,26.25,2|0,0:2|0:2,0:2:0:0:
94,121,57337,6,0,P|78:122|62:129,1,26.25,10|0,1:2|0:2,0:2:0:0:
53,106,57509,2,0,P|37:107|21:114,1,26.25,2|0,0:2|0:2,0:2:0:0:
226,22,57680,5,2,1:2:0:0:
153,0,57766,1,2,0:2:0:0:
79,29,57851,1,2,0:2:0:0:
148,30,57937,1,2,0:2:0:0:
189,89,58023,6,0,P|193:106|206:125,1,26.25,10|0,1:2|0:2,0:2:0:0:
179,125,58194,2,0,P|183:142|196:161,1,26.25,2|0,0:2|0:2,0:2:0:0:
296,384,58366,6,0,P|291:366|279:348,1,26.25,2|0,1:2|0:2,0:2:0:0:
306,348,58537,2,0,P|301:330|289:312,1,26.25,2|0,0:2|0:2,0:2:0:0:
470,332,58709,5,10,1:2:0:0:
512,269,58794,1,2,0:2:0:0:
450,310,58880,1,2,0:2:0:0:
382,308,58966,1,2,0:2:0:0:
331,256,59051,5,2,1:2:0:0:
345,189,59137,1,2,0:2:0:0:
351,233,59223,1,2,0:2:0:0:
400,239,59309,1,2,0:2:0:0:
413,202,59394,5,10,1:2:0:0:
448,198,59480,1,2,0:2:0:0:
419,179,59566,1,2,0:2:0:0:
429,168,59651,1,2,0:2:0:0:
375,117,59737,6,0,P|391:103|408:80,1,26.25,2|0,1:2|0:2,0:2:0:0:
383,82,59909,2,0,P|399:68|416:45,1,26.25,2|0,0:2|0:2,0:2:0:0:
0,210,60080,6,0,P|16:196|33:173,1,26.25,10|0,1:2|0:2,0:2:0:0:
8,175,60252,2,0,P|24:161|41:138,1,26.25,2|0,0:2|0:2,0:2:0:0:
128,23,60423,5,2,1:2:0:0:
52,11,60509,1,2,0:2:0:0:
5,64,60594,1,2,0:2:0:0:
59,38,60680,1,2,0:2:0:0:
94,76,60766,5,10,1:2:0:0:
86,90,60851,1,2,0:2:0:0:
95,103,60937,1,2,0:2:0:0:
145,110,61023,1,2,0:2:0:0:
158,156,61109,5,2,1:2:0:0:
174,78,61194,1,2,0:2:0:0:
243,79,61280,1,2,0:2:0:0:
218,123,61366,1,2,0:2:0:0:
272,150,61451,5,10,1:2:0:0:
320,133,61537,1,2,0:2:0:0:
311,102,61623,1,2,0:2:0:0:
324,108,61709,1,2,0:2:0:0:
372,52,61794,6,0,P|375:31|382:18,1,26.25,2|0,1:2|0:2,0:2:0:0:
423,339,61966,2,0,P|426:318|433:305,1,26.25,2|0,0:2|0:2,0:2:0:0:
96,266,62137,6,0,P|81:261|66:259,1,26.25,10|0,1:2|0:2,0:2:0:0:
79,165,62309,2,0,P|64:160|49:158,1,26.25,2|0,0:2|0:2,0:2:0:0:
459,60,62480,6,0,P|464:83|471:94,1,26.25,2|0,1:2|0:2,0:2:0:0:
489,100,62651,2,0,P|494:123|501:134,1,26.25,2|0,0:2|0:2,0:2:0:0:
228,246,62823,6,0,P|233:269|240:280,1,26.25,10|0,1:2|0:2,0:2:0:0:
258,286,62994,2,0,P|263:309|270:320,1,26.25,2|0,0:2|0:2,0:2:0:0:
71,381,63166,5,2,1:2:0:0:
106,316,63251,1,2,0:2:0:0:
178,334,63337,1,2,0:2:0:0:
122,294,63423,1,2,0:2:0:0:
55,313,63509,6,0,P|38:307|24:306,1,26.25,10|0,1:2|0:2,0:2:0:0:
24,285,63680,2,0,P|13:280|-7:277,1,26.25,2|0,0:2|0:2,0:2:0:0:
227,27,63851,6,0,P|244:33|258:34,1,26.25,2|0,1:2|0:2,0:2:0:0:
258,55,64022,2,0,P|269:60|289:63,1,26.25,2|0,0:2|0:2,0:2:0:0:
149,127,64194,5,10,1:2:0:0:
202,186,64280,1,2,0:2:0:0:
167,123,64366,1,2,0:2:0:0:
199,73,64451,1,2,0:2:0:0:
250,76,64537,5,2,1:2:0:0:
283,120,64623,1,2,0:2:0:0:
364,134,64709,1,2,0:2:0:0:
302,90,64794,1,2,0:2:0:0:
312,50,64880,5,10,1:2:0:0:
351,49,64966,1,2,0:2:0:0:
353,31,65051,1,2,0:2:0:0:
374,61,65137,1,2,0:2:0:0:
423,5,65223,6,0,P|451:-2|466:-15,1,26.25,2|0,1:2|0:2,0:2:0:0:
448,32,65394,2,0,P|476:24|491:11,1,26.25,2|0,0:2|0:2,0:2:0:0:
164,195,65566,6,0,P|192:187|207:174,1,26.25,10|0,1:2|0:2,0:2:0:0:
189,222,65737,2,0,P|217:214|232:201,1,26.25,2|0,0:2|0:2,0:2:0:0:
454,359,65909,5,2,1:2:0:0:
512,318,65994,1,2,0:2:0:0:
504,246,66080,1,2,0:2:0:0:
486,293,66166,1,2,0:2:0:0:
419,293,66251,5,10,1:2:0:0:
406,261,66337,1,2,0:2:0:0:
396,304,66423,5,2,0:2:0:0:
359,235,66509,1,2,0:2:0:0:
282,258,66594,6,0,B|287:269|287:269|258:309|258:370,1,105,10|0,1:2|0:2,0:2:0:0:
263,384,66766,2,0,B|233:347|229:299|229:299|218:293,1,105,10|0,1:2|0:2,0:2:0:0:
158,98,66937,6,0,B|169:90|169:90|170:41|206:-6,1,78.7500030040742,10|0,1:2|0:2,0:2:0:0:
191,8,67109,2,0,B|158:20|140:51|140:51|130:52,1,78.7500030040742,10|0,1:2|0:2,0:2:0:0:
5,97,67280,5,8,1:2:0:0:
16,90,67366,1,0,1:2:0:0:
35,90,67451,1,0,1:2:0:0:
56,100,67537,1,0,1:2:0:0:
70,123,67623,1,0,1:2:0:0:
75,163,67709,1,0,1:2:0:0:
69,223,67794,1,0,1:2:0:0:
45,289,67880,1,0,1:2:0:0:
0,358,67966,6,0,B|42:348|42:348|51:340|51:340|127:322,1,94.499997116089,6|0,1:2|0:2,0:2:0:0:
255,245,68137,2,0,B|211:239|211:239|201:233|201:233|161:228,1,94.499997116089,6|0,1:2|0:2,0:2:0:0:
486,12,68309,6,0,P|413:120|453:241,1,220.499993270874,10|0,0:2|0:2,0:2:0:0:
436,216,68566,6,0,P|455:209|416:123,1,94.499997116089,2|0,1:2|0:2,0:2:0:0:
367,29,68737,1,2,0:2:0:0:
408,58,68823,5,2,1:2:0:0:
327,51,68909,1,2,0:2:0:0:
284,117,68994,2,0,P|301:136|310:161,1,52.5,10|0,1:2|0:2,0:2:0:0:
333,162,69166,6,0,P|290:129|241:111,1,105,2|0,0:3|0:2,0:2:0:0:
0,9,69337,6,0,B|11:24|11:24|-1:63|18:134,1,105,6|0,1:2|0:2,0:2:0:0:
255,307,69509,2,0,B|244:292|244:292|256:253|237:182,1,105,6|0,1:2|0:2,0:2:0:0:
91,61,69680,5,10,0:2:0:0:
168,38,69766,1,2,0:2:0:0:
99,77,69851,1,2,0:2:0:0:
103,126,69937,1,2,1:2:0:0:
144,151,70023,5,2,0:2:0:0:
119,194,70109,1,2,0:2:0:0:
164,179,70194,1,2,1:2:0:0:
170,197,70280,1,2,0:2:0:0:
143,232,70366,5,10,0:2:0:0:
91,200,70451,1,2,0:2:0:0:
40,243,70537,1,2,0:2:0:0:
59,259,70623,1,2,0:2:0:0:
52,334,70709,6,0,B|68:342|68:342|108:314|182:304,1,105,6|0,1:2|0:2,0:2:0:0:
464,281,70880,2,0,B|466:298|466:298|426:326|391:392,1,105,6|0,1:2|0:2,0:2:0:0:
153,146,71051,6,0,P|218:226|231:329,1,210,10|0,0:2|0:2,0:2:0:0:
324,365,71309,6,0,P|319:320|351:297,1,89.2500017023087,2|0,1:2|0:2,0:2:0:0:
483,179,71480,1,2,0:2:0:0:
510,206,71566,5,2,1:2:0:0:
443,167,71651,1,2,0:2:0:0:
384,213,71737,2,0,P|356:185|305:150,1,78.7500030040742,14|0,0:2|0:2,0:2:0:0:
93,29,71909,6,0,P|43:45|0:74,1,105,2|0,0:3|0:2,0:2:0:0:
132,100,72080,5,6,1:2:0:0:
177,33,72166,1,2,0:2:0:0:
250,62,72251,1,2,1:2:0:0:
209,62,72337,1,2,0:2:0:0:
201,111,72423,5,10,0:2:0:0:
260,149,72509,1,2,0:2:0:0:
283,100,72594,1,2,0:2:0:0:
264,114,72680,1,2,1:2:0:0:
333,157,72766,6,0,B|345:158|345:158|384:129|463:137,1,89.2500017023087,6|0,1:2|0:2,0:2:0:0:
439,53,72937,2,0,B|450:56|450:56|477:96|554:116,1,89.2500017023087,6|0,1:2|0:2,0:2:0:0:
248,237,73109,6,0,P|189:206|121:208,1,105,6|0,1:2|0:2,0:2:0:0:
0,334,73280,2,0,P|84:285|108:284,1,105,6|0,1:2|0:2,0:2:0:0:
364,253,73451,6,0,P|335:313|321:369,1,89.2500017023087,6|0,1:2|0:2,0:2:0:0:
439,286,73623,2,0,P|410:346|396:402,1,89.2500017023087,6|0,1:2|0:2,0:2:0:0:
121,109,73794,6,0,P|238:166|264:290,1,220.499993270874,10|0,0:2|0:2,0:2:0:0:
178,232,74051,6,0,P|176:178|236:178,1,110.249996635437,2|0,1:2|0:2,0:2:0:0:
395,157,74223,1,2,0:2:0:0:
423,118,74309,5,2,1:2:0:0:
354,147,74394,1,2,0:2:0:0:
301,87,74480,6,0,P|292:55|290:31,1,42,14|0,0:2|0:2,0:2:0:0:
290,100,74651,2,0,P|281:68|279:44,1,42,2|0,0:3|0:2,0:2:0:0:
217,0,74823,6,0,P|188:53|187:145,1,89.2500017023087,6|0,1:2|0:2,0:2:0:0:
0,323,74994,2,0,P|29:270|30:178,1,89.2500017023087,6|0,1:2|0:2,0:2:0:0:
119,18,75166,5,10,0:2:0:0:
46,7,75251,1,2,0:2:0:0:
8,90,75337,1,2,0:2:0:0:
24,69,75423,1,2,1:2:0:0:
77,59,75509,5,2,0:2:0:0:
100,126,75594,1,2,0:2:0:0:
142,120,75680,1,2,1:2:0:0:
134,105,75766,1,2,0:2:0:0:
86,129,75851,5,10,0:2:0:0:
127,168,75937,1,2,0:2:0:0:
111,193,76023,1,2,0:2:0:0:
102,194,76109,1,2,0:2:0:0:
126,268,76194,6,0,B|163:272|163:272|175:269|175:269|235:276,1,89.2500017023087,6|0,1:2|0:2,0:2:0:0:
489,333,76366,2,0,B|450:328|450:328|438:331|438:331|400:327,1,89.2500017023087,6|0,1:2|0:2,0:2:0:0:
431,41,76537,6,0,P|446:149|364:266,1,210,10|0,0:2|0:2,0:2:0:0:
305,263,76794,6,0,P|309:215|262:203,1,105,2|0,1:2|0:2,0:2:0:0:
263,78,76966,1,2,0:2:0:0:
234,119,77051,5,2,1:2:0:0:
295,74,77137,1,2,0:2:0:0:
363,130,77223,6,0,P|409:142|493:135,1,89.2500017023087,14|0,0:2|0:2,0:2:0:0:
113,172,77394,2,0,P|67:160|-17:167,1,89.2500017023087,2|0,0:3|0:2,0:2:0:0:
153,3,77566,6,0,P|177:58|191:176,1,110.249996635437,14|0,0:2|0:2,0:2:0:0:
134,340,77737,1,0,0:2:0:0:
72,265,77823,2,0,P|140:257|204:279,1,136.499993751526,0|0,1:2|0:2,0:2:0:0:
295,74,78080,6,0,P|271:140|266:194,1,105,12|0,0:2|0:2,0:2:0:0:
400,372,78251,1,0,0:2:0:0:
439,287,78337,2,0,P|357:297|288:344,1,168,0|0,1:2|0:2,0:2:0:0:
512,296,78594,6,0,P|464:269|410:262,1,110.249996635437,14|0,1:2|0:2,0:2:0:0:
241,99,78766,2,0,P|193:125|139:132,1,110.249996635437,14|0,0:2|0:2,0:2:0:0:
41,72,78937,6,0,P|32:54|14:38,3,36.749998878479,6|0|0|0,0:2|0:2|0:2|0:2,0:2:0:0:
112,39,79280,2,0,P|113:18|105:-3,3,36.749998878479,2|0|0|0,3:2|0:2|0:2|0:2,0:2:0:0:
188,58,79623,2,0,P|199:40|202:18,3,36.749998878479,2|0|0|0,0:2|0:2|0:2|0:2,0:2:0:0:
240,116,79966,2,0,P|258:105|272:88,3,36.749998878479,2|0|0|0,3:2|0:2|0:2|0:2,0:2:0:0:
492,135,80309,6,0,P|502:150|508:168,3,36.749998878479,2|0|0|0,0:2|0:2|0:2|0:2,0:2:0:0:
401,169,80651,2,0,P|417:177|431:190,3,36.749998878479,2|0|0|0,3:2|0:2|0:2|0:2,0:2:0:0:
337,243,80994,2,0,P|356:241|374:246,3,36.749998878479,2|0|0|0,0:2|0:2|0:2|0:2,0:2:0:0:
321,338,81336,2,0,P|336:328|354:323,3,36.749998878479,2|0|0|0,3:2|0:2|0:2|0:2,0:2:0:0:
95,278,81680,6,0,P|102:301|102:322,3,36.749998878479,2|0|0|0,0:2|0:2|0:2|0:2,0:2:0:0:
183,338,82023,2,0,P|168:357|161:376,3,36.749998878479,2|0|0|0,3:2|0:2|0:2|0:2,0:2:0:0:
329,152,82366,6,0,P|322:175|322:196,3,36.749998878479,2|0|0|0,0:2|0:2|0:2|0:2,0:2:0:0:
241,212,82709,2,0,P|255:231|262:250,3,36.749998878479,2|0|0|0,3:2|0:2|0:2|0:2,0:2:0:0:
4,30,83051,6,0,P|19:64|19:91,3,36.749998878479,2|0|0|0,0:2|0:2|0:2|0:2,0:2:0:0:
95,53,83394,2,0,P|90:89|77:113,3,36.749998878479,2|0|0|0,3:2|0:2|0:2|0:2,0:2:0:0:
163,123,83737,2,0,P|141:152|117:166,3,36.749998878479,2|0|0|0,0:2|0:2|0:2|0:2,0:2:0:0:
55,221,84080,5,2,3:2:0:0:
78,268,84166,1,2,0:2:0:0:
53,280,84251,1,2,0:2:0:0:
44,304,84337,1,2,0:2:0:0:
35,309,84423,6,0,P|38:351|46:374,3,36.749998878479,2|0|0|0,0:2|0:2|0:2|0:2,0:2:0:0:
149,306,84766,2,0,P|133:316|119:328,3,36.749998878479,2|0|0|0,3:2|0:2|0:2|0:2,0:2:0:0:
155,192,85109,2,0,P|136:229|132:253,3,36.749998878479,2|0|0|0,0:2|0:2|0:2|0:2,0:2:0:0:
256,240,85452,2,0,P|237:240|219:244,3,36.749998878479,2|0|0|0,3:2|0:2|0:2|0:2,0:2:0:0:
487,151,85794,6,0,P|514:177|524:182,3,36.749998878479,2|0|0|0,0:2|0:2|0:2|0:2,0:2:0:0:
389,155,86137,2,0,P|398:170|403:188,3,36.749998878479,2|0|0|0,3:2|0:2|0:2|0:2,0:2:0:0:
337,67,86480,2,0,P|373:76|384:75,3,36.749998878479,2|0|0|0,0:2|0:2|0:2|0:2,0:2:0:0:
254,105,86823,2,0,P|270:113|283:126,3,36.749998878479,2|0|0|0,3:2|0:2|0:2|0:2,0:2:0:0:
32,32,87166,6,0,P|15:9|8:-6,3,36.749998878479,2|0|0|0,0:2|0:2|0:2|0:2,0:2:0:0:
112,59,87509,2,0,P|115:28|123:1,3,36.749998878479,2|0|0|0,3:2|0:2|0:2|0:2,0:2:0:0:
281,231,87851,6,0,P|289:258|290:274,3,36.749998878479,2|0|0|0,0:2|0:2|0:2|0:2,0:2:0:0:
215,178,88194,2,0,P|201:206|184:228,3,36.749998878479,2|0|0|0,3:2|0:2|0:2|0:2,0:2:0:0:
91,331,88537,6,0,P|95:314|105:299,3,36.749998878479,2|0|0|0,0:2|0:2|0:2|0:2,0:2:0:0:
184,383,88880,2,0,P|174:367|169:349,3,36.749998878479,2|0|0|0,3:2|0:2|0:2|0:2,0:2:0:0:
479,278,89223,5,2,0:2:0:0:
479,278,89566,1,2,0:2:0:0:
353,0,89909,5,6,1:2:0:0:
309,43,89994,1,2,0:2:0:0:
297,84,90080,1,2,0:2:0:0:
301,119,90166,1,2,0:2:0:0:
376,128,90251,5,10,0:2:0:0:
400,100,90337,1,2,0:2:0:0:
421,93,90423,1,2,0:2:0:0:
438,96,90509,1,2,0:2:0:0:
478,163,90594,5,2,0:2:0:0:
465,200,90680,1,2,0:2:0:0:
457,187,90766,1,2,1:2:0:0:
420,195,90851,1,2,0:2:0:0:
417,121,90937,5,10,0:2:0:0:
258,278,91109,5,2,0:2:0:0:
253,298,91194,1,2,0:2:0:0:
305,351,91280,5,2,1:2:0:0:
331,316,91366,1,2,0:2:0:0:
307,295,91451,1,2,0:2:0:0:
307,270,91537,1,2,0:2:0:0:
278,229,91623,5,10,0:2:0:0:
314,213,91709,1,2,0:2:0:0:
272,214,91794,1,2,0:2:0:0:
249,192,91880,1,2,0:2:0:0:
200,219,91966,5,2,0:2:0:0:
232,154,92051,1,2,0:2:0:0:
183,185,92137,1,2,1:2:0:0:
162,148,92223,1,2,0:2:0:0:
86,171,92309,6,2,B|22:161|-36:74|31:-8|31:-8|44:-1|44:-1|14:31|26:75,1,315,10|0,0:2|0:2,0:1:0:0:
100,52,92651,5,2,1:2:0:0:
155,67,92737,1,2,0:2:0:0:
204,56,92823,1,2,0:2:0:0:
236,26,92909,1,2,0:2:0:0:
311,37,92994,5,10,0:2:0:0:
291,41,93080,1,2,0:2:0:0:
282,51,93166,1,2,0:2:0:0:
282,60,93251,1,2,0:2:0:0:
246,123,93337,5,2,0:2:0:0:
286,154,93423,1,2,0:2:0:0:
340,163,93509,1,2,1:2:0:0:
397,153,93594,1,2,0:2:0:0:
365,132,93680,5,10,0:2:0:0:
355,100,93766,1,2,0:2:0:0:
401,59,93851,1,2,0:2:0:0:
391,95,93937,1,2,0:2:0:0:
418,79,94023,5,2,1:2:0:0:
456,62,94109,1,2,0:2:0:0:
500,100,94194,1,2,0:2:0:0:
494,139,94280,1,2,0:2:0:0:
469,129,94366,5,10,0:2:0:0:
446,149,94451,1,2,0:2:0:0:
443,191,94537,1,2,0:2:0:0:
475,225,94623,1,2,0:2:0:0:
486,185,94709,5,2,0:2:0:0:
443,172,94794,1,2,0:2:0:0:
432,197,94880,1,2,1:2:0:0:
415,194,94966,1,2,0:2:0:0:
431,239,95051,5,10,0:2:0:0:
371,210,95137,1,2,0:2:0:0:
339,161,95223,1,2,0:2:0:0:
330,116,95309,1,2,0:2:0:0:
402,91,95394,5,2,1:2:0:0:
355,145,95480,1,2,0:2:0:0:
307,149,95566,1,2,0:2:0:0:
272,132,95651,1,2,0:2:0:0:
200,171,95737,5,10,0:2:0:0:
227,133,95823,1,2,0:2:0:0:
220,101,95909,1,2,0:2:0:0:
201,90,95994,1,2,0:2:0:0:
120,81,96080,5,2,0:2:0:0:
132,125,96166,1,2,0:2:0:0:
85,129,96251,1,2,1:2:0:0:
100,80,96337,1,2,0:2:0:0:
176,68,96423,5,10,0:2:0:0:
42,305,96594,5,2,0:2:0:0:
15,293,96680,1,2,0:2:0:0:
47,204,96766,5,2,1:2:0:0:
56,224,96851,1,2,0:2:0:0:
95,243,96937,1,2,0:2:0:0:
82,272,97023,1,2,0:2:0:0:
103,286,97109,5,10,0:2:0:0:
77,314,97194,1,2,0:2:0:0:
100,357,97280,1,2,0:2:0:0:
141,357,97366,1,2,0:2:0:0:
167,329,97451,5,2,0:2:0:0:
139,309,97537,1,2,0:2:0:0:
165,263,97623,1,2,1:2:0:0:
234,293,97709,1,2,0:2:0:0:
245,372,97794,6,2,B|253:352|250:336|250:336|318:257|431:273|431:273|448:319|489:330,1,315,10|0,0:2|0:2,0:1:0:0:
364,384,98137,5,2,1:2:0:0:
326,339,98223,1,2,0:2:0:0:
318,292,98309,1,2,0:2:0:0:
327,252,98394,1,2,0:2:0:0:
358,296,98480,5,10,1:2:0:0:
386,291,98566,1,2,0:2:0:0:
401,261,98651,1,2,0:2:0:0:
404,308,98737,1,2,0:2:0:0:
468,339,98823,5,2,1:2:0:0:
500,297,98909,1,2,0:2:0:0:
510,262,98994,1,2,0:2:0:0:
501,218,99080,1,2,0:2:0:0:
486,176,99166,5,10,1:2:0:0:
500,181,99251,1,2,0:2:0:0:
463,211,99337,1,2,0:2:0:0:
454,202,99423,1,2,0:2:0:0:
419,130,99509,6,0,P|440:104|494:97,1,73.4999977569581,8|0,1:2|0:2,0:2:0:0:
394,253,99680,2,0,P|368:232|361:178,1,73.4999977569581,8|0,1:2|0:2,0:2:0:0:
238,58,99851,6,0,P|247:119|194:152,1,73.4999977569581,8|0,1:2|0:2,0:2:0:0:
104,89,100023,2,0,P|155:59|173:85,1,73.4999977569581,8|0,1:2|0:2,0:2:0:0:
183,182,100194,5,8,1:2:0:0:
176,173,100280,1,0,1:2:0:0:
160,165,100366,1,0,1:2:0:0:
133,163,100451,1,0,1:2:0:0:
63,182,100537,5,0,1:2:0:0:
97,184,100623,1,0,1:2:0:0:
132,211,100709,1,0,1:2:0:0:
145,267,100794,1,0,1:2:0:0:
110,333,100880,6,0,P|54:327|54:285,1,94.499997116089,0|0,1:2|0:2,0:2:0:0:
240,305,101051,2,0,P|164:302|121:364,1,157.5,0|0,3:2|0:2,0:2:0:0:
292,238,101394,6,2,B|309:254|309:254|315:323|358:371|358:371|371:367|371:367|356:219|476:142|476:142|506:43|506:43|490:39|490:39|477:70|432:82,1,598.499984018326,0|0,3:2|0:2,0:2:0:0:
420,3,102080,6,0,P|375:59|401:93,1,94.499997116089,0|0,3:2|0:2,0:2:0:0:
507,226,102251,2,2,B|514:244|508:264|508:264|441:173|329:145,1,231.000007049561,0|0,1:2|0:2,0:2:0:0:
40,10,102594,6,0,P|63:87|37:129,1,73.4999977569581,8|0,0:2|0:2,0:2:0:0:
296,15,102766,1,0,3:0:0:0:
296,15,102851,2,0,P|263:75|222:201,1,146.999995513916,0|0,1:2|0:2,0:2:0:0:
156,132,103109,2,0,P|151:96|158:60,1,73.4999977569581,0|0,1:2|0:2,0:2:0:0:
2,290,103280,6,0,B|-10:298|-10:312|-10:312|-6:314|-6:314|0:307|15:303,1,47.2499985580445,8|0,0:2|0:2,0:2:0:0:
94,233,103623,6,0,P|140:219|187:219,1,94.499997116089,0|0,1:2|0:2,0:2:0:0:
1,181,103794,6,2,B|118:263|154:369|154:369|142:317|179:254,1,315,0|0,3:2|0:2,0:2:0:0:
308,290,104137,6,0,P|235:335|232:367,1,94.499997116089,0|0,3:2|0:2,0:2:0:0:
412,138,104309,2,0,P|473:159|493:218,1,94.499997116089,0|0,3:2|0:2,0:2:0:0:
512,169,104480,2,0,P|524:232|483:279,1,94.499997116089,0|0,1:2|0:2,0:2:0:0:
440,311,104651,6,0,P|438:277|411:260,1,52.5,10|0,0:2|0:2,0:2:0:0:
400,267,104823,2,0,P|415:235|410:200,1,52.5,2|0,0:2|0:2,0:2:0:0:
214,195,104994,2,0,P|198:148|200:118,1,52.5,2|0,1:2|0:2,0:2:0:0:
327,110,105166,2,0,P|352:67|353:56,1,52.5,2|0,0:2|0:2,0:2:0:0:
53,170,105337,6,0,P|14:108|35:60,1,94.499997116089,10|0,0:2|0:2,0:2:0:0:
332,207,105509,6,2,B|269:147|125:167|81:265|81:265|87:293|73:320,1,330.749989906311,2|0,0:2|0:2,0:2:0:0:
243,353,105851,5,0,1:2:0:0:
231,327,105937,1,0,3:2:0:0:
154,339,106023,6,0,P|152:374|172:389,3,52.5,8|0|0|0,0:2|0:2|0:2|0:2,0:2:0:0:
183,267,106366,5,0,1:2:0:0:
182,267,106709,6,0,P|199:234|205:198,1,73.4999977569581,8|0,0:2|0:2,0:2:0:0:
101,277,106966,2,0,P|89:217|38:134,1,157.500006008148,0|0,1:2|0:2,0:2:0:0:
142,134,107223,2,0,P|144:95|160:60,1,78.7500030040742,0|0,1:2|0:2,0:2:0:0:
413,61,107394,6,0,P|461:32|514:18,1,110.249996635437,8|0,0:2|0:2,0:2:0:0:
344,14,107737,6,2,B|328:-18|263:-4|227:57|225:144|308:180|331:143,1,252,0|0,1:2|0:2,0:2:0:0:
399,141,108080,6,0,P|453:150|498:169,1,73.4999977569581,8|0,0:2|0:2,0:2:0:0:
421,359,108251,5,0,3:2:0:0:
421,359,108337,2,2,B|409:376|435:406|478:406|510:359|512:335|496:326,1,146.999995513916,0|0,1:2|0:2,0:2:0:0:
421,221,108594,5,0,1:2:0:0:
414,238,108680,1,0,3:2:0:0:
500,249,108766,6,0,B|461:236|299:264|428:334|257:365|221:354,1,283.499991348267,8|0,0:2|0:2,0:2:0:0:
148,257,109109,6,2,B|184:223|247:229|258:260,1,126,0|0,1:2|0:2,0:2:0:0:
0,173,109451,6,2,B|39:166|58:123|58:123|64:244|193:119|357:384|82:557|-85:313|84:104|218:129,1,661.499979812623,8|0,0:2|0:2,0:2:0:0:
148,118,110137,6,0,P|167:111|188:111,1,42,8|0,0:2|0:2,0:2:0:0:
255,160,110309,2,2,P|306:166|355:186,1,105,2|0,0:3|0:2,0:2:0:0:
512,6,110480,6,0,P|441:158|448:239,1,178.500003404617,8|0,0:2|0:2,0:2:0:0:
275,251,110737,2,0,P|221:262|193:277,1,73.4999977569581,0|0,1:2|0:2,0:2:0:0:
423,348,110994,6,0,P|384:248|301:139,1,178.500003404617,8|0,0:2|0:2,0:2:0:0:
145,109,111251,2,0,P|88:72|67:67,1,62.9999980773926,0|0,1:2|0:2,0:2:0:0:
259,125,111509,6,0,P|236:164|250:121,1,126,8|0,0:2|0:2,0:2:0:0:
416,60,111851,6,0,P|475:27|528:21,1,94.499997116089,4|0,1:2|0:2,0:2:0:0:
295,45,112194,6,0,P|384:72|506:186,1,210,8|0,0:2|0:2,0:2:0:0:
512,334,112451,2,0,P|463:362|443:303,1,105,0|0,1:2|0:2,0:2:0:0:
477,246,112709,5,0,1:2:0:0:
455,256,112794,1,0,3:2:0:0:
408,196,112880,6,0,P|332:200|284:241,1,105,8|0,0:2|0:2,0:2:0:0:
237,323,113051,2,0,P|211:305|180:299,1,62.9999980773926,0|0,1:2|0:2,0:2:0:0:
119,350,113223,6,2,B|193:282|161:211|116:167|64:212|95:229|114:230,1,220.499993270874,0|0,1:2|0:2,0:2:0:0:
62,293,113566,2,0,P|7:289|-4:268,1,73.4999977569581,8|0,0:2|0:2,0:2:0:0:
177,91,113737,5,0,3:2:0:0:
199,167,113823,2,2,B|155:211|76:183|29:104|75:58|126:79,1,220.499993270874,0|0,1:2|1:2,0:2:0:0:
2,61,114166,1,0,3:2:0:0:
0,151,114251,6,0,B|81:128|81:128|94:116|94:116|195:85,1,188.999994232178,8|0,0:2|0:2,0:2:0:0:
362,384,114594,5,0,1:2:0:0:
362,384,114680,1,0,0:2:0:0:
362,384,114766,1,0,0:2:0:0:
331,164,114937,6,0,P|285:246|282:339,1,188.999994232178,8|0,0:2|0:2,0:2:0:0:
364,297,115194,6,0,P|398:255|440:243,1,73.4999977569581,0|0,1:2|0:2,0:2:0:0:
496,244,115451,5,0,1:0:0:0:
507,252,115537,1,0,3:2:0:0:
512,165,115623,6,0,P|469:155|461:145,1,52.5,10|0,0:2|0:2,0:2:0:0:
443,164,115794,2,0,P|431:140|409:127,1,52.5,2|0,0:2|0:2,0:2:0:0:
218,98,115966,2,0,P|241:85|258:65,1,52.5,2|0,1:2|0:2,0:2:0:0:
117,162,116137,2,0,P|95:149|70:144,1,52.5,2|0,0:2|0:2,0:2:0:0:
335,202,116309,6,0,P|290:186|244:191,1,94.499997116089,10|0,0:2|0:2,0:2:0:0:
37,0,116480,6,2,B|38:27|38:27|145:121|173:262|173:262|200:271,1,330.749989906311,2|0,0:2|0:2,0:2:0:0:
7,279,116823,5,0,1:2:0:0:
0,259,116909,1,0,3:2:0:0:
82,235,116994,6,0,P|87:264|69:319,3,52.5,8|0|0|0,0:2|0:2|0:2|0:2,0:2:0:0:
74,375,117337,5,0,1:2:0:0:
74,375,117680,2,0,L|12:384,1,62.9999980773926,8|0,0:2|0:2,0:2:0:0:
146,346,117937,6,0,B|160:327|160:327|232:324|310:302,1,157.500006008148,0|0,1:2|0:2,0:2:0:0:
362,347,118194,2,0,B|351:352|351:352|317:331|266:330,1,78.7500030040742,0|0,1:2|0:2,0:2:0:0:
428,177,118366,6,0,P|458:141|502:126,1,94.499997116089,8|0,0:2|0:2,0:2:0:0:
397,79,118709,6,2,B|386:62|325:86|312:195|364:263,1,220.499993270874,0|0,1:2|0:2,0:2:0:0:
439,295,119051,6,0,P|458:259|498:256,1,84,8|0,0:2|0:2,0:2:0:0:
239,113,119223,5,0,3:2:0:0:
316,114,119309,2,2,B|325:193|263:278|216:289|184:262,1,220.499993270874,0|0,1:2|1:2,0:2:0:0:
150,206,119651,1,0,3:2:0:0:
114,132,119737,6,0,B|118:153|118:153|212:177|264:232,1,188.999994232178,8|0,0:2|0:2,0:2:0:0:
512,12,120080,6,0,P|478:48|475:115,1,94.499997116089,8|0,0:2|0:2,0:2:0:0:
476,267,120251,2,0,P|437:240|390:236,1,94.499997116089,8|0,0:2|0:2,0:2:0:0:
215,153,120423,6,0,P|234:105|225:70,1,68.2499968757631,8|0,0:2|0:2,0:2:0:0:
231,0,120594,2,0,P|278:19|313:10,1,68.2499968757631,8|0,0:2|0:2,0:2:0:0:
388,80,120766,5,8,0:2:0:0:
365,81,120852,1,0,3:2:0:0:
339,96,120938,1,0,3:2:0:0:
313,143,121023,1,0,3:2:0:0:
361,216,121109,5,8,3:1:0:0:
282,241,121194,1,0,3:2:0:0:
223,226,121280,1,0,3:2:0:0:
204,202,121366,1,0,3:2:0:0:
202,187,121451,6,0,P|220:164|220:137,1,52.5,2|0,0:3|0:2,0:2:0:0:
0,75,121623,5,0,0:2:0:0:
37,0,121709,2,0,P|102:72|118:226,1,188.999994232178,8|0,0:2|0:2,0:2:0:0:
55,202,121966,2,0,P|27:172|-5:163,1,68.2499968757631,2|0,0:3|0:2,0:2:0:0:
180,281,122137,5,10,3:2:0:0:
112,262,122223,1,2,1:2:0:0:
45,286,122309,1,2,3:2:0:0:
1,344,122394,1,2,3:2:0:0:
18,369,122480,6,0,L|111:349,1,78.75,2|0,1:3|0:2,0:2:0:0:
142,257,122823,5,6,1:2:0:0:
249,361,122994,1,2,0:2:0:0:
411,116,123166,1,10,0:2:0:0:
347,348,123337,5,2,0:2:0:0:
328,333,123423,2,0,B|344:222|344:222|341:206|341:206|350:133,1,157.500006008148,0|0,1:2|0:2,0:2:0:0:
430,205,123680,2,0,P|469:210|503:229,1,78.7500030040742,0|0,1:2|0:2,0:2:0:0:
275,112,123851,6,0,P|238:126|200:124,1,78.7500030040742,8|0,0:2|0:2,0:2:0:0:
499,64,124023,5,2,0:2:0:0:
512,72,124109,1,2,0:2:0:0:
512,26,124194,5,2,1:2:0:0:
436,19,124280,1,2,0:2:0:0:
409,64,124366,1,2,0:2:0:0:
439,103,124451,1,2,0:2:0:0:
464,139,124537,5,10,0:2:0:0:
411,99,124623,1,2,0:2:0:0:
372,138,124709,1,2,0:2:0:0:
355,135,124794,1,2,1:2:0:0:
333,113,124880,5,2,0:2:0:0:
331,199,124966,1,2,0:2:0:0:
264,199,125051,1,2,1:2:0:0:
268,155,125137,1,2,0:2:0:0:
188,166,125223,6,0,P|123:121|84:112,1,105,10|0,0:2|0:2,0:2:0:0:
50,44,125394,2,0,P|12:34|-23:44,1,52.5,2|0,0:2|0:2,0:2:0:0:
181,20,125566,5,2,1:2:0:0:
141,55,125651,1,2,0:2:0:0:
118,98,125737,1,2,0:2:0:0:
110,137,125823,1,2,0:2:0:0:
39,139,125909,5,10,0:2:0:0:
63,158,125994,1,2,0:2:0:0:
81,177,126080,1,2,0:2:0:0:
89,194,126166,1,2,1:2:0:0:
34,249,126251,5,2,0:2:0:0:
0,288,126337,1,2,0:2:0:0:
43,270,126423,1,2,1:2:0:0:
97,295,126509,1,2,0:2:0:0:
58,333,126594,1,10,0:2:0:0:
343,315,126766,5,2,0:2:0:0:
363,348,126851,1,2,0:2:0:0:
304,361,126937,5,2,1:2:0:0:
350,329,127023,1,2,0:2:0:0:
384,334,127109,1,2,0:2:0:0:
411,347,127194,1,2,0:2:0:0:
477,309,127280,5,10,0:2:0:0:
464,277,127366,1,2,0:2:0:0:
449,258,127451,1,2,0:2:0:0:
428,251,127537,1,2,1:2:0:0:
393,210,127623,5,2,0:2:0:0:
357,240,127709,1,2,0:2:0:0:
383,188,127794,1,2,1:2:0:0:
342,151,127880,1,2,0:2:0:0:
282,205,127966,5,10,0:2:0:0:
512,0,128137,1,2,0:2:0:0:
431,33,128309,5,2,1:2:0:0:
506,196,128480,1,2,0:2:0:0:
248,74,128651,2,0,P|206:66|177:32,1,78.7500030040742,10|0,0:2|0:2,0:2:0:0:
359,73,128823,5,2,0:2:0:0:
346,59,128909,2,0,B|336:119|336:119|339:129|339:129|326:216,1,157.500006008148,0|0,1:2|0:2,0:2:0:0:
310,181,129166,2,0,L|295:276,1,78.7500030040742,0|0,1:2|0:2,0:2:0:0:
511,111,129337,6,0,P|471:109|438:146,1,78.7500030040742,8|0,0:2|0:2,0:2:0:0:
180,207,129509,5,2,0:2:0:0:
176,187,129594,1,2,0:2:0:0:
208,227,129680,5,2,1:2:0:0:
142,270,129766,1,2,0:2:0:0:
105,209,129851,1,2,0:2:0:0:
95,215,129937,1,2,0:2:0:0:
113,187,130023,5,10,0:2:0:0:
71,144,130109,1,2,0:2:0:0:
46,171,130194,1,2,0:2:0:0:
37,152,130280,1,2,1:2:0:0:
59,146,130366,5,2,0:2:0:0:
103,93,130451,1,2,0:2:0:0:
45,39,130537,1,2,1:2:0:0:
63,77,130623,1,2,0:2:0:0:
137,64,130709,6,0,P|185:43|224:9,1,105,10|0,0:2|0:2,0:2:0:0:
288,74,130880,2,0,P|346:90|363:86,1,52.5,2|0,0:2|0:2,0:2:0:0:
467,202,131051,5,2,1:2:0:0:
417,168,131137,1,2,0:2:0:0:
378,164,131223,1,2,0:2:0:0:
352,174,131309,1,2,0:2:0:0:
271,185,131394,5,10,0:2:0:0:
294,224,131480,1,2,0:2:0:0:
301,254,131566,1,2,0:2:0:0:
291,279,131651,1,2,1:2:0:0:
214,281,131737,5,2,0:2:0:0:
248,344,131823,1,2,0:2:0:0:
215,380,131909,1,2,1:2:0:0:
192,334,131994,1,2,0:2:0:0:
121,338,132080,5,10,0:2:0:0:
486,313,132251,5,2,0:2:0:0:
502,321,132337,1,2,0:2:0:0:
413,350,132423,6,0,B|403:338|403:338|412:285|398:211,1,105,10|0,0:2|0:2,0:2:0:0:
379,337,132594,2,0,B|376:321|376:321|410:280|435:209,1,105,8|0,0:2|0:2,0:2:0:0:
288,38,132766,6,0,B|278:50|278:50|300:79|306:142,1,78.7500030040742,8|0,0:2|0:2,0:2:0:0:
263,45,132937,2,0,B|261:60|261:60|295:74|331:126,1,78.7500030040742,8|0,0:2|0:2,0:2:0:0:
483,122,133109,5,8,0:2:0:0:
492,113,133194,1,0,3:2:0:0:
499,96,133280,1,0,3:2:0:0:
497,76,133366,1,0,3:2:0:0:
475,51,133451,1,0,3:2:0:0:
427,48,133537,1,0,3:2:0:0:
376,73,133623,1,0,3:2:0:0:
327,131,133709,1,0,3:2:0:0:
300,213,133794,6,0,B|221:161|126:159|126:159|94:115,1,210,8|0,0:2|0:2,0:2:0:0:
49,287,134051,2,0,P|89:253|138:237,1,105,0|0,1:2|0:2,0:2:0:0:
301,295,134309,6,0,B|395:289|478:335|478:335|528:313,1,210,8|0,0:2|0:2,0:2:0:0:
512,162,134566,2,0,P|479:202|434:229,1,105,0|0,1:2|0:2,0:2:0:0:
413,228,134823,5,10,0:2:0:0:
430,207,134909,1,2,0:2:0:0:
432,169,134994,1,2,1:2:0:0:
403,118,135080,1,2,0:2:0:0:
329,87,135166,6,0,P|327:63|324:49,1,26.25,6|0,1:2|0:2,0:2:0:0:
344,65,135337,2,0,P|342:41|339:27,1,26.25,2|0,0:2|0:2,0:2:0:0:
130,359,135509,6,0,P|128:335|125:321,1,26.25,10|0,1:2|0:2,0:2:0:0:
145,337,135680,2,0,P|143:313|140:299,1,26.25,2|0,0:2|0:2,0:2:0:0:
24,119,135851,5,2,1:2:0:0:
4,205,135937,1,2,0:2:0:0:
70,260,136023,1,2,0:2:0:0:
37,195,136109,1,2,0:2:0:0:
95,144,136194,6,0,P|107:141|120:137,1,26.25,10|0,1:2|0:2,0:2:0:0:
109,155,136366,2,0,P|121:152|134:148,1,26.25,2|0,0:2|0:2,0:2:0:0:
360,373,136537,6,0,P|347:370|334:366,1,26.25,2|0,1:2|0:2,0:2:0:0:
346,384,136709,2,0,P|333:381|320:377,1,26.25,2|0,0:2|0:2,0:2:0:0:
495,244,136880,5,10,1:2:0:0:
445,309,136966,1,2,0:2:0:0:
478,234,137051,1,2,0:2:0:0:
411,193,137137,1,2,0:2:0:0:
369,227,137223,5,2,1:2:0:0:
378,280,137309,1,2,0:2:0:0:
326,233,137394,1,2,0:2:0:0:
335,201,137480,1,2,0:2:0:0:
311,184,137566,5,10,1:2:0:0:
275,196,137651,1,2,0:2:0:0:
284,237,137737,1,2,0:2:0:0:
271,226,137823,1,2,0:2:0:0:
224,287,137909,6,0,P|200:261|189:253,1,26.25,2|0,1:2|0:2,0:2:0:0:
206,289,138080,2,0,P|182:263|171:255,1,26.25,2|0,0:2|0:2,0:2:0:0:
512,60,138251,6,0,P|488:34|477:26,1,26.25,10|0,1:2|0:2,0:2:0:0:
494,62,138422,2,0,P|470:36|459:28,1,26.25,2|0,0:2|0:2,0:2:0:0:
370,148,138594,5,2,1:2:0:0:
416,90,138680,1,2,0:2:0:0:
375,27,138766,1,2,0:2:0:0:
382,73,138851,1,2,0:2:0:0:
336,100,138937,5,10,1:2:0:0:
344,72,139023,1,2,0:2:0:0:
311,29,139109,1,2,0:2:0:0:
234,22,139194,1,2,0:2:0:0:
260,9,139280,5,2,1:2:0:0:
293,73,139366,1,2,0:2:0:0:
240,60,139451,1,2,0:2:0:0:
226,80,139537,1,2,0:2:0:0:
172,77,139623,5,10,1:2:0:0:
217,126,139709,1,2,0:2:0:0:
170,151,139794,1,2,0:2:0:0:
165,137,139880,1,2,0:2:0:0:
99,103,139966,6,0,P|68:88|59:86,1,26.25,2|0,1:2|0:2,0:2:0:0:
436,41,140137,2,0,P|405:26|396:24,1,26.25,2|0,0:2|0:2,0:2:0:0:
223,352,140309,6,0,P|211:358|187:369,1,26.25,10|0,1:2|0:2,0:2:0:0:
189,279,140480,2,0,P|177:285|153:296,1,26.25,2|0,0:2|0:2,0:2:0:0:
478,157,140651,6,0,P|485:139|489:114,1,26.25,2|0,1:2|0:2,0:2:0:0:
458,171,140823,2,0,P|465:153|469:128,1,26.25,2|0,0:2|0:2,0:2:0:0:
179,33,140994,6,0,P|186:15|190:-10,1,26.25,10|0,1:2|0:2,0:2:0:0:
159,47,141166,2,2,P|166:29|170:4,1,26.25,2|0,0:2|0:2,0:2:0:0:
24,167,141337,5,2,1:2:0:0:
5,87,141423,1,2,0:2:0:0:
75,37,141509,1,2,0:2:0:0:
39,97,141594,1,2,0:2:0:0:
96,146,141680,6,0,P|115:136|141:136,1,26.25,10|0,1:2|0:2,0:2:0:0:
112,155,141851,2,0,P|131:145|157:145,1,26.25,2|0,0:2|0:2,0:2:0:0:
308,375,142023,6,0,P|289:365|263:365,1,26.25,2|0,1:2|0:2,0:2:0:0:
292,384,142194,2,0,P|273:374|247:374,1,26.25,2|0,0:2|0:2,0:2:0:0:
15,305,142366,5,10,1:2:0:0:
58,372,142451,1,2,0:2:0:0:
32,296,142537,1,2,0:2:0:0:
67,235,142623,1,2,0:2:0:0:
141,230,142709,5,2,1:2:0:0:
119,282,142794,1,2,0:2:0:0:
149,311,142880,1,2,0:2:0:0:
205,287,142966,1,2,0:2:0:0:
233,222,143051,5,10,1:2:0:0:
207,203,143137,1,2,0:2:0:0:
247,195,143223,1,2,0:2:0:0:
275,218,143309,1,2,0:2:0:0:
285,292,143394,6,0,P|307:300|328:314,1,26.25,2|0,1:2|0:2,0:2:0:0:
312,288,143566,2,0,P|334:296|355:310,1,26.25,2|0,0:2|0:2,0:2:0:0:
461,11,143737,6,0,P|483:19|504:33,1,26.25,10|0,1:2|0:2,0:2:0:0:
488,7,143909,2,0,P|510:15|531:29,1,26.25,2|0,0:2|0:2,0:2:0:0:
501,247,144080,5,2,1:2:0:0:
426,237,144166,1,2,0:2:0:0:
394,163,144251,1,2,0:2:0:0:
443,173,144337,1,2,0:2:0:0:
478,146,144423,5,10,1:2:0:0:
462,154,144509,1,2,0:2:0:0:
394,114,144594,5,2,0:2:0:0:
416,70,144680,1,2,0:2:0:0:
360,13,144766,6,0,B|339:22|339:22|332:93|286:136|286:136,1,105,8|0,1:2|0:2,0:2:0:0:
216,55,144937,2,0,B|235:77|229:135|229:135|248:148,1,105,8|0,1:2|0:2,0:2:0:0:
17,339,145109,6,0,B|32:333|32:333|39:287|72:262,1,78.7500030040742,8|0,1:2|0:2,0:2:0:0:
147,314,145280,2,0,B|131:292|139:247|139:247|132:239,1,78.7500030040742,8|0,1:2|0:2,0:2:0:0:
223,352,145451,5,8,1:2:0:0:
231,359,145537,1,0,1:2:0:0:
250,358,145623,1,0,1:2:0:0:
259,341,145709,1,0,1:2:0:0:
265,314,145794,1,0,1:2:0:0:
257,276,145880,1,0,1:2:0:0:
239,222,145966,1,0,1:2:0:0:
197,157,146051,1,0,1:2:0:0:
140,90,146137,6,0,B|97:91|60:73|60:73|7:86,1,94.499997116089,6|0,1:2|0:2,0:2:0:0:
275,121,146309,2,0,B|315:107|344:77|344:77|398:71,1,94.499997116089,6|0,1:2|0:2,0:2:0:0:
512,337,146480,6,0,P|437:257|334:221,1,220.499993270874,10|0,0:2|0:2,0:2:0:0:
394,155,146737,6,0,P|430:181|429:227,1,94.499997116089,2|0,1:2|0:2,0:2:0:0:
252,381,146909,1,2,0:2:0:0:
231,351,146994,5,2,1:2:0:0:
301,366,147080,1,2,0:2:0:0:
346,303,147166,2,0,P|342:265|319:249,1,52.5,10|0,0:2|0:2,0:2:0:0:
339,243,147337,6,0,P|251:265|222:260,1,105,2|0,0:3|0:2,0:2:0:0:
111,383,147509,6,0,B|117:359|117:359|166:312|162:231,1,105,6|0,1:2|0:2,0:2:0:0:
13,110,147680,2,0,B|21:68|52:40|52:40|58:17,1,105,6|0,1:2|0:2,0:2:0:0:
123,151,147851,5,10,0:2:0:0:
58,186,147937,1,2,0:2:0:0:
101,124,148023,1,2,0:2:0:0:
172,147,148109,1,2,1:2:0:0:
178,163,148194,5,2,0:2:0:0:
225,179,148280,1,2,0:2:0:0:
253,170,148366,1,2,1:2:0:0:
206,133,148451,1,2,0:2:0:0:
242,75,148537,5,10,0:2:0:0:
275,105,148623,1,2,0:2:0:0:
317,97,148709,1,2,0:2:0:0:
313,80,148794,1,2,0:2:0:0:
370,29,148880,6,0,P|402:96|405:139,1,105,6|0,1:2|0:2,0:2:0:0:
450,371,149051,2,0,P|480:303|511:273,1,105,6|0,1:2|0:2,0:2:0:0:
213,87,149223,6,0,P|266:182|375:187,1,210,10|0,0:2|0:2,0:2:0:0:
432,227,149480,6,0,P|454:191|497:193,1,89.2500017023087,2|0,1:2|0:2,0:2:0:0:
494,61,149651,1,2,0:2:0:0:
512,104,149737,5,2,1:2:0:0:
461,49,149823,1,2,0:2:0:0:
397,94,149909,6,0,P|356:110|279:113,1,89.2500017023087,12|0,0:2|0:2,0:2:0:0:
97,223,150080,6,0,P|18:193|-12:173,1,105,2|0,0:3|0:2,0:2:0:0:
126,300,150251,5,6,1:2:0:0:
178,246,150337,1,2,0:2:0:0:
249,271,150423,1,2,0:2:0:0:
190,217,150509,1,2,0:2:0:0:
261,181,150594,5,10,0:2:0:0:
261,228,150680,1,2,0:2:0:0:
286,239,150766,1,2,0:2:0:0:
330,205,150851,1,2,1:2:0:0:
389,257,150937,6,0,P|433:226|482:225,1,89.2500017023087,6|0,1:2|0:2,0:2:0:0:
512,364,151109,2,0,P|434:338|401:346,1,89.2500017023087,6|0,1:2|0:2,0:2:0:0:
239,365,151280,6,0,B|237:353|237:353|281:301|293:215,1,105,14|0,1:2|0:2,0:2:0:0:
144,153,151451,2,0,B|120:134|109:67|109:67|98:61,1,105,6|0,1:2|0:2,0:2:0:0:
466,40,151623,6,0,P|432:89|421:123,1,89.2500017023087,6|0,1:2|0:2,0:2:0:0:
382,18,151794,2,0,P|352:69|345:105,1,89.2500017023087,6|0,1:2|0:2,0:2:0:0:
79,190,151966,6,0,P|173:174|276:54,1,231.000007049561,10|0,0:2|0:2,0:2:0:0:
246,2,152223,6,0,P|189:33|214:79,1,89.2500017023087,2|0,1:2|0:2,0:2:0:0:
403,119,152394,1,2,0:2:0:0:
406,73,152480,5,2,1:2:0:0:
375,143,152566,1,2,0:2:0:0:
299,138,152651,6,0,P|289:96|274:66,1,52.5,14|0,0:2|0:2,0:2:0:0:
280,131,152823,2,0,P|270:89|255:59,1,52.5,2|0,0:3|0:2,0:2:0:0:
187,283,152994,6,0,P|199:207|247:155,1,105,6|0,1:2|0:2,0:2:0:0:
33,11,153166,2,0,P|20:86|-27:138,1,105,6|0,1:2|0:2,0:2:0:0:
47,286,153337,5,10,0:2:0:0:
0,238,153423,1,2,0:2:0:0:
73,246,153509,1,2,0:2:0:0:
97,211,153594,1,2,1:2:0:0:
74,193,153680,5,2,0:2:0:0:
127,170,153766,1,2,0:2:0:0:
164,233,153851,1,2,1:2:0:0:
195,205,153937,1,2,0:2:0:0:
181,170,154023,5,10,0:2:0:0:
240,196,154109,1,2,0:2:0:0:
251,241,154194,1,2,0:2:0:0:
236,252,154280,1,2,0:2:0:0:
296,304,154366,6,0,P|349:316|391:268,1,105,6|0,1:2|0:2,0:2:0:0:
423,67,154537,2,0,P|472:55|512:85,1,105,6|0,1:2|0:2,0:2:0:0:
478,259,154709,6,0,P|396:185|336:34,1,220.499993270874,10|0,0:2|0:2,0:2:0:0:
282,156,154966,6,0,P|285:217|232:234,1,89.2500017023087,2|0,1:2|0:2,0:2:0:0:
106,338,155137,1,2,0:2:0:0:
96,296,155223,5,2,1:2:0:0:
139,349,155309,1,2,0:2:0:0:
205,323,155394,6,0,P|199:278|171:218,1,89.2500017023087,14|0,0:2|0:2,0:2:0:0:
400,119,155566,2,0,P|384:160|379:205,1,89.2500017023087,2|0,0:3|0:2,0:2:0:0:
190,140,155737,6,0,P|115:93|-17:69,1,210,12|0,0:2|0:2,0:2:0:0:
26,162,155994,1,0,1:2:0:0:
92,201,156080,2,0,P|108:139|60:104,1,89.2500017023087,0|0,3:2|0:2,0:2:0:0:
320,295,156251,6,0,P|395:248|527:223,1,210,12|0,0:2|0:2,0:2:0:0:
480,319,156508,1,0,1:2:0:0:
414,358,156594,2,0,P|398:296|446:261,1,89.2500017023087,0|0,3:2|0:2,0:2:0:0:
496,78,156766,6,0,P|472:123|424:142,1,105,4|0,1:2|0:2,0:2:0:0:
253,255,156937,2,0,P|214:220|151:220,1,89.2500017023087,12|0,1:2|0:2,0:2:0:0:
27,247,157109,5,6,1:2:0:0:
0,315,157194,1,2,0:2:0:0:
21,357,157280,1,2,0:2:0:0:
55,374,157366,1,2,0:2:0:0:
77,303,157451,5,10,0:2:0:0:
127,291,157537,1,2,0:2:0:0:
153,305,157623,1,2,0:2:0:0:
161,323,157709,1,2,0:2:0:0:
206,295,157794,5,2,0:2:0:0:
248,313,157880,1,2,0:2:0:0:
279,272,157966,1,2,1:2:0:0:
249,278,158051,1,2,0:2:0:0:
195,224,158137,6,0,P|165:181|168:136,1,78.7500030040742,10|0,0:2|0:2,0:2:0:0:
24,26,158309,1,2,0:2:0:0:
0,36,158394,1,2,0:2:0:0:
5,112,158480,5,2,1:2:0:0:
61,107,158566,1,2,0:2:0:0:
88,57,158651,1,2,0:2:0:0:
105,88,158737,1,2,0:2:0:0:
161,40,158823,5,10,0:2:0:0:
196,67,158909,1,2,0:2:0:0:
192,92,158994,1,2,0:2:0:0:
236,72,159080,1,2,0:2:0:0:
254,114,159166,5,2,0:2:0:0:
272,72,159251,1,2,0:2:0:0:
317,66,159337,1,2,1:2:0:0:
320,79,159423,1,2,0:2:0:0:
319,159,159509,6,2,B|333:166|350:188|350:188|332:92|397:21,1,210,10|0,0:2|0:2,0:1:0:0:
486,15,159766,1,0,3:2:0:0:
512,95,159851,5,2,1:2:0:0:
465,110,159937,1,2,0:2:0:0:
439,136,160023,1,2,0:2:0:0:
433,154,160109,1,2,0:2:0:0:
447,232,160194,5,10,0:2:0:0:
465,238,160280,1,2,0:2:0:0:
472,247,160366,1,2,0:2:0:0:
471,255,160451,1,2,0:2:0:0:
430,285,160537,5,2,0:2:0:0:
400,227,160623,1,2,0:2:0:0:
369,243,160709,1,2,1:2:0:0:
336,230,160794,1,2,0:2:0:0:
289,259,160880,5,10,0:2:0:0:
271,211,160966,1,2,0:2:0:0:
303,187,161051,1,2,0:2:0:0:
253,196,161137,1,2,0:2:0:0:
234,244,161223,5,2,1:2:0:0:
182,265,161309,1,2,0:2:0:0:
142,249,161394,1,2,0:2:0:0:
136,230,161480,1,2,0:2:0:0:
77,210,161566,5,10,0:2:0:0:
122,197,161651,1,2,0:2:0:0:
112,183,161737,1,2,0:2:0:0:
142,155,161823,1,2,0:2:0:0:
116,154,161909,5,2,0:2:0:0:
73,131,161994,1,2,0:2:0:0:
75,89,162080,1,2,1:2:0:0:
93,107,162166,1,2,0:2:0:0:
135,44,162251,5,10,0:2:0:0:
185,95,162337,1,2,0:2:0:0:
246,119,162423,1,2,0:2:0:0:
295,108,162509,1,2,0:2:0:0:
262,91,162594,5,2,1:2:0:0:
212,114,162680,1,2,0:2:0:0:
183,143,162766,1,2,0:2:0:0:
169,166,162851,1,2,0:2:0:0:
104,198,162937,5,10,0:2:0:0:
128,234,163023,1,2,0:2:0:0:
135,262,163109,1,2,0:2:0:0:
128,281,163194,1,2,0:2:0:0:
91,291,163280,5,2,0:2:0:0:
98,253,163366,1,2,0:2:0:0:
46,228,163451,1,2,1:2:0:0:
0,279,163537,1,2,0:2:0:0:
42,347,163623,6,0,P|104:328|140:329,1,78.7500030040742,10|0,0:2|0:2,0:2:0:0:
322,354,163794,1,2,0:2:0:0:
330,378,163880,1,2,0:2:0:0:
253,382,163966,5,2,1:2:0:0:
271,332,164051,1,2,0:2:0:0:
244,322,164137,1,2,0:2:0:0:
223,334,164223,1,2,0:2:0:0:
209,317,164309,5,10,0:2:0:0:
256,254,164394,1,2,0:2:0:0:
292,288,164480,1,2,0:2:0:0:
323,283,164566,1,2,0:2:0:0:
333,247,164651,5,2,0:2:0:0:
358,289,164737,1,2,0:2:0:0:
406,299,164823,1,2,1:2:0:0:
407,315,164909,1,2,0:2:0:0:
450,383,164994,6,2,B|408:295|437:209|437:209|408:176,1,210,8|0,0:2|0:2,0:1:0:0:
375,81,165251,1,0,3:2:0:0:
445,108,165337,5,2,1:2:0:0:
404,100,165423,1,2,0:2:0:0:
370,104,165509,1,2,0:2:0:0:
348,118,165594,1,2,0:2:0:0:
324,197,165680,5,10,1:2:0:0:
293,177,165766,1,2,0:2:0:0:
275,161,165851,1,2,0:2:0:0:
267,145,165937,1,2,0:2:0:0:
190,148,166023,5,2,1:2:0:0:
196,111,166109,1,2,0:2:0:0:
230,80,166194,1,2,0:2:0:0:
186,83,166280,1,2,0:2:0:0:
142,137,166366,5,10,1:2:0:0:
99,171,166451,1,2,0:2:0:0:
65,155,166537,1,2,0:2:0:0:
89,139,166623,1,2,0:2:0:0:
31,87,166709,6,0,P|18:35|-14:1,1,78.7500030040742,8|0,1:2|0:2,0:2:0:0:
163,220,166880,2,0,P|176:272|208:306,1,78.7500030040742,8|0,1:2|0:2,0:2:0:0:
107,384,167051,6,0,P|160:318|162:271,1,105,8|0,1:2|0:2,0:2:0:0:
399,104,167223,2,0,P|346:170|344:217,1,105,8|0,1:2|0:2,0:2:0:0:
410,335,167394,5,10,1:2:0:0:
430,341,167480,1,0,3:2:0:0:
454,336,167566,1,0,3:2:0:0:
482,317,167651,1,0,3:2:0:0:
490,274,167737,5,10,3:2:0:0:
444,297,167823,1,0,3:2:0:0:
377,296,167909,1,0,3:2:0:0:
307,264,167994,1,0,3:2:0:0:
255,192,168080,6,0,B|247:179|229:169|229:169|217:148|233:124|225:95|225:95|235:123|261:133|264:159|264:159|254:177|255:192,2,220.499993270874,4|4|4,0:2|0:2|0:2,0:2:0:0:
