osu file format v14

[General]
AudioFilename: audio.mp3
AudioLeadIn: 0
PreviewTime: 71970
Countdown: 0
SampleSet: Soft
StackLeniency: 0.7
Mode: 0
LetterboxInBreaks: 0
WidescreenStoryboard: 1

[Editor]
Bookmarks: 5272,10406,15540,20673,25807,30941,36074,41208,46342,51475,56609,61743,66876,72010,77144,82278,87411,92545,97679,102650,103773
DistanceSpacing: 1
BeatDivisor: 4
GridSize: 32
TimelineZoom: 3.299999

[Metadata]
Title:Paved Garden
TitleUnicode:Paved Garden
Artist:ginkiha
ArtistUnicode:ginkiha
Creator:Smug Nanachi
Version:normal
Source:OverRapid
Tags:CROSSING DELTA rhythm video game dnb drum & bass electronic instrumental Feature Artist FA osu! smugna
BeatmapID:2369475
BeatmapSetID:1131098

[Difficulty]
HPDrainRate:3
CircleSize:3
OverallDifficulty:3
ApproachRate:5
SliderMultiplier:0.999999999999999
SliderTickRate:1

[Events]
//Background and Video events
0,0,"bg.jpg",0,0
//Break Periods
//Storyboard Layer 0 (Background)
//Storyboard Layer 1 (Fail)
//Storyboard Layer 2 (Pass)
//Storyboard Layer 3 (Foreground)
//Storyboard Layer 4 (Overlay)
//Storyboard Sound Samples

[TimingPoints]
139,320.855614973262,4,2,0,60,1,0
700,-100,4,2,0,5,0,0
780,-100,4,2,0,60,0,0
1342,-100,4,2,0,5,0,0
1422,-100,4,2,0,60,0,0
1983,-100,4,2,0,5,0,0
2064,-100,4,2,0,60,0,0
2304,-100,4,2,0,5,0,0
2384,-100,4,2,0,60,0,0
2625,-100,4,2,0,5,0,0
2705,-100,4,2,0,60,0,0
3267,-100,4,2,0,5,0,0
3347,-100,4,2,0,60,0,0
3909,-100,4,2,0,5,0,0
3989,-100,4,2,0,60,0,0
4069,-100,4,2,0,5,0,0
4149,-100,4,2,0,60,0,0
4229,-100,4,2,0,5,0,0
4310,-100,4,2,0,60,0,0
4390,-100,4,2,0,5,0,0
4470,-100,4,2,0,60,0,0
4550,-100,4,2,0,5,0,0
4630,-100,4,2,0,60,0,0
5834,-100,4,2,0,5,0,0
5914,-100,4,2,0,60,0,0
6475,-100,4,2,0,5,0,0
6556,-100,4,2,0,60,0,0
7117,-100,4,2,0,5,0,0
7197,-100,4,2,0,60,0,0
7438,-100,4,2,0,5,0,0
7518,-100,4,2,0,60,0,0
7759,-100,4,2,0,5,0,0
7839,-100,4,2,0,60,0,0
8962,-100,4,2,0,5,0,0
9122,-100,4,2,0,60,0,0
10406,-100,4,2,0,80,0,0
22278,-100,4,2,0,5,0,0
22438,-100,4,2,0,80,0,0
22759,-100,4,2,0,5,0,0
22919,-100,4,2,0,80,0,0
23160,-100,4,2,0,5,0,0
23240,-100,4,2,0,80,0,0
24764,-100,4,2,0,5,0,0
24844,-100,4,2,0,80,0,0
24925,-100,4,2,0,5,0,0
25005,-100,4,2,0,80,0,0
25245,-100,4,2,0,5,0,0
25326,-100,4,2,0,80,0,0
25406,-100,4,2,0,5,0,0
25486,-100,4,2,0,80,0,0
25727,-100,4,2,0,5,0,0
25807,-100,4,2,0,80,0,0
27331,-100,4,2,0,5,0,0
27411,-100,4,2,0,80,0,0
27652,-100,4,2,0,5,0,0
27732,-100,4,2,0,80,0,0
27973,-100,4,2,0,5,0,0
28053,-100,4,2,0,80,0,0
28294,-100,4,2,0,5,0,0
28374,-100,4,2,0,80,0,0
29016,-100,4,2,0,5,0,0
29176,-100,4,2,0,80,0,0
41208,-100,4,2,0,90,0,1
51475,-100,4,2,0,80,0,0
92545,-100,4,2,0,50,0,0
96315,-100,4,2,0,5,0,0
96395,-100,4,2,0,50,0,0
103775,-100,4,2,0,5,0,0

[Colours]
Combo1 : 245,152,157
Combo2 : 1,209,126
Combo3 : 255,250,205

[HitObjects]
262,85,139,6,0,B|328:63|385:81|339:67|373:138|412:106|485:127,2,200,2|2|2,0:3|0:0|0:3,0:0:0:0:
76,9,2064,2,0,B|67:39|65:82|65:82|78:104,1,99.9999999999999,2|2,0:0|0:0,0:0:0:0:
162,157,2705,6,0,B|136:205|84:209|84:209|87:211|87:211|54:258|54:258|48:304,2,200,2|2|2,0:3|0:0|0:3,0:0:0:0:
258,129,4310,1,2,0:0:0:0:
338,187,4630,2,0,B|357:208|353:232|353:232|360:234|360:234|386:311,1,99.9999999999999,2|2,0:3|0:3,0:0:0:0:
300,343,5272,6,0,B|263:358|228:349|228:349|224:352|224:352|170:348|153:367|153:367|99:313,2,200,2|2|2,0:3|0:0|0:3,0:0:0:0:
480,256,7197,2,0,B|431:225|467:218|388:175,1,99.9999999999999,2|2,0:0|0:0,0:0:0:0:
356,104,7839,6,0,B|322:100|298:127|322:174|322:174|396:119|436:145|412:155|476:160|520:128,1,300,2|0,0:3|0:0,0:0:0:0:
469,44,9122,2,0,B|426:18|393:12|393:12|381:17|381:17|368:12|368:12|324:8|282:30|282:30|258:5|188:-1,1,300,2|2,0:3|0:0,0:0:0:0:
155,93,10406,6,0,B|81:83|141:45|36:27,2,99.9999999999999,6|8|2,1:2|0:0|0:0,0:0:0:0:
202,107,11208,1,0,1:0:0:0:
230,147,11368,1,8,0:0:0:0:
288,227,11689,6,0,B|241:273|241:273|213:266|184:272,1,99.9999999999999,6|8,1:2|0:0,0:0:0:0:
157,277,12171,1,2,0:0:0:0:
107,280,12331,2,0,L|143:361,1,50,2|0,0:0|1:0,0:0:0:0:
137,374,12652,1,8,0:0:0:0:
236,360,12973,6,0,L|366:392,1,99.9999999999999,6|8,1:2|0:0,0:0:0:0:
369,348,13454,1,2,0:0:0:0:
418,345,13614,2,0,P|425:309|454:286,1,50,2|0,0:0|1:0,0:0:0:0:
476,274,13935,1,8,0:0:0:0:
473,173,14256,5,6,1:2:0:0:
387,120,14577,1,14,0:0:0:0:
308,181,14898,2,0,L|233:159,1,50,6|0,0:0|1:0,0:0:0:0:
219,137,15219,1,14,0:0:0:0:
250,41,15540,6,0,B|239:16|155:48|161:94,2,99.9999999999999,6|8|2,1:2|0:0|0:0,0:0:0:0:
285,76,16342,1,0,1:0:0:0:
334,83,16502,1,8,0:0:0:0:
407,150,16823,6,0,B|415:185|415:185|434:211|434:211|444:245,1,99.9999999999999,6|8,1:2|0:0,0:0:0:0:
423,287,17304,1,2,0:0:0:0:
385,320,17465,2,0,B|370:345|370:345|332:333,1,50,2|0,0:0|1:0,0:0:0:0:
303,319,17786,1,8,0:0:0:0:
209,353,18106,6,0,B|220:318|212:287|212:287|225:278|248:228,1,99.9999999999999,6|8,1:2|0:0,0:0:0:0:
190,230,18588,1,2,0:0:0:0:
146,205,18748,2,0,P|157:156|180:143,1,50,2|0,0:0|1:0,0:0:0:0:
191,123,19069,1,12,0:0:0:0:
289,106,19390,5,6,0:0:0:0:
316,204,19711,1,6,0:0:0:0:
385,275,20032,1,6,0:0:0:0:
482,293,20352,1,6,0:0:0:0:
512,186,20673,6,0,B|477:140|469:159|445:103,1,99.9999999999999,6|2,0:0|0:0,0:0:0:0:
376,40,21315,2,0,P|357:70|337:82,1,50,2|2,0:0|0:0,0:0:0:0:
209,143,21957,6,0,B|179:117|193:75|206:60|192:-17,2,150,2|2|2,0:3|0:3|0:3,0:0:0:0:
305,170,23240,6,0,B|285:188|281:212|281:212|264:215|232:251,1,99.9999999999999,2|2,0:0|0:0,0:0:0:0:
173,315,23882,2,0,B|168:340|168:340|191:348,1,50,2|2,0:0|0:0,0:0:0:0:
342,349,24524,6,0,B|377:377|417:228|370:234,1,150,2|2,0:3|0:3,0:0:0:0:
305,170,25326,1,2,0:0:0:0:
291,121,25486,1,2,0:3:0:0:
227,43,25807,6,0,B|170:85|195:45|129:101,1,99.9999999999999,2|2,0:3|0:0,0:0:0:0:
43,64,26449,2,0,P|44:91|31:112,1,50,2|2,0:0|0:0,0:0:0:0:
36,260,27090,6,0,B|49:284|51:305|51:305|67:326|117:327,1,99.9999999999999,2|2,0:3|0:3,0:0:0:0:
179,383,27732,2,0,B|192:358|194:338|194:338|210:317|260:316,1,99.9999999999999,2|2,0:3|0:3,0:0:0:0:
340,317,28374,6,0,B|328:232|268:206|266:278|208:141|228:107|280:81|286:98,1,250,2|2,0:3|0:0,0:0:0:0:
306,118,29336,2,0,P|343:115|367:83,1,50,2|2,0:0|0:0,0:0:0:0:
386,70,29657,6,0,P|434:82|478:106,2,99.9999999999999,0|0|0,1:0|1:0|1:0,0:0:0:0:
308,0,30620,2,0,L|236:22,1,50,0|0,1:0|1:0,0:0:0:0:
210,8,30941,5,6,1:2:0:0:
121,54,31261,2,0,P|99:86|101:108,1,50,10|2,0:0|0:0,0:0:0:0:
3,127,31743,2,0,P|25:159|23:181,1,50,0|10,1:0|0:0,0:0:0:0:
111,219,32224,6,0,B|117:191|166:166|241:191,2,99.9999999999999,6|8|2,1:2|0:0|0:0,0:0:0:0:
86,316,33187,1,8,0:0:0:0:
159,384,33507,5,6,1:2:0:0:
243,330,33828,2,0,B|246:309|246:309|228:257,1,50,8|2,0:0|0:0,0:0:0:0:
336,268,34310,2,0,B|326:240|326:240|329:219,1,50,0|10,1:2|0:0,0:0:0:0:
409,158,34791,6,0,B|429:172|454:172|454:172|484:183|484:183|511:221,2,99.9999999999999,6|8|2,1:2|0:0|0:0,0:0:0:0:
362,140,35593,1,2,1:2:0:0:
327,103,35753,2,0,L|251:118,1,50,14|6,0:0|1:2,0:0:0:0:
228,106,36074,6,0,P|180:60|134:54,2,99.9999999999999,4|0|0,1:2|1:0|1:0,0:0:0:0:
212,205,37037,2,0,L|127:237,1,50,0|0,1:0|1:0,0:0:0:0:
117,237,37358,2,0,B|109:224|109:224|130:156|130:156|125:142,2,99.9999999999999,4|0|0,1:2|1:0|1:0,0:0:0:0:
173,319,38320,2,0,L|234:377,1,50,0|8,1:0|0:3,0:0:0:0:
256,370,38641,5,4,1:2:0:0:
300,347,38802,1,0,1:0:0:0:
288,298,38962,1,0,1:0:0:0:
220,223,39283,1,0,1:0:0:0:
176,200,39443,1,0,1:0:0:0:
188,151,39604,1,0,1:0:0:0:
257,79,39925,6,0,B|260:50|249:29|249:29|327:-3|387:72,1,200,0|2,1:0|0:0,0:0:0:0:
481,73,40887,1,12,0:0:0:0:
438,164,41208,6,0,B|412:205|412:205|420:214|419:231|419:231|416:249|425:267|425:267|406:309,1,150,2|2,1:2|0:0,0:0:0:0:
392,347,41850,1,2,0:0:0:0:
291,349,42171,2,0,L|237:373,1,50,10|2,0:0|0:0,0:0:0:0:
195,369,42491,5,6,1:2:0:0:
174,271,42812,1,14,0:0:0:0:
273,261,43133,2,0,B|311:260|311:260|320:256|320:256|360:261,2,74.9999999999999,6|2|8,0:0|0:0|0:3,0:0:0:0:
257,213,43775,6,0,B|240:185|250:150|315:125|300:88|273:70,1,150,6|2,1:2|0:0,0:0:0:0:
253,36,44417,1,2,0:0:0:0:
154,20,44737,1,8,0:0:0:0:
114,111,45058,6,0,P|65:121|56:165,1,99.9999999999999,4|10,1:2|0:0,0:0:0:0:
38,212,45540,1,2,0:0:0:0:
82,234,45700,1,2,0:0:0:0:
173,191,46021,2,0,L|188:246,1,50,14|6,0:0|0:0,0:0:0:0:
167,285,46342,6,0,B|158:335|158:335|164:343|164:343|160:374|160:374|232:386,1,150,6|2,1:2|0:0,0:0:0:0:
264,369,46983,1,2,0:0:0:0:
360,342,47304,2,0,L|406:291,1,50,10|2,0:0|0:0,0:0:0:0:
430,270,47625,5,4,1:2:0:0:
384,181,47946,1,12,0:0:0:0:
468,127,48267,2,0,B|460:100|482:63|482:63|436:73|451:89|399:87,1,150,6|8,1:2|0:3,0:0:0:0:
358,66,48909,6,0,B|326:42|292:44|292:44|286:54|286:54|241:69|200:45,1,150,4|2,1:2|0:0,0:0:0:0:
174,33,49550,1,2,0:0:0:0:
173,133,49871,1,8,0:0:0:0:
269,160,50192,6,0,B|316:171|286:259,1,99.9999999999999,4|10,1:2|0:0,0:0:0:0:
242,259,50673,1,2,0:0:0:0:
192,250,50834,1,2,0:0:0:0:
140,166,51155,2,0,L|80:184,1,50,14|6,0:0|0:0,0:0:0:0:
43,169,51475,6,0,B|20:190|20:190|17:226|17:226|-7:267,1,99.9999999999999,6|8,1:2|0:0,0:0:0:0:
41,346,52117,2,0,B|88:349|86:328|144:313,1,99.9999999999999,2|8,0:0|0:0,0:0:0:0:
227,302,52759,6,0,P|262:332|256:402,2,99.9999999999999,6|8|0,1:2|0:0|1:0,0:0:0:0:
174,216,53721,1,10,0:0:0:0:
274,216,54042,5,6,1:2:0:0:
344,144,54363,2,0,L|405:126,1,50,10|2,0:0|3:2,0:0:0:0:
335,46,54844,2,0,L|289:24,1,50,2|10,0:3|0:0,0:0:0:0:
195,6,55326,5,6,1:2:0:0:
148,24,55486,2,0,B|93:83|76:53|40:86|43:124,1,150,2|2,3:2|1:2,0:0:0:0:
90,208,56288,1,10,0:0:0:0:
181,169,56609,6,0,L|162:284,1,99.9999999999999,6|8,1:2|0:0,0:0:0:0:
264,275,57251,2,0,B|290:266|290:266|286:307|324:334,1,99.9999999999999,2|8,1:2|0:0,0:0:0:0:
412,296,57893,2,0,P|418:359|455:390,2,99.9999999999999,6|8|0,1:2|0:0|1:0,0:0:0:0:
465,211,58855,1,10,0:0:0:0:
481,112,59176,5,6,1:2:0:0:
389,71,59497,2,0,L|336:60,1,50,10|2,0:2|3:2,0:0:0:0:
294,150,59978,2,0,L|245:160,1,50,2|10,0:3|0:0,0:0:0:0:
153,198,60459,6,0,P|187:218|182:289,1,99.9999999999999,14|10,0:0|0:0,0:0:0:0:
125,347,61101,1,10,0:0:0:0:
27,368,61422,2,0,P|11:343|12:313,1,50,10|10,0:0|0:0,0:0:0:0:
5,273,61743,6,0,P|52:218|65:176,1,99.9999999999999,6|8,1:2|0:0,0:0:0:0:
101,101,62384,2,0,B|128:80|128:80|131:56|131:56|157:68|188:69,1,99.9999999999999,2|8,1:2|0:0,0:0:0:0:
232,154,63026,6,0,B|256:137|256:137|281:132|281:132|278:107|278:107|282:77,2,99.9999999999999,2|8|0,1:2|0:0|1:0,0:0:0:0:
206,251,63989,1,10,0:0:0:0:
273,324,64310,5,6,1:2:0:0:
349,260,64630,2,0,B|383:251|383:251|400:220,1,50,10|2,0:0|3:2,0:0:0:0:
471,179,65112,2,0,B|505:188|505:188|522:219,1,50,2|10,0:3|0:0,0:0:0:0:
500,301,65593,5,6,1:2:0:0:
490,350,65753,2,0,B|444:351|444:351|419:378|334:375,1,150,2|2,3:2|1:2,0:0:0:0:
246,359,66556,1,10,0:0:0:0:
146,347,66876,6,0,L|41:366,1,99.9999999999999,14|10,0:0|0:0,0:0:0:0:
26,266,67518,2,0,L|124:248,1,99.9999999999999,10|10,0:0|0:0,0:0:0:0:
222,227,68160,2,0,L|204:128,1,99.9999999999999,14|10,0:0|0:0,0:0:0:0:
303,112,68802,2,0,L|320:210,1,99.9999999999999,10|10,0:0|0:0,0:0:0:0:
396,275,69443,5,4,1:2:0:0:
333,353,69764,1,0,1:0:0:0:
283,361,69925,1,0,1:0:0:0:
196,311,70245,1,0,1:0:0:0:
146,303,70406,1,0,1:0:0:0:
50,268,70727,5,4,1:2:0:0:
23,171,71048,1,4,1:2:0:0:
122,161,71368,1,6,1:2:0:0:
156,66,71689,1,6,1:2:0:0:
254,76,72010,5,6,1:2:0:0:
353,68,72331,2,0,P|367:88|389:98,1,50,10|2,0:0|0:0,0:0:0:0:
448,180,72812,2,0,P|427:194|402:196,1,50,2|10,1:2|0:0,0:0:0:0:
304,216,73294,2,0,P|271:243|236:306,1,99.9999999999999,6|10,1:2|0:0,0:0:0:0:
208,329,73775,2,0,P|151:317|123:351,1,99.9999999999999,2|2,3:2|1:2,0:0:0:0:
85,374,74256,1,10,0:0:0:0:
62,279,74577,5,6,1:2:0:0:
120,197,74898,2,0,B|109:183|109:183|114:174|114:174|97:151,1,50,10|2,0:0|0:0,0:0:0:0:
2,138,75379,2,0,B|13:124|13:124|8:115|8:115|25:92,1,50,2|10,1:2|0:0,0:0:0:0:
93,28,75860,2,0,B|138:22|138:22|162:39|162:39|182:78|182:78|215:94,1,150,6|2,1:2|3:2,0:0:0:0:
288,30,76663,1,2,1:2:0:0:
320,66,76823,1,10,0:0:0:0:
419,69,77144,5,6,1:2:0:0:
469,155,77465,2,0,B|438:166|438:166|426:191,1,50,10|2,0:0|0:0,0:0:0:0:
332,200,77946,2,0,B|324:184|324:184|293:173,1,50,2|10,1:2|0:0,0:0:0:0:
252,264,78427,2,0,B|222:285|222:285|212:318|212:318|226:360,1,99.9999999999999,6|10,1:2|0:0,0:0:0:0:
263,373,78909,2,0,B|299:351|299:351|365:374,1,99.9999999999999,2|2,3:2|1:2,0:0:0:0:
403,371,79390,1,10,0:0:0:0:
391,271,79711,5,6,1:2:0:0:
477,230,80032,2,0,L|455:177,1,50,10|2,0:0|0:0,0:0:0:0:
366,142,80513,2,0,L|313:164,1,50,2|10,1:2|0:0,0:0:0:0:
232,111,80994,2,0,B|263:90|274:50|274:50|271:9|220:1,1,150,6|2,1:2|3:2,0:0:0:0:
127,33,81796,1,2,1:2:0:0:
81,54,81957,1,10,0:0:0:0:
44,146,82278,5,6,1:2:0:0:
116,217,82598,2,0,L|94:278,1,50,10|2,0:0|0:0,0:0:0:0:
103,361,83080,2,0,L|164:386,1,50,2|10,0:0|0:0,0:0:0:0:
235,345,83561,2,0,B|294:326|266:326|330:299,1,99.9999999999999,6|10,1:2|0:0,0:0:0:0:
373,310,84042,1,2,3:2:0:0:
424,299,84203,2,0,B|405:240|405:268|378:204,1,99.9999999999999,2|10,1:2|0:0,0:0:0:0:
306,141,84844,5,6,1:2:0:0:
364,59,85165,2,0,L|418:42,1,50,10|2,0:0|0:0,0:0:0:0:
497,105,85647,2,0,L|512:152,1,50,2|10,0:0|0:0,0:0:0:0:
485,249,86128,2,0,B|480:276|480:276|422:308|457:326|383:379,1,150,6|2,1:2|3:2,0:0:0:0:
315,314,86930,1,2,0:0:0:0:
272,288,87090,1,10,0:0:0:0:
176,317,87411,6,0,B|137:282|137:282|81:288,1,99.9999999999999,12|10,0:0|0:0,0:0:0:0:
20,214,88053,2,0,B|59:179|59:179|115:185,1,99.9999999999999,8|10,0:0|0:0,0:0:0:0:
202,211,88695,1,14,0:0:0:0:
275,143,89016,1,10,0:0:0:0:
246,47,89336,1,10,0:0:0:0:
335,2,89657,1,10,0:0:0:0:
360,98,89978,5,4,1:2:0:0:
420,177,90299,1,0,1:0:0:0:
373,190,90459,1,0,3:0:0:0:
274,172,90780,1,0,3:0:0:0:
261,219,90941,1,0,1:0:0:0:
238,315,91261,6,0,P|172:304|140:281,1,99.9999999999999,6|2,3:2|3:2,0:0:0:0:
121,241,91743,1,2,3:2:0:0:
71,235,91903,1,2,3:2:0:0:
78,135,92224,2,0,P|80:97|71:78,1,50,2|2,3:2|3:2,0:0:0:0:
56,40,92545,5,6,0:0:0:0:
249,93,93187,1,2,0:0:0:0:
438,30,93828,1,2,0:3:0:0:
371,218,94470,2,0,P|352:252|341:325,1,99.9999999999999,2|2,0:0|0:0,0:0:0:0:
422,370,95112,5,2,0:3:0:0:
255,259,95753,1,2,0:0:0:0:
90,370,96395,6,0,L|111:259,1,99.9999999999999,2|2,0:3|0:0,0:0:0:0:
98,171,97037,1,2,0:0:0:0:
34,93,97358,1,2,0:0:0:0:
117,37,97679,5,2,0:3:0:0:
257,179,98320,1,2,0:0:0:0:
395,37,98962,1,2,0:3:0:0:
417,235,99604,2,0,P|357:218|356:188,1,99.9999999999999,2|2,0:0|0:0,0:0:0:0:
318,96,100245,6,0,B|333:187|210:193|210:193|176:270|171:232|134:304,1,300,2|0,0:3|0:0,0:0:0:0:
256,192,101529,12,0,103775,0:0:0:0:
