osu file format v14

[General]
AudioFilename: audio.mp3
AudioLeadIn: 0
PreviewTime: 71970
Countdown: 0
SampleSet: Soft
StackLeniency: 0.7
Mode: 0
LetterboxInBreaks: 0
WidescreenStoryboard: 1

[Editor]
Bookmarks: 5272,10406,15540,20673,25807,30941,36074,41208,46342,51475,56609,61743,66876,72010,77144,82278,87411,92545,97679,102650,103773
DistanceSpacing: 1.5
BeatDivisor: 4
GridSize: 32
TimelineZoom: 3.299999

[Metadata]
Title:Paved Garden
TitleUnicode:Paved Garden
Artist:ginkiha
ArtistUnicode:ginkiha
Creator:Smug Nanachi
Version:insane
Source:OverRapid
Tags:CROSSING DELTA rhythm video game dnb drum & bass electronic instrumental Feature Artist FA osu! smugna
BeatmapID:2369474
BeatmapSetID:1131098

[Difficulty]
HPDrainRate:6
CircleSize:4
OverallDifficulty:8
ApproachRate:9
SliderMultiplier:1.6
SliderTickRate:1

[Events]
//Background and Video events
0,0,"bg.jpg",0,0
//Break Periods
//Storyboard Layer 0 (Background)
//Storyboard Layer 1 (Fail)
//Storyboard Layer 2 (Pass)
//Storyboard Layer 3 (Foreground)
//Storyboard Layer 4 (Overlay)
//Storyboard Sound Samples

[TimingPoints]
139,320.855614973262,4,2,0,60,1,0
139,-133.333333333333,4,2,0,60,0,0
700,-133.333333333333,4,2,0,5,0,0
780,-133.333333333333,4,2,0,60,0,0
1342,-133.333333333333,4,2,0,5,0,0
1422,-133.333333333333,4,2,0,60,0,0
1983,-133.333333333333,4,2,0,5,0,0
2064,-133.333333333333,4,2,0,60,0,0
2304,-133.333333333333,4,2,0,5,0,0
2384,-133.333333333333,4,2,0,60,0,0
2625,-133.333333333333,4,2,0,5,0,0
2705,-133.333333333333,4,2,0,60,0,0
3267,-133.333333333333,4,2,0,5,0,0
3347,-133.333333333333,4,2,0,60,0,0
3909,-133.333333333333,4,2,0,5,0,0
3989,-133.333333333333,4,2,0,60,0,0
4069,-133.333333333333,4,2,0,5,0,0
4149,-133.333333333333,4,2,0,60,0,0
4229,-133.333333333333,4,2,0,5,0,0
4310,-133.333333333333,4,2,0,60,0,0
4390,-133.333333333333,4,2,0,5,0,0
4470,-133.333333333333,4,2,0,60,0,0
4550,-133.333333333333,4,2,0,5,0,0
4630,-133.333333333333,4,2,0,60,0,0
5834,-133.333333333333,4,2,0,5,0,0
5914,-133.333333333333,4,2,0,60,0,0
6475,-133.333333333333,4,2,0,5,0,0
6556,-133.333333333333,4,2,0,60,0,0
7117,-133.333333333333,4,2,0,5,0,0
7197,-133.333333333333,4,2,0,60,0,0
7438,-133.333333333333,4,2,0,5,0,0
7518,-133.333333333333,4,2,0,60,0,0
7759,-133.333333333333,4,2,0,5,0,0
7839,-133.333333333333,4,2,0,60,0,0
8962,-133.333333333333,4,2,0,5,0,0
9122,-200,4,2,0,60,0,0
10406,-100,4,2,0,80,0,0
20673,-200,4,2,0,80,0,0
21957,-100,4,2,0,80,0,0
22278,-100,4,2,0,5,0,0
22438,-100,4,2,0,80,0,0
22759,-100,4,2,0,5,0,0
22919,-100,4,2,0,80,0,0
23160,-100,4,2,0,5,0,0
23240,-200,4,2,0,80,0,0
24524,-100,4,2,0,80,0,0
24764,-100,4,2,0,5,0,0
24844,-100,4,2,0,80,0,0
24925,-100,4,2,0,5,0,0
25005,-100,4,2,0,80,0,0
25245,-100,4,2,0,5,0,0
25326,-100,4,2,0,80,0,0
25406,-100,4,2,0,5,0,0
25486,-100,4,2,0,80,0,0
25727,-100,4,2,0,5,0,0
25807,-200,4,2,0,80,0,0
27090,-100,4,2,0,80,0,0
27331,-100,4,2,0,5,0,0
27411,-100,4,2,0,80,0,0
27652,-100,4,2,0,5,0,0
27732,-100,4,2,0,80,0,0
27973,-100,4,2,0,5,0,0
28053,-100,4,2,0,80,0,0
28294,-100,4,2,0,5,0,0
28374,-100,4,2,0,80,0,0
29016,-100,4,2,0,5,0,0
29176,-133.333333333333,4,2,0,80,0,0
30941,-100,4,2,0,80,0,0
36074,-200,4,2,0,80,0,0
37358,-133.333333333333,4,2,0,80,0,0
38641,-100,4,2,0,80,0,0
41208,-76.9230769230769,4,2,0,90,0,1
51475,-100,4,2,0,80,0,0
92545,-133.333333333333,4,2,0,50,0,0
96315,-133.333333333333,4,2,0,5,0,0
96395,-133.333333333333,4,2,0,50,0,0
103775,-133.333333333333,4,2,0,5,0,0

[Colours]
Combo1 : 245,152,157
Combo2 : 1,209,126
Combo3 : 255,250,205

[HitObjects]
281,80,139,6,0,B|394:53|364:146|495:118,1,210.000008010865,2|0,0:3|0:0,0:0:0:0:
478,120,780,2,0,B|365:93|395:186|264:158,1,210.000008010865,2|0,0:0|0:0,0:0:0:0:
213,117,1422,5,2,0:3:0:0:
172,333,2064,5,2,0:0:0:0:
172,333,2384,1,2,0:0:0:0:
111,263,2705,6,0,L|332:215,1,210.000008010865,2|0,0:3|0:0,0:0:0:0:
317,219,3347,2,0,L|111:174,1,210.000008010865,2|0,0:0|0:0,0:0:0:0:
29,213,3989,6,0,P|18:176|28:155,1,60.0000022888184,2|2,0:3|0:0,0:0:0:0:
77,94,4310,2,0,P|114:83|135:93,1,60.0000022888184,2|2,0:0|0:0,0:0:0:0:
112,174,4630,5,2,0:3:0:0:
112,174,4951,1,2,0:3:0:0:
196,36,5272,6,0,B|173:116|173:116|202:154|202:154|183:244,1,210.000008010865,2|0,0:3|0:0,0:0:0:0:
185,231,5914,2,0,B|265:254|265:254|303:225|303:225|393:244,1,210.000008010865,2|0,0:0|0:0,0:0:0:0:
455,261,6556,5,2,0:3:0:0:
237,327,7197,5,2,0:0:0:0:
237,327,7518,1,2,0:0:0:0:
204,131,7839,5,2,0:3:0:0:
256,192,7919,12,0,8962,0:0:0:0:
74,85,9122,6,0,L|52:164,3,80,2|2|2|2,0:3|0:0|0:0|0:0,0:0:0:0:
47,175,10406,6,0,B|134:183|99:222|199:227,1,160,6|8,1:2|0:0,0:0:0:0:
305,128,10887,1,2,0:0:0:0:
305,128,10967,1,2,0:0:0:0:
305,128,11048,2,0,L|239:110,1,40,2|2,0:0|0:0,0:0:0:0:
177,92,11208,1,0,1:0:0:0:
376,183,11368,2,0,B|397:124|397:124|374:67,1,120,8|0,0:0|0:0,0:0:0:0:
376,72,11689,6,0,L|346:243,1,160,6|8,1:2|0:0,0:0:0:0:
223,261,12171,1,2,0:0:0:0:
223,261,12251,1,2,0:0:0:0:
223,261,12331,2,0,P|234:283|235:311,1,40,2|2,0:0|0:0,0:0:0:0:
241,384,12491,1,0,1:0:0:0:
405,384,12652,2,0,P|362:326|299:332,1,120,8|0,0:0|0:0,0:0:0:0:
318,323,12973,6,0,P|396:306|472:280,1,160,6|8,1:2|0:0,0:0:0:0:
369,199,13454,1,2,0:0:0:0:
369,199,13534,1,2,0:0:0:0:
369,199,13614,2,0,P|350:194|332:186,1,40,2|2,0:0|0:0,0:0:0:0:
253,155,13775,1,0,1:0:0:0:
233,360,13935,2,0,B|211:290|258:296|216:215,1,120,8|0,0:0|0:0,0:0:0:0:
229,243,14256,6,0,P|177:270|141:268,1,80,6|0,1:2|0:0,0:0:0:0:
93,153,14577,2,0,P|145:180|181:178,1,80,14|0,0:0|0:0,0:0:0:0:
278,163,14898,2,0,P|228:131|212:99,1,80,6|0,0:0|1:0,0:0:0:0:
287,0,15219,2,0,P|289:58|309:88,1,80,14|0,0:0|0:0,0:0:0:0:
420,232,15540,6,0,B|382:218|366:194|366:194|349:248|265:258,1,160,6|8,1:2|0:0,0:0:0:0:
159,148,16021,1,2,0:0:0:0:
159,148,16101,1,2,0:0:0:0:
159,148,16181,2,0,P|178:147|198:151,1,40,2|2,0:0|0:0,0:0:0:0:
278,163,16342,1,0,1:0:0:0:
153,56,16502,2,0,B|74:67|107:91|14:102,1,120,8|0,0:0|0:0,0:0:0:0:
40,97,16823,6,0,P|25:174|52:248,1,160,6|8,1:2|0:0,0:0:0:0:
185,267,17304,1,2,0:0:0:0:
181,261,17384,1,2,0:0:0:0:
178,256,17465,2,0,P|186:239|201:225,1,40,2|2,0:0|0:0,0:0:0:0:
291,190,17625,1,0,1:0:0:0:
300,384,17786,2,0,B|314:332|314:332|264:268,1,120,8|0,0:0|0:0,0:0:0:0:
273,279,18106,6,0,B|196:264|208:349|106:334,1,160,6|8,1:2|0:0,0:0:0:0:
16,212,18588,1,2,0:0:0:0:
16,212,18668,1,2,0:0:0:0:
16,212,18748,2,0,L|75:234,1,40,2|2,0:0|0:0,0:0:0:0:
133,253,18909,1,0,1:0:0:0:
249,158,19069,2,0,P|258:103|206:81,1,120,12|0,0:0|0:0,0:0:0:0:
206,81,19390,6,0,P|149:109|118:101,1,80,6|0,0:0|0:0,0:0:0:0:
310,207,19711,2,0,P|367:235|398:227,1,80,6|0,0:0|0:0,0:0:0:0:
205,384,20032,2,0,L|226:291,1,80,6|0,0:0|0:0,0:0:0:0:
394,224,20352,2,0,L|411:302,1,80,6|0,0:0|0:0,0:0:0:0:
475,372,20673,6,0,L|516:386,2,40,6|0|2,0:0|0:0|0:0,0:0:0:0:
325,299,21315,2,0,L|281:322,1,40,2|2,0:0|0:0,0:0:0:0:
199,195,21796,1,2,0:0:0:0:
184,276,21957,6,0,P|221:343|399:353,2,240,2|2|2,0:3|0:3|0:3,0:0:0:0:
242,139,23240,6,0,L|260:87,2,40,2|0|2,0:0|0:0|0:0,0:0:0:0:
348,252,23882,2,0,P|371:240|396:242,1,40,2|2,0:0|0:0,0:0:0:0:
502,133,24363,1,2,0:0:0:0:
512,223,24524,6,0,P|465:213|398:299,1,160,2|2,0:3|0:0,0:0:0:0:
289,384,25005,2,0,P|222:345|223:269,1,160,2|2,0:3|0:0,0:0:0:0:
100,183,25486,2,0,L|73:269,1,80,2|0,0:3|0:0,0:0:0:0:
33,352,25807,6,0,L|1:394,2,40,2|0|2,0:3|0:0|0:0,0:0:0:0:
199,303,26449,2,0,L|164:263,1,40,2|2,0:0|0:0,0:0:0:0:
63,151,26930,1,2,0:0:0:0:
127,90,27090,6,0,L|214:116,1,80,2|0,0:3|0:0,0:0:0:0:
286,68,27411,2,0,L|373:94,1,80,2|0,0:3|0:0,0:0:0:0:
241,198,27732,2,0,L|328:224,1,80,2|0,0:3|0:0,0:0:0:0:
400,176,28053,2,0,L|487:202,1,80,2|0,0:3|0:0,0:0:0:0:
336,377,28374,6,0,P|284:226|285:67,1,320,2|0,0:3|0:0,0:0:0:0:
342,12,29176,6,0,P|365:28|364:57,2,60.0000022888184,2|2|2,0:0|0:0|0:0,0:0:0:0:
286,67,29657,5,0,1:0:0:0:
205,93,29978,1,0,1:0:0:0:
126,119,30299,1,0,1:0:0:0:
195,217,30620,6,0,L|210:180,1,30.0000011444092,0|0,1:0|0:0,0:0:0:0:
126,119,30780,2,0,L|137:146,1,30.0000011444092,0|0,1:0|0:0,0:0:0:0:
70,269,30941,5,6,1:2:0:0:
70,269,31261,6,0,L|133:248,1,40,10|0,0:0|0:0,0:0:0:0:
254,301,31422,2,0,B|182:291|182:291|151:350,1,120,2|0,0:0|0:0,0:0:0:0:
163,354,31743,1,0,1:0:0:0:
178,213,31903,1,10,0:0:0:0:
176,203,31983,1,2,0:0:0:0:
174,193,32064,1,2,0:0:0:0:
331,255,32224,6,0,P|343:292|365:326,1,80,6|0,1:2|0:0,0:0:0:0:
380,337,32465,2,0,P|388:320|404:308,1,40,2|8,0:0|0:0,0:0:0:0:
496,192,32705,1,2,0:0:0:0:
425,140,32866,2,0,P|422:185|406:240,1,80,2|0,0:0|1:0,0:0:0:0:
295,151,33187,6,0,P|283:134|265:125,1,40,8|0,0:0|0:0,0:0:0:0:
154,99,33347,2,0,P|172:93|192:96,1,40,2|2,0:0|0:0,0:0:0:0:
185,206,33507,5,6,1:2:0:0:
184,212,33828,6,0,L|200:164,1,40,8|0,0:0|0:0,0:0:0:0:
237,12,33989,2,0,B|252:40|252:40|364:67,1,120,2|0,0:0|0:0,0:0:0:0:
353,53,34310,1,0,1:2:0:0:
416,173,34470,1,10,0:0:0:0:
406,169,34550,1,2,0:0:0:0:
397,166,34630,1,2,0:0:0:0:
268,289,34791,6,0,B|249:254|249:254|265:217,1,80,6|0,1:2|0:0,0:0:0:0:
279,210,35032,2,0,L|266:160,1,40,2|8,0:0|0:0,0:0:0:0:
238,56,35272,1,2,0:0:0:0:
238,56,35352,1,2,0:0:0:0:
238,56,35433,1,2,0:0:0:0:
157,115,35593,1,2,1:2:0:0:
40,0,35753,6,0,P|66:28|71:58,1,40,14|0,0:0|0:0,0:0:0:0:
145,39,35914,2,0,P|133:75|110:94,1,40,6|0,1:2|0:0,0:0:0:0:
68,132,36074,6,0,L|-15:113,3,80,4|0|0|0,1:2|1:0|1:0|1:0,0:0:0:0:
46,219,37197,1,0,1:0:0:0:
160,116,37358,6,0,L|193:-14,3,120.000004577637,4|0|0|0,1:2|1:0|1:0|1:0,0:0:0:0:
98,37,38481,1,8,0:3:0:0:
260,140,38641,5,4,1:2:0:0:
269,137,38721,1,0,3:0:0:0:
279,135,38802,1,0,1:0:0:0:
289,132,38882,1,0,3:0:0:0:
298,130,38962,1,0,1:0:0:0:
314,155,39042,1,0,3:0:0:0:
338,171,39122,1,0,1:0:0:0:
368,176,39203,1,0,3:0:0:0:
397,169,39283,6,0,L|438:149,3,40,0|0|0|0,1:0|3:0|1:0|3:0,0:0:0:0:
301,243,39604,2,0,L|260:223,3,40,0|0|0|0,1:0|3:0|1:0|3:0,0:0:0:0:
484,351,39925,6,0,P|493:314|468:285,1,80,0|0,1:0|1:0,0:0:0:0:
370,384,40245,2,0,B|288:385|314:318|217:320,1,160,8|2,0:0|0:0,0:0:0:0:
157,378,40727,1,2,1:2:0:0:
82,208,40887,6,0,B|130:222|130:222|153:299,1,120,12|0,0:0|0:0,0:0:0:0:
150,289,41208,6,0,B|111:307|111:307|102:324|102:324|47:347,1,103.999995239258,2|0,1:2|2:0,0:0:0:0:
0,384,41449,2,0,L|20:314,1,51.999997619629,2|8,0:0|0:0,0:0:0:0:
180,368,41689,2,0,L|247:386,1,51.999997619629,2|0,0:0|0:0,0:0:0:0:
224,196,41850,2,0,B|210:266|239:235|233:299,1,103.999995239258,2|0,0:0|1:0,0:0:0:0:
324,152,42171,6,0,L|374:164,1,51.999997619629,10|0,0:0|0:0,0:0:0:0:
450,172,42331,2,0,L|399:184,1,51.999997619629,2|0,0:0|0:0,0:0:0:0:
242,152,42491,6,0,P|268:83|344:76,1,155.999992858887,6|0,1:2|0:0,0:0:0:0:
344,76,42812,2,0,P|276:71|187:45,1,155.999992858887,14|0,0:0|0:0,0:0:0:0:
131,0,43133,6,0,P|100:16|98:40,1,51.999997619629,6|0,0:0|0:0,0:0:0:0:
51,102,43294,1,0,1:0:0:0:
51,102,43374,2,0,P|40:135|55:153,1,51.999997619629,2|8,0:0|0:0,0:0:0:0:
91,223,43534,1,0,0:0:0:0:
91,223,43614,2,0,P|106:253|131:256,1,51.999997619629,8|0,0:3|0:0,0:0:0:0:
177,188,43775,6,0,L|194:71,1,103.999995239258,6|0,1:2|0:0,0:0:0:0:
230,21,44016,2,0,B|254:34|254:34|264:70,1,51.999997619629,2|8,0:0|0:0,0:0:0:0:
266,170,44256,2,0,B|272:146|272:146|296:133,1,51.999997619629,2|0,0:0|0:0,0:0:0:0:
439,233,44417,2,0,B|402:201|402:201|327:213,1,103.999995239258,2|0,0:0|1:0,0:0:0:0:
238,359,44737,5,8,0:0:0:0:
258,200,44898,2,0,L|276:275,1,51.999997619629,2|2,0:0|0:0,0:0:0:0:
238,384,45058,6,0,P|292:342|395:345,1,155.999992858887,4|2,1:2|0:0,0:0:0:0:
456,368,45379,2,0,P|460:353|450:309,1,51.999997619629,10|0,0:0|0:0,0:0:0:0:
400,257,45540,2,0,P|375:251|350:256,1,51.999997619629,2|0,0:0|0:0,0:0:0:0:
283,208,45700,2,0,P|279:193|289:149,1,51.999997619629,2|0,0:0|0:0,0:0:0:0:
338,97,45860,2,0,P|363:91|388:95,1,51.999997619629,2|0,1:2|0:0,0:0:0:0:
370,175,46021,5,14,0:0:0:0:
370,175,46181,1,6,0:0:0:0:
218,0,46342,6,0,B|251:44|251:44|235:89,1,103.999995239258,6|0,1:2|0:0,0:0:0:0:
210,160,46582,2,0,L|145:178,1,51.999997619629,2|8,0:0|0:0,0:0:0:0:
122,336,46823,2,0,L|140:271,1,51.999997619629,2|0,0:0|0:0,0:0:0:0:
51,202,46983,2,0,B|87:221|87:221|99:242|99:242|169:270,1,103.999995239258,2|0,0:0|1:0,0:0:0:0:
249,141,47304,6,0,P|226:166|233:196,1,51.999997619629,10|0,0:0|0:0,0:0:0:0:
349,218,47465,2,0,P|324:195|294:202,1,51.999997619629,2|0,0:0|0:0,0:0:0:0:
213,353,47625,6,0,B|318:332|255:291|393:299,1,155.999992858887,4|0,1:2|0:0,0:0:0:0:
355,298,47946,2,0,P|328:201|341:130,1,155.999992858887,12|0,0:0|0:0,0:0:0:0:
387,78,48267,6,0,L|429:41,1,51.999997619629,6|0,1:2|0:0,0:0:0:0:
301,67,48427,1,0,1:0:0:0:
301,67,48507,2,0,L|247:49,1,51.999997619629,2|8,0:0|0:0,0:0:0:0:
335,147,48668,1,0,0:0:0:0:
335,147,48748,2,0,L|346:201,1,51.999997619629,8|0,0:3|0:0,0:0:0:0:
372,281,48909,6,0,P|311:282|238:244,1,103.999995239258,4|0,1:2|0:0,0:0:0:0:
245,195,49149,2,0,P|214:209|206:238,1,51.999997619629,2|8,0:0|0:0,0:0:0:0:
85,326,49390,2,0,P|98:304|123:297,1,51.999997619629,2|0,0:0|0:0,0:0:0:0:
190,384,49550,2,0,P|188:326|132:274,1,103.999995239258,2|0,0:0|1:0,0:0:0:0:
55,150,49871,5,8,0:0:0:0:
70,302,50032,2,0,L|84:240,1,51.999997619629,2|2,0:0|0:0,0:0:0:0:
33,133,50192,6,0,B|132:132|90:97|188:102,1,155.999992858887,4|2,1:2|0:0,0:0:0:0:
218,23,50513,2,0,L|278:56,1,51.999997619629,10|0,0:0|0:0,0:0:0:0:
378,68,50673,2,0,L|332:93,1,51.999997619629,2|0,0:0|0:0,0:0:0:0:
256,130,50834,2,0,L|291:188,1,51.999997619629,2|0,0:0|0:0,0:0:0:0:
369,188,50994,2,0,L|333:246,1,51.999997619629,2|0,1:2|0:0,0:0:0:0:
295,309,51155,5,14,0:0:0:0:
295,309,51315,1,6,0:0:0:0:
124,267,51475,6,0,P|183:247|252:238,1,120,6|2,1:2|0:0,0:0:0:0:
267,224,51796,2,0,B|282:258|282:258|257:308,1,80,8|2,0:0|0:0,0:0:0:0:
179,384,52117,1,2,0:0:0:0:
95,358,52278,2,0,B|80:324|80:324|105:274,1,80,2|8,0:0|0:0,0:0:0:0:
184,167,52598,1,2,0:0:0:0:
57,80,52759,6,0,L|42:142,1,40,6|0,1:2|0:0,0:0:0:0:
84,191,52919,2,0,L|74:152,1,40,2|0,3:2|0:0,0:0:0:0:
13,6,53080,2,0,P|89:-3|141:54,1,160,8|0,0:0|1:0,0:0:0:0:
301,40,53561,1,2,0:3:0:0:
301,40,53641,1,2,0:3:0:0:
300,39,53721,2,0,P|271:11|233:0,1,80,10|0,0:0|0:0,0:0:0:0:
158,152,54042,6,0,L|294:113,1,120,6|2,1:2|0:0,0:0:0:0:
340,160,54363,2,0,P|330:177|326:196,1,40,10|0,0:0|0:0,0:0:0:0:
260,255,54524,2,0,P|250:237|246:218,1,40,2|0,3:2|0:0,0:0:0:0:
412,195,54684,1,0,1:0:0:0:
479,323,54844,1,2,0:3:0:0:
479,323,54925,1,2,0:3:0:0:
479,323,55005,2,0,L|394:302,1,80,10|0,0:0|0:0,0:0:0:0:
240,269,55326,6,0,L|219:340,1,40,6|0,1:2|0:0,0:0:0:0:
339,358,55486,2,0,L|300:346,1,40,2|0,3:2|0:0,0:0:0:0:
143,288,55647,2,0,P|89:314|42:315,1,80,8|2,0:0|0:0,0:0:0:0:
208,384,55967,2,0,P|199:345|179:310,1,80,2|0,1:2|0:0,0:0:0:0:
196,173,56288,2,0,P|250:199|297:200,1,80,10|2,0:0|0:0,0:0:0:0:
109,78,56609,6,0,B|136:145|93:131|115:196,1,120,6|2,1:2|0:0,0:0:0:0:
105,198,56930,2,0,B|76:231|76:231|73:285,1,80,8|2,0:0|0:0,0:0:0:0:
165,322,57251,1,2,1:2:0:0:
270,255,57411,2,0,P|218:242|172:222,1,80,2|8,0:0|0:0,0:0:0:0:
344,308,57732,1,2,0:0:0:0:
310,128,57893,6,0,L|281:187,1,40,6|0,1:2|0:0,0:0:0:0:
384,234,58053,2,0,L|366:198,1,40,2|0,3:2|0:0,0:0:0:0:
331,42,58213,2,0,B|277:62|277:62|293:173,1,160,8|0,0:0|1:0,0:0:0:0:
193,232,58695,1,2,0:3:0:0:
193,232,58775,1,2,0:3:0:0:
193,232,58855,2,0,P|142:202|100:215,1,80,10|0,0:0|0:0,0:0:0:0:
0,384,59176,6,0,P|70:347|142:341,1,120,6|2,1:2|0:0,0:0:0:0:
185,315,59497,2,0,P|190:334|201:350,1,40,10|0,0:2|0:0,0:0:0:0:
278,253,59657,2,0,P|267:269|261:288,1,40,2|0,3:2|0:0,0:0:0:0:
279,384,59818,1,0,1:0:0:0:
193,232,59978,1,2,0:3:0:0:
185,226,60058,1,2,0:3:0:0:
178,219,60138,2,0,L|204:122,1,80,10|0,0:0|0:0,0:0:0:0:
353,205,60459,6,0,B|332:170|332:170|292:167,1,80,14|2,0:0|3:2,0:0:0:0:
124,103,60780,2,0,B|145:68|145:68|184:65,1,80,10|2,0:0|0:0,0:0:0:0:
348,95,61101,5,10,0:0:0:0:
311,19,61261,1,2,0:0:0:0:
199,74,61422,6,0,L|255:55,1,40,10|0,0:0|0:0,0:0:0:0:
393,17,61582,2,0,L|337:-2,1,40,10|0,0:0|0:0,0:0:0:0:
299,158,61743,6,0,B|350:188|350:188|406:165,1,120,6|2,1:2|0:0,0:0:0:0:
429,158,62064,2,0,P|413:209|411:257,1,80,8|2,0:0|0:0,0:0:0:0:
507,215,62384,1,2,1:2:0:0:
393,344,62545,2,0,P|387:304|374:266,1,80,2|8,0:0|0:0,0:0:0:0:
474,374,62866,1,2,0:0:0:0:
308,329,63026,6,0,P|289:334|273:347,1,40,2|0,1:2|0:0,0:0:0:0:
133,258,63187,2,0,P|148:271|167:276,1,40,2|0,3:2|0:0,0:0:0:0:
259,212,63347,2,0,B|245:301|198:260|185:373,1,160,8|0,0:0|1:0,0:0:0:0:
183,190,63828,1,2,0:3:0:0:
183,190,63909,1,2,0:3:0:0:
183,190,63989,2,0,P|147:142|140:112,1,80,10|0,0:0|0:0,0:0:0:0:
0,279,64310,6,0,P|69:276|143:234,1,120,6|2,1:2|0:0,0:0:0:0:
78,186,64630,2,0,P|59:180|43:167,1,40,10|0,0:0|0:0,0:0:0:0:
123,74,64791,2,0,P|117:92|104:108,1,40,2|0,3:2|0:0,0:0:0:0:
0,94,64951,1,0,1:0:0:0:
153,0,65112,1,2,0:3:0:0:
153,0,65192,1,2,0:3:0:0:
153,0,65272,2,0,P|194:29|210:71,1,80,10|0,0:0|0:0,0:0:0:0:
354,140,65593,6,0,L|415:116,1,40,6|0,1:2|0:0,0:0:0:0:
424,199,65753,2,0,L|386:213,1,40,2|0,3:2|0:0,0:0:0:0:
267,153,65914,2,0,L|295:49,1,80,8|2,0:0|0:0,0:0:0:0:
110,135,66235,2,0,P|137:126|212:154,1,80,2|0,1:2|0:0,0:0:0:0:
302,231,66556,2,0,P|263:240|225:230,1,80,10|2,0:0|0:0,0:0:0:0:
283,75,66876,5,14,0:0:0:0:
283,75,67197,1,10,0:0:0:0:
283,75,67518,1,10,0:0:0:0:
283,75,67839,1,10,0:0:0:0:
416,253,68160,5,14,0:0:0:0:
301,291,68481,1,10,0:0:0:0:
263,176,68802,1,10,0:0:0:0:
378,138,69122,1,10,0:0:0:0:
301,291,69443,5,4,1:2:0:0:
293,319,69524,1,0,3:0:0:0:
277,344,69604,1,0,1:0:0:0:
252,361,69684,1,0,3:0:0:0:
224,369,69764,2,0,L|171:351,3,40,0|0|0|0,1:0|3:0|1:0|3:0,0:0:0:0:
151,272,70085,5,0,1:0:0:0:
143,243,70165,1,0,3:0:0:0:
127,218,70245,1,0,1:0:0:0:
102,201,70326,1,0,3:0:0:0:
74,194,70406,2,0,L|21:212,3,40,0|0|0|0,1:0|3:0|1:0|3:0,0:0:0:0:
151,115,70727,5,4,1:2:0:0:
151,115,71048,5,4,1:2:0:0:
151,115,71368,5,6,1:2:0:0:
222,77,71529,1,2,0:2:0:0:
303,97,71689,1,6,1:2:0:0:
341,169,71850,1,2,0:2:0:0:
502,202,72010,5,6,1:2:0:0:
502,202,72331,5,10,0:0:0:0:
348,248,72491,2,0,P|407:257|464:276,1,120,2|0,0:0|0:0,0:0:0:0:
482,294,72812,1,2,1:2:0:0:
411,175,72973,2,0,B|393:135|393:135|411:103,1,80,10|0,0:0|0:0,0:0:0:0:
274,183,73294,6,0,L|242:276,1,80,6|2,1:2|0:0,0:0:0:0:
179,185,73614,1,10,0:0:0:0:
308,309,73775,1,2,3:2:0:0:
203,361,73935,6,0,L|252:352,1,40,2|0,3:2|0:0,0:0:0:0:
317,296,74096,2,0,L|366:305,1,40,2|0,1:2|0:0,0:0:0:0:
436,368,74256,6,0,L|427:316,1,40,10|0,0:0|0:0,0:0:0:0:
412,242,74417,2,0,L|403:190,1,40,2|0,0:0|0:0,0:0:0:0:
491,151,74577,5,6,1:2:0:0:
491,151,74898,5,10,0:0:0:0:
330,85,75058,2,0,B|259:72|294:39|194:21,1,120,2|0,0:0|0:0,0:0:0:0:
203,36,75379,1,2,1:2:0:0:
344,102,75540,2,0,P|358:43|353:9,1,80,10|2,0:0|0:0,0:0:0:0:
376,16,75780,1,2,0:0:0:0:
395,8,75860,5,6,1:2:0:0:
464,71,76021,1,2,3:2:0:0:
345,183,76181,5,10,0:0:0:0:
440,206,76342,2,0,P|423:149|382:107,1,120,2|0,3:2|0:0,0:0:0:0:
344,102,76663,1,2,1:2:0:0:
232,180,76823,6,0,L|252:108,1,40,10|0,0:0|0:0,0:0:0:0:
259,28,76983,2,0,L|270:66,1,40,2|0,0:0|0:0,0:0:0:0:
317,191,77144,5,6,1:2:0:0:
317,191,77465,5,10,0:0:0:0:
199,309,77625,2,0,B|186:249|186:249|228:173,1,120,2|0,0:0|0:0,0:0:0:0:
232,180,77946,1,2,1:2:0:0:
354,264,78106,2,0,P|316:275|278:264,1,80,10|0,0:0|0:0,0:0:0:0:
142,167,78427,6,0,L|121:81,1,80,6|2,1:2|0:0,0:0:0:0:
198,26,78748,1,10,0:0:0:0:
326,94,78909,1,2,3:2:0:0:
326,9,79069,6,0,L|264:23,1,40,2|0,3:2|0:0,0:0:0:0:
240,100,79229,2,0,L|251:161,1,40,2|0,1:2|0:0,0:0:0:0:
333,183,79390,6,0,L|395:169,1,40,10|0,0:0|0:0,0:0:0:0:
419,92,79550,2,0,L|408:31,1,40,2|0,0:0|0:0,0:0:0:0:
326,94,79711,5,6,1:2:0:0:
326,94,80032,5,10,0:0:0:0:
483,0,80192,2,0,P|456:38|457:131,1,120,2|0,0:0|0:0,0:0:0:0:
478,131,80513,1,2,1:2:0:0:
349,185,80673,2,0,P|388:180|426:192,1,80,10|2,0:0|0:0,0:0:0:0:
447,208,80914,1,2,0:0:0:0:
463,228,80994,5,6,1:2:0:0:
447,318,81155,1,2,3:2:0:0:
321,356,81315,5,10,0:0:0:0:
273,284,81475,2,0,B|286:221|240:239|267:143,1,120,2|0,3:2|0:0,0:0:0:0:
278,139,81796,1,2,1:2:0:0:
372,214,81957,6,0,P|357:199|327:193,1,40,10|0,0:0|0:0,0:0:0:0:
260,261,82117,2,0,P|241:267|227:282,1,40,2|0,0:0|0:0,0:0:0:0:
184,366,82278,5,6,1:2:0:0:
184,366,82598,5,10,0:0:0:0:
294,342,82759,1,2,0:0:0:0:
294,342,82839,1,2,0:0:0:0:
294,342,82919,1,2,1:2:0:0:
395,308,83080,1,2,0:0:0:0:
395,308,83160,1,2,0:0:0:0:
395,308,83240,2,0,B|417:268|417:268|403:236,1,80,10|0,0:0|0:0,0:0:0:0:
292,172,83561,6,0,L|202:156,1,80,6|2,1:2|0:0,0:0:0:0:
181,78,83882,1,10,0:0:0:0:
86,201,84042,1,2,3:2:0:0:
53,123,84203,6,0,L|105:115,1,40,2|0,1:2|0:0,0:0:0:0:
162,169,84363,2,0,L|201:175,1,40,2|0,3:2|0:0,0:0:0:0:
261,121,84524,6,0,L|266:71,1,40,10|0,0:0|0:0,0:0:0:0:
184,38,84684,2,0,L|181:78,1,40,2|0,0:0|0:0,0:0:0:0:
207,193,84844,5,6,1:2:0:0:
207,193,85165,5,10,0:0:0:0:
316,198,85326,1,2,0:0:0:0:
316,198,85406,1,2,0:0:0:0:
316,198,85486,1,2,1:2:0:0:
344,296,85647,1,2,0:0:0:0:
344,296,85727,1,2,0:0:0:0:
344,296,85807,2,0,L|321:393,1,80,10|2,0:0|0:0,0:0:0:0:
302,384,86048,1,2,0:0:0:0:
270,372,86128,5,6,1:2:0:0:
237,291,86288,1,2,3:2:0:0:
123,301,86449,5,10,0:0:0:0:
151,223,86609,1,2,3:2:0:0:
151,223,86689,1,0,0:0:0:0:
151,223,86770,2,0,P|208:248|218:278,1,80,2|2,1:2|0:0,0:0:0:0:
287,162,87090,6,0,L|236:177,1,40,10|0,0:0|0:0,0:0:0:0:
176,141,87251,2,0,L|164:102,1,40,2|0,0:0|0:0,0:0:0:0:
202,24,87411,6,0,L|290:52,1,80,12|0,0:0|0:0,0:0:0:0:
374,27,87732,2,0,L|349:103,1,80,10|2,0:0|0:0,0:0:0:0:
371,199,88053,2,0,L|294:174,1,80,8|2,0:0|0:0,0:0:0:0:
199,196,88374,2,0,L|223:119,1,80,10|0,0:0|0:0,0:0:0:0:
371,199,88695,6,0,B|381:247|381:247|358:227,1,80,14|2,0:0|0:0,0:0:0:0:
243,260,89016,2,0,B|232:308|232:308|255:288,1,80,10|2,0:0|0:0,0:0:0:0:
391,331,89336,2,0,B|342:320|342:320|362:343,1,80,10|2,0:0|0:0,0:0:0:0:
190,375,89657,2,0,B|141:385|141:385|161:362,1,80,10|2,0:0|0:0,0:0:0:0:
76,257,89978,5,4,1:2:0:0:
70,237,90058,1,0,3:0:0:0:
65,218,90138,1,0,3:0:0:0:
59,199,90219,1,0,3:0:0:0:
54,180,90299,2,0,L|70:126,3,40,0|0|0|0,1:0|3:0|3:0|3:0,0:0:0:0:
136,62,90620,5,0,1:0:0:0:
142,81,90700,1,0,3:0:0:0:
147,100,90780,1,0,3:0:0:0:
153,119,90860,1,0,3:0:0:0:
158,139,90941,2,0,L|142:193,3,40,0|0|0|0,1:0|3:0|3:0|3:0,0:0:0:0:
239,81,91261,5,6,3:2:0:0:
321,107,91422,1,2,3:2:0:0:
239,81,91582,1,2,3:2:0:0:
336,192,91743,5,2,3:2:0:0:
254,218,91903,1,2,3:2:0:0:
336,192,92064,1,2,3:2:0:0:
241,298,92224,5,2,3:2:0:0:
323,324,92384,1,2,3:2:0:0:
252,384,92545,6,0,P|299:323|474:298,2,240.000009155274,6|2|2,0:0|0:0|0:3,0:0:0:0:
251,383,94470,2,0,P|231:338|276:281,2,120.000004577637,2|2|2,0:0|0:0|0:3,0:0:0:0:
251,383,95753,1,2,0:0:0:0:
176,228,96395,6,0,L|197:298,1,60.0000022888184,2|2,0:3|0:0,0:0:0:0:
270,260,96716,2,0,L|252:202,1,60.0000022888184,2|2,0:0|0:0,0:0:0:0:
194,146,97037,5,2,0:0:0:0:
194,146,97358,1,2,0:0:0:0:
345,106,97679,6,0,P|205:84|96:43,2,240.000009155274,2|2|2,0:3|0:0|0:3,0:0:0:0:
345,106,99604,2,0,P|357:62|309:-8,1,120.000004577637,2|2,0:0|0:0,0:0:0:0:
187,109,100245,6,0,B|154:149|99:145|99:145|248:201|206:73|365:110,1,360.000013732911,2|0,0:3|0:0,0:0:0:0:
342,105,101529,6,0,L|412:126,2,60.0000022888184,2|2|2,0:0|0:0|0:0,0:0:0:0:
170,105,102010,2,0,L|100:126,2,60.0000022888184,2|2|2,0:0|0:0|0:0,0:0:0:0:
256,32,102491,1,2,0:0:0:0:
256,128,102652,5,2,0:0:0:0:
256,192,102732,12,0,103775,0:0:0:0:
