osu file format v14

[General]
AudioFilename: audio.mp3
AudioLeadIn: 0
PreviewTime: 71970
Countdown: 0
SampleSet: Soft
StackLeniency: 0.7
Mode: 0
LetterboxInBreaks: 0
WidescreenStoryboard: 1

[Editor]
Bookmarks: 5272,10406,15540,20673,25807,30941,36074,41208,46342,51475,56609,61743,66876,72010,77144,82278,87411,92545,97679,102650,103773
DistanceSpacing: 0.9
BeatDivisor: 4
GridSize: 32
TimelineZoom: 3.299999

[Metadata]
Title:Paved Garden
TitleUnicode:Paved Garden
Artist:ginkiha
ArtistUnicode:ginkiha
Creator:Smug Nanachi
Version:hard
Source:OverRapid
Tags:CROSSING DELTA rhythm video game dnb drum & bass electronic instrumental Feature Artist FA osu! smugna
BeatmapID:2369473
BeatmapSetID:1131098

[Difficulty]
HPDrainRate:5
CircleSize:3.5
OverallDifficulty:5
ApproachRate:8
SliderMultiplier:1.3
SliderTickRate:1

[Events]
//Background and Video events
0,0,"bg.jpg",0,0
//Break Periods
//Storyboard Layer 0 (Background)
//Storyboard Layer 1 (Fail)
//Storyboard Layer 2 (Pass)
//Storyboard Layer 3 (Foreground)
//Storyboard Layer 4 (Overlay)
//Storyboard Sound Samples

[TimingPoints]
139,320.855614973262,4,2,0,60,1,0
700,-100,4,2,0,5,0,0
780,-100,4,2,0,60,0,0
1342,-100,4,2,0,5,0,0
1422,-100,4,2,0,60,0,0
1983,-100,4,2,0,5,0,0
2064,-100,4,2,0,60,0,0
2304,-100,4,2,0,5,0,0
2384,-100,4,2,0,60,0,0
2625,-100,4,2,0,5,0,0
2705,-100,4,2,0,60,0,0
3267,-100,4,2,0,5,0,0
3347,-100,4,2,0,60,0,0
3909,-100,4,2,0,5,0,0
3989,-100,4,2,0,60,0,0
4069,-100,4,2,0,5,0,0
4149,-100,4,2,0,60,0,0
4229,-100,4,2,0,5,0,0
4310,-100,4,2,0,60,0,0
4390,-100,4,2,0,5,0,0
4470,-100,4,2,0,60,0,0
4550,-100,4,2,0,5,0,0
4630,-100,4,2,0,60,0,0
5834,-100,4,2,0,5,0,0
5914,-100,4,2,0,60,0,0
6475,-100,4,2,0,5,0,0
6556,-100,4,2,0,60,0,0
7117,-100,4,2,0,5,0,0
7197,-100,4,2,0,60,0,0
7438,-100,4,2,0,5,0,0
7518,-100,4,2,0,60,0,0
7759,-100,4,2,0,5,0,0
7839,-100,4,2,0,60,0,0
8962,-100,4,2,0,5,0,0
9122,-100,4,2,0,60,0,0
10406,-100,4,2,0,80,0,0
22278,-100,4,2,0,5,0,0
22438,-100,4,2,0,80,0,0
22759,-100,4,2,0,5,0,0
22919,-100,4,2,0,80,0,0
23160,-100,4,2,0,5,0,0
23240,-100,4,2,0,80,0,0
24764,-100,4,2,0,5,0,0
24844,-100,4,2,0,80,0,0
24925,-100,4,2,0,5,0,0
25005,-100,4,2,0,80,0,0
25245,-100,4,2,0,5,0,0
25326,-100,4,2,0,80,0,0
25406,-100,4,2,0,5,0,0
25486,-100,4,2,0,80,0,0
25727,-100,4,2,0,5,0,0
25807,-100,4,2,0,80,0,0
27331,-100,4,2,0,5,0,0
27411,-100,4,2,0,80,0,0
27652,-100,4,2,0,5,0,0
27732,-100,4,2,0,80,0,0
27973,-100,4,2,0,5,0,0
28053,-100,4,2,0,80,0,0
28294,-100,4,2,0,5,0,0
28374,-100,4,2,0,80,0,0
29016,-100,4,2,0,5,0,0
29176,-100,4,2,0,80,0,0
41208,-76.9230769230769,4,2,0,90,0,1
51475,-100,4,2,0,80,0,0
92545,-100,4,2,0,50,0,0
96315,-100,4,2,0,5,0,0
96395,-100,4,2,0,50,0,0
103775,-100,4,2,0,5,0,0

[Colours]
Combo1 : 245,152,157
Combo2 : 1,209,126
Combo3 : 255,250,205

[HitObjects]
122,202,139,6,0,P|103:77|3:0,2,260,2|2|2,0:3|0:0|0:3,0:0:0:0:
122,202,2064,2,0,P|145:148|209:172,1,130,2|2,0:0|0:0,0:0:0:0:
380,119,2705,6,0,P|290:133|119:68,1,260,2|2,0:3|0:0,0:0:0:0:
133,79,3989,6,0,P|116:107|109:138,1,65,2|2,0:3|0:0,0:0:0:0:
18,142,4310,2,0,P|25:173|41:201,1,65,2|2,0:0|0:0,0:0:0:0:
25,291,4630,1,2,0:3:0:0:
191,365,4951,1,2,0:3:0:0:
335,256,5272,6,0,P|347:149|249:193,2,260,2|2|2,0:3|0:0|0:3,0:0:0:0:
335,256,7197,2,0,P|327:173|351:116,1,130,2|2,0:0|0:0,0:0:0:0:
167,182,7839,6,0,B|169:244|257:270|324:231|279:218|360:181|441:218|479:291|448:384|376:399|336:339,1,455,2|0,0:3|0:0,0:0:0:0:
269,368,9122,5,2,0:3:0:0:
97,307,9443,1,2,0:0:0:0:
146,131,9764,1,2,0:0:0:0:
320,182,10085,1,2,0:0:0:0:
416,27,10406,6,0,P|352:26|293:52,1,130,6|8,1:2|0:0,0:0:0:0:
210,76,10887,1,2,0:0:0:0:
210,76,10967,1,2,0:0:0:0:
210,76,11048,1,2,0:0:0:0:
133,12,11208,1,0,1:0:0:0:
99,96,11368,1,8,0:0:0:0:
262,213,11689,6,0,P|205:239|147:213,1,130,6|8,1:2|0:0,0:0:0:0:
103,296,12171,1,2,0:0:0:0:
103,296,12251,1,2,0:0:0:0:
103,296,12331,1,2,0:0:0:0:
163,357,12491,1,0,1:0:0:0:
245,317,12652,1,8,0:0:0:0:
393,208,12973,6,0,P|354:270|370:327,1,130,6|8,1:2|0:0,0:0:0:0:
465,321,13454,1,2,0:0:0:0:
465,321,13534,1,2,0:0:0:0:
465,321,13614,1,2,0:0:0:0:
492,229,13775,1,0,1:0:0:0:
458,144,13935,1,8,0:0:0:0:
323,45,14256,6,0,P|355:43|379:21,1,65,6|0,1:2|0:0,0:0:0:0:
281,123,14577,2,0,P|309:136|341:130,1,65,14|0,0:0|0:0,0:0:0:0:
205,168,14898,2,0,P|222:194|253:204,1,65,6|0,0:0|1:0,0:0:0:0:
116,169,15219,2,0,P|118:200|139:224,1,65,14|0,0:0|0:0,0:0:0:0:
71,86,15540,6,0,P|54:172|9:206,1,130,6|8,1:2|0:0,0:0:0:0:
11,294,16021,1,2,0:0:0:0:
11,294,16101,1,2,0:0:0:0:
11,294,16181,1,2,0:0:0:0:
73,360,16342,1,0,1:0:0:0:
115,280,16502,1,8,0:0:0:0:
314,215,16823,6,0,P|281:271|228:230,1,130,6|8,1:2|0:0,0:0:0:0:
178,174,17304,1,2,0:0:0:0:
178,174,17384,1,2,0:0:0:0:
178,174,17465,1,2,0:0:0:0:
121,103,17625,1,0,1:0:0:0:
164,24,17786,1,8,0:0:0:0:
377,32,18106,6,0,P|296:58|267:102,1,130,6|8,1:2|0:0,0:0:0:0:
351,155,18588,1,2,0:0:0:0:
351,155,18668,1,2,0:0:0:0:
351,155,18748,1,2,0:0:0:0:
316,234,18909,1,0,1:0:0:0:
387,290,19069,1,12,0:0:0:0:
248,340,19390,6,0,P|253:308|244:278,1,65,6|0,0:0|0:0,0:0:0:0:
163,241,19711,2,0,P|153:271|157:303,1,65,6|0,0:0|0:0,0:0:0:0:
316,234,20032,2,0,P|296:208|268:194,1,65,6|0,0:0|0:0,0:0:0:0:
132,159,20352,2,0,P|103:173|83:199,1,65,6|0,0:0|0:0,0:0:0:0:
216,113,20673,6,0,P|236:79|229:46,2,65,6|0|2,0:0|0:0|0:0,0:0:0:0:
33,117,21315,1,2,0:0:0:0:
33,117,21475,1,2,0:0:0:0:
82,292,21796,1,2,0:0:0:0:
168,263,21957,6,0,B|281:306|209:348|327:384,2,195,2|2|2,0:3|0:3|0:3,0:0:0:0:
328,288,23240,6,0,P|359:284|384:263,2,65,2|0|2,0:0|0:0|0:0,0:0:0:0:
199,166,23882,1,2,0:0:0:0:
199,166,24042,1,2,0:0:0:0:
275,0,24363,1,2,0:0:0:0:
301,87,24524,6,0,B|260:151|311:154|260:230,1,130,2|2,0:3|0:0,0:0:0:0:
208,276,25005,2,0,B|173:208|144:251|104:168,1,130,2|2,0:3|0:0,0:0:0:0:
146,102,25486,2,0,B|183:103|172:80|218:84,1,65,2|0,0:3|0:0,0:0:0:0:
301,87,25807,6,0,P|362:114|370:109,2,65,2|0|2,0:3|0:0|0:0,0:0:0:0:
469,15,26449,1,2,0:0:0:0:
469,15,26609,1,2,0:0:0:0:
507,192,26930,1,2,0:0:0:0:
416,192,27090,6,0,P|385:200|362:223,1,65,2|0,0:3|0:0,0:0:0:0:
282,267,27411,2,0,P|273:236|250:213,1,65,2|0,0:3|0:0,0:0:0:0:
207,133,27732,2,0,P|237:124|260:101,1,65,2|0,0:3|0:0,0:0:0:0:
341,58,28053,2,0,P|349:88|372:111,1,65,2|0,0:3|0:0,0:0:0:0:
415,191,28374,6,0,P|354:334|200:351,1,325,2|2,0:3|0:0,0:0:0:0:
108,348,29336,2,0,P|114:317|135:292,1,65,2|2,0:0|0:0,0:0:0:0:
220,259,29657,5,0,1:0:0:0:
240,78,29978,1,0,1:0:0:0:
220,259,30299,1,0,1:0:0:0:
240,78,30620,5,0,1:0:0:0:
159,119,30780,1,0,1:0:0:0:
86,63,30941,5,6,1:2:0:0:
86,63,31261,1,10,0:0:0:0:
33,137,31422,2,0,P|52:198|33:259,1,130,2|0,0:0|1:0,0:0:0:0:
101,319,31903,1,10,0:0:0:0:
241,202,32224,6,0,B|203:243|196:215|148:267,2,97.5,6|2|2,1:2|0:0|0:0,0:0:0:0:
286,122,32866,1,2,0:0:0:0:
433,0,33187,2,0,P|434:30|455:55,1,65,8|2,0:0|0:0,0:0:0:0:
512,126,33507,5,6,1:2:0:0:
512,126,33828,1,8,0:0:0:0:
505,217,33989,2,0,P|466:233|435:162,1,130,2|0,0:0|1:2,0:0:0:0:
381,105,34470,1,10,0:0:0:0:
283,259,34791,6,0,B|306:197|311:231|330:175,2,97.5,6|2|2,1:2|0:0|0:0,0:0:0:0:
274,304,35352,1,2,0:0:0:0:
273,304,35433,2,0,P|253:328|222:336,1,65,2|2,0:0|1:2,0:0:0:0:
150,384,35753,2,0,P|141:353|117:332,1,65,14|6,0:0|1:2,0:0:0:0:
0,195,36074,6,0,P|54:229|116:248,3,130,4|0|0|0,1:2|1:0|1:0|1:0,0:0:0:0:
196,203,37197,1,0,1:0:0:0:
204,7,37358,6,0,P|169:61|150:123,3,130,4|0|0|0,1:2|1:0|1:0|1:0,0:0:0:0:
196,203,38481,1,8,0:3:0:0:
272,154,38641,5,4,1:2:0:0:
272,154,38802,1,0,1:0:0:0:
342,211,38962,1,0,1:0:0:0:
342,211,39122,1,0,1:0:0:0:
309,295,39283,1,0,1:0:0:0:
309,295,39443,1,0,1:0:0:0:
220,291,39604,1,0,1:0:0:0:
220,291,39764,1,0,1:0:0:0:
196,203,39925,5,0,1:0:0:0:
144,73,40245,1,8,0:0:0:0:
282,43,40566,1,2,0:0:0:0:
282,43,40727,1,2,1:2:0:0:
283,133,40887,2,0,P|320:140|358:114,1,65,12|0,0:0|0:0,0:0:0:0:
452,0,41208,6,0,P|436:45|476:99,1,84.4999961318971,2|0,1:2|2:0,0:0:0:0:
475,130,41449,2,0,P|488:143|488:229,1,84.4999961318971,2|0,0:0|0:0,0:0:0:0:
461,250,41689,1,2,0:0:0:0:
461,250,41850,1,2,0:0:0:0:
293,372,42171,1,10,0:0:0:0:
293,372,42331,1,2,0:0:0:0:
212,320,42491,6,0,P|191:284|191:243,1,84.4999961318971,6|0,1:2|0:0,0:0:0:0:
346,194,42812,2,0,P|345:236|324:272,1,84.4999961318971,14|0,0:0|0:0,0:0:0:0:
323,106,43133,2,0,P|286:84|245:80,1,84.4999961318971,6|0,0:0|1:0,0:0:0:0:
223,121,43374,2,0,P|196:138|107:147,1,84.4999961318971,2|0,0:0|0:0,0:0:0:0:
117,113,43614,1,8,0:3:0:0:
23,226,43775,6,0,P|1:260|18:297,1,84.4999961318971,6|0,1:2|0:0,0:0:0:0:
47,336,44016,2,0,P|81:357|118:340,1,84.4999961318971,2|0,0:0|0:0,0:0:0:0:
140,307,44256,1,2,0:0:0:0:
140,307,44417,1,2,0:0:0:0:
265,373,44737,2,0,P|240:340|243:274,1,84.4999961318971,8|2,0:0|0:0,0:0:0:0:
267,216,45058,5,4,1:2:0:0:
434,296,45379,2,0,B|488:284|466:265|521:253,1,84.4999961318971,10|2,0:0|0:0,0:0:0:0:
371,136,45700,2,0,B|421:144|403:165|463:177,1,84.4999961318971,2|2,0:0|1:2,0:0:0:0:
512,9,46021,1,14,0:0:0:0:
478,87,46181,1,6,0:0:0:0:
319,48,46342,6,0,P|283:79|283:135,1,84.4999961318971,6|0,1:2|0:0,0:0:0:0:
252,152,46582,2,0,P|288:183|288:239,1,84.4999961318971,2|0,0:0|0:0,0:0:0:0:
284,264,46823,1,2,0:0:0:0:
284,264,46983,1,2,0:0:0:0:
40,345,47304,1,10,0:0:0:0:
40,345,47465,1,2,0:0:0:0:
130,363,47625,6,0,P|129:322|106:288,1,84.4999961318971,4|0,1:2|0:0,0:0:0:0:
48,139,47946,2,0,P|33:167|56:220,1,84.4999961318971,12|0,0:0|0:0,0:0:0:0:
198,249,48267,2,0,P|230:234|297:268,1,84.4999961318971,6|0,1:2|1:0,0:0:0:0:
306,280,48507,2,0,P|338:295|405:261,1,84.4999961318971,2|0,0:0|0:0,0:0:0:0:
413,247,48748,1,8,0:3:0:0:
328,113,48909,6,0,B|355:68|361:96|387:31,1,84.4999961318971,4|0,1:2|0:0,0:0:0:0:
417,8,49149,2,0,B|465:26|437:32|482:59,1,84.4999961318971,2|0,0:0|0:0,0:0:0:0:
511,104,49390,1,2,0:0:0:0:
511,104,49550,1,2,0:0:0:0:
346,200,49871,2,0,P|323:224|243:246,1,84.4999961318971,8|2,0:0|0:0,0:0:0:0:
178,105,50192,5,4,1:2:0:0:
147,297,50513,2,0,B|168:258|148:266|173:217,1,84.4999961318971,10|2,0:0|0:0,0:0:0:0:
276,244,50834,2,0,B|255:205|275:213|249:164,1,84.4999961318971,2|2,0:0|1:2,0:0:0:0:
297,335,51155,1,14,0:0:0:0:
366,272,51315,1,6,0:0:0:0:
511,373,51475,6,0,B|444:393|453:345|377:359,1,130,6|8,1:2|0:0,0:0:0:0:
498,222,52117,2,0,P|486:252|489:284,2,65,2|2|8,0:0|0:0|0:0,0:0:0:0:
482,12,52759,5,6,1:2:0:0:
407,67,52919,1,2,3:2:0:0:
332,119,53080,2,0,B|322:162|233:172|238:110,1,130,8|0,0:0|1:0,0:0:0:0:
277,39,53561,1,2,0:3:0:0:
277,39,53641,1,2,0:3:0:0:
277,39,53721,1,10,0:0:0:0:
163,181,54042,5,6,1:2:0:0:
324,264,54363,1,10,0:0:0:0:
274,340,54524,2,0,P|209:321|199:308,1,65,2|0,3:2|1:0,0:0:0:0:
137,367,54844,1,2,0:3:0:0:
137,367,54925,1,2,0:3:0:0:
137,367,55005,1,10,0:0:0:0:
163,181,55326,5,6,1:2:0:0:
241,225,55486,2,0,B|275:147|294:207|321:121,1,130,2|2,3:2|0:0,0:0:0:0:
284,32,55967,2,0,P|252:51|251:96,1,65,2|0,1:2|0:0,0:0:0:0:
156,95,56288,2,0,P|126:84|111:56,1,65,10|2,0:0|0:0,0:0:0:0:
40,220,56609,6,0,B|117:212|84:183|191:179,1,130,6|8,1:2|0:0,0:0:0:0:
317,330,57251,2,0,P|342:363|354:400,2,65,2|2|8,1:2|0:0|0:0,0:0:0:0:
162,180,57893,5,6,1:2:0:0:
167,94,58053,1,2,3:2:0:0:
257,104,58213,2,0,B|325:87|311:142|400:118,1,130,8|0,0:0|1:0,0:0:0:0:
360,32,58695,1,2,0:3:0:0:
360,32,58775,1,2,0:3:0:0:
360,32,58855,1,10,0:0:0:0:
180,62,59176,5,6,1:2:0:0:
255,227,59497,1,10,0:2:0:0:
167,203,59657,2,0,P|167:235|153:263,1,65,2|0,3:2|1:0,0:0:0:0:
74,300,59978,1,2,0:3:0:0:
74,300,60058,1,2,0:3:0:0:
74,300,60138,1,10,0:0:0:0:
241,371,60459,6,0,P|270:313|286:310,1,65,14|2,0:0|3:2,0:0:0:0:
341,266,60780,2,0,P|364:287|396:289,1,65,10|2,0:0|0:0,0:0:0:0:
471,237,61101,2,0,P|450:216|447:168,1,65,10|2,0:0|0:0,0:0:0:0:
404,100,61422,1,10,0:0:0:0:
335,159,61582,1,10,0:0:0:0:
389,10,61743,6,0,P|440:14|493:80,1,130,6|8,1:2|0:0,0:0:0:0:
335,159,62384,2,0,B|264:131|340:150|261:118,2,65,2|2|8,1:2|0:0|0:0,0:0:0:0:
241,384,63026,5,2,1:2:0:0:
159,347,63187,1,2,3:2:0:0:
137,262,63347,2,0,P|185:240|266:213,1,130,8|0,0:0|1:0,0:0:0:0:
336,272,63828,1,2,0:3:0:0:
336,272,63909,1,2,0:3:0:0:
336,272,63989,1,10,0:0:0:0:
478,375,64310,5,6,1:2:0:0:
506,195,64630,1,10,0:0:0:0:
414,199,64791,2,0,P|417:228|446:264,1,65,2|0,3:2|1:0,0:0:0:0:
395,342,65112,1,2,0:3:0:0:
395,342,65192,1,2,0:3:0:0:
395,342,65272,1,10,0:0:0:0:
320,176,65593,5,6,1:2:0:0:
386,114,65753,2,0,P|365:91|261:112,1,130,2|2,3:2|0:0,0:0:0:0:
228,16,66235,2,0,P|215:45|187:62,1,65,2|0,1:2|0:0,0:0:0:0:
100,89,66556,2,0,P|117:117|147:130,1,65,10|2,0:0|0:0,0:0:0:0:
212,190,66876,6,0,P|236:169|267:160,1,65,14|0,0:0|0:0,0:0:0:0:
333,221,67197,2,0,P|328:244|293:284,1,65,10|0,0:0|0:0,0:0:0:0:
245,347,67518,2,0,P|220:367|189:376,1,65,10|0,0:0|0:0,0:0:0:0:
124,317,67839,2,0,P|129:294|164:254,1,65,10|0,0:0|0:0,0:0:0:0:
303,276,68160,6,0,P|338:284|376:303,1,65,14|0,0:0|0:0,0:0:0:0:
390,208,68481,2,0,P|355:200|317:181,1,65,10|0,0:0|0:0,0:0:0:0:
248,160,68802,2,0,P|256:125|275:87,1,65,10|0,0:0|0:0,0:0:0:0:
182,65,69122,2,0,P|174:100|155:138,1,65,10|0,0:0|0:0,0:0:0:0:
16,209,69443,6,0,L|65:249,3,32.5,4|0|0|0,1:2|3:0|1:0|3:0,0:0:0:0:
77,256,69764,2,0,L|136:278,3,32.5,0|0|0|0,1:0|3:0|1:0|3:0,0:0:0:0:
153,262,70085,2,0,L|216:252,3,32.5,0|0|0|0,1:0|3:0|1:0|3:0,0:0:0:0:
230,254,70406,2,0,L|293:264,3,32.5,0|0|0|0,1:0|3:0|1:0|3:0,0:0:0:0:
259,308,70727,5,4,1:2:0:0:
259,308,71048,1,4,1:2:0:0:
430,368,71368,6,0,P|491:384|513:397,1,65,6|2,1:2|0:2,0:0:0:0:
410,281,71689,2,0,P|379:292|347:297,1,65,6|2,1:2|0:2,0:0:0:0:
259,308,72010,5,6,1:2:0:0:
259,308,72331,1,10,0:0:0:0:
175,272,72491,2,0,P|120:295|74:375,1,130,2|2,0:0|1:2,0:0:0:0:
16,284,72973,2,0,P|20:252|5:223,1,65,10|0,0:0|0:0,0:0:0:0:
109,119,73294,6,0,P|86:141|81:173,1,65,6|2,1:2|0:0,0:0:0:0:
170,187,73614,2,0,P|191:210|223:215,1,65,10|2,0:0|3:2,0:0:0:0:
299,165,73935,1,2,3:2:0:0:
299,165,74096,1,2,1:2:0:0:
269,78,74256,1,10,0:0:0:0:
269,78,74417,1,2,0:0:0:0:
400,17,74577,5,6,1:2:0:0:
400,17,74898,1,10,0:0:0:0:
392,107,75058,2,0,B|374:178|407:170|384:260,1,130,2|2,0:0|1:2,0:0:0:0:
328,305,75540,2,0,P|299:292|292:261,1,65,10|2,0:0|0:0,0:0:0:0:
257,233,75780,1,2,0:0:0:0:
257,233,75860,6,0,P|203:250|190:273,1,65,6|2,1:2|3:2,0:0:0:0:
115,217,76181,1,10,0:0:0:0:
102,126,76342,2,0,P|150:103|183:174,1,130,2|2,3:2|1:2,0:0:0:0:
115,217,76823,2,0,P|89:243|85:298,1,65,10|2,0:0|0:0,0:0:0:0:
201,370,77144,5,6,1:2:0:0:
201,370,77465,1,10,0:0:0:0:
287,343,77625,2,0,B|228:299|273:289|200:234,1,130,2|2,0:0|1:2,0:0:0:0:
294,207,78106,2,0,B|320:177|323:205|367:153,1,65,10|0,0:0|0:0,0:0:0:0:
437,186,78427,6,0,P|468:191|483:219,1,65,6|2,1:2|0:0,0:0:0:0:
435,286,78748,2,0,P|403:280|388:252,1,65,10|2,0:0|3:2,0:0:0:0:
348,172,79069,1,2,3:2:0:0:
348,172,79229,1,2,1:2:0:0:
350,80,79390,1,10,0:0:0:0:
350,80,79550,1,2,0:0:0:0:
216,31,79711,5,6,1:2:0:0:
216,31,80032,1,10,0:0:0:0:
150,93,80192,2,0,P|123:170|114:243,1,130,2|2,0:0|1:2,0:0:0:0:
44,274,80673,2,0,P|58:301|89:305,1,65,10|2,0:0|0:0,0:0:0:0:
129,328,80914,1,2,0:0:0:0:
129,328,80994,6,0,P|171:302|211:305,1,65,6|2,1:2|3:2,0:0:0:0:
259,354,81315,1,10,0:0:0:0:
344,323,81475,2,0,P|353:261|291:233,1,130,2|2,3:2|1:2,0:0:0:0:
276,148,81957,2,0,P|245:155|224:180,1,65,10|2,0:0|0:0,0:0:0:0:
107,239,82278,5,6,1:2:0:0:
107,239,82598,1,10,0:0:0:0:
50,167,82759,2,0,P|27:141|19:102,1,65,2|2,0:0|1:2,0:0:0:0:
23,21,83080,1,2,0:0:0:0:
95,78,83240,2,0,P|121:101|160:109,1,65,10|0,0:0|0:0,0:0:0:0:
239,0,83561,6,0,B|236:33|227:24|219:68,1,65,6|2,1:2|0:0,0:0:0:0:
310,77,83882,2,0,B|312:110|321:101|329:145,1,65,10|2,0:0|3:2,0:0:0:0:
419,145,84203,1,2,1:2:0:0:
419,145,84363,1,2,3:2:0:0:
468,222,84524,1,10,0:0:0:0:
468,222,84684,1,2,0:0:0:0:
388,360,84844,5,6,1:2:0:0:
388,360,85165,1,10,0:0:0:0:
307,314,85326,2,0,P|278:326|262:354,1,65,2|2,0:0|1:2,0:0:0:0:
172,338,85647,1,2,0:0:0:0:
218,258,85807,2,0,P|205:228|177:212,1,65,10|2,0:0|0:0,0:0:0:0:
139,188,86048,1,2,0:0:0:0:
139,188,86128,6,0,P|131:146|160:118,1,65,6|2,1:2|3:2,0:0:0:0:
94,50,86449,1,10,0:0:0:0:
4,32,86609,2,0,P|-6:61|7:90,1,65,2|2,3:2|1:2,0:0:0:0:
1,181,86930,1,2,0:0:0:0:
67,242,87090,2,0,P|77:271|63:300,1,65,10|2,0:0|0:0,0:0:0:0:
164,384,87411,6,0,P|159:335|145:324,1,65,12|0,0:0|0:0,0:0:0:0:
252,361,87732,2,0,P|255:329|237:304,1,65,10|2,0:0|0:0,0:0:0:0:
341,341,88053,2,0,P|336:292|322:281,1,65,8|2,0:0|0:0,0:0:0:0:
429,319,88374,2,0,P|432:287|414:262,1,65,10|0,0:0|0:0,0:0:0:0:
422,124,88695,6,0,P|418:155|436:181,1,65,14|2,0:0|0:0,0:0:0:0:
334,146,89016,2,0,P|331:177|349:203,1,65,10|2,0:0|0:0,0:0:0:0:
245,167,89336,2,0,P|241:198|259:224,1,65,10|2,0:0|0:0,0:0:0:0:
157,188,89657,2,0,P|154:219|172:245,1,65,10|2,0:0|0:0,0:0:0:0:
11,343,89978,6,0,L|22:312,3,32.5,4|0|0|0,1:2|3:0|3:0|3:0,0:0:0:0:
53,279,90299,2,0,L|42:248,3,32.5,0|0|0|0,1:0|3:0|3:0|3:0,0:0:0:0:
78,233,90620,2,0,L|109:244,3,32.5,0|0|0|0,1:0|3:0|3:0|3:0,0:0:0:0:
142,275,90941,2,0,L|173:264,3,32.5,0|0|0|0,1:0|3:0|3:0|3:0,0:0:0:0:
216,277,91261,6,0,P|248:273|295:300,2,65,6|2|2,3:2|3:2|3:2,0:0:0:0:
248,190,91743,2,0,P|267:164|320:150,2,65,2|2|2,3:2|3:2|3:2,0:0:0:0:
209,106,92224,2,0,P|205:73|232:26,1,65,2|2,3:2|3:2,0:0:0:0:
303,18,92545,6,0,P|377:50|402:223,2,260,6|2|2,0:0|0:0|0:3,0:0:0:0:
303,18,94470,2,0,P|280:116|236:121,1,130,2|2,0:0|0:0,0:0:0:0:
155,249,95112,6,0,B|299:210|214:131|381:86,1,260,2|2,0:3|0:0,0:0:0:0:
353,94,96395,6,0,P|397:121|409:160,1,65,2|2,0:3|0:0,0:0:0:0:
479,181,96716,2,0,P|453:201|441:230,1,65,2|2,0:0|0:0,0:0:0:0:
462,319,97037,1,2,0:0:0:0:
287,371,97358,1,2,0:0:0:0:
350,200,97679,6,0,B|414:197|425:266|385:304|315:331|243:223,2,260,2|2|2,0:3|0:0|0:3,0:0:0:0:
350,200,99604,2,0,P|336:140|268:99,1,130,2|2,0:0|0:0,0:0:0:0:
126,185,100245,6,0,B|140:165|158:108|237:95|309:127|230:165|376:212|486:68|275:-15|280:127,1,390,2|0,0:3|0:0,0:0:0:0:
126,185,101529,6,0,P|146:235|138:268,2,65,2|2|2,0:0|0:0|0:0,0:0:0:0:
60,248,102010,2,0,P|26:290|-5:299,2,65,2|2|2,0:0|0:0|0:0,0:0:0:0:
38,159,102491,1,2,0:0:0:0:
107,339,102652,6,0,B|156:261|172:318|210:233|217:156|158:178|194:106|194:106|142:155|139:207|234:272,1,455,2|0,0:0|0:0,0:0:0:0:
