osu file format v14

[General]
AudioFilename: audio.mp3
AudioLeadIn: 0
PreviewTime: 71970
Countdown: 0
SampleSet: Soft
StackLeniency: 0.7
Mode: 0
LetterboxInBreaks: 0
WidescreenStoryboard: 1

[Editor]
Bookmarks: 5272,10406,15540,20673,25807,30941,36074,41208,46342,51475,56609,61743,66876,72010,77144,82278,87411,92545,97679,102650,103773
DistanceSpacing: 0.9
BeatDivisor: 4
GridSize: 32
TimelineZoom: 3.299999

[Metadata]
Title:Paved Garden
TitleUnicode:Paved Garden
Artist:ginkiha
ArtistUnicode:ginkiha
Creator:Smug Nanachi
Version:extra
Source:OverRapid
Tags:CROSSING DELTA rhythm video game dnb drum & bass electronic instrumental Feature Artist FA osu! smugna
BeatmapID:2365119
BeatmapSetID:1131098

[Difficulty]
HPDrainRate:6
CircleSize:4
OverallDifficulty:8
ApproachRate:9
SliderMultiplier:1.7
SliderTickRate:1

[Events]
//Background and Video events
0,0,"bg.jpg",0,0
//Break Periods
//Storyboard Layer 0 (Background)
//Storyboard Layer 1 (Fail)
//Storyboard Layer 2 (Pass)
//Storyboard Layer 3 (Foreground)
//Storyboard Layer 4 (Overlay)
//Storyboard Sound Samples

[TimingPoints]
139,320.855614973262,4,2,0,60,1,0
700,-100,4,2,0,5,0,0
780,-100,4,2,0,60,0,0
1342,-100,4,2,0,5,0,0
1422,-100,4,2,0,60,0,0
1983,-100,4,2,0,5,0,0
2064,-100,4,2,0,60,0,0
2304,-100,4,2,0,5,0,0
2384,-100,4,2,0,60,0,0
2625,-100,4,2,0,5,0,0
2705,-100,4,2,0,60,0,0
3267,-100,4,2,0,5,0,0
3347,-100,4,2,0,60,0,0
3909,-100,4,2,0,5,0,0
3989,-100,4,2,0,60,0,0
4069,-100,4,2,0,5,0,0
4149,-100,4,2,0,60,0,0
4229,-100,4,2,0,5,0,0
4310,-100,4,2,0,60,0,0
4390,-100,4,2,0,5,0,0
4470,-100,4,2,0,60,0,0
4550,-100,4,2,0,5,0,0
4630,-100,4,2,0,60,0,0
5834,-100,4,2,0,5,0,0
5914,-100,4,2,0,60,0,0
6475,-100,4,2,0,5,0,0
6556,-100,4,2,0,60,0,0
7117,-100,4,2,0,5,0,0
7197,-100,4,2,0,60,0,0
7438,-100,4,2,0,5,0,0
7518,-100,4,2,0,60,0,0
7759,-100,4,2,0,5,0,0
7839,-100,4,2,0,60,0,0
8962,-100,4,2,0,5,0,0
9122,-100,4,2,0,60,0,0
10406,-100,4,2,0,80,0,0
22278,-100,4,2,0,5,0,0
22438,-100,4,2,0,80,0,0
22759,-100,4,2,0,5,0,0
22919,-100,4,2,0,80,0,0
23160,-100,4,2,0,5,0,0
23240,-100,4,2,0,80,0,0
24764,-100,4,2,0,5,0,0
24844,-100,4,2,0,80,0,0
24925,-100,4,2,0,5,0,0
25005,-100,4,2,0,80,0,0
25245,-100,4,2,0,5,0,0
25326,-100,4,2,0,80,0,0
25406,-100,4,2,0,5,0,0
25486,-100,4,2,0,80,0,0
25727,-100,4,2,0,5,0,0
25807,-100,4,2,0,80,0,0
27331,-100,4,2,0,5,0,0
27411,-100,4,2,0,80,0,0
27652,-100,4,2,0,5,0,0
27732,-100,4,2,0,80,0,0
27973,-100,4,2,0,5,0,0
28053,-100,4,2,0,80,0,0
28294,-100,4,2,0,5,0,0
28374,-100,4,2,0,80,0,0
29016,-100,4,2,0,5,0,0
29176,-100,4,2,0,80,0,0
41208,-100,4,2,0,90,0,1
51475,-100,4,2,0,80,0,0
92545,-100,4,2,0,50,0,0
96315,-100,4,2,0,5,0,0
96395,-100,4,2,0,50,0,0
103775,-100,4,2,0,5,0,0

[Colours]
Combo1 : 245,152,157
Combo2 : 1,209,126
Combo3 : 255,250,205

[HitObjects]
57,297,139,5,2,0:3:0:0:
57,297,780,1,2,0:0:0:0:
304,348,1422,5,2,0:3:0:0:
249,212,2064,5,2,0:0:0:0:
266,136,2384,1,2,0:0:0:0:
107,22,2705,5,2,0:3:0:0:
107,22,3347,1,2,0:0:0:0:
313,72,3989,5,2,0:3:0:0:
266,8,4149,1,2,0:0:0:0:
191,32,4310,1,2,0:0:0:0:
191,112,4470,1,2,0:0:0:0:
266,136,4630,5,2,0:3:0:0:
313,72,4951,1,2,0:3:0:0:
512,194,5272,5,2,0:3:0:0:
512,194,5914,1,2,0:0:0:0:
343,359,6556,5,2,0:3:0:0:
234,268,7197,5,2,0:0:0:0:
159,281,7518,1,2,0:0:0:0:
256,98,7839,5,2,0:3:0:0:
34,218,9122,5,2,0:3:0:0:
60,218,9443,5,2,0:0:0:0:
134,185,9764,5,2,0:0:0:0:
209,113,10085,5,2,0:0:0:0:
256,0,10406,5,6,1:2:0:0:
228,189,10727,1,8,0:0:0:0:
208,113,10887,5,2,0:0:0:0:
229,109,10967,1,2,0:0:0:0:
250,112,11048,1,2,0:0:0:0:
269,122,11128,1,0,0:0:0:0:
285,136,11208,1,0,1:0:0:0:
203,267,11368,1,8,0:0:0:0:
421,344,11689,5,6,1:2:0:0:
352,195,12010,1,8,0:0:0:0:
424,240,12171,5,2,0:0:0:0:
428,219,12251,1,2,0:0:0:0:
432,198,12331,1,2,0:0:0:0:
436,177,12411,1,2,0:0:0:0:
440,156,12491,1,0,1:0:0:0:
326,286,12652,1,8,0:0:0:0:
144,125,12973,5,6,1:2:0:0:
36,0,13294,1,8,0:0:0:0:
70,77,13454,5,2,0:0:0:0:
88,67,13534,1,2,0:0:0:0:
103,51,13614,1,2,0:0:0:0:
112,32,13695,1,2,0:0:0:0:
116,12,13775,1,0,1:0:0:0:
0,125,13935,1,8,0:0:0:0:
215,221,14256,5,6,1:2:0:0:
247,348,14417,1,0,0:0:0:0:
328,166,14577,5,14,0:0:0:0:
309,270,14737,1,0,0:0:0:0:
393,211,14898,5,6,0:0:0:0:
416,287,15058,1,0,1:0:0:0:
489,192,15219,5,14,0:0:0:0:
480,229,15379,1,0,0:0:0:0:
255,130,15540,5,6,1:2:0:0:
374,12,15860,1,8,0:0:0:0:
322,74,16021,5,2,0:0:0:0:
308,57,16101,1,2,0:0:0:0:
291,46,16181,1,2,0:0:0:0:
270,41,16261,1,2,0:0:0:0:
249,43,16342,1,0,1:0:0:0:
166,175,16502,1,8,0:0:0:0:
389,236,16823,5,6,1:2:0:0:
485,383,17144,1,8,0:0:0:0:
437,308,17304,5,2,0:0:0:0:
416,314,17384,1,2,0:0:0:0:
396,321,17465,1,2,0:0:0:0:
376,328,17545,1,0,0:0:0:0:
356,335,17625,1,0,1:0:0:0:
200,383,17786,1,8,0:0:0:0:
269,192,18106,5,6,1:2:0:0:
162,311,18427,1,8,0:0:0:0:
178,234,18588,5,2,0:0:0:0:
198,238,18668,1,2,0:0:0:0:
216,250,18748,1,2,0:0:0:0:
228,267,18828,1,2,0:0:0:0:
235,287,18909,1,0,1:0:0:0:
322,128,19069,1,12,0:0:0:0:
108,199,19390,5,6,0:0:0:0:
67,83,19550,1,0,0:0:0:0:
181,139,19711,5,6,0:0:0:0:
190,45,19871,1,0,0:0:0:0:
276,127,20032,5,6,0:0:0:0:
309,61,20192,1,0,0:0:0:0:
362,133,20352,5,6,0:0:0:0:
383,114,20513,1,0,0:0:0:0:
427,182,20673,5,6,0:0:0:0:
427,182,20834,1,0,0:0:0:0:
458,254,20994,1,2,0:0:0:0:
351,333,21315,5,2,0:0:0:0:
379,261,21475,1,2,0:0:0:0:
418,384,21796,5,2,0:0:0:0:
351,333,21957,5,2,0:3:0:0:
0,384,22438,1,2,0:3:0:0:
131,54,22919,1,2,0:3:0:0:
173,233,23240,5,2,0:0:0:0:
173,233,23401,1,0,0:0:0:0:
240,186,23561,1,2,0:0:0:0:
369,287,23882,5,2,0:0:0:0:
296,261,24042,1,2,0:0:0:0:
425,230,24363,5,2,0:0:0:0:
369,287,24524,5,2,0:3:0:0:
298,122,24844,1,2,0:0:0:0:
240,186,25005,5,2,0:3:0:0:
225,180,25165,1,0,0:0:0:0:
155,235,25326,5,2,0:0:0:0:
425,230,25486,1,2,0:3:0:0:
350,384,25807,5,2,0:3:0:0:
350,384,25967,1,0,0:0:0:0:
365,298,26128,1,2,0:0:0:0:
207,302,26449,5,2,0:0:0:0:
283,325,26609,1,2,0:0:0:0:
170,226,26930,5,2,0:0:0:0:
207,302,27090,5,2,0:3:0:0:
247,121,27411,1,2,0:3:0:0:
207,302,27732,1,2,0:3:0:0:
247,121,28053,1,2,0:3:0:0:
207,302,28374,5,2,0:3:0:0:
70,137,29176,5,2,0:0:0:0:
133,90,29336,1,2,0:0:0:0:
142,168,29497,1,2,0:0:0:0:
70,137,29657,5,0,1:0:0:0:
196,43,29978,1,0,1:0:0:0:
214,199,30299,1,0,1:0:0:0:
88,293,30620,5,0,1:0:0:0:
88,293,30780,1,0,1:0:0:0:
296,224,30941,5,6,1:2:0:0:
296,224,31261,5,10,0:0:0:0:
385,326,31422,1,2,0:0:0:0:
385,326,31743,5,0,1:0:0:0:
296,354,31903,1,10,0:0:0:0:
285,357,31983,1,2,0:0:0:0:
275,360,32064,1,2,0:0:0:0:
163,207,32224,5,6,1:2:0:0:
197,45,32465,1,2,0:0:0:0:
197,45,32545,1,8,0:0:0:0:
180,126,32705,1,2,0:0:0:0:
146,288,32866,5,2,0:0:0:0:
163,207,33026,1,0,1:0:0:0:
274,146,33187,5,8,0:0:0:0:
88,109,33347,1,2,0:0:0:0:
146,288,33507,5,6,1:2:0:0:
146,288,33828,5,8,0:0:0:0:
274,146,33989,1,2,0:0:0:0:
274,146,34310,5,0,1:2:0:0:
299,235,34470,1,10,0:0:0:0:
301,246,34550,1,2,0:0:0:0:
303,256,34630,1,2,0:0:0:0:
357,116,34791,5,6,1:2:0:0:
191,176,35032,1,2,0:0:0:0:
191,176,35112,1,8,0:0:0:0:
274,146,35272,1,2,0:0:0:0:
274,146,35352,1,2,0:0:0:0:
274,146,35433,1,2,0:0:0:0:
165,255,35593,1,2,1:2:0:0:
165,37,35753,1,14,0:0:0:0:
56,146,35914,1,6,1:2:0:0:
256,0,36074,5,4,1:2:0:0:
256,8,36395,1,0,1:0:0:0:
256,16,36716,1,0,1:0:0:0:
256,24,37037,1,0,1:0:0:0:
256,192,37197,1,0,1:0:0:0:
252,384,37358,5,4,1:2:0:0:
252,376,37679,1,0,1:0:0:0:
252,368,37999,1,0,1:0:0:0:
252,360,38320,1,0,1:0:0:0:
252,276,38481,1,8,0:3:0:0:
256,195,38641,5,4,1:2:0:0:
252,192,38721,1,0,3:0:0:0:
256,188,38802,1,0,1:0:0:0:
259,192,38882,1,0,3:0:0:0:
251,199,38962,5,0,1:0:0:0:
248,187,39042,1,0,3:0:0:0:
260,184,39122,1,0,1:0:0:0:
263,196,39203,1,0,3:0:0:0:
242,199,39283,5,0,1:0:0:0:
248,178,39363,1,0,3:0:0:0:
269,184,39443,1,0,1:0:0:0:
263,205,39524,1,0,3:0:0:0:
231,192,39604,5,0,1:0:0:0:
256,167,39684,1,0,3:0:0:0:
280,192,39764,1,0,1:0:0:0:
256,216,39844,1,0,3:0:0:0:
256,192,39925,5,0,1:0:0:0:
352,192,40085,1,0,1:0:0:0:
160,192,40245,1,8,0:0:0:0:
160,192,40566,5,2,0:0:0:0:
256,192,40727,1,2,1:2:0:0:
352,192,40887,1,12,0:0:0:0:
132,384,41208,5,2,1:2:0:0:
234,270,41449,1,2,0:0:0:0:
208,350,41529,1,8,0:0:0:0:
150,136,41689,5,2,0:0:0:0:
335,270,41850,1,2,0:0:0:0:
311,190,42010,5,0,1:0:0:0:
271,45,42171,5,10,0:0:0:0:
234,270,42331,1,2,0:0:0:0:
474,253,42491,5,6,1:2:0:0:
4,85,42812,1,14,0:0:0:0:
228,57,43133,5,6,0:0:0:0:
228,57,43213,1,0,0:0:0:0:
239,143,43374,1,2,0:0:0:0:
239,143,43454,1,8,0:0:0:0:
250,229,43614,1,8,0:3:0:0:
37,319,43775,5,6,1:2:0:0:
60,176,44016,1,2,0:0:0:0:
92,250,44096,1,8,0:0:0:0:
30,90,44256,5,2,0:0:0:0:
250,229,44417,1,2,0:0:0:0:
173,261,44577,5,0,1:0:0:0:
37,319,44737,5,8,0:0:0:0:
37,319,44898,1,2,0:0:0:0:
105,374,45058,5,4,1:2:0:0:
92,250,45219,1,2,0:0:0:0:
92,250,45299,1,2,0:0:0:0:
92,250,45379,5,10,0:0:0:0:
243,312,45540,1,2,0:0:0:0:
197,145,45700,5,2,0:0:0:0:
249,228,45860,1,2,1:2:0:0:
321,142,46021,5,14,0:0:0:0:
196,384,46181,1,6,0:0:0:0:
117,170,46342,5,6,1:2:0:0:
243,75,46582,1,2,0:0:0:0:
197,145,46663,1,8,0:0:0:0:
31,10,46823,5,2,0:0:0:0:
69,247,46983,1,2,0:0:0:0:
117,170,47144,5,0,1:0:0:0:
223,299,47304,5,10,0:0:0:0:
28,166,47465,1,2,0:0:0:0:
0,384,47625,5,4,1:2:0:0:
452,219,47946,1,12,0:0:0:0:
185,43,48267,5,6,1:2:0:0:
185,43,48347,1,0,0:0:0:0:
266,73,48507,1,2,0:0:0:0:
266,73,48588,1,8,0:0:0:0:
347,103,48748,1,8,0:3:0:0:
206,292,48909,5,4,1:2:0:0:
242,156,49149,1,2,0:0:0:0:
271,235,49229,1,8,0:0:0:0:
128,344,49390,5,2,0:0:0:0:
344,275,49550,1,2,0:0:0:0:
271,235,49711,5,0,1:0:0:0:
146,182,49871,5,8,0:0:0:0:
146,182,50032,1,2,0:0:0:0:
259,37,50192,5,4,1:2:0:0:
242,156,50352,1,2,0:0:0:0:
242,156,50433,1,2,0:0:0:0:
242,156,50513,5,10,0:0:0:0:
53,207,50673,1,2,0:0:0:0:
246,258,50834,5,2,0:0:0:0:
146,226,50994,1,2,1:2:0:0:
170,342,51155,5,14,0:0:0:0:
117,104,51315,1,6,0:0:0:0:
324,211,51475,5,6,1:2:0:0:
319,325,51716,1,2,0:0:0:0:
319,325,51796,1,8,0:0:0:0:
104,126,52117,5,2,0:0:0:0:
63,201,52278,1,2,0:0:0:0:
138,241,52438,1,8,0:0:0:0:
179,166,52598,1,2,0:0:0:0:
255,42,52759,5,6,1:2:0:0:
304,166,52919,1,2,3:2:0:0:
353,290,53080,1,8,0:0:0:0:
255,42,53401,5,0,1:0:0:0:
304,166,53561,1,2,0:3:0:0:
304,166,53641,1,2,0:3:0:0:
304,166,53721,1,10,0:0:0:0:
512,0,54042,5,6,1:2:0:0:
398,68,54203,1,2,0:0:0:0:
403,56,54283,1,2,0:0:0:0:
408,44,54363,5,10,0:0:0:0:
512,195,54524,1,2,3:2:0:0:
353,290,54684,1,0,1:0:0:0:
414,175,54844,5,2,0:3:0:0:
414,175,54925,1,2,0:3:0:0:
414,175,55005,1,10,0:0:0:0:
98,111,55326,5,6,1:2:0:0:
305,153,55486,1,2,3:2:0:0:
512,195,55647,1,8,0:0:0:0:
414,175,55807,1,2,0:0:0:0:
257,16,55967,5,2,1:2:0:0:
166,384,56288,1,10,0:0:0:0:
406,66,56609,5,6,1:2:0:0:
238,110,56850,1,2,0:0:0:0:
238,110,56930,1,8,0:0:0:0:
380,290,57251,5,2,1:2:0:0:
455,250,57411,1,2,0:0:0:0:
414,175,57572,1,8,0:0:0:0:
339,215,57732,1,2,0:0:0:0:
217,275,57893,5,6,1:2:0:0:
134,119,58053,1,2,3:2:0:0:
293,48,58213,1,8,0:0:0:0:
217,275,58534,5,0,1:0:0:0:
134,119,58695,1,2,0:3:0:0:
134,119,58775,1,2,0:3:0:0:
134,119,58855,1,10,0:0:0:0:
6,378,59176,5,6,1:2:0:0:
98,251,59336,1,2,0:0:0:0:
101,264,59417,1,2,0:0:0:0:
105,278,59497,5,10,0:2:0:0:
1,154,59657,1,2,3:2:0:0:
181,196,59818,1,0,1:0:0:0:
126,367,59978,5,2,0:3:0:0:
126,367,60058,1,2,0:3:0:0:
126,367,60138,1,10,0:0:0:0:
211,115,60459,5,14,0:0:0:0:
225,310,60620,1,2,3:2:0:0:
181,196,60780,5,10,0:0:0:0:
258,234,60941,1,2,0:0:0:0:
354,136,61101,5,10,0:0:0:0:
8,256,61261,1,2,0:0:0:0:
211,115,61422,5,10,0:0:0:0:
146,273,61582,1,10,0:0:0:0:
346,372,61743,5,6,1:2:0:0:
225,310,61983,1,2,0:0:0:0:
225,310,62064,1,8,0:0:0:0:
354,136,62384,5,2,1:2:0:0:
314,61,62545,1,2,0:0:0:0:
239,102,62705,1,8,0:0:0:0:
279,177,62866,1,2,0:0:0:0:
335,268,63026,5,2,1:2:0:0:
354,136,63187,1,2,3:2:0:0:
373,4,63347,1,8,0:0:0:0:
335,268,63668,5,0,1:0:0:0:
354,136,63828,1,2,0:3:0:0:
354,136,63909,1,2,0:3:0:0:
354,136,63989,1,10,0:0:0:0:
133,295,64310,5,6,1:2:0:0:
249,182,64470,1,2,0:0:0:0:
262,186,64550,1,2,0:0:0:0:
275,191,64630,5,10,0:0:0:0:
124,52,64791,1,2,3:2:0:0:
62,253,64951,1,0,1:0:0:0:
153,161,65112,5,2,0:3:0:0:
153,161,65192,1,2,0:3:0:0:
153,161,65272,1,10,0:0:0:0:
0,0,65593,5,6,1:2:0:0:
149,59,65753,1,2,3:2:0:0:
298,118,65914,1,8,0:0:0:0:
245,28,66074,1,2,0:0:0:0:
46,86,66235,5,2,1:2:0:0:
447,268,66556,1,10,0:0:0:0:
59,359,66876,5,14,0:0:0:0:
66,344,67197,1,10,0:0:0:0:
73,329,67518,1,10,0:0:0:0:
80,314,67839,1,10,0:0:0:0:
153,161,68160,5,14,0:0:0:0:
195,181,68481,1,10,0:0:0:0:
237,200,68802,1,10,0:0:0:0:
279,220,69122,1,10,0:0:0:0:
440,304,69443,5,4,1:2:0:0:
453,307,69524,1,0,3:0:0:0:
466,313,69604,1,0,1:0:0:0:
476,323,69684,1,0,3:0:0:0:
476,335,69764,5,0,1:0:0:0:
465,300,69844,1,0,3:0:0:0:
461,264,69925,1,0,1:0:0:0:
472,229,70005,1,0,0:0:0:0:
490,198,70085,5,0,1:0:0:0:
497,163,70165,1,0,3:0:0:0:
493,127,70245,1,0,1:0:0:0:
483,92,70326,1,0,3:0:0:0:
470,63,70406,5,0,1:0:0:0:
460,58,70486,1,0,3:0:0:0:
450,54,70566,1,0,1:0:0:0:
440,50,70647,1,0,3:0:0:0:
364,32,70727,5,4,1:2:0:0:
282,46,71048,1,4,1:2:0:0:
200,60,71368,5,6,1:2:0:0:
387,125,71529,1,2,0:2:0:0:
225,225,71689,5,6,1:2:0:0:
305,179,71850,1,2,0:2:0:0:
256,320,72010,5,6,1:2:0:0:
256,320,72331,5,10,0:0:0:0:
144,202,72491,1,2,0:0:0:0:
164,208,72572,1,0,0:0:0:0:
184,214,72652,1,0,0:0:0:0:
205,220,72732,1,0,0:0:0:0:
225,225,72812,1,2,1:2:0:0:
104,384,72973,1,10,0:0:0:0:
75,154,73294,5,6,1:2:0:0:
148,117,73454,1,2,0:0:0:0:
284,166,73614,5,10,0:0:0:0:
151,34,73775,1,2,3:2:0:0:
144,202,73935,5,2,3:2:0:0:
231,90,74096,1,2,1:2:0:0:
225,225,74256,5,10,0:0:0:0:
225,225,74417,1,2,0:0:0:0:
258,0,74577,5,6,1:2:0:0:
258,0,74898,5,10,0:0:0:0:
386,116,75058,1,2,0:0:0:0:
406,120,75138,1,0,0:0:0:0:
427,118,75219,1,0,0:0:0:0:
404,39,75379,1,2,1:2:0:0:
226,83,75540,1,10,0:0:0:0:
390,344,75780,5,2,0:0:0:0:
390,344,75860,1,6,1:2:0:0:
226,380,76021,1,2,3:2:0:0:
236,223,76181,5,10,0:0:0:0:
301,325,76342,1,2,3:2:0:0:
301,325,76422,1,0,0:0:0:0:
301,325,76502,1,0,0:0:0:0:
134,205,76663,5,2,1:2:0:0:
336,240,76823,1,10,0:0:0:0:
236,223,76983,1,2,0:0:0:0:
37,373,77144,5,6,1:2:0:0:
37,373,77465,5,10,0:0:0:0:
147,246,77625,1,2,0:0:0:0:
140,225,77705,1,0,0:0:0:0:
134,205,77786,1,0,0:0:0:0:
128,185,77866,1,0,0:0:0:0:
121,164,77946,1,2,1:2:0:0:
12,294,78106,1,10,0:0:0:0:
93,82,78427,5,6,1:2:0:0:
178,70,78588,1,2,0:0:0:0:
278,208,78748,5,10,0:0:0:0:
121,164,78909,1,2,3:2:0:0:
230,0,79069,5,2,3:2:0:0:
258,116,79229,1,2,1:2:0:0:
178,70,79390,5,10,0:0:0:0:
178,70,79550,1,2,0:0:0:0:
61,266,79711,5,6,1:2:0:0:
61,266,80032,5,10,0:0:0:0:
229,311,80192,1,2,0:0:0:0:
250,316,80272,1,0,0:0:0:0:
271,322,80352,1,0,0:0:0:0:
350,343,80513,1,2,1:2:0:0:
145,290,80673,1,10,0:0:0:0:
288,35,80914,5,2,0:0:0:0:
288,35,80994,1,6,1:2:0:0:
342,222,81155,1,2,3:2:0:0:
392,145,81315,5,10,0:0:0:0:
260,197,81475,1,2,3:2:0:0:
260,197,81556,1,0,0:0:0:0:
260,197,81636,1,0,0:0:0:0:
387,327,81796,5,2,1:2:0:0:
392,145,81957,1,10,0:0:0:0:
320,261,82117,1,2,0:0:0:0:
157,82,82278,5,6,1:2:0:0:
157,82,82598,5,10,0:0:0:0:
257,0,82759,1,2,0:0:0:0:
252,20,82839,1,2,0:0:0:0:
248,41,82919,1,2,1:2:0:0:
249,168,83080,1,2,0:0:0:0:
244,148,83160,1,2,0:0:0:0:
240,127,83240,1,10,0:0:0:0:
0,82,83561,5,6,1:2:0:0:
32,159,83721,1,2,0:0:0:0:
157,82,83882,5,10,0:0:0:0:
69,236,84042,1,2,3:2:0:0:
32,159,84203,5,2,1:2:0:0:
155,228,84363,1,2,3:2:0:0:
288,291,84524,5,10,0:0:0:0:
288,291,84684,1,2,0:0:0:0:
78,384,84844,5,6,1:2:0:0:
78,384,85165,5,10,0:0:0:0:
69,236,85326,1,2,0:0:0:0:
82,252,85406,1,2,0:0:0:0:
90,271,85486,1,2,1:2:0:0:
0,355,85647,1,2,0:0:0:0:
8,336,85727,1,2,0:0:0:0:
21,320,85807,1,10,0:0:0:0:
259,66,86048,5,2,0:0:0:0:
259,66,86128,1,6,1:2:0:0:
293,239,86288,1,2,3:2:0:0:
204,202,86449,5,10,0:0:0:0:
311,332,86609,1,2,3:2:0:0:
311,332,86689,1,0,0:0:0:0:
311,332,86770,1,2,1:2:0:0:
274,152,86930,5,2,0:0:0:0:
214,285,87090,1,10,0:0:0:0:
293,239,87251,1,2,0:0:0:0:
512,384,87411,5,12,0:0:0:0:
131,326,87732,1,10,0:0:0:0:
440,136,88053,1,8,0:0:0:0:
59,78,88374,1,10,0:0:0:0:
374,0,88695,5,14,0:0:0:0:
311,325,89016,1,10,0:0:0:0:
138,0,89336,1,10,0:0:0:0:
201,325,89657,1,10,0:0:0:0:
256,0,89978,5,4,1:2:0:0:
255,5,90058,1,0,3:0:0:0:
254,10,90138,1,0,3:0:0:0:
254,15,90219,1,0,3:0:0:0:
253,20,90299,5,0,1:0:0:0:
239,54,90379,1,0,3:0:0:0:
234,90,90459,1,0,3:0:0:0:
242,125,90540,1,0,3:0:0:0:
259,157,90620,5,0,1:0:0:0:
270,192,90700,1,0,3:0:0:0:
267,228,90780,1,0,3:0:0:0:
255,263,90860,1,0,3:0:0:0:
258,300,90941,5,0,1:0:0:0:
258,305,91021,1,0,3:0:0:0:
259,310,91101,1,0,3:0:0:0:
260,315,91181,1,0,3:0:0:0:
258,384,91261,5,6,3:2:0:0:
346,364,91422,1,2,3:2:0:0:
434,344,91582,1,2,3:2:0:0:
384,224,91743,5,2,3:2:0:0:
256,192,91903,1,2,3:2:0:0:
128,160,92064,1,2,3:2:0:0:
256,0,92224,5,2,3:2:0:0:
256,0,92384,1,2,3:2:0:0:
256,96,92545,5,6,0:0:0:0:
167,236,93187,1,2,0:0:0:0:
345,236,93828,1,2,0:3:0:0:
256,192,94470,5,2,0:0:0:0:
256,192,94791,1,2,0:0:0:0:
256,96,95112,5,2,0:3:0:0:
256,288,95753,1,2,0:0:0:0:
159,264,96395,5,2,0:3:0:0:
215,207,96556,1,2,0:0:0:0:
296,207,96716,1,2,0:0:0:0:
352,263,96876,1,2,0:0:0:0:
256,384,97037,5,2,0:0:0:0:
256,384,97358,1,2,0:0:0:0:
256,192,97679,5,2,0:3:0:0:
150,66,98320,1,2,0:0:0:0:
362,66,98962,1,2,0:3:0:0:
256,192,99604,5,2,0:0:0:0:
256,192,99925,1,2,0:0:0:0:
256,0,100245,5,2,0:3:0:0:
178,134,101529,5,2,0:0:0:0:
184,113,101689,1,2,0:0:0:0:
190,93,101850,1,2,0:0:0:0:
321,93,102010,5,2,0:0:0:0:
327,113,102171,1,2,0:0:0:0:
334,134,102331,1,2,0:0:0:0:
256,192,102491,5,2,0:0:0:0:
256,192,102652,5,2,0:0:0:0:
