osu file format v14

[General]
AudioFilename: audio.mp3
AudioLeadIn: 0
PreviewTime: 79374
Countdown: 0
SampleSet: Normal
StackLeniency: 0.3
Mode: 0
LetterboxInBreaks: 0
EpilepsyWarning: 1
WidescreenStoryboard: 1

[Editor]
DistanceSpacing: 1
BeatDivisor: 16
GridSize: 8
TimelineZoom: 2.699999

[Metadata]
Title:Oriens
TitleUnicode:Oriens
Artist:ginkiha
ArtistUnicode:ginkiha
Creator:SuperBox
Version:wyrio's Normal
Source:
Tags:FA featured artist electronic instrumental BOF2012 BMS OF FIGHTERS 2012 Shade of Mythology Freestyle Oriental Electro SOUND VOLTEX IV HEAVENLY HAVEN SDVX 4 BEMANI KONAMI Cytus Rayark Muse Dash PeroPeroGames 110 Gyro Zeppeli Lobelia wyrio Muziyami
BeatmapID:2201677
BeatmapSetID:655406

[Difficulty]
HPDrainRate:4
CircleSize:3.6
OverallDifficulty:4
ApproachRate:5.2
SliderMultiplier:1.1
SliderTickRate:1

[Events]
//Background and Video events
0,0,"57534432_p0_master1200.png",0,0
//Break Periods
2,57520,66528
//Storyboard Layer 0 (Background)
//Storyboard Layer 1 (Fail)
//Storyboard Layer 2 (Pass)
//Storyboard Layer 3 (Foreground)
Sprite,Foreground,Centre,"sb\info\info-mapper4.png",320,240 M,0,62509,,22.74744,403.84 F,0,62509,62590,0,1 S,30,62509,62590,0.5878404,0.4766633 F,0,62590,65023,1,0.9885963 S,0,62590,65023,0.4766633,0.500069 F,0,65023,,0.9885963,1 M,0,65023,65104,22.74744,403.84,22.74744,366.3909 F,0,65023,65104,1,0 S,0,65023,65104,0.500069,0.4181492
Sprite,Foreground,Centre,"sb\white.png",320,240 M,0,34617,,320,240 S,0,34617,,1 R,0,34617,,0 F,2,34617,35266,0,1 F,0,35266,36563,1 S,0,36563,,1.146286 R,0,36563,,-0.8543089 M,2,36563,36644,26.25838,22.32686,-333.6046,-321.152 F,3,36563,36644,1,0 C,3,36563,36644,0,0,0,16,19,40
Sprite,Foreground,TopCentre,"sb\white.png",320,240 F,0,36563,,1 S,0,36563,,1.2952 R,0,36563,,-0.8543089 M,2,36563,36644,219.6185,216.148,624.5386,473.018 F,3,36563,36644,1,0 C,3,36563,36644,0,0,0,16,19,40
Sprite,Foreground,TopCentre,"sb\effect\feather.png",320,240 R,0,36563,,-0.8543089 M,2,36563,36644,233.7186,202.998,-126.1414,-140.482 F,3,36563,36644,1,0 C,3,36563,36644,0,0,0,16,19,40 V,0,36563,36644,1.3,0.1,1.3,1
Sprite,Foreground,TopCentre,"sb\effect\feather.png",320,240 R,0,36563,,2.287284 M,2,36563,36644,219.6185,216.148,624.5386,473.018 F,3,36563,36644,1,0 C,3,36563,36644,0,0,0,16,19,40 V,0,36563,36644,1.3,0.1,1.3,1
Sprite,Foreground,TopCentre,"sb\effect\feather.png",320,240 R,0,100131,,-0.8543089 M,2,100131,100212,370.0569,254.4906,10.19685,-88.98939 F,3,100131,100212,1,0 C,3,100131,100212,0,0,0,16,19,40 V,0,100131,100212,1.3,0.1,1.3,1
Sprite,Foreground,TopCentre,"sb\effect\feather.png",320,240 R,0,100131,,2.287284 M,2,100131,100212,355.9569,267.6406,760.8768,524.5105 F,3,100131,100212,1,0 C,3,100131,100212,0,0,0,16,19,40 V,0,100131,100212,1.3,0.1,1.3,1
Sprite,Foreground,TopCentre,"sb\white.png",320,240 F,0,100131,,1 S,0,100131,,1.333532 R,0,100131,,-0.8543089 M,2,100131,100212,355.9569,267.6406,760.8768,524.5105 F,3,100131,100212,1,0 C,3,100131,100212,0,0,0,16,19,40
Sprite,Foreground,Centre,"sb\white.png",320,240 M,0,98185,,320,240 S,0,98185,,1 R,0,98185,,0 F,2,98185,98834,0,1 F,0,98834,100131,1 S,0,100131,,1.146286 R,0,100131,,-0.8543089 M,2,100131,100212,162.5967,73.81943,-197.2663,-269.6594 F,3,100131,100212,1,0 C,3,100131,100212,0,0,0,16,19,40
//Storyboard Layer 4 (Overlay)
//Storyboard Sound Samples

[TimingPoints]
379,428.571428571429,4,1,11,70,1,0
486,-100,4,1,10,70,0,0
15807,324.324324324324,4,1,10,90,1,0
35996,-100,4,1,11,90,0,0
36077,-100,4,1,10,90,0,0
38104,-100,4,2,10,90,0,0
41104,-100,4,2,11,90,0,0
41266,-100,4,2,10,90,0,0
42239,-100,4,2,11,80,0,0
42401,-100,4,1,10,90,0,0
43698,-100,4,1,11,90,0,0
43860,-100,4,1,10,90,0,0
44834,-100,4,1,11,90,0,0
44996,-100,4,1,10,90,0,0
46293,-100,4,1,11,90,0,0
46455,-100,4,1,10,90,0,0
46942,-100,4,1,11,90,0,0
47023,-100,4,2,10,90,0,0
51482,-100,4,2,11,90,0,0
51644,-100,4,2,10,90,0,0
52617,-100,4,2,11,90,0,0
52779,-100,4,1,10,90,0,0
54077,-100,4,1,11,90,0,0
54239,-100,4,1,10,90,0,0
55212,-100,4,1,11,90,0,0
55374,-100,4,1,10,90,0,0
56185,-100,4,1,11,90,0,0
56347,-100,4,1,10,90,0,0
57320,-100,4,1,10,70,0,0
67698,-100,4,1,10,80,0,0
72888,-100,4,1,11,80,0,0
73212,-100,4,1,10,80,0,0
74185,-100,4,1,11,80,0,0
77104,-100,4,1,10,80,0,0
78076,-100,4,1,11,80,0,0
79374,-100,4,1,10,90,0,0
99563,-100,4,1,11,90,0,0
99644,-100,4,1,10,90,0,0
100130,-100,4,1,10,95,0,0
101671,-100,4,2,10,95,0,0
104671,-100,4,2,11,95,0,0
104833,-100,4,2,10,95,0,0
105806,-100,4,2,11,95,0,0
105969,-100,4,1,10,95,0,0
107265,-100,4,1,11,95,0,0
107427,-100,4,1,10,95,0,0
108401,-100,4,1,11,95,0,0
108563,-100,4,1,10,95,0,0
109860,-100,4,1,11,95,0,0
110022,-100,4,1,10,95,0,0
110509,-100,4,1,11,95,0,0
110590,-100,4,2,10,95,0,0
115049,-100,4,2,11,95,0,0
115211,-100,4,2,10,95,0,0
116185,-100,4,2,11,95,0,0
116347,-100,4,1,10,95,0,0
117644,-100,4,1,11,95,0,0
117806,-100,4,1,10,95,0,0
118779,-100,4,1,11,95,0,0
118942,-100,4,1,10,95,0,0
119752,-100,4,1,11,95,0,0
119914,-100,4,1,10,95,0,0
120320,-100,4,1,11,95,0,0
120401,-100,4,1,10,95,0,0
120887,-100,4,1,11,90,0,0
122185,-100,4,1,11,70,0,0
122834,-100,4,1,11,50,0,0
123158,-100,4,1,11,30,0,0
123320,-100,4,1,11,10,0,0

[Colours]
Combo1 : 233,182,29
Combo2 : 89,80,203
Combo3 : 66,198,221
Combo4 : 224,73,73

[HitObjects]
57,296,379,6,0,P|119:326|171:315,1,110,4|2,3:0|1:0,1:0:0:0:
265,226,1236,2,0,L|256:102,1,110,8|0,1:3|2:0,1:0:0:0:
363,20,2093,6,0,P|404:14|430:24,1,55,0|2,3:0|3:2,1:0:0:0:
445,82,2521,2,0,P|404:90|385:85,2,55,2|2|8,1:0|3:2|1:3,1:0:0:0:
303,61,3379,1,0,3:0:0:0:
168,108,3807,6,0,P|111:85|58:99,1,110,0|2,3:0|1:0,1:0:0:0:
18,230,4664,2,0,L|37:344,1,110,8|0,1:3|2:0,1:0:0:0:
173,377,5521,2,0,L|182:310,1,55,0|2,3:0|3:2,1:0:0:0:
245,292,5950,2,0,L|254:360,2,55,2|2|8,1:0|3:2|1:3,1:0:0:0:
384,325,6807,1,8,1:3:0:0:
477,216,7236,6,0,P|493:162|481:106,1,110,4|2,3:0|1:0,1:0:0:0:
359,38,8093,2,0,L|240:56,1,110,8|0,1:3|2:0,1:0:0:0:
268,196,8950,2,0,L|204:193,1,55,2|2,3:2|3:2,1:0:0:0:
184,259,9379,2,0,L|241:263,2,55,2|0|8,1:0|3:0|1:3,1:0:0:0:
47,303,10236,1,0,3:0:0:0:
166,380,10664,6,0,B|181:328|181:328|158:251,1,110,0|2,3:0|1:0,1:0:0:0:
87,153,11521,2,0,L|74:21,1,110,8|8,1:3|1:3,1:0:0:0:
216,11,12379,2,0,L|205:77,1,55,0|0,3:0|1:0,1:0:0:0:
278,67,12807,2,0,L|287:6,2,55,0|2|8,2:0|3:2|1:3,1:0:0:0:
330,115,13450,6,0,L|343:193,2,55,0|4|0,2:0|1:0|3:0,1:0:0:0:
389,75,14093,2,0,L|457:90,1,55,6|4,3:2|3:0,1:0:0:0:
486,148,14521,2,0,L|493:209,1,55,4|4,3:0|3:0,1:0:0:0:
421,239,14950,6,0,P|358:236|271:307,1,165,0|0,3:0|3:0,1:0:0:0:
279,377,15807,1,2,3:0:0:0:
169,375,16131,6,0,P|114:380|65:357,1,110,8|0,2:0|2:0,2:0:0:0:
59,307,16617,1,0,3:0:0:0:
59,307,16779,2,0,L|52:235,1,55,8|0,2:0|2:0,2:0:0:0:
104,230,17104,6,0,L|112:108,1,110,2|10,3:2|2:0,2:0:0:0:
217,146,17752,2,0,L|225:226,2,55,0|0|8,3:0|3:0|2:0,2:0:0:0:
244,44,18401,6,0,B|207:28|207:28|123:44,1,110,0|8,3:0|2:0,2:0:0:0:
66,124,19050,2,0,L|1:113,2,55,2|0|8,1:0|3:0|2:0,2:0:0:0:
133,203,19698,6,0,L|257:187,1,110,2|8,3:2|2:0,2:0:0:0:
311,274,20347,2,0,L|307:346,2,55,0|0|8,3:0|3:0|2:0,2:0:0:0:
395,202,20996,5,6,3:0:0:0:
482,135,21320,2,0,B|497:82|497:82|478:24,1,110,8|2,1:0|1:0,1:0:0:0:
382,81,21969,1,8,1:0:0:0:
286,26,22293,6,0,P|213:23|164:46,1,110,0|8,3:0|1:0,1:0:0:0:
116,126,22942,2,0,L|135:245,1,110,0|10,3:0|1:0,1:0:0:0:
206,316,23590,6,0,P|274:282|196:179,1,220,2|2,3:2|1:2,1:0:0:0:
133,234,24563,1,8,1:0:0:0:
71,142,24888,6,0,P|63:80|81:28,1,110,2|8,3:2|1:0,1:0:0:0:
124,9,25374,2,0,L|247:-2,1,110,2|0,3:2|3:0,1:0:0:0:
264,45,25861,1,10,1:2:0:0:
393,51,26185,5,6,3:2:0:0:
477,120,26509,2,0,B|448:168|448:168|462:258,1,110,8|0,2:0|2:0,2:0:0:0:
498,256,26996,1,0,3:0:0:0:
498,256,27158,2,0,L|505:325,1,55,8|0,2:0|2:0,2:0:0:0:
472,355,27482,6,0,P|392:326|354:336,1,110,2|10,3:2|2:0,2:0:0:0:
266,368,28131,2,0,L|184:393,2,55,0|0|8,3:0|3:0|2:0,2:0:0:0:
287,260,28779,6,0,L|271:126,1,110,0|8,3:0|2:0,2:0:0:0:
211,60,29428,2,0,L|221:-6,2,55,2|0|8,1:0|3:0|2:0,2:0:0:0:
121,124,30077,6,0,L|136:251,1,110,2|8,3:2|2:0,2:0:0:0:
51,306,30725,2,0,L|34:373,2,55,2|0|8,3:2|3:0|2:0,2:0:0:0:
154,344,31374,1,4,3:0:0:0:
239,275,31698,6,0,P|308:262|367:285,1,110,8|2,1:0|1:0,1:0:0:0:
415,357,32347,1,8,1:0:0:0:
455,255,32671,6,0,L|471:121,1,110,0|8,3:0|1:0,1:0:0:0:
424,44,33320,2,0,P|356:89|324:90,1,110,0|8,3:0|1:0,1:0:0:0:
240,25,33969,6,0,P|167:63|263:134,1,220,2|2,3:2|1:2,1:0:0:0:
329,90,34942,1,8,1:0:0:0:
235,146,35266,6,0,L|225:219,1,55,6|4,3:0|3:0,1:0:0:0:
272,232,35590,2,0,L|259:314,1,55,4|2,3:0|3:2,1:0:0:0:
292,333,35915,2,0,B|234:313|234:313|169:328,1,110,0|0,3:0|2:0,1:0:0:0:
83,286,36563,6,0,L|62:145,1,110,6|8,2:0|2:1,2:0:0:0:
110,143,37050,1,8,2:0:0:0:
110,143,37212,2,0,P|141:65|127:19,1,110,8|8,2:0|2:1,2:0:0:0:
232,97,37861,6,0,P|280:120|389:76,1,165,2|0,3:2|2:0,2:0:0:0:
394,21,38509,2,0,P|335:-5|284:6,1,110,0|8,2:0|2:1,2:0:0:0:
232,97,39158,6,0,L|248:235,1,110,0|8,3:0|2:1,2:0:0:0:
324,282,39806,2,0,L|334:212,2,55,2|0|8,1:0|3:0|2:1,2:0:0:0:
258,370,40455,6,0,B|316:374,2,55,2|0|8,3:2|3:0|2:1,2:0:0:0:
163,312,41104,2,0,L|93:327,2,55,8|0|8,2:3|3:0|2:1,2:0:0:0:
256,241,41752,6,0,P|271:170|253:125,1,110,6|8,3:0|1:3,1:0:0:0:
208,114,42239,2,0,P|186:60|207:-3,1,110,8|0,1:3|3:0,1:0:0:0:
250,0,42725,1,8,1:3:0:0:
357,22,43050,6,0,L|419:24,2,55,0|0|8,3:0|3:0|1:3,1:0:0:0:
396,124,43698,2,0,L|326:139,2,55,8|0|8,1:3|3:0|1:3,1:0:0:0:
485,188,44347,6,0,B|509:232|509:232|493:332,1,110,4|8,3:0|1:3,1:0:0:0:
452,319,44834,2,0,L|324:311,1,110,8|0,1:3|3:0,1:0:0:0:
291,291,45320,1,8,1:3:0:0:
185,322,45644,6,0,L|123:343,2,55,0|0|8,3:0|3:0|1:3,1:0:0:0:
209,214,46293,2,0,L|198:140,2,55,8|0|8,1:3|3:0|1:3,1:0:0:0:
324,157,46942,6,0,L|309:35,1,110,4|8,3:0|2:1,2:0:0:0:
352,12,47428,1,8,2:0:0:0:
352,12,47590,2,0,P|419:8|464:28,1,110,8|8,2:0|2:1,2:0:0:0:
447,133,48239,6,0,L|423:309,1,165,2|0,3:2|2:0,2:0:0:0:
375,284,48888,2,0,B|334:253|334:253|259:263,1,110,0|8,2:0|2:1,2:0:0:0:
190,330,49536,6,0,B|231:361|231:361|306:351,1,110,0|8,3:0|2:1,2:0:0:0:
375,284,50185,2,0,L|452:293,2,55,2|0|8,1:0|3:0|2:1,2:0:0:0:
286,218,50834,6,0,L|276:87,1,110,2|8,3:2|2:1,2:0:0:0:
182,53,51482,2,0,L|169:132,2,55,8|0|8,2:3|3:0|2:1,2:0:0:0:
284,12,52131,6,0,B|337:-9|407:11,1,110,6|8,3:0|1:3,1:0:0:0:
439,35,52617,2,0,L|463:164,1,110,8|0,1:3|3:0,1:0:0:0:
452,197,53104,1,8,1:3:0:0:
354,255,53428,6,0,L|339:181,2,55,0|0|8,3:0|3:0|1:3,1:0:0:0:
244,241,54077,2,0,L|235:313,2,55,8|0|8,1:3|3:0|1:3,1:0:0:0:
172,157,54725,6,0,L|164:43,1,110,4|8,3:0|1:3,1:0:0:0:
115,20,55212,2,0,B|59:34|59:34|35:105,1,110,8|0,1:3|3:0,1:0:0:0:
31,141,55698,1,8,1:3:0:0:
66,245,56023,6,0,P|118:233|142:235,1,55,0|8,3:0|3:0,1:0:0:0:
155,274,56347,2,0,L|230:279,1,55,8|0,2:3|2:0,1:0:0:0:
258,302,56671,6,0,B|239:250|239:250|268:168,1,110,0|8,3:0|1:3,1:0:0:0:
357,152,57320,1,4,2:1:0:0:
307,187,67698,6,0,L|248:164,2,55,4|0|8,3:1|2:0|2:1,2:0:0:0:
359,170,68185,2,0,P|378:227|392:301,2,110,2|8|8,2:0|2:1|2:0,2:0:0:0:
320,66,69158,2,0,P|359:54|439:45,2,110,0|0|8,2:0|2:0|2:1,2:0:0:0:
270,40,69969,1,0,2:0:0:0:
167,78,70293,6,0,L|183:17,2,55,0|0|8,3:0|2:0|2:1,2:0:0:0:
200,121,70779,2,0,P|136:108|71:103,2,110,8|8|8,2:0|2:1|2:0,2:0:0:0:
239,223,71752,2,0,L|350:204,2,110,0|8|8,2:0|2:0|2:1,2:0:0:0:
197,259,72563,1,8,2:0:0:0:
236,362,72888,6,0,L|173:374,2,55,4|0|8,3:2|2:0|2:1,2:0:0:0:
277,325,73374,1,2,2:0:0:0:
443,107,74185,1,4,3:2:0:0:
443,107,74347,2,0,B|440:153|440:153|448:185|448:185|443:237,1,110,0|0,2:0|2:0,2:0:0:0:
20,59,75482,5,4,3:2:0:0:
166,223,76131,1,4,3:2:0:0:
227,11,76779,2,0,L|215:81,1,55,4|0,3:2|2:0,2:0:0:0:
187,114,77104,1,8,2:1:0:0:
187,114,77266,6,0,P|233:124|303:87,1,110,4|12,3:2|2:1,2:0:0:0:
331,65,77752,2,0,L|397:85,2,55,8|8|4,2:0|3:2|3:0,2:0:0:0:
472,169,79374,5,6,3:0:0:0:
464,44,79698,2,0,P|406:20|349:32,1,110,8|0,2:0|2:0,2:0:0:0:
320,64,80184,1,0,3:0:0:0:
320,64,80346,2,0,L|327:136,1,55,8|0,2:0|2:0,2:0:0:0:
283,154,80671,6,0,L|275:276,1,110,2|10,3:2|2:0,2:0:0:0:
169,289,81319,2,0,L|161:209,2,55,0|0|8,3:0|3:0|2:0,2:0:0:0:
245,370,81968,6,0,B|282:386|282:386|366:370,1,110,0|8,3:0|2:0,2:0:0:0:
416,284,82617,2,0,L|481:295,2,55,2|0|8,1:0|3:0|2:0,2:0:0:0:
379,181,83265,6,0,L|255:197,1,110,2|8,3:2|2:0,2:0:0:0:
201,110,83914,2,0,L|205:38,2,55,0|0|8,3:0|3:0|2:0,2:0:0:0:
117,182,84563,5,6,3:0:0:0:
30,249,84887,2,0,B|15:302|15:302|34:360,1,110,8|2,1:0|1:0,1:0:0:0:
130,303,85536,1,8,1:0:0:0:
226,358,85860,6,0,P|299:361|348:338,1,110,0|8,3:0|1:0,1:0:0:0:
396,258,86509,2,0,L|377:139,1,110,0|10,3:0|1:0,1:0:0:0:
306,68,87157,6,0,P|238:102|316:205,1,220,2|2,3:2|1:2,1:0:0:0:
379,150,88130,1,8,1:0:0:0:
441,242,88455,6,0,P|449:304|431:356,1,110,2|8,3:2|1:0,1:0:0:0:
386,374,88942,2,0,L|263:385,1,110,2|0,3:2|3:0,1:0:0:0:
244,339,89428,1,10,1:2:0:0:
119,333,89752,5,6,3:2:0:0:
35,264,90076,2,0,B|64:216|64:216|50:126,1,110,8|0,2:0|2:0,2:0:0:0:
14,128,90563,1,0,3:0:0:0:
14,128,90725,2,0,L|7:59,1,55,8|0,2:0|2:0,2:0:0:0:
40,29,91049,6,0,P|120:58|158:48,1,110,2|10,3:2|2:0,2:0:0:0:
246,16,91698,2,0,L|328:-9,2,55,0|0|8,3:0|3:0|2:0,2:0:0:0:
225,124,92346,6,0,L|241:258,1,110,0|8,3:0|2:0,2:0:0:0:
301,324,92995,2,0,L|291:390,2,55,2|0|8,1:0|3:0|2:0,2:0:0:0:
391,260,93644,6,0,L|376:151,1,110,2|8,3:2|2:0,2:0:0:0:
461,78,94292,2,0,L|478:11,2,55,2|0|8,3:2|3:0|2:0,2:0:0:0:
358,40,94941,1,4,3:0:0:0:
273,109,95265,6,0,P|204:122|145:99,1,110,8|2,1:0|1:0,1:0:0:0:
97,27,95914,1,8,1:0:0:0:
57,129,96238,6,0,L|41:263,1,110,0|8,3:0|1:0,1:0:0:0:
88,340,96887,2,0,P|156:295|188:294,1,110,0|8,3:0|1:0,1:0:0:0:
272,359,97536,6,0,P|345:321|249:250,1,220,2|2,3:2|1:2,1:0:0:0:
183,294,98509,1,8,1:0:0:0:
277,238,98833,6,0,L|287:165,1,55,6|4,3:0|3:0,1:0:0:0:
240,152,99157,2,0,L|253:70,1,55,4|2,3:0|3:2,1:0:0:0:
220,51,99482,2,0,B|278:71|278:71|343:56,1,110,0|0,3:0|2:0,1:0:0:0:
429,98,100130,6,0,L|450:239,1,110,6|8,2:0|2:1,2:0:0:0:
402,241,100617,1,8,2:0:0:0:
402,241,100779,2,0,P|371:319|385:365,1,110,8|8,2:0|2:1,2:0:0:0:
280,287,101428,6,0,P|232:264|122:308,1,165,2|0,3:2|2:0,2:0:0:0:
104,352,102076,2,0,P|160:377|208:371,1,110,0|8,2:0|2:1,2:0:0:0:
280,287,102725,6,0,L|264:149,1,110,0|8,3:0|2:1,2:0:0:0:
185,104,103373,2,0,L|175:174,2,55,2|0|8,1:0|3:0|2:1,2:0:0:0:
238,7,104022,6,0,B|172:-3,2,55,2|0|8,3:2|3:0|2:1,2:0:0:0:
330,66,104671,2,0,L|403:48,2,55,8|0|8,2:3|3:0|2:1,2:0:0:0:
256,143,105319,6,0,P|241:214|259:259,1,110,6|8,3:0|1:3,1:0:0:0:
307,255,105806,2,0,P|328:308|309:372,1,110,8|0,1:3|3:0,1:0:0:0:
264,384,106293,1,8,1:3:0:0:
148,347,106617,6,0,L|89:342,2,55,0|0|8,3:0|3:0|1:3,1:0:0:0:
156,237,107265,2,0,L|221:226,2,55,8|0|8,1:3|3:0|1:3,1:0:0:0:
45,230,107914,6,0,B|21:186|21:186|37:86,1,110,4|8,3:0|1:3,1:0:0:0:
73,92,108401,2,0,L|198:113,1,110,8|0,1:3|3:0,1:0:0:0:
215,154,108888,1,8,1:3:0:0:
294,78,109212,6,0,L|352:58,2,55,0|0|8,3:0|3:0|1:3,1:0:0:0:
318,185,109860,2,0,L|326:256,2,55,8|0|8,1:3|3:0|1:3,1:0:0:0:
217,230,110509,6,0,L|232:352,1,110,4|8,3:0|2:1,2:0:0:0:
189,375,110995,1,8,2:0:0:0:
189,375,111157,2,0,P|122:379|77:359,1,110,8|8,2:0|2:1,2:0:0:0:
64,254,111806,6,0,L|86:75,1,165,2|0,3:2|2:0,2:0:0:0:
137,100,112455,2,0,B|178:131|178:131|253:121,1,110,0|8,2:0|2:1,2:0:0:0:
322,54,113103,6,0,B|281:23|281:23|206:33,1,110,0|8,3:0|2:1,2:0:0:0:
137,100,113752,2,0,L|60:91,2,55,2|0|8,1:0|3:0|2:1,2:0:0:0:
226,166,114401,6,0,L|236:297,1,110,2|8,3:2|2:1,2:0:0:0:
330,331,115049,2,0,L|343:252,2,55,8|0|8,2:3|3:0|2:1,2:0:0:0:
228,372,115698,6,0,B|175:393|105:373,1,110,6|8,3:0|1:3,1:0:0:0:
71,350,116185,2,0,L|56:222,1,110,8|0,1:3|3:0,1:0:0:0:
67,186,116671,1,8,1:3:0:0:
161,129,116996,6,0,L|176:203,2,55,0|0|8,3:0|3:0|1:3,1:0:0:0:
268,143,117644,2,0,L|277:71,2,55,8|0|8,1:3|3:0|1:3,1:0:0:0:
340,227,118292,6,0,L|348:341,1,110,4|8,3:0|1:3,1:0:0:0:
395,364,118779,2,0,B|441:361|441:361|499:328,1,110,8|0,1:3|3:0,1:0:0:0:
500,274,119266,1,8,1:3:0:0:
450,175,119590,6,0,P|398:187|374:185,1,55,0|8,3:0|3:0,1:0:0:0:
361,146,119914,2,0,L|286:141,1,55,8|0,2:3|2:0,1:0:0:0:
258,118,120238,6,0,B|277:170|277:170|248:252,1,110,0|8,3:0|1:3,1:0:0:0:
148,230,120887,1,4,3:0:0:0:
256,192,121212,12,0,123482,1:0:0:0:
