osu file format v14

[General]
AudioFilename: audio.mp3
AudioLeadIn: 0
PreviewTime: 79374
Countdown: 0
SampleSet: Normal
StackLeniency: 0.3
Mode: 0
LetterboxInBreaks: 0
EpilepsyWarning: 1
WidescreenStoryboard: 1

[Editor]
DistanceSpacing: 1.6
BeatDivisor: 16
GridSize: 8
TimelineZoom: 2.699999

[Metadata]
Title:Oriens
TitleUnicode:Oriens
Artist:ginkiha
ArtistUnicode:ginkiha
Creator:SuperBox
Version:Super Berserk
Source:
Tags:FA featured artist electronic instrumental BOF2012 BMS OF FIGHTERS 2012 Shade of Mythology Freestyle Oriental Electro SOUND VOLTEX IV HEAVENLY HAVEN SDVX 4 BEMANI KONAMI Cytus Rayark Muse Dash PeroPeroGames 110 Gyro Zeppeli Lobelia wyrio Muziyami
BeatmapID:2508518
BeatmapSetID:655406

[Difficulty]
HPDrainRate:6
CircleSize:4.3
OverallDifficulty:9.5
ApproachRate:9.7
SliderMultiplier:2.2
SliderTickRate:1

[Events]
//Background and Video events
0,0,"57534432_p0_master1200.png",0,0
//Break Periods
//Storyboard Layer 0 (Background)
//Storyboard Layer 1 (Fail)
//Storyboard Layer 2 (Pass)
//Storyboard Layer 3 (Foreground)
Sprite,Foreground,Centre,"sb\info\info-mapper0.png",320,240 M,0,62509,,22.74744,403.84 F,0,62509,62590,0,1 S,30,62509,62590,0.5878404,0.4766633 F,0,62590,65023,1,0.9885963 S,0,62590,65023,0.4766633,0.500069 F,0,65023,,0.9885963,1 M,0,65023,65104,22.74744,403.84,22.74744,366.3909 F,0,65023,65104,1,0 S,0,65023,65104,0.500069,0.4181492
Sprite,Foreground,Centre,"sb\white.png",320,240 M,0,34617,,320,240 S,0,34617,,1 R,0,34617,,0 F,2,34617,35266,0,1 F,0,35266,36563,1 S,0,36563,,1.146286 R,0,36563,,-0.8543089 M,2,36563,36644,1.097229,-18.048,-358.7657,-361.5269 F,3,36563,36644,1,0 C,3,36563,36644,0,0,0,16,19,40
Sprite,Foreground,TopCentre,"sb\white.png",320,240 F,0,36563,,1 S,0,36563,,1.2952 R,0,36563,,-0.8543089 M,2,36563,36644,194.4574,175.7731,599.3774,432.6431 F,3,36563,36644,1,0 C,3,36563,36644,0,0,0,16,19,40
Sprite,Foreground,TopCentre,"sb\effect\feather.png",320,240 R,0,36563,,-0.8543089 M,2,36563,36644,208.5574,162.6231,-151.3026,-180.8569 F,3,36563,36644,1,0 C,3,36563,36644,0,0,0,16,19,40 V,0,36563,36644,1.3,0.1,1.3,1
Sprite,Foreground,TopCentre,"sb\effect\feather.png",320,240 R,0,36563,,2.287284 M,2,36563,36644,194.4574,175.7731,599.3774,432.6431 F,3,36563,36644,1,0 C,3,36563,36644,0,0,0,16,19,40 V,0,36563,36644,1.3,0.1,1.3,1
Sprite,Foreground,TopCentre,"sb\effect\feather.png",320,240 R,0,100131,,2.287284 M,2,100131,100212,327.87,244.82,732.79,501.69 F,3,100131,100212,1,0 C,3,100131,100212,0,0,0,16,19,40 V,0,100131,100212,1.3,0.1,1.3,1
Sprite,Foreground,TopCentre,"sb\effect\feather.png",320,240 R,0,100131,,-0.8543089 M,2,100131,100212,341.97,231.67,-17.89,-111.81 F,3,100131,100212,1,0 C,3,100131,100212,0,0,0,16,19,40 V,0,100131,100212,1.3,0.1,1.3,1
Sprite,Foreground,Centre,"sb\white.png",320,240 F,0,100131,,1 S,0,100131,,1.146286 R,0,100131,,-0.8543089 M,2,100131,100212,535.3326,425.4904,940.2515,682.3679 F,3,100131,100212,1,0 C,3,100131,100212,0,0,0,16,19,40
Sprite,Foreground,Centre,"sb\white.png",320,240 M,0,98185,,320,240 S,0,98185,,1 R,0,98185,,0 F,2,98185,98834,0,1 F,0,98834,100131,1 S,0,100131,,1.146286 R,0,100131,,-0.8543089 M,2,100131,100212,134.5098,50.99886,-225.3531,-292.48 F,3,100131,100212,1,0 C,3,100131,100212,0,0,0,16,19,40
//Storyboard Layer 4 (Overlay)
//Storyboard Sound Samples

[TimingPoints]
379,428.571428571429,4,1,11,70,1,0
807,-100,4,1,10,70,0,0
1236,-80,4,1,10,70,0,0
3807,-100,4,1,10,70,0,0
4664,-80,4,1,10,70,0,0
7236,-100,4,1,10,70,0,0
8093,-80,4,1,10,70,0,0
10664,-100,4,1,10,70,0,0
11521,-80,4,1,10,70,0,0
15379,-66.6666666666667,4,1,10,70,0,0
15807,324.324324324324,4,1,10,90,1,0
15807,-200,4,1,10,90,0,0
16050,-200,4,1,10,5,0,0
16131,-66.6666666666667,4,1,10,90,0,0
16374,-66.6666666666667,4,1,10,5,0,0
16455,-83.3333333333333,4,1,10,90,0,0
20023,-100,4,1,10,90,0,0
20996,-200,4,1,10,90,0,0
21239,-200,4,1,10,5,0,0
21320,-55.5555555555556,4,1,10,90,0,0
21806,-83.3333333333333,4,1,10,90,0,0
22293,-100,4,1,10,90,0,0
23266,-66.6666666666667,4,1,10,90,0,0
24239,-100,4,1,10,90,0,0
24563,-83.3333333333333,4,1,10,90,0,0
24888,-61.7283950617284,4,1,10,90,0,0
25861,-76.9230769230769,4,1,10,90,0,0
26185,-200,4,1,10,90,0,0
26428,-200,4,1,10,5,0,0
26509,-66.6666666666667,4,1,10,90,0,0
26752,-66.6666666666667,4,1,10,5,0,0
26834,-83.3333333333333,4,1,10,90,0,0
30077,-100,4,1,10,90,0,0
30401,-66.6666666666667,4,1,10,90,0,0
30725,-100,4,1,10,90,0,0
31374,-200,4,1,10,90,0,0
31617,-200,4,1,10,5,0,0
31698,-55.5555555555556,4,1,10,90,0,0
32185,-83.3333333333333,4,1,10,90,0,0
32671,-100,4,1,10,90,0,0
33644,-66.6666666666667,4,1,10,90,0,0
34617,-100,4,1,10,90,0,0
34942,-66.6666666666667,4,1,10,90,0,0
35266,-61.7283950617284,4,1,10,90,0,0
35996,-61.7283950617284,4,1,11,90,0,0
36077,-61.7283950617284,4,1,10,90,0,0
36239,-61.7283950617284,4,1,11,90,0,0
36320,-61.7283950617284,4,1,10,90,0,0
36888,-100,4,1,10,90,0,0
38834,-90.9090909090909,4,1,10,90,0,0
39158,-100,4,1,10,90,0,0
41104,-83.3333333333333,4,1,11,90,0,0
41266,-100,4,1,10,90,0,0
41752,-142.857142857143,4,1,10,90,0,0
42077,-100,4,1,10,90,0,0
42239,-47.6190476190476,4,1,11,80,0,0
42401,-47.6190476190476,4,1,10,90,0,0
42563,-100,4,1,10,90,0,0
43698,-47.6190476190476,4,1,11,90,0,0
43860,-47.6190476190476,4,1,10,90,0,0
44023,-100,4,1,10,90,0,0
44185,-83.3333333333333,4,1,11,90,0,0
44347,-133.333333333333,4,1,10,90,0,0
44671,-100,4,1,10,90,0,0
44834,-47.6190476190476,4,1,11,90,0,0
44996,-47.6190476190476,4,1,10,90,0,0
45158,-100,4,1,10,90,0,0
46293,-83.3333333333333,4,1,11,90,0,0
46455,-100,4,1,10,90,0,0
46942,-66.6666666666667,4,1,11,90,0,0
47023,-66.6666666666667,4,2,10,90,0,0
47266,-100,4,2,10,90,0,0
49212,-90.9090909090909,4,2,10,90,0,0
49536,-100,4,2,10,90,0,0
51482,-83.3333333333333,4,2,11,90,0,0
51644,-100,4,2,10,90,0,0
52131,-142.857142857143,4,2,10,90,0,0
52455,-100,4,2,10,90,0,0
52617,-47.6190476190476,4,2,11,90,0,0
52779,-47.6190476190476,4,2,10,90,0,0
52942,-100,4,2,10,90,0,0
54077,-47.6190476190476,4,2,11,90,0,0
54239,-47.6190476190476,4,2,10,90,0,0
54401,-100,4,2,10,90,0,0
54563,-90.9090909090909,4,2,11,90,0,0
54725,-133.333333333333,4,2,10,90,0,0
55050,-100,4,2,10,90,0,0
55212,-47.6190476190476,4,2,11,90,0,0
55374,-47.6190476190476,4,2,10,90,0,0
55536,-100,4,2,10,90,0,0
55698,-66.6666666666667,4,2,10,90,0,0
56023,-90.9090909090909,4,2,10,90,0,0
56185,-90.9090909090909,4,2,11,90,0,0
56347,-66.6666666666667,4,2,10,90,0,0
56996,-55.5555555555556,4,2,10,90,0,0
57320,-55.5555555555556,4,2,10,70,0,0
67698,-55.5555555555556,4,2,10,80,0,0
72888,-55.5555555555556,4,2,11,80,0,0
73213,-55.5555555555556,4,2,10,80,0,0
75482,-55.5555555555556,4,2,11,80,0,0
75806,-55.5555555555556,4,2,10,80,0,0
76131,-55.5555555555556,4,2,11,80,0,0
76294,-55.5555555555556,4,2,10,80,0,0
76942,-133.333333333333,4,2,10,80,0,0
78077,-133.333333333333,4,2,11,80,0,0
78239,-133.333333333333,4,2,10,55,0,0
78401,-133.333333333333,4,2,10,60,0,0
78563,-133.333333333333,4,2,10,65,0,0
78725,-133.333333333333,4,2,10,70,0,0
78888,-133.333333333333,4,2,10,75,0,0
79050,-83.3333333333333,4,2,10,80,0,0
79374,-200,4,2,10,90,0,0
79617,-200,4,2,10,5,0,0
79698,-66.6666666666667,4,2,10,90,0,0
79941,-66.6666666666667,4,2,10,5,0,0
80023,-83.3333333333333,4,2,10,90,0,0
83590,-100,4,2,10,90,0,0
84563,-200,4,2,10,90,0,0
84806,-200,4,2,10,5,0,0
84888,-55.5555555555556,4,2,10,90,0,0
85374,-83.3333333333333,4,2,10,90,0,0
85861,-100,4,2,10,90,0,0
86834,-66.6666666666667,4,2,10,90,0,0
87806,-100,4,2,10,90,0,0
88131,-83.3333333333333,4,2,10,90,0,0
88456,-61.7283950617284,4,2,10,90,0,0
89429,-76.9230769230769,4,2,10,90,0,0
89753,-200,4,2,10,90,0,0
89996,-200,4,2,10,5,0,0
90077,-66.6666666666667,4,2,10,90,0,0
90320,-66.6666666666667,4,2,10,5,0,0
90402,-83.3333333333333,4,2,10,90,0,0
93644,-100,4,2,10,90,0,0
93969,-66.6666666666667,4,2,10,90,0,0
94293,-100,4,2,10,90,0,0
94942,-200,4,2,10,90,0,0
95185,-200,4,2,10,5,0,0
95266,-55.5555555555556,4,2,10,90,0,0
95752,-83.3333333333333,4,2,10,90,0,0
96239,-100,4,2,10,90,0,0
96482,-100,4,2,10,5,0,0
96563,-100,4,2,10,90,0,0
97212,-66.6666666666667,4,2,10,90,0,0
98185,-100,4,2,10,90,0,0
98509,-66.6666666666667,4,2,10,90,0,0
98834,-61.7283950617284,4,2,10,90,0,0
99564,-61.7283950617284,4,2,11,90,0,0
99644,-61.7283950617284,4,2,10,90,0,0
99806,-61.7283950617284,4,2,11,90,0,0
99888,-61.7283950617284,4,2,10,90,0,0
100131,-61.7283950617284,4,2,10,95,0,1
100455,-90.9090909090909,4,2,10,95,0,1
102077,-100,4,2,10,95,0,1
102402,-66.6666666666667,4,2,10,95,0,1
102725,-100,4,2,10,95,0,1
104509,-83.3333333333333,4,2,10,95,0,1
104671,-83.3333333333333,4,2,11,95,0,1
104834,-83.3333333333333,4,2,10,95,0,1
105320,-142.857142857143,4,2,10,95,0,1
105645,-100,4,2,10,95,0,1
105806,-47.6190476190476,4,2,11,95,0,1
105969,-47.6190476190476,4,1,10,95,0,1
106131,-100,4,1,10,95,0,1
107266,-47.6190476190476,4,1,11,95,0,1
107428,-47.6190476190476,4,1,10,95,0,1
107590,-100,4,1,10,95,0,1
107752,-100,4,1,11,95,0,1
107915,-133.333333333333,4,1,10,95,0,1
108239,-100,4,1,10,95,0,1
108401,-100,4,1,11,95,0,1
108563,-100,4,1,10,95,0,1
109861,-83.3333333333333,4,1,11,95,0,1
110023,-100,4,1,10,95,0,1
110509,-66.6666666666667,4,1,11,95,0,1
110590,-66.6666666666667,4,2,10,95,0,1
110834,-90.9090909090909,4,2,10,95,0,1
112455,-100,4,2,10,95,0,1
112780,-66.6666666666667,4,2,10,95,0,1
113104,-100,4,2,10,95,0,1
114401,-90.9090909090909,4,2,10,95,0,1
114888,-76.9230769230769,4,2,10,95,0,1
115050,-76.9230769230769,4,2,11,95,0,1
115212,-76.9230769230769,4,2,10,95,0,1
115698,-142.857142857143,4,2,10,95,0,1
116023,-100,4,2,10,95,0,1
116185,-47.6190476190476,4,2,11,95,0,1
116347,-47.6190476190476,4,2,10,95,0,1
116509,-100,4,2,10,95,0,1
117644,-83.3333333333333,4,2,11,95,0,1
117806,-83.3333333333333,4,2,10,95,0,1
118131,-83.3333333333333,4,2,11,95,0,1
118293,-133.333333333333,4,2,10,95,0,1
118617,-100,4,2,10,95,0,1
118779,-66.6666666666667,4,2,11,95,0,1
118941,-66.6666666666667,4,2,10,95,0,1
119104,-100,4,2,10,95,0,1
119266,-50,4,2,10,95,0,1
119590,-55.5555555555556,4,2,10,95,0,1
119630,-55.5555555555556,4,2,10,5,0,1
119752,-55.5555555555556,4,2,11,95,0,1
119792,-55.5555555555556,4,2,11,5,0,1
119915,-55.5555555555556,4,2,10,95,0,1
119955,-55.5555555555556,4,2,10,5,0,1
120077,-55.5555555555556,4,2,10,95,0,1
120117,-55.5555555555556,4,2,10,5,0,1
120239,-55.5555555555556,4,2,10,95,0,1
120320,-55.5555555555556,4,2,11,95,0,1
120401,-55.5555555555556,4,2,10,95,0,1
120888,-55.5555555555556,4,2,11,90,0,0
122185,-55.5555555555556,4,2,11,70,0,0
122834,-55.5555555555556,4,2,11,50,0,0
123158,-55.5555555555556,4,2,11,30,0,0
123320,-55.5555555555556,4,2,11,10,0,0

[Colours]
Combo1 : 233,182,29
Combo2 : 89,80,203
Combo3 : 66,198,221
Combo4 : 224,73,73

[HitObjects]
50,352,379,6,0,L|117:364,3,55,4|0|0|0,3:0|1:0|1:0|1:0,1:0:0:0:
132,337,807,1,2,1:0:0:0:
103,325,914,1,2,1:0:0:0:
122,81,1129,5,4,3:0:0:0:
223,168,1236,2,0,P|159:133|283:142,1,412.5,8|0,1:3|1:0,1:0:0:0:
122,81,1986,5,2,3:2:0:0:
47,95,2093,1,0,3:0:0:0:
103,325,2307,5,2,3:2:0:0:
28,309,2414,1,0,3:0:0:0:
78,252,2521,1,2,1:0:0:0:
209,243,2736,5,2,3:2:0:0:
223,168,2843,1,0,3:0:0:0:
278,282,2950,2,0,B|301:327|297:381|297:381|327:336|387:318,1,206.25,8|0,1:3|1:0,1:0:0:0:
512,240,3379,5,0,3:0:0:0:
488,168,3486,1,2,3:2:0:0:
488,168,3807,6,0,L|498:108,3,36.6666666666667,0|0|0|0,3:0|3:0|3:0|3:0,1:0:0:0:
437,224,4129,1,0,1:0:0:0:
437,224,4236,2,0,L|374:211,1,55,2|2,1:0|1:0,1:0:0:0:
335,147,4450,5,4,3:0:0:0:
413,136,4557,1,2,1:0:0:0:
318,263,4664,2,0,P|260:121|382:213,1,412.5,8|0,1:3|1:0,1:0:0:0:
233,97,5414,5,2,3:2:0:0:
267,24,5521,1,0,3:0:0:0:
413,136,5736,5,2,3:2:0:0:
460,67,5843,1,2,1:0:0:0:
377,61,5950,1,2,1:0:0:0:
149,101,6164,5,2,3:2:0:0:
196,169,6271,1,0,1:0:0:0:
233,97,6379,1,8,1:3:0:0:
233,97,6486,2,0,P|176:67|94:76,1,137.5,0|0,3:0|3:0,1:0:0:0:
17,238,6807,5,8,1:3:0:0:
97,230,6914,1,0,1:0:0:0:
180,220,7021,1,2,3:1:0:0:
264,210,7129,1,2,3:1:0:0:
309,270,7236,6,0,L|294:334,3,55,4|0|0|0,3:0|1:0|1:0|1:0,1:0:0:0:
251,322,7664,1,2,1:0:0:0:
232,306,7771,1,2,1:0:0:0:
372,359,7986,5,4,3:0:0:0:
431,201,8093,2,0,P|470:350|352:249,1,412.5,8|0,1:3|1:0,1:0:0:0:
497,139,8843,5,0,3:0:0:0:
482,65,8950,1,2,3:2:0:0:
259,0,9164,5,2,3:2:0:0:
271,74,9271,1,0,1:0:0:0:
342,25,9379,5,2,1:0:0:0:
354,99,9486,1,2,1:0:0:0:
363,173,9593,2,0,L|289:158,1,68.75,0|0,3:0|1:0,1:0:0:0:
139,79,9807,2,0,B|189:107|241:90|241:90|200:126|208:178,1,206.25,8|0,1:3|1:0,1:0:0:0:
187,256,10236,5,0,3:0:0:0:
262,242,10343,1,2,1:0:0:0:
59,169,10664,6,0,L|39:135,3,36.6666666666667,0|0|0|0,3:0|3:0|3:0|3:0,1:0:0:0:
5,131,10986,1,0,1:0:0:0:
7,54,11093,2,0,L|68:13,3,55,2|2|4|2,1:0|1:0|3:0|1:0,1:0:0:0:
122,126,11521,6,0,P|37:197|131:286,1,206.25,8|0,1:3|1:0,1:0:0:0:
140,279,11950,1,8,1:3:0:0:
114,207,12057,2,0,P|69:250|85:332,1,137.5,0|0,3:0|1:0,1:0:0:0:
263,353,12379,1,0,3:0:0:0:
263,353,12593,5,0,1:0:0:0:
189,380,12700,1,2,1:0:0:0:
263,353,12807,1,0,2:0:0:0:
341,252,13021,5,2,3:2:0:0:
269,218,13128,1,0,1:0:0:0:
190,219,13236,5,8,1:3:0:0:
278,167,13343,1,0,3:0:0:0:
301,68,13450,1,0,2:0:0:0:
292,41,13664,5,4,1:0:0:0:
375,105,13771,1,8,1:3:0:0:
479,102,13878,1,0,3:0:0:0:
467,124,14093,6,0,L|476:204,1,68.75,6|0,3:2|1:0,1:0:0:0:
344,373,14307,2,0,L|336:304,1,68.75,4|0,3:0|1:0,1:0:0:0:
497,269,14521,5,4,3:0:0:0:
496,286,14629,1,0,1:0:0:0:
428,336,14736,5,4,3:0:0:0:
425,321,14843,1,0,1:0:0:0:
425,245,14950,5,0,3:0:0:0:
497,269,15057,1,0,3:0:0:0:
497,345,15164,1,0,3:0:0:0:
425,321,15271,1,0,3:0:0:0:
362,281,15379,6,0,L|413:269,1,41.2500015735627,0|0,3:0|3:0,1:0:0:0:
368,243,15486,2,0,L|422:258,1,41.2500015735627,0|0,3:0|3:0,1:0:0:0:
395,215,15593,2,0,L|427:247,1,41.2500015735627,0|0,3:0|3:0,1:0:0:0:
433,208,15700,2,0,L|446:253,1,41.2500015735627,0|0,3:0|3:0,1:0:0:0:
493,165,15807,6,0,P|511:132|476:139,1,82.5,2|0,3:0|2:0,2:0:0:0:
433,208,16131,2,0,P|335:222|311:79,1,247.500009441376,8|0,2:0|2:0,2:0:0:0:
366,54,16455,6,0,L|375:123,1,65.9999979858399,0|0,2:0|2:0,2:0:0:0:
281,287,16617,2,0,L|269:209,1,65.9999979858399,0|0,3:0|2:0,2:0:0:0:
164,29,16779,2,0,P|228:44|296:13,1,131.99999597168,8|0,2:0|2:0,2:0:0:0:
477,52,17023,5,0,2:0:0:0:
512,35,17104,2,0,L|492:179,1,131.99999597168,2|0,3:2|2:0,2:0:0:0:
441,347,17347,1,0,2:0:0:0:
362,311,17428,2,0,L|351:237,3,65.9999979858399,10|0|0|0,2:0|2:0|2:0|2:0,2:0:0:0:
420,194,17752,6,0,L|430:260,1,65.9999979858399,0|0,3:0|2:0,2:0:0:0:
202,377,17914,2,0,L|193:309,1,65.9999979858399,0|0,3:0|2:0,2:0:0:0:
185,155,18077,1,8,2:0:0:0:
193,163,18239,1,0,2:0:0:0:
149,254,18401,5,0,3:0:0:0:
237,75,18563,1,0,2:0:0:0:
38,230,18725,5,8,2:0:0:0:
349,88,18887,1,0,2:0:0:0:
272,212,19050,5,2,1:0:0:0:
102,120,19212,1,0,3:0:0:0:
270,315,19374,5,8,2:0:0:0:
126,3,19536,1,2,1:0:0:0:
9,191,19698,5,2,3:2:0:0:
27,238,19779,1,0,2:0:0:0:
67,271,19861,1,0,2:0:0:0:
120,272,19942,1,0,2:0:0:0:
164,255,20023,2,0,L|176:197,1,55,8|0,2:0|2:0,2:0:0:0:
357,166,20185,5,0,2:0:0:0:
427,105,20266,1,0,2:0:0:0:
510,148,20347,2,0,L|503:205,1,55,0|0,3:0|2:0,2:0:0:0:
353,307,20509,2,0,L|345:246,1,55,0|0,3:0|2:0,2:0:0:0:
267,129,20671,5,8,2:0:0:0:
276,211,20779,1,8,2:0:0:0:
345,156,20888,1,8,2:0:0:0:
201,170,20996,6,0,P|169:178|188:145,1,82.5,6|0,3:0|1:0,1:0:0:0:
212,77,21320,2,0,P|120:230|267:129,1,494.999984893799,8|2,1:0|1:0,1:0:0:0:
179,144,21806,6,0,L|188:222,1,65.9999979858399,0|0,3:0|1:0,1:0:0:0:
210,37,21969,2,0,P|177:34|135:55,1,65.9999979858399,8|0,1:0|1:0,1:0:0:0:
4,73,22131,2,0,L|0:39,3,32.99999899292,2|2|2|2,1:0|1:0|1:0|1:0,1:0:0:0:
28,21,22293,6,0,B|69:103|46:192,1,165,0|0,3:0|1:0,1:0:0:0:
96,356,22617,2,0,B|96:294|135:245,1,110,8|0,1:0|1:0,1:0:0:0:
196,207,22861,5,0,1:0:0:0:
196,207,22942,2,0,P|189:237|184:283,1,55,0|0,3:0|1:0,1:0:0:0:
9,297,23104,2,0,P|5:267|-3:235,1,55,0|0,3:0|1:0,1:0:0:0:
48,38,23266,2,0,B|116:68|192:42|192:42|244:20|297:38,1,247.500009441376,10|0,1:0|1:0,1:0:0:0:
488,86,23590,5,2,3:2:0:0:
434,133,23671,1,2,1:0:0:0:
409,201,23752,1,2,1:0:0:0:
351,159,23834,1,2,1:0:0:0:
281,146,23915,1,8,1:0:0:0:
263,185,23996,1,2,1:0:0:0:
263,229,24077,1,2,1:0:0:0:
220,218,24158,1,2,1:0:0:0:
188,187,24239,6,0,B|192:126,1,55,2|0,1:2|1:0,1:0:0:0:
400,0,24401,2,0,B|396:59,1,55,0|0,3:0|1:0,1:0:0:0:
512,281,24563,2,0,B|471:266|423:308|423:308|438:246|399:216,1,197.99999395752,8|0,1:0|1:0,1:0:0:0:
188,187,24888,6,2,B|264:192|311:147|311:147|299:212|337:276,1,267.300006525879,2|0,3:2|1:0,1:0:0:0:
492,192,25212,2,0,L|497:104,1,89.100002175293,8|0,1:0|1:0,1:0:0:0:
300,131,25374,6,2,P|152:162|82:63,1,267.300006525879,2|0,3:2|1:0,1:0:0:0:
15,281,25698,2,0,L|20:187,1,89.100002175293,0|0,3:0|1:0,1:0:0:0:
472,50,25861,6,0,B|493:199,1,142.99999345398,10|0,1:2|1:0,1:0:0:0:
399,216,26185,6,0,P|374:196|405:206,1,82.5,6|0,3:2|2:0,2:0:0:0:
446,289,26509,2,0,P|492:200|406:99,1,247.500009441376,8|0,2:0|2:0,2:0:0:0:
318,89,26834,6,0,L|339:171,1,65.9999979858399,0|0,2:0|2:0,2:0:0:0:
176,290,26996,2,0,L|160:218,1,65.9999979858399,0|0,3:0|2:0,2:0:0:0:
282,10,27158,2,0,P|287:64|237:125,1,131.99999597168,8|0,2:0|2:0,2:0:0:0:
0,83,27401,5,0,2:0:0:0:
35,86,27482,2,0,L|177:55,1,131.99999597168,2|0,3:2|2:0,2:0:0:0:
232,235,27725,1,0,2:0:0:0:
161,225,27806,2,0,L|91:240,3,65.9999979858399,10|0|0|0,2:0|2:0|2:0|2:0,2:0:0:0:
78,160,28131,6,0,L|157:142,1,65.9999979858399,0|0,3:0|2:0,2:0:0:0:
434,224,28293,2,0,L|369:238,1,65.9999979858399,0|0,3:0|2:0,2:0:0:0:
252,186,28455,1,8,2:0:0:0:
260,194,28617,1,0,2:0:0:0:
295,98,28779,5,0,3:0:0:0:
207,277,28941,1,0,2:0:0:0:
427,112,29103,5,8,2:0:0:0:
78,272,29265,1,0,2:0:0:0:
171,140,29428,5,2,1:0:0:0:
342,232,29590,1,0,3:0:0:0:
167,17,29752,5,8,2:0:0:0:
329,367,29914,1,2,1:0:0:0:
484,206,30077,6,0,P|455:202|424:197,1,55,2|0,3:2|2:0,2:0:0:0:
440,334,30239,1,0,2:0:0:0:
512,357,30320,1,0,2:0:0:0:
510,280,30401,2,0,P|501:214|503:105,1,165.000006294251,8|0,2:0|2:0,2:0:0:0:
406,0,30644,5,0,2:0:0:0:
326,41,30725,2,0,L|335:107,1,55,2|0,3:2|2:0,2:0:0:0:
204,276,30888,2,0,L|197:211,1,55,0|0,3:0|2:0,2:0:0:0:
162,62,31050,5,8,2:0:0:0:
145,155,31158,1,8,2:0:0:0:
234,120,31266,1,8,2:0:0:0:
71,97,31374,6,0,P|34:101|67:81,1,82.5,4|0,3:0|1:0,1:0:0:0:
136,143,31698,2,0,P|152:78|155:190,1,494.999984893799,8|2,1:0|1:0,1:0:0:0:
228,134,32185,6,0,L|239:207,1,65.9999979858399,0|2,3:0|1:0,1:0:0:0:
332,378,32348,2,0,P|338:341|357:304,1,65.9999979858399,8|0,1:0|1:0,1:0:0:0:
423,181,32509,2,0,L|461:188,3,32.99999899292,2|2|2|2,1:0|1:0|1:0|1:0,1:0:0:0:
414,198,32671,6,0,B|471:186|504:131|494:63,1,165,0|0,3:0|1:0,1:0:0:0:
251,12,32996,2,0,B|221:65|251:124,1,110,8|0,1:0|1:0,1:0:0:0:
326,135,33239,5,0,1:0:0:0:
326,135,33320,2,0,L|316:74,1,55,0|0,3:0|1:0,1:0:0:0:
103,78,33482,2,0,L|113:132,1,55,0|0,3:0|1:0,1:0:0:0:
389,37,33644,2,0,B|334:-36|250:-16|217:11|217:11|192:73,1,247.500009441376,8|0,1:0|1:0,1:0:0:0:
290,221,33969,5,2,3:2:0:0:
361,219,34050,1,2,1:0:0:0:
423,181,34131,1,2,1:0:0:0:
422,254,34213,1,2,1:0:0:0:
403,324,34294,1,8,1:0:0:0:
443,309,34375,1,2,1:0:0:0:
480,284,34456,1,2,1:0:0:0:
492,326,34537,1,2,1:0:0:0:
497,369,34617,6,0,P|501:343|512:299,1,55,2|0,1:2|1:0,1:0:0:0:
279,212,34779,2,0,P|283:245|287:273,1,55,0|0,3:0|1:0,1:0:0:0:
501,200,34942,6,0,P|518:126|397:24,1,247.500009441376,8|0,1:0|1:0,1:0:0:0:
388,33,35266,6,2,P|369:84|355:129,1,89.100002175293,6|0,3:0|1:0,1:0:0:0:
414,305,35428,2,2,P|386:269|354:233,1,89.100002175293,4|0,3:0|1:0,1:0:0:0:
166,190,35590,2,2,P|217:182|263:168,1,89.100002175293,4|0,3:0|1:0,1:0:0:0:
7,168,35752,6,0,P|18:217|24:269,1,89.100002175293,2|0,3:2|1:0,1:0:0:0:
122,307,35915,1,0,3:0:0:0:
104,381,35996,1,4,1:2:0:0:
106,306,36077,2,0,P|176:368|268:352,1,178.200004350586,8|2,1:3|1:0,1:0:0:0:
301,201,36320,5,8,1:3:0:0:
224,185,36401,1,0,3:0:0:0:
162,233,36482,1,0,3:0:0:0:
82,208,36563,5,6,2:0:0:0:
82,208,36888,6,0,L|125:161,1,55,8|0,2:1|2:0,2:0:0:0:
97,246,37050,2,0,L|130:197,1,55,8|0,2:0|2:0,2:0:0:0:
182,300,37212,2,0,L|197:238,1,55,8|0,2:0|2:0,2:0:0:0:
317,306,37374,2,0,L|310:246,1,55,0|0,3:0|2:0,2:0:0:0:
449,216,37536,2,0,L|415:161,1,55,8|0,2:1|2:0,2:0:0:0:
499,32,37698,2,0,L|450:-3,1,55,8|0,2:0|2:0,2:0:0:0:
261,12,37861,5,2,3:2:0:0:
229,79,37942,1,0,2:0:0:0:
248,152,38023,1,0,3:0:0:0:
309,200,38104,1,0,2:0:0:0:
386,200,38185,1,8,2:1:0:0:
407,155,38266,1,0,2:0:0:0:
394,107,38347,1,0,2:0:0:0:
356,75,38428,1,0,2:0:0:0:
308,79,38509,6,0,L|299:145,1,55,0|0,2:0|2:0,2:0:0:0:
479,300,38671,2,0,L|487:241,1,55,0|0,3:0|2:0,2:0:0:0:
212,134,38834,2,0,P|237:189|294:215,1,121.000003692627,8|0,2:1|2:0,2:0:0:0:
503,35,39158,6,0,L|439:20,1,55,0|0,3:0|2:0,2:0:0:0:
382,42,39320,1,0,2:0:0:0:
348,103,39401,1,0,2:0:0:0:
363,178,39482,5,8,2:1:0:0:
378,170,39563,1,0,2:0:0:0:
393,163,39644,1,0,2:0:0:0:
407,155,39725,1,0,2:0:0:0:
431,91,39806,5,2,1:0:0:0:
382,42,39887,1,0,2:0:0:0:
310,35,39968,1,0,3:0:0:0:
250,74,40049,1,0,2:0:0:0:
221,152,40131,5,8,2:1:0:0:
148,191,40212,1,0,2:0:0:0:
68,170,40293,1,2,1:0:0:0:
18,104,40374,1,0,2:0:0:0:
31,21,40455,6,0,L|91:40,1,55,2|0,3:2|2:0,2:0:0:0:
296,180,40617,2,0,L|354:196,1,55,0|0,3:0|2:0,2:0:0:0:
158,0,40779,6,0,L|175:56,1,55,8|0,2:1|2:0,2:0:0:0:
158,245,40942,2,0,L|174:300,1,55,2|0,2:0|2:0,2:0:0:0:
124,164,41104,6,0,L|134:128,3,32.99999899292,8|0|0|0,2:3|2:0|2:0|2:0,2:0:0:0:
51,174,41266,2,0,L|33:234,1,55,0|0,3:0|2:0,2:0:0:0:
52,334,41428,5,8,2:1:0:0:
113,378,41509,1,0,2:0:0:0:
190,384,41590,1,0,2:0:0:0:
261,356,41671,1,0,2:0:0:0:
335,335,41752,6,0,P|388:328|444:352,1,115.49999647522,6|0,3:0|1:0,1:0:0:0:
431,355,42077,2,0,L|422:296,1,55,8|0,1:3|1:0,1:0:0:0:
223,265,42239,6,0,B|218:280|218:280|195:285|195:285|187:297|187:297|161:292|161:292|153:299|153:299|127:282|127:282|121:288|121:288|102:260|102:260|97:263|97:263|89:228|89:228|83:231|83:231|92:193|92:193|85:196|85:196|110:164|110:164|101:166|101:166|140:146,1,346.49998942566,8|2,1:3|1:0,1:0:0:0:
165,218,42563,6,0,L|151:281,1,55,0|0,3:0|1:0,1:0:0:0:
15,260,42725,2,0,P|7:212|31:145,1,110,8|0,1:3|1:0,1:0:0:0:
201,13,43050,6,0,P|233:21|265:27,1,55,0|0,3:0|1:0,1:0:0:0:
53,79,43212,2,0,P|23:74|-12:64,1,55,0|0,3:0|1:0,1:0:0:0:
177,206,43374,2,0,P|235:197|293:188,1,110,8|2,1:3|1:0,1:0:0:0:
280,203,43617,1,2,1:0:0:0:
275,214,43698,6,0,B|252:201|252:201|246:205|246:205|233:181|233:181|224:183|224:183|224:155|224:155|214:152|214:152|222:126|222:126|214:118|214:118|232:101|232:101|229:89|229:89|250:77|250:77|248:55,1,230.99999295044,8|0,1:3|3:0,1:0:0:0:
452,31,43942,1,0,1:0:0:0:
462,48,44023,2,0,L|453:113,1,55,8|0,1:3|1:0,1:0:0:0:
471,246,44185,2,0,L|468:285,3,32.99999899292,8|0|0|0,1:3|1:0|1:0|1:0,1:0:0:0:
405,198,44347,6,0,P|376:261|385:321,1,123.750004720688,4|0,3:0|1:0,1:0:0:0:
392,326,44671,2,0,L|323:311,1,55,8|0,1:3|1:0,1:0:0:0:
72,324,44834,6,0,B|73:341|73:341|95:347|95:347|103:360|103:360|129:356|129:356|136:364|136:364|163:347|163:347|169:354|169:354|189:327|189:327|193:332|193:332|203:296|203:296|210:299|210:299|202:262|202:262|208:265|208:265|187:232|187:232|195:235|195:235|163:217,1,346.49998942566,8|2,1:3|1:0,1:0:0:0:
132,284,45158,6,0,L|142:349,1,55,0|0,3:0|1:0,1:0:0:0:
268,360,45320,2,0,P|289:305|278:238,1,110,8|0,1:3|1:0,1:0:0:0:
134,49,45644,6,0,P|112:52|77:58,1,55,0|0,3:0|1:0,1:0:0:0:
272,173,45806,2,0,P|305:168|338:166,1,55,0|0,3:0|1:0,1:0:0:0:
132,284,45969,2,0,P|80:271|12:259,1,110,8|2,1:3|1:0,1:0:0:0:
119,141,46212,5,2,1:0:0:0:
119,141,46293,2,0,L|160:138,3,32.99999899292,8|0|0|0,1:3|1:0|1:0|1:0,1:0:0:0:
48,186,46455,6,0,P|39:155|21:124,1,55,0|0,3:0|1:0,1:0:0:0:
134,2,46617,2,0,P|167:10|194:10,1,55,8|0,1:3|1:0,1:0:0:0:
245,171,46779,2,0,P|221:191|208:212,1,55,0|0,1:0|1:0,1:0:0:0:
19,8,46942,6,0,B|41:74|128:133|229:85,1,247.500009441376,4|0,3:0|2:0,2:0:0:0:
151,138,47266,6,0,L|210:108,1,55,8|0,2:1|2:0,2:0:0:0:
161,94,47428,2,0,L|217:96,1,55,8|0,2:0|2:0,2:0:0:0:
206,47,47590,2,0,L|271:77,1,55,8|0,2:0|2:0,2:0:0:0:
317,13,47752,2,0,L|341:80,1,55,0|0,3:0|2:0,2:0:0:0:
469,69,47914,2,0,L|447:130,1,55,8|0,2:1|2:0,2:0:0:0:
512,258,48076,2,0,L|466:307,1,55,8|0,2:0|2:0,2:0:0:0:
316,334,48239,5,2,3:2:0:0:
263,281,48320,1,0,2:0:0:0:
190,268,48401,1,0,3:0:0:0:
124,304,48482,1,0,2:0:0:0:
109,378,48563,1,8,2:1:0:0:
138,338,48644,1,0,2:0:0:0:
136,288,48725,1,0,2:0:0:0:
108,245,48806,1,0,2:0:0:0:
69,211,48888,6,0,L|134:221,1,55,0|0,2:0|2:0,2:0:0:0:
237,56,49050,2,0,L|172:68,1,55,0|0,3:0|2:0,2:0:0:0:
12,289,49212,2,0,P|75:316|128:301,1,121.000003692627,8|0,2:1|2:0,2:0:0:0:
107,9,49536,6,0,L|93:83,1,55,0|0,3:0|2:0,2:0:0:0:
98,134,49698,1,0,2:0:0:0:
142,189,49779,1,0,2:0:0:0:
216,173,49861,5,8,2:1:0:0:
224,157,49942,1,0,2:0:0:0:
232,142,50023,1,0,2:0:0:0:
241,128,50104,1,0,2:0:0:0:
237,56,50185,5,2,1:0:0:0:
168,73,50266,1,0,2:0:0:0:
97,64,50347,1,0,3:0:0:0:
98,134,50428,1,0,2:0:0:0:
55,191,50509,5,8,2:1:0:0:
115,247,50590,1,0,2:0:0:0:
141,325,50671,1,2,1:0:0:0:
216,292,50752,1,0,2:0:0:0:
299,299,50834,6,0,L|318:240,1,55,2|0,3:2|2:0,2:0:0:0:
512,155,50996,2,0,L|449:137,1,55,0|0,3:0|2:0,2:0:0:0:
186,172,51158,6,0,L|258:156,1,55,8|0,2:1|2:0,2:0:0:0:
308,0,51320,2,0,L|320:67,1,55,2|0,2:0|2:0,2:0:0:0:
412,224,51482,6,0,L|431:250,3,32.99999899292,8|0|0|0,2:3|2:0|2:0|2:0,2:0:0:0:
443,129,51644,2,0,L|494:90,1,55,0|0,3:0|2:0,2:0:0:0:
310,145,51806,5,8,2:1:0:0:
233,151,51887,1,0,2:0:0:0:
182,210,51969,1,0,2:0:0:0:
186,286,52050,1,0,2:0:0:0:
235,344,52131,6,0,P|275:346|314:352,1,76.9999976501466,6|0,3:0|1:0,1:0:0:0:
380,377,52374,1,0,1:0:0:0:
399,370,52455,2,0,L|388:301,1,55,8|0,1:3|1:0,1:0:0:0:
485,95,52617,6,0,B|472:118|472:118|476:124|476:124|451:138|451:138|453:147|453:147|425:147|425:147|421:158|421:158|395:149|395:149|386:158|386:158|369:139|369:139|353:142|353:142|342:117|342:117|322:118,1,230.99999295044,8|2,1:3|1:0,1:0:0:0:
224,64,52861,5,2,1:0:0:0:
220,82,52942,2,0,P|234:113|242:144,1,55,0|0,3:0|1:0,1:0:0:0:
405,43,53104,2,0,P|380:41|345:34,1,55,8|0,1:3|1:0,1:0:0:0:
345,232,53266,2,0,P|358:211|382:184,1,55,0|0,1:0|1:0,1:0:0:0:
271,48,53428,5,0,3:0:0:0:
224,64,53509,1,0,1:0:0:0:
175,61,53590,1,0,3:0:0:0:
130,41,53671,1,0,1:0:0:0:
53,13,53752,2,0,P|46:67|37:127,1,110,8|2,1:3|1:0,1:0:0:0:
22,129,53996,5,2,1:0:0:0:
8,134,54077,2,0,B|31:121|31:121|31:114|31:114|58:115|58:115|61:107|61:107|85:122|85:122|92:115|92:115|110:135|110:135|121:133|121:133|126:157|126:157|139:161|139:161|137:185|137:185|156:199,1,230.99999295044,8|0,1:3|3:0,1:0:0:0:
74,374,54320,1,0,1:0:0:0:
57,384,54401,2,0,L|1:373,1,55,8|0,1:3|1:0,1:0:0:0:
120,275,54563,2,0,L|162:284,3,30.2500009231568,8|0|0|0,1:3|1:0|1:0|1:0,1:0:0:0:
40,289,54725,6,0,P|45:245|45:201,1,82.5000031471254,4|0,3:0|1:0,1:0:0:0:
37,121,54969,1,0,1:0:0:0:
50,106,55050,2,0,L|109:118,1,55,8|0,1:3|1:0,1:0:0:0:
262,8,55212,6,0,B|245:28|245:28|238:26|238:26|234:53|234:53|225:55|225:55|235:81|235:81|226:87|226:87|244:109|244:109|238:119|238:119|262:128|262:128|263:141|263:141|287:144|287:144|297:162,1,230.99999295044,8|2,1:3|1:0,1:0:0:0:
373,150,55455,1,2,1:0:0:0:
390,141,55536,2,0,L|398:76,1,55,0|0,3:0|1:0,1:0:0:0:
208,206,55698,6,0,B|276:258|276:258|365:228,1,165.000006294251,8|0,1:3|1:0,1:0:0:0:
189,61,56023,6,0,L|200:137,1,60.5000018463135,0|0,3:0|1:0,1:0:0:0:
379,304,56185,2,0,L|368:229,1,60.5000018463135,8|0,3:0|1:0,1:0:0:0:
507,34,56347,6,0,P|501:76|493:127,1,82.5000031471254,8|0,2:3|1:0,1:0:0:0:
275,258,56509,2,0,P|282:217|292:156,1,82.5000031471254,0|0,2:0|1:0,1:0:0:0:
126,169,56671,5,0,3:0:0:0:
26,118,56752,1,0,3:0:0:0:
77,217,56833,1,0,3:0:0:0:
94,107,56914,1,0,3:0:0:0:
17,187,56996,6,0,B|47:326|47:326|19:274,1,197.99999395752,8|0,1:3|1:0,1:0:0:0:
256,0,57320,5,4,2:1:0:0:
92,71,59915,5,2,2:0:0:0:
343,127,62509,5,4,2:1:0:0:
184,260,65104,5,2,2:0:0:0:
184,260,67698,5,4,3:1:0:0:
47,142,67861,1,0,2:0:0:0:
12,313,68023,1,8,2:1:0:0:
69,255,68185,1,2,2:0:0:0:
69,255,68266,1,0,2:0:0:0:
69,255,68347,1,0,3:0:0:0:
184,260,68509,5,8,2:1:0:0:
47,142,68671,1,0,2:0:0:0:
90,111,68752,1,0,2:0:0:0:
123,153,68834,1,8,2:0:0:0:
34,0,69158,5,0,2:0:0:0:
123,170,69482,1,0,2:0:0:0:
308,65,69806,1,8,2:1:0:0:
295,282,69969,1,0,2:0:0:0:
295,282,70293,5,0,3:0:0:0:
486,319,70456,1,0,2:0:0:0:
423,137,70617,1,8,2:1:0:0:
383,225,70779,1,8,2:0:0:0:
383,225,70861,1,0,2:0:0:0:
383,225,70942,1,0,3:0:0:0:
295,282,71104,5,8,2:1:0:0:
308,65,71266,1,0,2:0:0:0:
277,108,71347,1,0,2:0:0:0:
319,141,71429,1,8,2:0:0:0:
175,99,71752,5,0,2:0:0:0:
434,38,72076,1,8,2:0:0:0:
243,6,72400,1,8,2:1:0:0:
211,195,72563,1,8,2:0:0:0:
22,161,72725,1,8,2:0:0:0:
169,312,72888,5,4,3:2:0:0:
148,95,73051,1,0,2:0:0:0:
350,177,73213,1,8,2:1:0:0:
211,195,73374,1,2,2:0:0:0:
211,195,73455,1,0,2:0:0:0:
211,195,73536,1,0,3:0:0:0:
169,312,73698,5,8,2:1:0:0:
441,291,73861,1,0,2:0:0:0:
390,308,73942,1,0,2:0:0:0:
365,261,74023,1,8,2:0:0:0:
106,252,74347,5,0,2:0:0:0:
298,372,74671,1,0,2:0:0:0:
439,179,74996,1,8,2:1:0:0:
247,59,75158,1,0,2:0:0:0:
247,59,75482,5,4,3:2:0:0:
496,8,75644,1,0,2:0:0:0:
421,251,75806,1,8,2:1:0:0:
390,114,75969,1,8,2:0:0:0:
390,114,76050,1,0,2:0:0:0:
390,114,76131,1,4,3:2:0:0:
247,59,76294,5,8,2:1:0:0:
100,194,76455,1,0,2:0:0:0:
155,192,76536,1,0,2:0:0:0:
169,246,76618,1,8,2:0:0:0:
79,21,76942,6,0,P|91:52|104:116,1,82.5000031471254,0|8,2:0|2:1,2:0:0:0:
112,94,77266,2,0,P|43:114|7:155,1,123.750004720688,4|0,3:2|2:0,2:0:0:0:
7,225,77590,5,12,2:1:0:0:
162,0,77752,1,8,2:0:0:0:
19,74,77915,1,8,3:2:0:0:
170,201,78077,6,0,L|252:192,1,82.5000031471254,4|0,3:0|3:0,2:0:0:0:
252,191,78320,1,0,3:0:0:0:
307,247,78401,5,0,3:0:0:0:
273,274,78482,1,0,3:0:0:0:
230,272,78563,1,0,3:0:0:0:
200,241,78644,1,0,3:0:0:0:
205,131,78725,5,0,3:0:0:0:
276,115,78806,1,0,3:0:0:0:
339,154,78888,1,0,3:0:0:0:
350,226,78969,1,0,3:0:0:0:
298,285,79050,6,0,P|265:267|225:268,1,65.9999979858399,8|0,3:0|2:0,2:0:0:0:
123,301,79212,2,0,P|111:267|89:244,1,65.9999979858399,8|0,3:0|2:0,2:0:0:0:
32,156,79374,6,0,P|69:166|53:140,1,82.5,6|0,3:0|2:0,2:0:0:0:
108,77,79698,2,0,P|128:177|261:192,1,247.500009441376,8|0,2:0|2:0,2:0:0:0:
276,115,80023,6,0,L|202:108,1,65.9999979858399,0|0,2:0|2:0,2:0:0:0:
58,295,80185,2,0,L|138:303,1,65.9999979858399,0|0,3:0|2:0,2:0:0:0:
369,101,80347,2,0,P|342:161|356:239,1,131.99999597168,8|0,2:0|2:0,2:0:0:0:
392,13,80590,5,0,2:0:0:0:
371,26,80671,2,0,L|221:35,1,131.99999597168,2|0,3:2|2:0,2:0:0:0:
37,140,80915,1,0,2:0:0:0:
93,192,80996,2,0,L|168:188,3,65.9999979858399,10|0|0|0,2:0|2:0|2:0|2:0,2:0:0:0:
210,108,81320,6,0,L|134:112,1,65.9999979858399,0|0,3:0|2:0,2:0:0:0:
284,361,81482,2,0,L|354:358,1,65.9999979858399,0|0,3:0|2:0,2:0:0:0:
347,190,81644,1,8,2:0:0:0:
339,198,81806,1,0,2:0:0:0:
440,154,81968,5,0,3:0:0:0:
260,241,82130,1,0,2:0:0:0:
419,35,82292,5,8,2:0:0:0:
269,360,82454,1,0,2:0:0:0:
397,278,82617,5,2,1:0:0:0:
306,106,82779,1,0,3:0:0:0:
506,278,82941,5,8,2:0:0:0:
180,127,83103,1,2,1:0:0:0:
347,190,83266,5,2,3:2:0:0:
383,149,83347,1,0,2:0:0:0:
390,95,83428,1,0,2:0:0:0:
368,45,83509,1,0,2:0:0:0:
324,14,83590,2,0,L|258:23,1,55,8|0,2:0|2:0,2:0:0:0:
174,141,83752,5,0,2:0:0:0:
85,173,83833,1,0,2:0:0:0:
7,119,83915,2,0,L|18:54,1,55,0|0,3:0|2:0,2:0:0:0:
229,209,84076,2,0,L|219:268,1,55,0|0,3:0|2:0,2:0:0:0:
50,354,84239,5,8,2:0:0:0:
117,276,84347,1,8,2:0:0:0:
150,376,84455,1,8,2:0:0:0:
21,270,84563,6,0,P|-9:262|20:263,1,82.5,6|0,3:0|1:0,1:0:0:0:
53,193,84888,2,0,P|29:306|109:172,1,494.999984893799,8|2,1:0|1:0,1:0:0:0:
110,262,85374,6,0,L|121:336,1,65.9999979858399,0|0,3:0|1:0,1:0:0:0:
289,384,85537,2,0,P|309:354|313:306,1,65.9999979858399,8|0,1:0|1:0,1:0:0:0:
263,182,85698,2,0,L|297:189,3,32.99999899292,2|2|2|2,1:0|1:0|1:0|1:0,1:0:0:0:
258,151,85861,6,0,B|284:207|346:230|418:226,1,165,0|0,3:0|1:0,1:0:0:0:
505,45,86185,2,0,B|479:17|431:2|403:17,1,110,8|0,1:0|1:0,1:0:0:0:
319,25,86428,5,0,1:0:0:0:
319,25,86509,2,0,L|332:88,1,55,0|0,3:0|1:0,1:0:0:0:
181,201,86671,2,0,L|168:141,1,55,0|0,3:0|1:0,1:0:0:0:
454,121,86834,2,0,B|439:191|358:217|358:217|302:213|270:197|252:168,1,247.500009441376,10|0,1:0|1:0,1:0:0:0:
114,0,87158,5,2,3:2:0:0:
77,65,87239,1,2,1:0:0:0:
12,102,87320,1,2,1:0:0:0:
70,149,87401,1,2,1:0:0:0:
98,218,87482,1,8,1:0:0:0:
62,243,87563,1,2,1:0:0:0:
18,245,87644,1,2,1:0:0:0:
35,286,87725,1,2,1:0:0:0:
68,315,87806,6,0,B|74:240,1,55,2|0,1:2|1:0,1:0:0:0:
262,181,87968,2,0,L|257:240,1,55,0|0,3:0|1:0,1:0:0:0:
0,94,88131,2,0,B|52:70|93:75|93:75|132:102|147:162,1,197.99999395752,8|0,1:0|1:0,1:0:0:0:
337,260,88456,6,2,B|396:239|436:184|436:184|449:119|407:51,1,267.300006525879,2|0,3:2|1:0,1:0:0:0:
219,21,88779,2,0,L|230:116,1,89.100002175293,8|0,1:0|1:0,1:0:0:0:
178,284,88942,6,2,P|277:260|381:390,1,267.300006525879,2|0,3:2|1:0,1:0:0:0:
508,290,89266,2,0,L|513:196,1,89.100002175293,0|0,3:0|1:0,1:0:0:0:
13,111,89429,6,0,B|35:263,1,142.99999345398,10|0,1:2|1:0,1:0:0:0:
136,93,89753,6,0,P|134:120|124:91,1,82.5,6|0,3:2|2:0,2:0:0:0:
119,197,90077,2,0,P|34:94|94:20,1,247.500009441376,8|0,2:0|2:0,2:0:0:0:
173,25,90402,6,0,L|163:96,1,65.9999979858399,0|0,2:0|2:0,2:0:0:0:
33,252,90563,2,0,L|40:185,1,65.9999979858399,0|0,3:0|2:0,2:0:0:0:
249,65,90725,2,0,P|320:59|370:103,1,131.99999597168,8|0,2:0|2:0,2:0:0:0:
244,171,90969,5,0,2:0:0:0:
221,150,91050,2,0,L|241:301,1,131.99999597168,2|0,3:2|2:0,2:0:0:0:
433,362,91293,1,0,2:0:0:0:
460,291,91374,2,0,L|450:221,3,65.9999979858399,10|0|0|0,2:0|2:0|2:0|2:0,2:0:0:0:
375,266,91698,6,0,L|363:183,1,65.9999979858399,0|0,3:0|2:0,2:0:0:0:
118,147,91861,2,0,L|128:221,1,65.9999979858399,0|0,3:0|2:0,2:0:0:0:
258,199,92023,1,8,2:0:0:0:
253,188,92185,1,0,2:0:0:0:
224,291,92347,5,0,3:0:0:0:
297,100,92509,1,0,2:0:0:0:
89,285,92671,5,8,2:0:0:0:
426,95,92833,1,0,2:0:0:0:
346,237,92996,5,2,1:0:0:0:
163,158,93158,1,0,3:0:0:0:
358,359,93320,5,8,2:0:0:0:
166,20,93482,1,2,1:0:0:0:
415,105,93644,6,0,L|404:169,1,55,2|0,3:2|2:0,2:0:0:0:
265,290,93807,1,0,2:0:0:0:
225,363,93888,1,0,2:0:0:0:
147,342,93969,2,0,P|158:266|173:169,1,165.000006294251,8|0,2:0|2:0,2:0:0:0:
25,40,94212,5,0,2:0:0:0:
0,123,94293,2,0,P|5:155|10:188,1,55,2|0,3:2|2:0,2:0:0:0:
323,204,94455,2,0,P|317:170|311:132,1,55,0|0,3:0|2:0,2:0:0:0:
226,11,94617,5,8,2:0:0:0:
233,121,94725,1,8,2:0:0:0:
322,59,94833,1,8,2:0:0:0:
148,83,94942,6,0,P|124:101|136:69,1,82.5,4|0,3:0|1:0,1:0:0:0:
97,1,95266,2,0,P|66:153|164:0,1,494.999984893799,8|2,1:0|1:0,1:0:0:0:
131,68,95752,6,0,L|137:151,1,65.9999979858399,0|2,3:0|1:0,1:0:0:0:
3,220,95915,2,0,P|33:199|74:195,1,65.9999979858399,8|0,1:0|1:0,1:0:0:0:
205,244,96077,2,0,L|201:282,3,32.99999899292,2|2|2|2,1:0|1:0|1:0|1:0,1:0:0:0:
184,233,96239,6,0,B|207:181|279:160|343:185,1,165,0|0,3:0|1:0,1:0:0:0:
512,133,96563,2,0,B|480:131|444:116|416:73,1,110,8|0,1:0|1:0,1:0:0:0:
327,65,96806,5,0,1:0:0:0:
327,65,96888,2,0,L|336:8,1,55,0|0,3:0|1:0,1:0:0:0:
427,191,97050,2,0,L|408:254,1,55,0|0,3:0|1:0,1:0:0:0:
512,52,97212,2,0,B|506:119|452:169|381:169|381:169|325:147,1,247.500009441376,8|0,1:0|1:0,1:0:0:0:
118,257,97536,5,2,3:2:0:0:
171,310,97617,1,2,1:0:0:0:
200,379,97698,1,2,1:0:0:0:
246,319,97779,1,2,1:0:0:0:
312,280,97861,1,8,1:0:0:0:
325,321,97942,1,2,1:0:0:0:
323,365,98023,1,2,1:0:0:0:
360,341,98104,1,2,1:0:0:0:
380,302,98185,6,0,P|349:306|316:312,1,55,2|0,1:2|1:0,1:0:0:0:
172,137,98347,2,0,P|209:131|234:126,1,55,0|0,3:0|1:0,1:0:0:0:
471,236,98509,6,0,P|505:130|416:39,1,247.500009441376,8|0,1:0|1:0,1:0:0:0:
408,25,98834,6,2,P|400:72|388:119,1,89.100002175293,6|0,3:0|1:0,1:0:0:0:
164,229,98996,2,2,P|213:210|260:198,1,89.100002175293,4|0,3:0|1:0,1:0:0:0:
460,339,99158,2,2,P|420:305|385:268,1,89.100002175293,4|0,3:0|1:0,1:0:0:0:
319,38,99320,6,0,P|309:94|301:140,1,89.100002175293,2|0,3:2|1:0,1:0:0:0:
332,217,99483,1,0,3:0:0:0:
307,291,99564,1,4,1:2:0:0:
321,216,99644,2,0,P|400:185|473:242,1,178.200004350586,8|2,1:3|1:0,1:0:0:0:
361,362,99888,5,8,1:3:0:0:
285,384,99969,1,0,3:0:0:0:
223,335,100050,1,0,3:0:0:0:
136,350,100131,5,6,2:0:0:0:
136,350,100455,6,0,L|183:305,1,60.5000018463135,8|0,2:1|2:0,2:0:0:0:
104,335,100617,2,0,L|155:299,1,60.5000018463135,8|0,2:0|2:0,2:0:0:0:
56,285,100779,2,0,L|117:268,1,60.5000018463135,8|0,2:0|2:0,2:0:0:0:
31,168,100941,2,0,L|92:172,1,60.5000018463135,0|0,3:0|2:0,2:0:0:0:
133,22,101104,2,0,L|187:53,1,60.5000018463135,8|0,2:1|2:0,2:0:0:0:
361,1,101265,2,0,L|398:51,1,60.5000018463135,8|0,2:0|2:0,2:0:0:0:
512,151,101428,5,2,3:2:0:0:
487,221,101510,1,0,2:0:0:0:
426,264,101591,1,0,3:0:0:0:
351,259,101672,1,0,2:0:0:0:
288,219,101752,1,8,2:1:0:0:
322,193,101834,1,0,2:0:0:0:
364,190,101915,1,0,2:0:0:0:
399,212,101996,1,0,2:0:0:0:
419,247,102077,6,0,L|409:188,1,55,0|0,2:0|2:0,2:0:0:0:
349,0,102239,2,0,L|344:62,1,55,0|0,3:0|2:0,2:0:0:0:
471,312,102402,2,0,P|501:261|474:162,1,165.000006294251,8|0,2:1|2:0,2:0:0:0:
191,129,102725,6,0,L|243:144,1,55,0|0,3:0|2:0,2:0:0:0:
318,139,102888,1,0,2:0:0:0:
372,87,102969,1,0,2:0:0:0:
336,20,103050,5,8,2:1:0:0:
320,25,103131,1,0,2:0:0:0:
304,29,103212,1,0,2:0:0:0:
287,33,103293,1,0,2:0:0:0:
210,57,103374,5,2,1:0:0:0:
191,129,103455,1,0,2:0:0:0:
219,195,103536,1,0,3:0:0:0:
288,219,103617,1,0,2:0:0:0:
358,175,103698,5,8,2:1:0:0:
272,172,103779,1,0,2:0:0:0:
203,225,103861,1,2,1:0:0:0:
198,310,103942,1,0,2:0:0:0:
239,384,104023,6,0,L|309:363,1,55,2|0,3:2|2:0,2:0:0:0:
460,202,104185,2,0,L|519:184,1,55,0|0,3:0|2:0,2:0:0:0:
399,384,104347,6,0,L|434:340,1,55,8|0,2:1|2:0,2:0:0:0:
454,177,104509,2,0,L|477:147,3,32.99999899292,2|0|0|0,2:0|2:0|2:0|2:0,2:0:0:0:
379,192,104671,6,0,L|369:236,3,32.99999899292,8|0|0|0,2:3|2:0|2:0|2:0,2:0:0:0:
444,151,104834,1,0,3:0:0:0:
433,74,104915,1,0,2:0:0:0:
471,7,104996,5,8,2:1:0:0:
405,56,105077,1,0,2:0:0:0:
324,75,105158,1,0,2:0:0:0:
241,66,105239,1,0,2:0:0:0:
169,25,105320,6,0,P|112:13|53:24,1,115.49999647522,6|0,3:0|1:0,1:0:0:0:
42,30,105645,2,0,L|51:96,1,55,8|0,1:3|1:0,1:0:0:0:
14,277,105806,6,0,B|21:291|21:291|43:294|43:294|53:306|53:306|78:300|78:300|87:306|87:306|111:288|111:288|117:293|117:293|134:264|134:264|140:266|140:266|145:231|145:231|151:233|151:233|140:196|140:196|147:198|147:198|120:168|120:168|129:170|129:170|89:153,1,346.49998942566,8|2,1:3|1:0,1:0:0:0:
71,229,106131,6,0,L|135:238,1,55,0|0,3:0|1:0,1:0:0:0:
291,340,106293,2,0,P|240:320|172:335,1,110,8|0,1:3|1:0,1:0:0:0:
307,185,106617,6,0,P|306:155|308:120,1,55,0|0,3:0|1:0,1:0:0:0:
201,312,106779,2,0,P|208:340|213:371,1,55,0|0,3:0|1:0,1:0:0:0:
55,226,106942,2,0,P|74:170|76:100,1,110,8|2,1:3|1:0,1:0:0:0:
67,108,107185,1,2,1:0:0:0:
58,96,107266,6,0,B|71:119|71:119|67:125|67:125|91:138|91:138|89:147|89:147|117:147|117:147|120:157|120:157|146:149|146:149|154:157|154:157|171:139|171:139|183:142|183:142|195:121|195:121|218:119,1,230.99999295044,8|0,1:3|3:0,1:0:0:0:
352,0,107509,1,0,1:0:0:0:
366,13,107590,2,0,L|427:25,1,55,8|0,1:3|1:0,1:0:0:0:
459,172,107752,2,0,L|515:184,1,55,8|0,1:3|1:0,1:0:0:0:
445,352,107915,6,0,P|387:332|321:333,1,123.750004720688,4|0,3:0|1:0,1:0:0:0:
336,343,108239,2,0,L|341:279,1,55,8|0,1:3|1:0,1:0:0:0:
198,272,108401,5,8,1:3:0:0:
156,285,108482,1,0,1:0:0:0:
113,274,108563,1,2,1:0:0:0:
80,245,108644,1,2,1:0:0:0:
75,201,108725,2,0,L|138:191,1,55,0|0,3:0|1:0,1:0:0:0:
225,362,108888,2,0,B|169:383|169:383|110:369,1,110,8|0,1:3|1:0,1:0:0:0:
8,106,109212,6,0,L|-1:161,1,55,0|0,3:0|1:0,1:0:0:0:
162,306,109374,2,0,L|174:248,1,55,0|0,3:0|1:0,1:0:0:0:
280,41,109536,2,0,P|286:97|300:169,1,110,8|2,1:3|1:0,1:0:0:0:
163,100,109779,5,2,1:0:0:0:
163,100,109861,2,0,L|156:146,3,32.99999899292,8|0|0|0,1:3|1:0|1:0|1:0,1:0:0:0:
210,27,110023,6,0,P|235:45|266:65,1,55,0|0,3:0|1:0,1:0:0:0:
235,228,110185,2,0,P|208:238|183:254,1,55,8|0,1:3|1:0,1:0:0:0:
47,150,110347,2,0,P|49:122|47:91,1,55,0|0,1:0|1:0,1:0:0:0:
310,162,110509,6,0,B|384:195|483:146|498:50,1,247.500009441376,4|0,3:0|2:0,2:0:0:0:
502,129,110834,6,0,L|439:118,1,60.5000018463135,8|0,2:1|2:0,2:0:0:0:
512,165,110996,2,0,L|454:145,1,60.5000018463135,8|0,2:0|2:0,2:0:0:0:
482,241,111158,2,0,L|432:202,1,60.5000018463135,8|0,2:0|2:0,2:0:0:0:
398,336,111320,2,0,L|364:283,1,60.5000018463135,0|0,3:0|2:0,2:0:0:0:
213,369,111483,2,0,L|205:305,1,60.5000018463135,8|0,2:1|2:0,2:0:0:0:
14,270,111644,2,0,L|39:211,1,60.5000018463135,8|0,2:0|2:0,2:0:0:0:
75,55,111806,5,2,3:2:0:0:
159,27,111888,1,0,2:0:0:0:
237,61,111969,1,0,3:0:0:0:
275,135,112050,1,0,2:0:0:0:
261,219,112131,1,8,2:1:0:0:
224,198,112212,1,0,2:0:0:0:
203,160,112293,1,0,2:0:0:0:
203,119,112373,1,0,2:0:0:0:
223,84,112455,6,0,L|229:139,1,55,0|0,2:0|2:0,2:0:0:0:
418,188,112618,2,0,L|424:132,1,55,0|0,3:0|2:0,2:0:0:0:
280,0,112780,2,0,P|189:-6|133:40,1,165.000006294251,8|0,2:1|2:0,2:0:0:0:
68,221,113104,6,0,L|60:163,1,55,0|0,3:0|2:0,2:0:0:0:
130,138,113266,1,0,2:0:0:0:
192,180,113347,1,0,2:0:0:0:
267,179,113428,5,8,2:1:0:0:
254,190,113509,1,0,2:0:0:0:
241,201,113590,1,0,2:0:0:0:
227,211,113671,1,0,2:0:0:0:
213,285,113752,5,2,1:0:0:0:
289,290,113834,1,0,2:0:0:0:
347,339,113915,1,0,3:0:0:0:
389,277,113995,1,0,2:0:0:0:
457,245,114077,5,8,2:1:0:0:
408,172,114158,1,0,2:0:0:0:
401,87,114239,1,2,1:0:0:0:
316,107,114320,1,0,2:0:0:0:
223,84,114401,6,0,L|232:13,1,60.5000018463135,2|0,3:2|2:0,2:0:0:0:
401,268,114563,2,0,L|467:273,1,60.5000018463135,0|0,3:0|2:0,2:0:0:0:
88,224,114725,6,0,L|33:195,1,60.5000018463135,8|0,2:1|2:0,2:0:0:0:
277,157,114888,2,0,L|301:112,3,35.749998363495,2|0|0|0,2:0|2:0|2:0|2:0,2:0:0:0:
192,173,115050,6,0,L|157:146,3,35.749998363495,8|0|0|0,2:3|2:0|2:0|2:0,2:0:0:0:
234,234,115212,1,0,3:0:0:0:
309,241,115293,1,0,2:0:0:0:
354,179,115374,5,8,2:1:0:0:
331,258,115455,1,0,2:0:0:0:
356,336,115536,1,0,2:0:0:0:
431,369,115617,1,0,2:0:0:0:
511,350,115698,6,0,P|509:314|503:267,1,76.9999976501466,6|0,3:0|1:0,1:0:0:0:
512,190,115942,1,0,1:0:0:0:
501,177,116023,2,0,L|436:189,1,55,8|0,1:3|1:0,1:0:0:0:
309,241,116185,6,0,B|316:214|316:214|323:213|323:213|316:186|316:186|324:181|324:181|304:161|304:161|309:151|309:151|284:138|284:138|283:127|283:127|258:127|258:127|252:115|252:115|227:122|227:122|210:108,1,230.99999295044,8|2,1:3|1:0,1:0:0:0:
85,67,116428,5,2,1:0:0:0:
75,81,116509,2,0,P|87:108|96:141,1,55,0|0,3:0|1:0,1:0:0:0:
200,244,116671,2,0,P|218:218|242:194,1,55,8|0,1:3|1:0,1:0:0:0:
282,40,116834,2,0,P|251:36|218:27,1,55,0|0,1:0|1:0,1:0:0:0:
57,0,116996,5,0,3:0:0:0:
10,37,117077,1,0,1:0:0:0:
0,96,117158,1,0,3:0:0:0:
21,152,117239,1,0,1:0:0:0:
71,219,117320,2,0,P|123:205|187:200,1,110,8|2,1:3|1:0,1:0:0:0:
169,189,117563,5,2,1:0:0:0:
161,180,117644,2,0,P|169:217|175:252,1,65.9999979858399,8|0,1:3|1:0,1:0:0:0:
14,351,117806,2,0,P|6:317|-3:274,1,65.9999979858399,0|0,3:0|1:0,1:0:0:0:
85,67,117969,6,0,P|117:71|159:76,1,65.9999979858399,8|0,1:3|1:0,1:0:0:0:
321,289,118131,2,0,P|288:284|249:277,1,65.9999979858399,8|0,1:3|1:0,1:0:0:0:
298,27,118293,6,0,P|311:66|310:122,1,82.5000031471254,4|0,3:0|1:0,1:0:0:0:
261,167,118536,1,0,1:0:0:0:
245,170,118617,2,0,L|185:154,1,55,8|0,1:3|1:0,1:0:0:0:
457,50,118779,6,0,B|481:87|516:104|516:104|480:114|449:152,1,165.000006294251,8|2,1:3|1:0,1:0:0:0:
345,152,119023,1,2,1:0:0:0:
335,142,119104,2,0,L|341:87,1,55,0|0,3:0|1:0,1:0:0:0:
88,163,119266,6,0,B|77:243|-13:279|-13:279|84:266|140:333,1,330,8|0,1:3|1:0,1:0:0:0:
127,340,119590,6,0,L|137:287,1,49.4999984893799,0|0,3:0|1:0,1:0:0:0:
208,0,119752,6,0,L|222:53,1,49.4999984893799,8|0,3:0|1:0,1:0:0:0:
457,278,119915,6,0,L|406:266,1,49.4999984893799,8|0,2:3|1:0,1:0:0:0:
24,162,120077,6,0,L|98:146,1,49.4999984893799,0|0,2:0|1:0,1:0:0:0:
458,62,120239,5,0,3:0:0:0:
431,139,120320,1,4,1:2:0:0:
465,78,120401,2,0,P|419:81|352:57,1,98.9999969787599,0|0,3:0|3:0,1:0:0:0:
95,65,120563,5,8,1:3:0:0:
159,117,120644,1,0,3:0:0:0:
172,203,120725,1,0,3:0:0:0:
254,232,120806,1,0,3:0:0:0:
247,334,120888,5,4,3:0:0:0:
256,192,120969,12,0,123482,1:0:0:0:
