osu file format v14

[General]
AudioFilename: audio.mp3
AudioLeadIn: 0
PreviewTime: 79374
Countdown: 0
SampleSet: Normal
StackLeniency: 0.3
Mode: 0
LetterboxInBreaks: 0
EpilepsyWarning: 1
WidescreenStoryboard: 1

[Editor]
DistanceSpacing: 1.1
BeatDivisor: 2
GridSize: 8
TimelineZoom: 1.099999

[Metadata]
Title:Oriens
TitleUnicode:Oriens
Artist:ginkiha
ArtistUnicode:ginkiha
Creator:SuperBox
Version:Muz's Easy
Source:
Tags:FA featured artist electronic instrumental BOF2012 BMS OF FIGHTERS 2012 Shade of Mythology Freestyle Oriental Electro SOUND VOLTEX IV HEAVENLY HAVEN SDVX 4 BEMANI KONAMI Cytus Rayark Muse Dash PeroPeroGames 110 Gyro Zeppeli Lobelia wyrio Muziyami
BeatmapID:2790736
BeatmapSetID:655406

[Difficulty]
HPDrainRate:3
CircleSize:2.3
OverallDifficulty:3
ApproachRate:3.5
SliderMultiplier:0.8
SliderTickRate:1

[Events]
//Background and Video events
0,0,"57534432_p0_master1200.png",0,0
//Break Periods
2,57520,66318
//Storyboard Layer 0 (Background)
//Storyboard Layer 1 (Fail)
//Storyboard Layer 2 (Pass)
//Storyboard Layer 3 (Foreground)
Sprite,Foreground,Centre,"sb\info\info-mapper5.png",320,240 M,0,62509,,22.74744,403.84 F,0,62509,62590,0,1 S,30,62509,62590,0.5878404,0.4766633 F,0,62590,65023,1,0.9885963 S,0,62590,65023,0.4766633,0.500069 F,0,65023,,0.9885963,1 M,0,65023,65104,22.74744,403.84,22.74744,366.3909 F,0,65023,65104,1,0 S,0,65023,65104,0.500069,0.4181492
Sprite,Foreground,Centre,"sb\white.png",320,240 M,0,34617,,320,240 S,0,34617,,1 R,0,34617,,0 F,2,34617,35266,0,1 F,0,35266,36563,1 S,0,36563,,1.146286 R,0,36563,,-0.8543089 M,2,36563,36644,44.3978,9.453705,-315.4651,-334.0252 F,3,36563,36644,1,0 C,3,36563,36644,0,0,0,16,19,40
Sprite,Foreground,TopCentre,"sb\white.png",320,240 F,0,36563,,1 S,0,36563,,1.2952 R,0,36563,,-0.8543089 M,2,36563,36644,237.758,203.2748,642.678,460.1448 F,3,36563,36644,1,0 C,3,36563,36644,0,0,0,16,19,40
Sprite,Foreground,TopCentre,"sb\effect\feather.png",320,240 R,0,36563,,-0.8543089 M,2,36563,36644,251.858,190.1248,-108.002,-153.3552 F,3,36563,36644,1,0 C,3,36563,36644,0,0,0,16,19,40 V,0,36563,36644,1.3,0.1,1.3,1
Sprite,Foreground,TopCentre,"sb\effect\feather.png",320,240 R,0,36563,,2.287284 M,2,36563,36644,237.758,203.2748,642.678,460.1448 F,3,36563,36644,1,0 C,3,36563,36644,0,0,0,16,19,40 V,0,36563,36644,1.3,0.1,1.3,1
Sprite,Foreground,TopCentre,"sb\effect\feather.png",320,240 R,0,100131,,2.287284 M,2,100131,100212,269.9409,257.108,674.8608,513.978 F,3,100131,100212,1,0 C,3,100131,100212,0,0,0,16,19,40 V,0,100131,100212,1.3,0.1,1.3,1
Sprite,Foreground,TopCentre,"sb\effect\feather.png",320,240 R,0,100131,,-0.8543089 M,2,100131,100212,284.0409,243.958,-75.81914,-99.52199 F,3,100131,100212,1,0 C,3,100131,100212,0,0,0,16,19,40 V,0,100131,100212,1.3,0.1,1.3,1
Sprite,Foreground,Centre,"sb\white.png",320,240 F,0,100131,,1 S,0,100131,,1.146286 R,0,100131,,-0.8543089 M,2,100131,100212,477.4035,437.7784,882.3224,694.6559 F,3,100131,100212,1,0 C,3,100131,100212,0,0,0,16,19,40
Sprite,Foreground,Centre,"sb\white.png",320,240 M,0,98185,,320,240 S,0,98185,,1 R,0,98185,,0 F,2,98185,98834,0,1 F,0,98834,100131,1 S,0,100131,,1.146286 R,0,100131,,-0.8543089 M,2,100131,100212,76.58066,63.28687,-283.2822,-280.192 F,3,100131,100212,1,0 C,3,100131,100212,0,0,0,16,19,40
//Storyboard Layer 4 (Overlay)
//Storyboard Sound Samples

[TimingPoints]
379,428.571428571429,4,1,11,70,1,0
486,-100,4,1,10,70,0,0
15807,324.324324324324,4,1,10,90,1,0
35996,-100,4,1,11,90,0,0
36077,-100,4,1,10,90,0,0
41104,-100,4,1,11,90,0,0
41752,-100,4,1,10,90,0,0
42238,-100,4,1,11,80,0,0
42401,-100,4,1,10,90,0,0
43698,-100,4,1,11,90,0,0
44023,-100,4,1,10,90,0,0
44833,-100,4,1,11,90,0,0
44996,-100,4,1,10,90,0,0
46293,-100,4,1,11,90,0,0
46455,-100,4,1,10,90,0,0
46942,-100,4,1,11,90,0,0
47023,-100,4,2,10,90,0,0
51482,-100,4,2,11,90,0,0
52131,-100,4,2,10,90,0,0
52617,-100,4,2,11,90,0,0
52779,-100,4,1,10,90,0,0
54077,-100,4,1,11,90,0,0
54401,-100,4,1,10,90,0,0
55211,-100,4,1,11,90,0,0
55374,-100,4,1,10,90,0,0
57320,-100,4,1,10,70,0,0
67698,-100,4,1,10,80,0,0
72888,-100,4,1,11,80,0,0
73050,-100,4,2,10,80,0,0
74185,-100,4,2,11,80,0,0
74347,-100,4,2,10,80,0,0
75482,-100,4,2,11,80,0,0
75806,-100,4,2,10,80,0,0
76131,-100,4,2,11,80,0,0
76293,-100,4,2,10,80,0,0
76779,-100,4,2,11,80,0,0
76942,-100,4,2,10,80,0,0
78077,-100,4,2,11,80,0,0
79374,-100,4,2,10,90,0,0
99563,-100,4,1,11,90,0,0
99644,-100,4,1,10,90,0,0
100131,-100,4,1,10,95,0,0
104671,-100,4,1,11,95,0,0
105320,-100,4,1,10,95,0,0
105806,-100,4,1,11,95,0,0
105969,-100,4,1,10,95,0,0
107266,-100,4,1,11,95,0,0
107590,-100,4,1,10,95,0,0
108401,-100,4,1,11,95,0,0
108563,-100,4,1,10,95,0,0
109861,-100,4,1,11,95,0,0
110023,-100,4,1,10,95,0,0
110509,-100,4,1,11,95,0,0
110590,-100,4,2,10,95,0,0
115049,-100,4,2,11,95,0,0
115698,-100,4,2,10,95,0,0
116184,-100,4,2,11,95,0,0
116347,-100,4,1,10,95,0,0
117644,-100,4,1,11,95,0,0
117969,-100,4,1,10,95,0,0
118779,-100,4,1,11,95,0,0
118942,-100,4,1,10,95,0,0
120320,-100,4,1,11,95,0,0
120401,-100,4,1,10,95,0,0
120888,-100,4,1,11,90,0,0
122185,-100,4,1,11,70,0,0
122834,-100,4,1,11,50,0,0
123158,-100,4,1,11,30,0,0
123320,-100,4,1,11,10,0,0

[Colours]
Combo1 : 233,182,29
Combo2 : 89,80,203
Combo3 : 66,198,221
Combo4 : 224,73,73

[HitObjects]
57,88,379,6,0,P|119:58|213:94,1,160,4|8,3:0|1:3,1:0:0:0:
362,92,2093,2,0,P|357:51|344:1,2,80,0|2|8,3:0|1:0|1:3,1:0:0:0:
339,177,3379,1,0,3:0:0:0:
356,263,3807,6,0,P|299:286|191:261,1,160,0|8,3:0|1:3,1:0:0:0:
169,96,5521,1,0,3:0:0:0:
113,164,5950,1,2,1:0:0:0:
118,251,6379,1,8,1:3:0:0:
276,175,7236,6,0,P|280:94|276:7,1,160,4|8,3:0|1:3,1:0:0:0:
370,163,8950,2,0,P|369:201|374:249,2,80,2|2|8,3:2|1:0|1:3,1:0:0:0:
407,83,10236,1,0,3:0:0:0:
350,15,10664,6,0,B|311:7|311:7|176:18,1,160,0|8,3:0|1:3,1:0:0:0:
103,23,11950,1,8,1:3:0:0:
32,75,12379,2,0,P|26:111|31:154,1,80,0|0,3:0|2:0,1:0:0:0:
89,220,13236,2,0,P|125:227|168:221,1,80,8|4,1:3|1:0,1:0:0:0:
225,154,14093,5,6,3:2:0:0:
225,154,15807,5,2,3:0:0:0:
308,182,16131,2,0,P|359:187|477:172,1,160,8|8,2:0|2:0,2:0:0:0:
508,97,17104,1,2,3:2:0:0:
469,17,17428,1,10,2:0:0:0:
381,5,17752,2,0,P|342:14|302:16,1,80,0|8,3:0|2:0,2:0:0:0:
215,29,18401,6,0,B|200:71|200:71|205:204,2,160,0|2|2,3:0|1:0|3:2,2:0:0:0:
308,182,20347,1,0,3:0:0:0:
214,331,20996,5,6,3:0:0:0:
130,359,21320,2,0,P|79:337|46:230,1,160,8|8,1:0|1:0,1:0:0:0:
84,166,22293,2,0,P|95:127|93:88,1,80,0|8,3:0|1:0,1:0:0:0:
150,20,22942,2,0,P|188:31|227:29,1,80,0|10,3:0|1:0,1:0:0:0:
313,8,23590,6,0,B|407:10|372:35|469:37,1,160,2|2,3:2|1:2,1:0:0:0:
350,167,24888,2,0,P|357:225|356:292,2,120,2|2|10,3:2|3:2|1:2,1:0:0:0:
291,96,26185,5,6,3:2:0:0:
206,121,26509,2,0,P|151:125|30:126,1,160,8|8,2:0|2:0,2:0:0:0:
3,203,27482,1,2,3:2:0:0:
11,290,27806,1,10,2:0:0:0:
79,345,28131,2,0,P|120:357|178:348,1,80,0|8,3:0|2:0,2:0:0:0:
232,310,28779,6,0,P|213:231|206:136,2,160,0|2|2,3:0|1:0|3:2,2:0:0:0:
405,344,30725,2,0,P|440:360|480:363,2,80,2|8|4,3:2|2:0|3:0,2:0:0:0:
370,262,31698,6,0,B|377:178|421:200|428:113,1,160,8|8,1:0|1:0,1:0:0:0:
388,37,32671,1,0,3:0:0:0:
301,20,32996,1,8,1:0:0:0:
227,68,33320,2,0,P|187:73|143:68,1,80,0|8,3:0|1:0,1:0:0:0:
74,19,33969,6,0,B|33:79|88:112|58:186,1,160,2|2,3:2|1:2,1:0:0:0:
164,322,35266,2,0,P|239:315|290:275,2,120,6|2|0,3:0|3:2|2:0,1:0:0:0:
78,299,36563,5,6,2:0:0:0:
177,153,37212,1,8,2:0:0:0:
337,226,37861,2,0,P|415:234|484:196,1,160,2|0,3:2|2:0,2:0:0:0:
510,112,38834,1,8,2:1:0:0:
472,32,39158,6,0,P|392:27|311:26,1,160,0|2,3:0|1:0,2:0:0:0:
136,23,40455,1,2,3:2:0:0:
103,104,40779,1,8,2:1:0:0:
177,153,41104,1,8,2:3:0:0:
156,327,41752,6,0,P|85:342|21:341,2,120,6|8|8,3:0|1:3|1:3,1:0:0:0:
236,290,43050,1,0,3:0:0:0:
255,117,43698,1,8,1:3:0:0:
287,35,44023,1,8,1:3:0:0:
373,17,44347,6,0,P|445:14|508:26,2,120,4|8|8,3:0|1:3|1:3,1:0:0:0:
348,102,45644,1,0,3:0:0:0:
397,270,46293,2,0,P|427:294|466:303,1,80,8|8,1:3|1:3,1:0:0:0:
467,215,46942,6,0,P|473:101|472:44,2,160,4|8|2,3:0|2:0|3:2,2:0:0:0:
397,270,48563,1,8,2:1:0:0:
309,262,48888,1,0,2:0:0:0:
157,350,49536,5,0,3:0:0:0:
67,198,50185,1,2,1:0:0:0:
143,39,50834,2,0,P|178:20|227:14,2,80,2|8|8,3:2|2:1|2:3,2:0:0:0:
234,189,52131,6,0,P|249:260|248:324,2,120,6|8|8,3:0|1:3|1:3,1:0:0:0:
208,104,53428,1,0,3:0:0:0:
333,227,54077,1,8,1:3:0:0:
420,218,54401,1,8,1:3:0:0:
457,138,54725,6,0,P|442:67|443:3,2,120,4|8|8,3:0|1:3|1:3,1:0:0:0:
507,210,56023,1,0,3:0:0:0:
333,227,56671,2,0,P|301:249|281:286,1,80,0|8,3:0|1:3,1:0:0:0:
345,345,57320,5,4,2:1:0:0:
345,345,67698,6,0,P|310:329|252:335,1,80,4|8,3:1|2:1,2:0:0:0:
194,281,68347,2,0,B|115:275|115:275|63:286,2,120,0|8|8,3:0|2:0|2:1,2:0:0:0:
272,240,69644,1,0,3:0:0:0:
303,157,69969,1,0,2:0:0:0:
284,71,70293,6,0,P|244:71|208:55,1,80,0|8,3:0|2:1,2:0:0:0:
121,36,70942,2,0,B|79:22|79:22|1:31,2,120,0|8|8,3:0|2:0|2:1,2:0:0:0:
149,120,72239,2,0,P|156:163|150:209,1,80,0|8,3:0|2:0,2:0:0:0:
132,284,72888,6,0,P|167:300|225:294,1,80,4|8,3:2|2:1,2:0:0:0:
282,252,73536,2,0,L|372:260,1,80,0|0,3:0|2:0,2:0:0:0:
449,267,74185,2,0,P|465:232|459:174,1,80,4|8,3:2|2:1,2:0:0:0:
414,118,74834,2,0,L|324:126,1,80,0|0,3:0|2:0,2:0:0:0:
246,134,75482,5,4,3:2:0:0:
212,215,75806,1,8,2:1:0:0:
284,264,76131,2,0,P|321:273|371:258,1,80,4|0,3:2|2:0,2:0:0:0:
411,191,76779,2,0,P|468:199|509:155,2,120,4|4|8,3:2|3:2|2:0,2:0:0:0:
335,146,78077,5,4,3:0:0:0:
335,146,79374,5,6,3:0:0:0:
256,185,79698,2,0,P|200:193|91:181,1,160,8|8,2:0|2:0,2:0:0:0:
24,232,80671,1,2,3:2:0:0:
30,319,80996,1,10,2:0:0:0:
115,339,81320,2,0,P|153:343|194:328,1,80,0|8,3:0|2:0,2:0:0:0:
279,344,81969,6,0,B|332:337|332:337|438:356,2,160,0|2|2,3:0|1:0|3:2,2:0:0:0:
180,199,83915,1,0,3:0:0:0:
290,62,84563,5,6,3:0:0:0:
210,24,84888,2,0,P|132:22|46:67,1,160,8|8,1:0|1:0,1:0:0:0:
21,136,85861,2,0,P|32:175|30:214,1,80,0|8,3:0|1:0,1:0:0:0:
98,270,86509,2,0,P|136:259|175:261,1,80,0|10,3:0|1:0,1:0:0:0:
212,181,87158,6,0,B|306:179|271:154|368:152,1,160,2|2,3:2|1:2,1:0:0:0:
496,63,88455,2,0,P|468:32|386:0,2,120,2|2|10,3:2|3:2|1:2,1:0:0:0:
490,150,89752,5,6,3:2:0:0:
432,216,90077,2,0,P|374:270|355:354,1,160,8|8,2:0|2:0,2:0:0:0:
267,333,91050,1,2,3:2:0:0:
186,364,91374,1,10,2:0:0:0:
128,299,91698,2,0,P|140:258|131:200,1,80,0|8,3:0|2:0,2:0:0:0:
110,137,92347,6,0,P|189:118|284:111,2,160,0|2|2,3:0|1:0|3:2,2:0:0:0:
37,297,94293,2,0,P|72:326|136:337,2,80,2|8|4,3:2|2:0|3:0,2:0:0:0:
8,213,95266,6,0,B|-1:129|45:142|36:55,1,160,8|8,1:0|1:0,1:0:0:0:
115,17,96239,1,0,3:0:0:0:
191,57,96563,1,8,1:0:0:0:
269,99,96888,2,0,P|316:106|357:103,1,80,0|8,3:0|1:0,1:0:0:0:
431,133,97536,6,0,B|418:174|377:189|377:189|368:221|346:264,1,160,2|2,3:2|1:2,1:0:0:0:
183,194,98834,2,0,P|173:135|188:66,2,120,6|2|0,3:0|3:2|2:0,1:0:0:0:
162,280,100131,5,6,2:0:0:0:
10,368,100779,1,8,2:0:0:0:
12,191,101428,2,0,P|4:118|5:31,1,160,2|0,3:2|2:0,2:0:0:0:
91,14,102401,1,8,2:1:0:0:
108,101,102725,6,0,B|201:94|172:129|264:121,1,160,0|2,3:0|1:0,2:0:0:0:
410,21,104023,1,2,3:2:0:0:
417,108,104347,1,8,2:1:0:0:
424,195,104671,1,8,2:3:0:0:
384,366,105320,6,0,P|449:378|510:372,2,120,6|8|8,3:0|1:3|1:3,1:0:0:0:
302,329,106617,1,0,3:0:0:0:
125,332,107266,1,8,1:3:0:0:
66,266,107590,1,8,1:3:0:0:
73,177,107915,6,0,P|74:103|60:42,2,120,4|8|8,3:0|1:3|1:3,1:0:0:0:
134,239,109212,1,0,3:0:0:0:
279,133,109861,2,0,P|303:103|312:64,1,80,8|8,1:3|1:3,1:0:0:0:
224,63,110509,6,0,P|110:57|53:58,2,160,4|8|2,3:0|2:0|3:2,2:0:0:0:
312,63,112131,1,8,2:1:0:0:
400,63,112455,1,0,2:0:0:0:
400,246,113104,5,0,3:0:0:0:
224,246,113752,1,2,1:0:0:0:
224,63,114401,2,0,P|191:40|143:29,2,80,2|8|8,3:2|2:1|2:3,2:0:0:0:
141,217,115698,6,0,P|70:232|6:231,2,120,6|8|8,3:0|1:3|1:3,1:0:0:0:
208,159,116996,1,0,3:0:0:0:
279,319,117644,1,8,1:3:0:0:
349,265,117969,1,8,1:3:0:0:
375,181,118293,6,0,P|446:166|510:167,2,120,4|8|8,3:0|1:3|1:3,1:0:0:0:
289,200,119590,1,0,3:0:0:0:
125,130,120239,2,0,P|100:100|91:61,1,80,0|8,3:0|1:3,1:0:0:0:
167,14,120888,5,4,3:0:0:0:
256,192,121212,12,0,123482,1:0:0:0:
