osu file format v14

[General]
AudioFilename: audio.mp3
AudioLeadIn: 0
PreviewTime: 79374
Countdown: 0
SampleSet: Normal
StackLeniency: 0.5
Mode: 0
LetterboxInBreaks: 0
EpilepsyWarning: 1
WidescreenStoryboard: 1

[Editor]
DistanceSpacing: 1.2
BeatDivisor: 4
GridSize: 8
TimelineZoom: 2.699999

[Metadata]
Title:Oriens
TitleUnicode:Oriens
Artist:ginkiha
ArtistUnicode:ginkiha
Creator:SuperBox
Version:Lobelia's Hard
Source:
Tags:FA featured artist electronic instrumental BOF2012 BMS OF FIGHTERS 2012 Shade of Mythology Freestyle Oriental Electro SOUND VOLTEX IV HEAVENLY HAVEN SDVX 4 BEMANI KONAMI Cytus Rayark Muse Dash PeroPeroGames 110 Gyro Zeppeli Lobelia wyrio Muziyami
BeatmapID:1984384
BeatmapSetID:655406

[Difficulty]
HPDrainRate:5
CircleSize:4
OverallDifficulty:6
ApproachRate:8
SliderMultiplier:1.5
SliderTickRate:1

[Events]
//Background and Video events
0,0,"57534432_p0_master1200.png",0,0
//Break Periods
//Storyboard Layer 0 (Background)
//Storyboard Layer 1 (Fail)
//Storyboard Layer 2 (Pass)
//Storyboard Layer 3 (Foreground)
Sprite,Foreground,Centre,"sb\info\info-mapper3.png",320,240 M,0,62509,,22.74744,403.84 F,0,62509,62590,0,1 S,30,62509,62590,0.5878404,0.4766633 F,0,62590,65023,1,0.9885963 S,0,62590,65023,0.4766633,0.500069 F,0,65023,,0.9885963,1 M,0,65023,65104,22.74744,403.84,22.74744,366.3909 F,0,65023,65104,1,0 S,0,65023,65104,0.500069,0.4181492
Sprite,Foreground,Centre,"sb\white.png",320,240 M,0,34617,,320,240 S,0,34617,,1 R,0,34617,,0 F,2,34617,35266,0,1 F,0,35266,36563,1 S,0,36563,,1.146286 R,0,36563,,-0.8543089 M,2,36563,36644,1.097229,-18.048,-358.7657,-361.5269 F,3,36563,36644,1,0 C,3,36563,36644,0,0,0,16,19,40
Sprite,Foreground,TopCentre,"sb\white.png",320,240 F,0,36563,,1 S,0,36563,,1.2952 R,0,36563,,-0.8543089 M,2,36563,36644,194.4574,175.7731,599.3774,432.6431 F,3,36563,36644,1,0 C,3,36563,36644,0,0,0,16,19,40
Sprite,Foreground,TopCentre,"sb\effect\feather.png",320,240 R,0,36563,,-0.8543089 M,2,36563,36644,208.5574,162.6231,-151.3026,-180.8569 F,3,36563,36644,1,0 C,3,36563,36644,0,0,0,16,19,40 V,0,36563,36644,1.3,0.1,1.3,1
Sprite,Foreground,TopCentre,"sb\effect\feather.png",320,240 R,0,36563,,2.287284 M,2,36563,36644,194.4574,175.7731,599.3774,432.6431 F,3,36563,36644,1,0 C,3,36563,36644,0,0,0,16,19,40 V,0,36563,36644,1.3,0.1,1.3,1
Sprite,Foreground,TopCentre,"sb\effect\feather.png",320,240 R,0,100131,,-0.8543089 M,2,100131,100212,370.0569,254.4906,10.19685,-88.98939 F,3,100131,100212,1,0 C,3,100131,100212,0,0,0,16,19,40 V,0,100131,100212,1.3,0.1,1.3,1
Sprite,Foreground,TopCentre,"sb\effect\feather.png",320,240 R,0,100131,,2.287284 M,2,100131,100212,355.9569,267.6406,760.8768,524.5105 F,3,100131,100212,1,0 C,3,100131,100212,0,0,0,16,19,40 V,0,100131,100212,1.3,0.1,1.3,1
Sprite,Foreground,TopCentre,"sb\white.png",320,240 F,0,100131,,1 S,0,100131,,1.333532 R,0,100131,,-0.8543089 M,2,100131,100212,355.9569,267.6406,760.8768,524.5105 F,3,100131,100212,1,0 C,3,100131,100212,0,0,0,16,19,40
Sprite,Foreground,Centre,"sb\white.png",320,240 M,0,98185,,320,240 S,0,98185,,1 R,0,98185,,0 F,2,98185,98834,0,1 F,0,98834,100131,1 S,0,100131,,1.146286 R,0,100131,,-0.8543089 M,2,100131,100212,162.5967,73.81943,-197.2663,-269.6594 F,3,100131,100212,1,0 C,3,100131,100212,0,0,0,16,19,40
//Storyboard Layer 4 (Overlay)
//Storyboard Sound Samples

[TimingPoints]
379,428.571428571429,4,1,11,70,1,0
486,-100,4,1,10,70,0,0
1236,-83.3333333333333,4,1,10,70,0,0
1771,-100,4,1,10,70,0,0
2950,-83.3333333333333,4,1,10,70,0,0
3379,-100,4,1,10,70,0,0
4664,-83.3333333333333,4,1,10,70,0,0
5200,-100,4,1,10,70,0,0
6379,-83.3333333333333,4,1,10,70,0,0
6807,-100,4,1,10,70,0,0
8093,-83.3333333333333,4,1,10,70,0,0
8629,-100,4,1,10,70,0,0
9807,-83.3333333333333,4,1,10,70,0,0
10664,-100,4,1,10,70,0,0
11521,-83.3333333333333,4,1,10,70,0,0
11950,-100,4,1,10,70,0,0
13236,-83.3333333333333,4,1,10,70,0,0
13771,-100,4,1,10,70,0,0
15807,324.324324324324,4,1,10,90,1,0
20996,-142.857142857143,4,1,10,90,0,0
21320,-100,4,1,10,90,0,0
31374,-142.857142857143,4,1,10,90,0,0
31698,-100,4,1,10,90,0,0
35996,-100,4,1,11,90,0,0
36077,-100,4,1,10,90,0,0
36563,-100,4,1,10,90,0,1
41104,-100,4,1,11,90,0,1
41266,-100,4,1,10,90,0,1
42239,-100,4,1,11,80,0,1
42401,-100,4,1,10,90,0,1
43698,-100,4,1,11,90,0,1
43861,-100,4,1,10,90,0,1
44185,-100,4,1,11,90,0,1
44347,-100,4,1,10,90,0,1
44834,-100,4,1,11,90,0,1
44996,-100,4,1,10,90,0,1
46293,-100,4,1,11,90,0,1
46455,-100,4,1,10,90,0,1
46942,-100,4,1,11,90,0,1
47023,-100,4,2,10,90,0,1
51482,-100,4,2,11,90,0,1
51644,-100,4,2,10,90,0,1
52617,-100,4,2,11,90,0,1
52779,-100,4,2,10,90,0,1
54077,-100,4,2,11,90,0,1
54239,-100,4,2,10,90,0,1
55212,-100,4,2,11,90,0,1
55374,-100,4,2,10,90,0,1
56185,-100,4,2,11,90,0,1
56347,-100,4,2,10,90,0,1
57320,-142.857142857143,4,2,10,70,0,0
67698,-142.857142857143,4,2,10,80,0,0
72888,-142.857142857143,4,2,11,80,0,0
73050,-142.857142857143,4,2,10,80,0,0
74185,-142.857142857143,4,2,11,80,0,0
74995,-142.857142857143,4,2,10,80,0,0
75482,-142.857142857143,4,2,11,80,0,0
77266,-142.857142857143,4,2,10,80,0,0
78077,-142.857142857143,4,2,11,80,0,0
78239,-142.857142857143,4,2,10,55,0,0
78401,-142.857142857143,4,2,10,60,0,0
78563,-142.857142857143,4,2,10,65,0,0
78725,-142.857142857143,4,2,10,70,0,0
78887,-142.857142857143,4,2,10,75,0,0
79050,-142.857142857143,4,2,10,80,0,0
79374,-142.857142857143,4,2,10,90,0,0
79698,-100,4,2,10,90,0,0
84563,-142.857142857143,4,2,10,90,0,0
84888,-100,4,2,10,90,0,0
94942,-142.857142857143,4,2,10,90,0,0
95266,-100,4,2,10,90,0,0
99563,-100,4,2,11,90,0,0
99644,-100,4,2,10,90,0,0
100131,-100,4,2,10,95,0,1
104671,-100,4,2,11,95,0,1
104833,-100,4,2,10,95,0,1
105806,-100,4,2,11,95,0,1
105968,-100,4,2,10,95,0,1
107266,-100,4,2,11,95,0,1
107428,-100,4,1,10,95,0,1
107752,-100,4,1,11,95,0,1
107915,-100,4,1,10,95,0,1
108401,-100,4,1,11,95,0,1
108563,-100,4,1,10,95,0,1
109861,-100,4,1,11,95,0,1
110023,-100,4,1,10,95,0,1
110509,-100,4,1,11,95,0,1
110590,-100,4,2,10,95,0,1
115050,-100,4,2,11,95,0,1
115212,-100,4,2,10,95,0,1
116185,-100,4,2,11,95,0,1
116347,-100,4,2,10,95,0,1
117644,-100,4,2,11,95,0,1
117806,-100,4,2,10,95,0,1
118779,-100,4,2,11,95,0,1
118941,-100,4,2,10,95,0,1
119752,-100,4,2,11,95,0,1
119915,-100,4,2,10,95,0,1
120320,-100,4,2,11,95,0,1
120401,-100,4,2,10,95,0,1
120888,-100,4,2,11,90,0,0

[Colours]
Combo1 : 233,182,29
Combo2 : 89,80,203
Combo3 : 66,198,221
Combo4 : 224,73,73

[HitObjects]
104,77,379,6,0,B|26:152|73:259|129:262|177:216|150:164,1,262.5,4|4,3:0|3:0,1:0:0:0:
162,145,1236,2,0,P|204:131|254:149,1,89.9999972534181,8|2,1:3|1:0,1:0:0:0:
300,215,1664,1,0,2:0:0:0:
300,215,1771,2,0,P|312:250|294:298,1,75,2|2,3:2|3:2,1:0:0:0:
269,315,2093,6,0,L|389:307,2,112.5,0|0|2,3:0|3:0|3:2,1:0:0:0:
170,360,2950,2,0,P|129:353|96:319,1,89.9999972534181,8|0,1:3|1:0,1:0:0:0:
68,233,3379,2,0,L|68:183,1,37.5,0|2,3:0|3:2,1:0:0:0:
68,60,3807,6,0,L|68:94,3,25,0|0|0|0,3:0|3:0|3:0|3:0,1:0:0:0:
140,138,4236,1,2,1:0:0:0:
214,87,4450,1,4,3:0:0:0:
308,138,4664,2,0,P|325:179|313:226,1,89.9999972534181,8|2,1:3|1:0,1:0:0:0:
241,273,5093,1,0,2:0:0:0:
241,273,5200,2,0,P|266:298|306:311,1,75,2|2,3:2|3:2,1:0:0:0:
347,306,5521,6,0,P|392:272|404:217,2,112.5,0|2|2,3:0|1:0|3:2,1:0:0:0:
315,222,6379,2,0,P|298:180|309:137,1,89.9999972534181,8|0,1:3|1:0,1:0:0:0:
384,89,6807,2,0,L|433:84,1,37.5,8|0,1:3|1:0,1:0:0:0:
299,51,7129,1,2,3:1:0:0:
299,51,7236,6,0,B|226:92|158:45|158:45|106:88|135:147,1,262.5,4|4,3:0|3:0,1:0:0:0:
154,175,8093,2,0,P|165:219|145:272,1,89.9999972534181,8|0,1:3|1:0,1:0:0:0:
73,218,8521,1,0,2:0:0:0:
73,218,8629,2,0,P|63:255|76:307,1,75,0|0,3:0|3:0,1:0:0:0:
91,329,8950,6,0,P|140:349|196:336,2,112.5,2|0|0,3:2|1:0|3:0,1:0:0:0:
152,260,9807,2,0,P|194:245|237:254,1,89.9999972534181,8|0,1:3|1:0,1:0:0:0:
288,328,10236,1,0,3:0:0:0:
288,328,10664,6,0,L|325:328,3,25,0|0|0|0,3:0|3:0|3:0|3:0,1:0:0:0:
403,329,11093,1,2,1:0:0:0:
360,249,11307,1,4,3:0:0:0:
438,174,11521,2,0,P|449:132|434:87,1,89.9999972534181,8|2,1:3|1:0,1:0:0:0:
363,34,11950,2,0,L|321:34,1,37.5,8|0,1:3|3:0,1:0:0:0:
190,33,12379,5,0,3:0:0:0:
122,92,12593,2,0,P|120:115|125:136,1,37.5,0|2,1:0|1:0,1:0:0:0:
141,169,12807,2,0,L|239:162,1,75,0|2,2:0|3:2,1:0:0:0:
276,253,13236,2,0,L|185:249,1,89.9999972534181,8|0,1:3|2:0,1:0:0:0:
105,288,13664,1,4,1:0:0:0:
105,288,13771,2,0,P|104:318|106:339,1,37.5,8|0,1:3|3:0,1:0:0:0:
184,368,14093,5,6,3:2:0:0:
273,371,14307,1,4,3:0:0:0:
274,254,14521,1,4,3:0:0:0:
186,249,14736,1,4,3:0:0:0:
273,371,14950,6,0,L|278:327,3,37.5,0|0|0|0,3:0|3:0|3:0|3:0,1:0:0:0:
318,314,15379,6,0,L|346:316,8,18.75,0|0|0|0|0|0|0|0|2,3:0|3:0|3:0|3:0|3:0|3:0|3:0|3:0|3:0,1:0:0:0:
481,238,16131,6,0,P|479:183|425:146,1,112.5,8|0,2:0|2:0,2:0:0:0:
393,158,16455,2,0,P|368:188|369:232,1,75,0|0,2:0|3:0,2:0:0:0:
419,295,16779,1,8,2:0:0:0:
286,170,17023,1,0,2:0:0:0:
286,170,17104,6,0,L|202:173,1,75,2|0,3:2|2:0,2:0:0:0:
126,203,17428,2,0,B|113:149|139:150|123:87,1,112.5,10|0,2:0|2:0,2:0:0:0:
80,80,17752,2,0,P|53:111|40:160,1,75,0|0,3:0|3:0,2:0:0:0:
33,232,18077,1,8,2:0:0:0:
105,285,18239,2,0,P|122:303|136:317,1,37.5,0|0,2:0|2:0,2:0:0:0:
174,324,18401,6,0,P|216:317|261:317,1,75,0|0,3:0|2:0,2:0:0:0:
336,336,18725,2,0,P|329:294|329:249,1,75,8|0,2:0|2:0,2:0:0:0:
350,173,19050,2,0,P|308:180|263:180,1,75,2|0,1:0|3:0,2:0:0:0:
187,160,19374,2,0,P|194:202|194:247,1,75,8|2,2:0|1:0,2:0:0:0:
68,213,19698,6,0,P|80:171|96:139,1,75,2|0,3:2|2:0,2:0:0:0:
194,234,20023,1,8,2:0:0:0:
122,289,20185,2,0,P|72:267|81:338,1,150,0|0,2:0|3:0,2:0:0:0:
199,342,20671,2,0,B|257:328|262:354|319:338,1,112.5,8|0,2:0|2:0,2:0:0:0:
340,328,20996,6,0,P|346:300|303:257,1,78.7499975967408,6|0,3:0|1:0,1:0:0:0:
283,233,21320,6,0,P|282:147|367:166,1,187.5,8|2,1:0|1:0,1:0:0:0:
398,181,21806,1,0,3:0:0:0:
449,255,21969,2,0,P|477:227|488:192,1,75,8|2,1:0|1:0,1:0:0:0:
453,110,22293,6,0,P|441:58|415:30,1,75,0|0,3:0|1:0,1:0:0:0:
338,41,22617,2,0,P|303:24|255:27,1,75,8|0,1:0|1:0,1:0:0:0:
222,31,22861,1,0,1:0:0:0:
222,31,22942,2,0,P|212:71|217:113,1,75,0|0,3:0|3:0,1:0:0:0:
233,193,23266,2,0,B|178:183|175:207|121:194,1,112.5,10|0,1:0|1:0,1:0:0:0:
89,162,23590,6,0,P|38:154|29:207,1,112.5,2|2,3:2|1:0,1:0:0:0:
44,245,23915,2,0,P|55:280|54:322,1,75,8|2,1:0|1:0,1:0:0:0:
44,361,24158,1,2,1:0:0:0:
44,361,24239,2,0,P|91:354|122:358,1,75,2|0,1:2|3:0,1:0:0:0:
187,300,24563,2,0,P|234:307|265:303,1,75,8|0,1:0|1:0,1:0:0:0:
325,239,24888,6,0,B|364:289|342:347|342:347|372:334|401:335,1,150,2|8,3:2|1:0,1:0:0:0:
465,343,25374,2,0,P|468:299|491:260,1,75,2|0,3:2|1:0,1:0:0:0:
509,186,25698,1,0,3:0:0:0:
449,117,25861,2,0,P|411:110|366:117,1,75,10|0,1:2|1:0,1:0:0:0:
287,135,26185,5,6,3:2:0:0:
287,135,26509,2,0,P|246:153|174:125,1,112.5,8|0,2:0|2:0,2:0:0:0:
171,90,26834,2,0,P|193:59|229:44,1,75,0|0,2:0|3:0,2:0:0:0:
315,53,27158,1,8,2:0:0:0:
358,199,27401,1,0,2:0:0:0:
358,199,27482,6,0,P|368:233|362:274,1,75,2|0,3:2|2:0,2:0:0:0:
295,331,27806,2,0,B|239:315|239:347|177:327,1,112.5,10|0,2:0|2:0,2:0:0:0:
152,295,28131,2,0,P|143:256|151:220,1,75,0|0,3:0|3:0,2:0:0:0:
195,144,28455,1,8,2:0:0:0:
284,132,28617,2,0,L|280:86,1,37.5,0|0,2:0|2:0,2:0:0:0:
278,49,28779,6,0,L|365:42,1,75,0|0,3:0|2:0,2:0:0:0:
439,17,29104,2,0,L|446:104,1,75,8|0,2:0|2:0,2:0:0:0:
481,173,29428,2,0,L|394:180,1,75,2|0,1:0|3:0,2:0:0:0:
321,209,29752,2,0,L|314:122,1,75,8|2,2:0|1:0,2:0:0:0:
201,124,30077,6,0,L|178:207,1,75,2|0,3:2|2:0,2:0:0:0:
320,208,30401,1,8,2:0:0:0:
247,260,30563,2,0,P|195:245|177:327,1,150,0|0,2:0|3:0,2:0:0:0:
330,300,31050,2,0,B|387:315|389:286|442:303,1,112.5,8|0,2:0|2:0,2:0:0:0:
472,307,31374,6,0,P|467:270|476:212,1,78.7499975967408,4|0,3:0|1:0,1:0:0:0:
491,188,31698,6,0,P|426:123|359:185,1,187.5,8|2,1:0|1:0,1:0:0:0:
360,215,32185,1,0,3:0:0:0:
330,300,32347,2,0,P|298:281|276:243,1,75,8|2,1:0|1:0,1:0:0:0:
270,160,32671,6,0,B|225:165|199:205|199:205|171:213|136:196,1,150,0|8,3:0|1:0,1:0:0:0:
71,135,33158,1,0,1:0:0:0:
158,115,33320,2,0,P|146:76|149:22,1,75,0|0,3:0|3:0,1:0:0:0:
59,14,33644,2,0,P|40:45|10:68,1,75,8|0,1:0|1:0,1:0:0:0:
71,135,33969,6,0,P|50:173|59:243,1,112.5,2|2,3:2|1:0,1:0:0:0:
87,273,34293,2,0,P|121:287|168:280,1,75,8|2,1:0|1:0,1:0:0:0:
245,261,34617,2,0,P|282:248|333:263,1,75,2|0,1:2|3:0,1:0:0:0:
396,296,34942,1,8,1:0:0:0:
396,296,35266,5,6,3:0:0:0:
465,239,35428,1,4,3:0:0:0:
426,157,35590,1,4,3:0:0:0:
336,164,35752,2,0,P|341:123|370:88,1,75,2|0,3:2|3:0,1:0:0:0:
397,70,35996,1,4,1:2:0:0:
397,70,36077,2,0,P|351:82|314:79,1,75,8|0,1:3|2:0,1:0:0:0:
235,61,36401,1,0,3:0:0:0:
212,58,36482,1,0,3:0:0:0:
189,57,36563,6,0,B|89:50|89:50|106:74|107:100,1,150,6|8,2:0|2:1,2:0:0:0:
53,169,37050,1,8,2:0:0:0:
142,177,37212,2,0,P|155:213|159:253,1,75,8|0,2:0|3:0,2:0:0:0:
162,339,37536,2,0,P|195:320|234:310,1,75,8|8,2:1|2:0,2:0:0:0:
305,260,37861,6,0,P|315:277|322:308,3,37.5,2|0|0|0,3:2|2:0|3:0|2:0,2:0:0:0:
327,338,38185,2,0,P|355:329|376:328,3,37.5,8|0|0|0,2:1|2:0|2:0|2:0,2:0:0:0:
406,337,38509,2,0,P|412:299|437:257,1,75,0|0,2:0|3:0,2:0:0:0:
490,201,38834,1,8,2:1:0:0:
490,201,39158,6,0,P|487:169|480:147,3,37.5,0|0|0|0,3:0|2:0|2:0|2:0,2:0:0:0:
456,129,39482,2,0,P|447:106|437:87,3,37.5,8|0|0|0,2:1|2:0|2:0|2:0,2:0:0:0:
398,80,39806,2,0,P|381:67|363:59,3,37.5,2|0|0|0,1:0|2:0|3:0|2:0,2:0:0:0:
323,74,40131,2,0,P|298:70|271:71,3,37.5,8|0|2|0,2:1|2:0|1:0|2:0,2:0:0:0:
250,98,40455,6,0,P|212:100|173:123,1,75,2|0,3:2|3:0,2:0:0:0:
121,185,40779,2,0,P|93:143|93:102,1,75,8|2,2:1|2:0,2:0:0:0:
240,182,41104,6,0,P|263:212|270:250,1,75,8|0,2:3|3:0,2:0:0:0:
181,253,41428,2,0,P|148:270|111:272,1,75,8|0,2:1|2:0,2:0:0:0:
270,247,41752,6,0,B|273:288|247:317|247:317|281:297|318:297,1,150,6|8,3:0|1:3,1:0:0:0:
398,257,42239,2,0,P|407:294|402:332,1,75,8|2,1:3|1:0,1:0:0:0:
317,297,42563,1,0,3:0:0:0:
322,207,42725,2,0,P|380:169|465:196,1,150,8|0,1:3|3:0,1:0:0:0:
495,267,43212,5,0,3:0:0:0:
402,330,43374,2,0,P|392:295|402:251,1,75,8|2,1:3|1:0,1:0:0:0:
454,186,43698,2,0,P|465:147|429:77,1,112.5,8|0,1:3|1:0,1:0:0:0:
397,60,44023,2,0,L|315:60,1,75,8|8,1:3|1:3,1:0:0:0:
259,132,44347,6,0,B|218:132|218:132|194:142|194:142|132:141,1,112.5,4|0,3:0|1:0,1:0:0:0:
103,140,44671,1,8,1:3:0:0:
18,107,44834,2,0,B|2:177|40:187|23:257,1,150,8|0,1:3|3:0,1:0:0:0:
24,344,45320,2,0,P|91:323|170:347,1,150,8|0,1:3|3:0,1:0:0:0:
249,376,45806,5,0,3:0:0:0:
242,285,45969,2,0,P|250:248|238:207,1,75,8|2,1:3|1:0,1:0:0:0:
182,144,46293,2,0,P|220:125|263:126,1,75,8|0,1:3|3:0,1:0:0:0:
323,178,46617,1,8,1:3:0:0:
323,178,46942,6,0,P|305:124|390:98,1,150,4|8,3:0|2:1,2:0:0:0:
454,132,47428,1,8,2:0:0:0:
413,212,47590,2,0,P|424:250|414:285,1,75,8|0,2:0|3:0,2:0:0:0:
332,321,47915,2,0,L|251:318,1,75,8|8,2:1|2:0,2:0:0:0:
168,301,48239,6,0,L|153:340,3,37.5,2|0|0|0,3:2|2:0|3:0|2:0,2:0:0:0:
112,352,48563,2,0,L|76:340,3,37.5,8|0|0|0,2:1|2:0|2:0|2:0,2:0:0:0:
49,303,48888,2,0,L|67:220,1,75,0|0,2:0|3:0,2:0:0:0:
88,142,49212,1,8,2:1:0:0:
88,142,49536,6,0,L|135:134,3,37.5,0|0|0|0,3:0|2:0|2:0|2:0,2:0:0:0:
148,96,49861,2,0,L|198:98,3,37.5,8|0|0|0,2:1|2:0|2:0|2:0,2:0:0:0:
218,67,50185,2,0,L|267:77,3,37.5,2|0|0|0,1:0|2:0|3:0|2:0,2:0:0:0:
290,46,50509,2,0,L|339:66,3,37.5,8|0|2|0,2:1|2:0|1:0|2:0,2:0:0:0:
367,44,50834,6,0,L|383:124,1,75,2|0,3:2|3:0,2:0:0:0:
402,205,51158,2,0,L|485:187,1,75,8|2,2:1|2:0,2:0:0:0:
337,270,51482,6,0,L|254:258,1,75,8|0,2:3|3:0,2:0:0:0:
174,244,51806,2,0,L|160:331,1,75,8|0,2:1|2:0,2:0:0:0:
262,259,52131,6,0,P|246:188|170:159,1,150,6|8,3:0|1:3,1:0:0:0:
98,196,52617,2,0,L|87:105,1,75,8|2,1:3|1:0,1:0:0:0:
77,31,52942,1,0,3:0:0:0:
160,63,53104,2,0,B|221:46|219:86|279:68,1,112.5,8|0,1:3|1:0,1:0:0:0:
307,45,53428,6,0,P|328:58|346:79,3,37.5,0|0|0|0,3:0|1:0|3:0|1:0,1:0:0:0:
381,72,53752,2,0,P|397:98|405:153,1,75,8|2,1:3|1:0,1:0:0:0:
358,218,54077,2,0,L|275:215,1,75,8|0,1:3|3:0,1:0:0:0:
193,211,54401,1,8,1:3:0:0:
193,211,54725,6,0,B|212:283|212:283|288:304,1,150,4|8,3:0|1:3,1:0:0:0:
358,218,55212,2,0,L|275:215,1,75,8|2,1:3|1:0,1:0:0:0:
241,135,55536,1,0,3:0:0:0:
300,67,55698,2,0,L|420:67,1,112.5,8|0,1:3|1:0,1:0:0:0:
458,66,56023,6,0,P|470:103|461:141,1,75,0|8,3:0|3:0,1:0:0:0:
476,226,56347,2,0,P|435:226|406:211,1,75,8|0,2:3|2:0,1:0:0:0:
308,143,56671,2,0,L|304:93,3,37.5,0|0|0|0,3:0|3:0|3:0|3:0,1:0:0:0:
300,67,56996,2,0,P|266:56|212:72,1,75,8|0,1:3|1:0,1:0:0:0:
161,115,57320,6,0,B|145:92|144:66|144:66|95:90|97:165,1,157.499995193482,4|2,2:1|2:0,2:0:0:0:
100,321,58131,2,0,L|169:315,1,52.4999983978272,0|0,2:0|2:0,2:0:0:0:
236,310,58455,5,8,2:0:0:0:
236,310,58779,1,0,2:0:0:0:
236,310,59104,1,0,2:0:0:0:
319,302,59266,2,0,P|323:328|322:363,2,52.4999983978272,0|8|0,2:0|2:0|2:0,2:0:0:0:
270,233,59752,1,0,2:0:0:0:
310,159,59915,6,0,B|376:150|363:200|431:191|443:143|418:126,1,157.499995193482,2|8,2:0|2:0,2:0:0:0:
277,41,60725,2,0,L|216:38,1,52.4999983978272,0|0,2:0|2:0,2:0:0:0:
140,33,61050,5,8,2:0:0:0:
140,33,61374,1,0,2:0:0:0:
140,33,61698,1,8,2:0:0:0:
55,31,61861,2,0,P|51:73|57:99,1,52.4999983978272,0|0,2:0|2:0,2:0:0:0:
128,118,62185,2,0,P|129:146|125:179,1,52.4999983978272,8|8,2:0|2:0,2:0:0:0:
64,226,62509,6,0,P|102:214|146:304,1,157.499995193482,4|2,2:1|2:0,2:0:0:0:
307,354,63320,2,0,P|304:328|305:295,1,52.4999983978272,0|0,2:0|2:0,2:0:0:0:
322,219,63644,5,8,2:0:0:0:
322,219,63969,1,0,2:0:0:0:
322,219,64293,1,0,2:0:0:0:
402,194,64455,2,0,P|428:193|458:195,1,52.4999983978272,0|8,2:0|2:0,2:0:0:0:
438,276,64779,2,0,P|409:278|384:275,1,52.4999983978272,0|0,2:0|2:0,2:0:0:0:
322,219,65104,6,0,B|311:183|332:147|332:147|314:103|256:113,1,157.499995193482,2|8,2:0|2:0,2:0:0:0:
98,136,65915,2,0,P|128:136|155:127,1,52.4999983978272,0|0,2:0|2:0,2:0:0:0:
197,61,66239,5,8,2:0:0:0:
197,61,66563,1,0,2:0:0:0:
197,61,66888,1,8,2:0:0:0:
197,61,67212,2,0,P|197:25|193:3,2,52.4999983978272,0|8|8,2:0|2:0|2:0,2:0:0:0:
149,129,67698,6,0,B|128:207|176:202|154:285,1,157.499995193482,4|2,3:1|2:0,2:0:0:0:
316,328,68509,2,0,P|347:321|382:322,1,52.4999983978272,8|0,2:1|2:0,2:0:0:0:
409,324,68752,1,0,2:0:0:0:
409,324,68834,6,0,P|414:284|400:202,1,104.999996795654,8|0,2:0|2:0,2:0:0:0:
406,220,69482,2,0,P|396:165|406:108,1,104.999996795654,0|8,2:0|2:1,2:0:0:0:
444,43,69969,2,0,P|406:33|361:43,1,78.7499975967408,0|0,2:0|2:0,2:0:0:0:
337,68,70293,6,0,B|300:80|260:61|260:61|226:84|180:69,1,157.499995193482,0|8,3:0|2:0,2:0:0:0:
23,24,71104,2,0,P|30:54|30:82,1,52.4999983978272,8|0,2:1|2:0,2:0:0:0:
30,117,71347,1,0,2:0:0:0:
30,117,71428,6,0,P|26:149|35:229,1,104.999996795654,8|0,2:0|2:0,2:0:0:0:
32,221,72077,2,0,P|66:217|146:221,1,104.999996795654,8|8,2:0|2:1,2:0:0:0:
217,243,72563,2,0,L|223:307,1,52.4999983978272,8|8,2:0|2:0,2:0:0:0:
304,314,72888,6,0,B|293:225|293:225|322:199|355:228,1,157.499995193482,4|2,3:2|2:0,2:0:0:0:
498,142,73698,2,0,P|469:149|442:145,1,52.4999983978272,8|0,2:1|2:0,2:0:0:0:
407,129,73942,1,0,2:0:0:0:
407,129,74023,6,0,P|387:100|315:99,1,104.999996795654,8|0,2:0|2:0,2:0:0:0:
321,94,74671,2,0,P|281:120|228:101,1,104.999996795654,0|8,2:0|2:1,2:0:0:0:
164,49,75158,2,0,P|147:84|149:126,1,78.7499975967408,0|0,2:0|2:0,2:0:0:0:
165,161,75482,5,4,3:2:0:0:
242,205,76131,5,4,3:2:0:0:
193,286,76779,5,4,3:2:0:0:
110,240,77266,5,4,3:2:0:0:
110,240,77590,5,12,2:1:0:0:
193,286,77752,2,0,P|198:317|195:357,1,52.4999983978272,8|8,2:0|3:2,2:0:0:0:
280,356,78077,6,0,P|294:333|315:314,1,52.4999983978272,4|0,3:0|3:0,2:0:0:0:
393,292,78401,2,0,P|412:297|429:308,3,26.2499991989136,0|0|0|0,3:0|3:0|3:0|3:0,2:0:0:0:
458,308,78725,2,0,P|464:287|469:275,3,26.2499991989136,0|0|0|0,3:0|3:0|3:0|3:0,2:0:0:0:
484,244,79050,2,0,P|452:237|422:217,1,52.4999983978272,8|8,3:0|3:0,2:0:0:0:
346,179,79374,5,6,3:0:0:0:
346,179,79698,2,0,P|319:134|343:77,1,112.5,8|0,2:0|2:0,2:0:0:0:
382,69,80023,2,0,L|423:64,2,37.5,0|0|0,2:0|2:0|3:0,2:0:0:0:
313,10,80347,1,8,2:0:0:0:
234,119,80590,1,0,2:0:0:0:
234,119,80671,6,0,L|158:113,1,75,2|0,3:2|2:0,2:0:0:0:
69,104,80996,2,0,B|76:149|76:149|88:166|88:166|95:214,1,112.5,10|0,2:0|2:0,2:0:0:0:
105,255,81320,2,0,L|187:245,1,75,0|0,3:0|3:0,2:0:0:0:
268,234,81644,1,8,2:0:0:0:
357,223,81806,2,0,P|364:243|369:269,1,37.5,0|0,2:0|2:0,2:0:0:0:
374,303,81969,6,0,P|411:289|459:285,1,75,0|0,3:0|2:0,2:0:0:0:
482,202,82293,2,0,P|468:165|464:117,1,75,8|0,2:0|2:0,2:0:0:0:
380,95,82617,2,0,P|343:109|295:113,1,75,2|0,1:0|3:0,2:0:0:0:
267,194,82942,2,0,P|281:231|285:279,1,75,8|2,2:0|1:0,2:0:0:0:
156,261,83266,6,0,P|162:223|183:186,1,75,2|0,3:2|2:0,2:0:0:0:
285,265,83590,1,8,2:0:0:0:
218,325,83752,2,0,P|171:305|177:377,1,150,0|0,2:0|3:0,2:0:0:0:
296,368,84239,2,0,B|354:351|362:376|412:362,1,112.5,8|0,2:0|2:0,2:0:0:0:
437,353,84563,6,0,P|432:288|416:277,1,78.7499975967408,6|0,3:0|1:0,1:0:0:0:
382,269,84888,6,0,P|314:214|369:150,1,187.5,8|2,1:0|1:0,1:0:0:0:
409,141,85374,1,0,3:0:0:0:
492,173,85536,2,0,P|499:137|482:88,1,75,8|2,1:0|1:0,1:0:0:0:
413,52,85861,6,0,P|376:42|334:54,1,75,0|0,3:0|1:0,1:0:0:0:
268,103,86185,2,0,P|276:146|269:186,1,75,8|0,1:0|1:0,1:0:0:0:
256,221,86428,1,0,1:0:0:0:
256,221,86509,2,0,L|177:208,1,75,0|0,3:0|3:0,1:0:0:0:
136,130,86834,2,0,P|147:93|147:45,1,75,10|0,1:0|1:0,1:0:0:0:
58,52,87158,6,0,B|26:87|26:87|36:157,1,112.5,2|2,3:2|1:0,1:0:0:0:
44,196,87482,2,0,L|40:277,1,75,8|2,1:0|1:0,1:0:0:0:
38,315,87725,1,2,1:0:0:0:
38,315,87806,2,0,P|74:307|117:311,1,75,2|0,1:2|3:0,1:0:0:0:
200,326,88131,2,0,P|236:332|277:326,1,75,8|0,1:0|1:0,1:0:0:0:
317,248,88455,6,0,P|320:324|381:322,1,150,2|8,3:2|1:0,1:0:0:0:
448,266,88942,2,0,L|437:177,1,75,2|0,3:2|1:0,1:0:0:0:
434,146,89185,1,0,1:0:0:0:
434,146,89266,1,0,3:0:0:0:
387,69,89428,2,0,P|427:57|466:64,1,75,10|0,1:2|1:0,1:0:0:0:
341,145,89752,5,6,3:2:0:0:
341,145,90077,2,0,P|299:153|242:102,1,112.5,8|0,2:0|2:0,2:0:0:0:
239,68,90401,2,0,L|243:23,2,37.5,0|0|0,2:0|2:0|3:0,2:0:0:0:
167,122,90725,1,8,2:0:0:0:
55,45,90969,1,0,2:0:0:0:
55,45,91050,6,0,L|63:130,1,75,2|0,3:2|2:0,2:0:0:0:
24,201,91374,2,0,P|71:171|133:197,1,112.5,10|0,2:0|2:0,2:0:0:0:
156,215,91698,2,0,P|163:251|168:300,1,75,0|0,3:0|3:0,2:0:0:0:
176,379,92023,1,8,2:0:0:0:
249,326,92185,2,0,P|277:320|299:321,1,37.5,0|0,2:0|2:0,2:0:0:0:
329,330,92347,6,0,P|311:283|315:246,1,75,0|0,3:0|2:0,2:0:0:0:
256,187,92671,2,0,P|303:169|340:173,1,75,8|0,2:0|2:0,2:0:0:0:
401,118,92996,2,0,P|416:151|418:188,1,75,2|0,1:0|3:0,2:0:0:0:
471,261,93320,2,0,P|437:276|400:278,1,75,8|2,2:0|1:0,2:0:0:0:
256,187,93644,6,0,P|303:169|340:173,1,75,2|0,3:2|2:0,2:0:0:0:
400,278,93969,1,8,2:0:0:0:
311,259,94131,2,0,P|245:229|180:266,1,150,0|0,2:0|3:0,2:0:0:0:
115,324,94617,2,0,P|95:284|106:216,1,112.5,8|0,2:0|2:0,2:0:0:0:
124,194,94942,6,0,P|96:187|73:141,1,78.7499975967408,4|0,3:0|1:0,1:0:0:0:
75,100,95266,6,0,B|184:72|164:128|266:102,1,187.5,8|2,1:0|1:0,1:0:0:0:
301,89,95752,1,0,3:0:0:0:
379,43,95915,2,0,P|391:81|385:119,1,75,8|2,1:0|1:0,1:0:0:0:
324,180,96239,6,0,P|394:167|456:219,1,150,0|8,3:0|1:0,1:0:0:0:
474,299,96725,1,0,1:0:0:0:
416,369,96888,2,0,P|379:367|337:342,1,75,0|0,3:0|3:0,1:0:0:0:
257,366,97212,2,0,P|221:341|202:306,1,75,8|0,1:0|1:0,1:0:0:0:
289,279,97536,6,0,B|212:269|221:298|139:286,1,150,2|8,3:2|1:0,1:0:0:0:
51,268,98023,1,2,1:0:0:0:
115,204,98185,2,0,P|118:171|107:121,1,75,2|0,1:2|3:0,1:0:0:0:
88,42,98509,1,8,1:0:0:0:
88,42,98834,5,6,3:0:0:0:
23,104,98996,1,4,3:0:0:0:
110,130,99158,1,4,3:0:0:0:
175,68,99320,2,0,P|211:56|251:59,1,75,2|0,3:2|3:0,1:0:0:0:
290,69,99563,1,4,1:2:0:0:
290,69,99644,2,0,P|302:109|298:152,1,75,8|0,1:3|2:0,1:0:0:0:
286,231,99969,1,0,3:0:0:0:
308,229,100050,1,0,3:0:0:0:
330,226,100131,6,0,B|432:215|432:215|412:237|416:264,1,150,6|8,2:0|2:1,2:0:0:0:
504,270,100617,1,8,2:0:0:0:
453,344,100779,2,0,P|416:354|373:344,1,75,8|0,2:0|3:0,2:0:0:0:
301,304,101104,2,0,P|275:327|229:338,1,75,8|8,2:1|2:0,2:0:0:0:
165,282,101428,6,0,P|143:287|119:287,3,37.5,2|0|0|0,3:2|2:0|3:0|2:0,2:0:0:0:
97,255,101752,2,0,P|78:252|57:242,3,37.5,8|0|0|0,2:1|2:0|2:0|2:0,2:0:0:0:
47,201,102077,2,0,P|38:173|39:103,1,75,0|0,2:0|3:0,2:0:0:0:
94,60,102401,1,8,2:1:0:0:
94,60,102725,6,0,P|116:79|131:87,3,37.5,0|0|0|0,3:0|2:0|2:0|2:0,2:0:0:0:
154,116,103050,2,0,P|180:115|204:109,3,37.5,8|0|0|0,2:1|2:0|2:0|2:0,2:0:0:0:
230,134,103374,2,0,P|256:130|272:123,3,37.5,2|0|0|0,1:0|2:0|3:0|2:0,2:0:0:0:
308,142,103698,2,0,P|331:131|346:116,3,37.5,8|0|2|0,2:1|2:0|1:0|2:0,2:0:0:0:
363,84,104023,6,0,P|375:130|400:161,1,75,2|0,3:2|3:0,2:0:0:0:
480,150,104347,2,0,P|496:116|496:71,1,75,8|2,2:1|2:0,2:0:0:0:
390,151,104671,6,0,P|374:184|372:221,1,75,8|0,2:3|3:0,2:0:0:0:
497,220,104996,2,0,P|495:182|479:149,1,75,8|0,2:1|2:0,2:0:0:0:
437,284,105320,6,0,B|367:257|367:305|290:280,1,150,6|8,3:0|1:3,1:0:0:0:
214,231,105806,2,0,P|200:268|210:318,1,75,8|2,1:3|1:0,1:0:0:0:
290,280,106131,1,0,3:0:0:0:
294,189,106293,2,0,P|233:142|165:157,1,150,8|0,1:3|3:0,1:0:0:0:
118,232,106779,5,0,3:0:0:0:
203,302,106942,2,0,P|217:272|214:231,1,75,8|2,1:3|1:0,1:0:0:0:
166,156,107266,2,0,P|155:109|203:55,1,112.5,8|0,1:3|1:0,1:0:0:0:
234,50,107590,2,0,L|318:47,1,75,8|8,1:3|1:3,1:0:0:0:
398,34,107915,6,0,B|404:82|404:82|397:98|397:98|403:148,1,112.5,4|0,3:0|1:0,1:0:0:0:
408,188,108239,1,8,1:3:0:0:
482,238,108401,2,0,P|442:228|373:302,1,150,8|0,1:3|3:0,1:0:0:0:
422,374,108888,2,0,P|360:325|286:333,1,150,8|0,1:3|3:0,1:0:0:0:
212,370,109374,5,0,3:0:0:0:
135,322,109536,2,0,P|128:288|129:237,1,75,8|2,1:3|1:0,1:0:0:0:
185,178,109861,1,8,1:3:0:0:
96,162,110023,1,0,3:0:0:0:
157,95,110185,2,0,P|185:74|246:57,1,75,8|0,1:3|1:0,1:0:0:0:
304,23,110509,6,0,P|267:58|341:109,1,150,4|8,3:0|2:1,2:0:0:0:
391,57,110996,1,8,2:0:0:0:
467,103,111158,2,0,P|476:144|472:186,1,75,8|0,2:0|3:0,2:0:0:0:
414,244,111482,2,0,P|375:240|329:249,1,75,8|8,2:1|2:0,2:0:0:0:
279,311,111806,6,0,L|239:301,3,37.5,2|0|0|0,3:2|2:0|3:0|2:0,2:0:0:0:
197,293,112131,2,0,L|186:344,3,37.5,8|0|0|0,2:1|2:0|2:0|2:0,2:0:0:0:
177,373,112455,2,0,L|88:353,1,75,0|0,2:0|3:0,2:0:0:0:
17,333,112779,1,8,2:1:0:0:
17,333,113104,6,0,L|35:284,3,37.5,0|0|0|0,3:0|2:0|2:0|2:0,2:0:0:0:
67,273,113428,2,0,L|62:223,3,37.5,8|0|0|0,2:1|2:0|2:0|2:0,2:0:0:0:
98,207,113752,2,0,L|80:150,3,37.5,2|0|0|0,1:0|2:0|3:0|2:0,2:0:0:0:
110,132,114077,2,0,L|80:94,3,37.5,8|0|2|0,2:1|2:0|1:0|2:0,2:0:0:0:
97,58,114401,6,0,P|142:65|189:58,1,75,2|0,3:2|3:0,2:0:0:0:
252,25,114725,2,0,P|250:66|261:105,1,75,8|2,2:1|2:0,2:0:0:0:
408,53,115050,6,0,P|364:47|327:60,1,75,8|0,2:3|3:0,2:0:0:0:
258,98,115374,2,0,P|263:137|257:180,1,75,8|0,2:1|2:0,2:0:0:0:
193,233,115698,6,0,P|267:234|315:306,1,150,6|8,3:0|1:3,1:0:0:0:
226,317,116185,2,0,P|190:325|147:313,1,75,8|2,1:3|1:0,1:0:0:0:
193,233,116509,1,0,3:0:0:0:
103,242,116671,2,0,P|96:203|99:117,1,112.5,8|0,1:3|1:0,1:0:0:0:
116,89,116996,6,0,L|165:78,3,37.5,0|0|0|0,3:0|1:0|3:0|1:0,1:0:0:0:
187,52,117320,2,0,L|268:73,1,75,8|2,1:3|1:0,1:0:0:0:
300,150,117644,2,0,L|387:129,1,75,8|0,1:3|3:0,1:0:0:0:
462,121,117969,1,8,1:3:0:0:
462,121,118293,6,0,B|469:162|447:192|447:192|473:226|460:272,1,150,4|8,3:0|1:3,1:0:0:0:
373,248,118779,2,0,L|294:239,1,75,8|2,1:3|1:0,1:0:0:0:
208,229,119104,1,0,3:0:0:0:
118,216,119266,2,0,P|118:253|139:289,1,75,8|0,1:3|1:0,1:0:0:0:
208,229,119590,6,0,P|208:191|190:158,1,75,0|8,3:0|3:0,1:0:0:0:
102,144,119915,2,0,P|101:181|117:215,1,75,8|0,2:3|2:0,1:0:0:0:
190,159,120239,2,0,L|234:150,2,37.5,0|4|0,3:0|1:2|3:0,1:0:0:0:
163,73,120563,2,0,L|208:64,3,37.5,8|0|0|0,1:3|3:0|3:0|3:0,1:0:0:0:
244,59,120888,5,4,3:0:0:0:
