osu file format v14

[General]
AudioFilename: audio.mp3
AudioLeadIn: 0
PreviewTime: 79374
Countdown: 0
SampleSet: Normal
StackLeniency: 0.3
Mode: 0
LetterboxInBreaks: 0
EpilepsyWarning: 1
WidescreenStoryboard: 1

[Editor]
DistanceSpacing: 0.8
BeatDivisor: 4
GridSize: 16
TimelineZoom: 2.499999

[Metadata]
Title:Oriens
TitleUnicode:Oriens
Artist:ginkiha
ArtistUnicode:ginkiha
Creator:SuperBox
Version:Gyro's Insane
Source:
Tags:FA featured artist electronic instrumental BOF2012 BMS OF FIGHTERS 2012 Shade of Mythology Freestyle Oriental Electro SOUND VOLTEX IV HEAVENLY HAVEN SDVX 4 BEMANI KONAMI Cytus Rayark Muse Dash PeroPeroGames 110 Gyro Zeppeli Lobelia wyrio Muziyami
BeatmapID:1863689
BeatmapSetID:655406

[Difficulty]
HPDrainRate:6
CircleSize:3.8
OverallDifficulty:7.5
ApproachRate:8.8
SliderMultiplier:1.8
SliderTickRate:1

[Events]
//Background and Video events
0,0,"57534432_p0_master1200.png",0,0
//Break Periods
2,57520,67069
//Storyboard Layer 0 (Background)
//Storyboard Layer 1 (Fail)
//Storyboard Layer 2 (Pass)
//Storyboard Layer 3 (Foreground)
Sprite,Foreground,Centre,"sb\info\info-mapper2.png",320,240 M,0,62509,,22.74744,403.84 F,0,62509,62590,0,1 S,30,62509,62590,0.5878404,0.4766633 F,0,62590,65023,1,0.9885963 S,0,62590,65023,0.4766633,0.500069 F,0,65023,,0.9885963,1 M,0,65023,65104,22.74744,403.84,22.74744,366.3909 F,0,65023,65104,1,0 S,0,65023,65104,0.500069,0.4181492
Sprite,Foreground,Centre,"sb\white.png",320,240 M,0,34617,,320,240 S,0,34617,,1 R,0,34617,,0 F,2,34617,35266,0,1 F,0,35266,36563,1 S,0,36563,,1.146286 R,0,36563,,-0.8543089 M,2,36563,36644,134.5098,50.99886,-225.3531,-292.48 F,3,36563,36644,1,0 C,3,36563,36644,0,0,0,16,19,40
Sprite,Foreground,Centre,"sb\white.png",320,240 F,0,36563,,1 S,0,36563,,1.146286 R,0,36563,,-0.8543089 M,2,36563,36644,535.3326,425.4904,940.2515,682.3679 F,3,36563,36644,1,0 C,3,36563,36644,0,0,0,16,19,40
Sprite,Foreground,TopCentre,"sb\effect\feather.png",320,240 R,0,36563,,-0.8543089 M,2,36563,36644,341.97,231.67,-17.89,-111.81 F,3,36563,36644,1,0 C,3,36563,36644,0,0,0,16,19,40 V,0,36563,36644,1.3,0.1,1.3,1
Sprite,Foreground,TopCentre,"sb\effect\feather.png",320,240 R,0,36563,,2.287284 M,2,36563,36644,327.87,244.82,732.79,501.69 F,3,36563,36644,1,0 C,3,36563,36644,0,0,0,16,19,40 V,0,36563,36644,1.3,0.1,1.3,1
Sprite,Foreground,TopCentre,"sb\effect\feather.png",320,240 R,0,100131,,-0.8543089 M,2,100131,100212,238.3997,184.8586,-121.4603,-158.6214 F,3,100131,100212,1,0 C,3,100131,100212,0,0,0,16,19,40 V,0,100131,100212,1.3,0.1,1.3,1
Sprite,Foreground,TopCentre,"sb\effect\feather.png",320,240 R,0,100131,,2.287284 M,2,100131,100212,224.2997,198.0086,629.2197,454.8785 F,3,100131,100212,1,0 C,3,100131,100212,0,0,0,16,19,40 V,0,100131,100212,1.3,0.1,1.3,1
Sprite,Foreground,TopCentre,"sb\white.png",320,240 F,0,100131,,1 S,0,100131,,1.333532 R,0,100131,,-0.8543089 M,2,100131,100212,224.2997,198.0086,629.2197,454.8785 F,3,100131,100212,1,0 C,3,100131,100212,0,0,0,16,19,40
Sprite,Foreground,Centre,"sb\white.png",320,240 M,0,98185,,320,240 S,0,98185,,1 R,0,98185,,0 F,2,98185,98834,0,1 F,0,98834,100131,1 S,0,100131,,1.146286 R,0,100131,,-0.8543089 M,2,100131,100212,30.93954,4.187416,-328.9235,-339.2914 F,3,100131,100212,1,0 C,3,100131,100212,0,0,0,16,19,40
//Storyboard Layer 4 (Overlay)
//Storyboard Sound Samples

[TimingPoints]
379,428.571428571429,4,1,11,70,1,0
486,-100,4,1,10,70,0,0
15807,324.324324324324,4,1,10,90,1,0
35996,-100,4,1,11,90,0,0
36077,-100,4,1,10,90,0,0
41104,-100,4,1,11,90,0,0
41266,-100,4,1,10,90,0,0
42239,-100,4,1,11,80,0,0
42401,-100,4,1,10,90,0,0
43698,-100,4,1,11,90,0,0
43860,-100,4,1,10,90,0,0
44185,-100,4,1,11,90,0,0
44347,-100,4,1,10,90,0,0
44834,-100,4,1,11,90,0,0
44996,-100,4,1,10,90,0,0
46293,-100,4,1,11,90,0,0
46455,-100,4,1,10,90,0,0
46942,-100,4,1,11,90,0,0
47023,-100,4,2,10,90,0,0
51482,-100,4,2,11,90,0,0
51644,-100,4,2,10,90,0,0
52617,-100,4,2,11,90,0,0
52779,-100,4,2,10,90,0,0
54077,-100,4,2,11,90,0,0
54239,-100,4,1,10,90,0,0
54563,-100,4,1,11,90,0,0
54725,-100,4,1,10,90,0,0
55212,-100,4,1,11,90,0,0
55374,-100,4,1,10,90,0,0
56185,-100,4,1,11,90,0,0
56347,-100,4,1,10,90,0,0
57320,-100,4,1,10,70,0,0
67698,-100,4,1,10,80,0,0
72888,-100,4,1,11,80,0,0
73212,-100,4,1,10,80,0,0
74185,-100,4,1,11,80,0,0
74509,-100,4,1,10,80,0,0
75482,-100,4,1,11,80,0,0
75806,-100,4,1,10,80,0,0
76131,-100,4,1,11,80,0,0
76293,-100,4,1,10,80,0,0
76779,-100,4,1,11,80,0,0
77104,-100,4,1,10,80,0,0
78077,-100,4,1,11,80,0,0
78239,-100,4,1,10,55,0,0
78401,-100,4,1,10,60,0,0
78563,-100,4,1,10,65,0,0
78725,-100,4,1,10,70,0,0
78887,-100,4,1,10,75,0,0
79050,-100,4,1,10,80,0,0
79374,-100,4,1,10,90,0,0
99563,-100,4,1,11,90,0,0
99644,-100,4,1,10,90,0,0
100131,-90.9090909090909,4,1,10,95,0,1
104671,-90.9090909090909,4,1,11,95,0,1
104833,-90.9090909090909,4,1,10,95,0,1
105806,-90.9090909090909,4,1,11,95,0,1
105968,-90.9090909090909,4,1,10,95,0,1
107266,-90.9090909090909,4,1,11,95,0,1
107428,-90.9090909090909,4,1,10,95,0,1
107752,-90.9090909090909,4,1,11,95,0,1
107915,-200,4,1,10,95,0,1
108239,-100,4,1,10,95,0,1
108401,-100,4,1,11,95,0,1
108563,-100,4,1,10,95,0,1
109861,-100,4,1,11,95,0,1
110023,-100,4,1,10,95,0,1
110509,-100,4,1,11,95,0,1
110590,-100,4,2,10,95,0,1
115050,-100,4,2,11,95,0,1
115212,-100,4,2,10,95,0,1
116185,-100,4,2,11,95,0,1
116347,-100,4,2,10,95,0,1
117644,-100,4,2,11,95,0,1
117806,-100,4,1,10,95,0,1
118131,-100,4,1,11,95,0,1
118293,-100,4,1,10,95,0,1
118779,-100,4,1,11,95,0,1
118941,-100,4,1,10,95,0,1
119752,-100,4,1,11,95,0,1
119915,-100,4,1,10,95,0,1
120320,-100,4,1,11,95,0,1
120401,-100,4,1,10,95,0,1
120888,-200,4,1,11,90,0,0
120969,-200,4,1,10,90,0,0
122185,-200,4,1,10,70,0,0
122834,-200,4,1,10,50,0,0
123158,-200,4,1,10,30,0,0
123320,-200,4,1,10,10,0,0

[Colours]
Combo1 : 233,182,29
Combo2 : 89,80,203
Combo3 : 66,198,221
Combo4 : 224,73,73

[HitObjects]
133,85,379,6,0,B|96:115|96:115|72:218,1,135,4|0,3:0|1:0,1:0:0:0:
81,281,807,1,2,1:0:0:0:
84,288,914,1,2,1:0:0:0:
236,342,1129,1,4,3:0:0:0:
244,329,1236,2,0,P|257:279|240:238,1,90,8|2,1:3|1:0,1:0:0:0:
250,139,1664,2,0,P|319:92|367:109,1,135,0|2,2:0|3:2,1:0:0:0:
393,131,2093,5,0,3:0:0:0:
474,231,2307,2,0,L|465:281,1,45,2|0,3:2|3:0,1:0:0:0:
452,297,2521,2,0,B|409:315|409:315|355:357,1,90,2|2,1:0|3:2,1:0:0:0:
271,296,2950,2,0,P|215:245|138:234,1,135,8|0,1:3|1:0,1:0:0:0:
80,243,3379,1,0,3:0:0:0:
80,243,3486,1,2,3:2:0:0:
91,99,3807,6,0,L|61:85,3,30,0|0|0|0,3:0|3:0|3:0|3:0,1:0:0:0:
224,132,4236,2,0,L|268:150,1,45,2|2,1:0|1:0,1:0:0:0:
438,135,4557,1,2,1:0:0:0:
422,114,4664,2,0,P|386:87|320:73,1,90,8|2,1:3|1:0,1:0:0:0:
240,261,5093,2,0,P|308:262|387:230,1,135,0|2,2:0|3:2,1:0:0:0:
438,135,5521,5,0,3:0:0:0:
341,131,5736,2,0,L|286:142,1,45,2|2,3:2|1:0,1:0:0:0:
253,139,5950,2,0,P|207:120|173:83,1,90,2|2,1:0|3:2,1:0:0:0:
82,53,6379,1,8,1:3:0:0:
77,80,6486,1,0,3:0:0:0:
72,106,6593,2,0,L|64:150,1,45,0|0,1:0|3:0,1:0:0:0:
120,226,6807,1,8,1:3:0:0:
125,253,6914,1,0,1:0:0:0:
130,279,7021,2,0,L|138:323,1,45,2|2,3:1|3:1,1:0:0:0:
226,345,7236,6,0,P|289:329|363:337,1,135,4|0,3:0|1:0,1:0:0:0:
437,347,7664,1,2,1:0:0:0:
448,352,7771,1,2,1:0:0:0:
460,195,7986,1,4,3:0:0:0:
442,207,8093,2,0,P|395:227|326:225,1,90,8|0,1:3|1:0,1:0:0:0:
270,224,8521,2,0,P|251:163|314:184,1,135,0|0,2:0|3:0,1:0:0:0:
323,170,8950,5,2,3:2:0:0:
295,326,9164,2,0,P|266:334|244:331,1,45,2|0,3:2|1:0,1:0:0:0:
223,315,9379,2,0,P|194:307|172:310,2,45,2|2|0,1:0|1:0|3:0,1:0:0:0:
425,310,9807,2,0,P|447:267|437:177,1,135,8|0,1:3|1:0,1:0:0:0:
411,104,10236,1,0,3:0:0:0:
409,94,10343,1,2,1:0:0:0:
224,306,10664,6,0,P|239:311|254:313,3,30,0|0|0|0,3:0|3:0|3:0|3:0,1:0:0:0:
87,201,11093,2,0,L|106:244,1,45,2|2,1:0|1:0,1:0:0:0:
78,84,11414,1,2,1:0:0:0:
100,55,11521,2,0,B|153:47|153:47|191:46|243:91,1,135,8|0,1:3|1:0,1:0:0:0:
257,127,11950,1,8,1:3:0:0:
257,127,12057,1,0,3:0:0:0:
406,56,12379,5,0,3:0:0:0:
384,149,12593,2,0,L|374:193,1,45,0|2,1:0|1:0,1:0:0:0:
450,232,12807,2,0,L|463:284,1,45,0|0,2:0|1:0,1:0:0:0:
458,317,13021,1,2,3:2:0:0:
228,314,13236,2,0,P|256:278|250:181,1,135,8|0,1:3|3:0,1:0:0:0:
255,151,13664,2,0,L|273:104,2,45,4|8|0,1:0|1:3|3:0,1:0:0:0:
256,192,14093,12,2,15807,3:0:0:0:
77,111,16131,6,0,P|141:116|172:104,1,90,8|0,2:0|2:0,2:0:0:0:
289,83,16455,1,0,2:0:0:0:
311,80,16536,1,0,2:0:0:0:
333,83,16617,2,0,P|373:106|390:152,1,90,0|8,3:0|2:0,2:0:0:0:
431,280,16942,1,0,2:0:0:0:
292,282,17104,2,0,L|198:323,1,90,2|0,3:2|2:0,2:0:0:0:
82,279,17428,6,0,L|64:182,1,90,10|0,2:0|2:0,2:0:0:0:
78,82,17752,1,0,2:0:0:0:
181,62,17914,1,0,2:0:0:0:
207,77,17995,1,0,2:0:0:0:
233,101,18076,2,0,P|258:150|258:187,1,90,8|0,3:0|3:0,2:0:0:0:
360,137,18401,6,0,L|345:47,1,90,0|0,3:0|2:0,2:0:0:0:
476,140,18725,2,0,P|439:181|429:217,1,90,8|0,3:0|3:0,2:0:0:0:
320,294,19050,2,0,P|363:300|405:284,1,90,2|0,1:0|3:0,2:0:0:0:
230,257,19374,2,0,P|213:215|233:152,1,90,8|2,2:0|1:0,2:0:0:0:
281,101,19698,6,0,L|368:75,1,90,2|0,3:2|2:0,2:0:0:0:
475,181,20023,2,0,L|388:155,1,90,8|0,2:0|2:0,2:0:0:0:
281,101,20347,2,0,P|241:118|197:109,1,90,0|0,3:0|3:0,2:0:0:0:
46,202,20671,2,0,P|86:185|130:194,1,90,8|0,2:0|2:0,2:0:0:0:
302,277,20996,6,0,B|261:262|261:262|211:272,1,90,6|0,3:0|1:0,1:0:0:0:
91,314,21320,1,8,1:0:0:0:
108,320,21401,1,2,1:0:0:0:
125,327,21482,1,2,1:0:0:0:
142,334,21563,1,2,1:0:0:0:
160,339,21644,2,0,P|204:352|253:346,1,90,2|0,1:0|3:0,1:0:0:0:
343,311,21969,2,0,P|390:310|444:325,1,90,8|2,1:0|1:0,1:0:0:0:
465,227,22293,6,0,P|440:179|465:99,1,135,0|0,3:0|1:0,1:0:0:0:
440,89,22617,2,0,P|399:115|318:99,1,135,8|0,1:0|1:0,1:0:0:0:
282,100,22942,2,0,P|304:163|278:223,1,135,0|0,3:0|1:0,1:0:0:0:
252,237,23266,2,0,P|205:229|155:163,1,135,10|0,1:0|1:0,1:0:0:0:
123,146,23590,6,0,P|84:180|33:183,1,90,2|2,3:2|1:0,1:0:0:0:
55,310,23915,1,8,1:0:0:0:
178,314,24077,1,2,1:0:0:0:
204,315,24158,1,2,1:0:0:0:
230,315,24239,2,0,P|277:329|308:356,1,90,2|0,1:2|3:0,1:0:0:0:
420,313,24563,2,0,P|397:266|402:223,1,90,8|0,1:0|1:0,1:0:0:0:
350,126,24888,6,0,P|306:117|274:86,1,90,2|0,3:2|1:0,1:0:0:0:
170,73,25212,1,8,1:0:0:0:
78,147,25374,1,2,3:2:0:0:
84,173,25455,1,0,1:0:0:0:
90,199,25536,2,0,L|116:287,1,90,0|0,1:0|3:0,1:0:0:0:
221,321,25861,2,0,P|265:315|308:327,1,90,10|0,1:2|1:0,1:0:0:0:
370,225,26185,6,0,P|326:230|283:218,1,90,6|0,3:2|2:0,2:0:0:0:
181,164,26509,1,8,2:0:0:0:
182,60,26671,1,0,2:0:0:0:
182,60,26752,1,0,2:0:0:0:
182,60,26834,2,0,P|248:71|280:59,1,90,0|0,2:0|3:0,2:0:0:0:
451,119,27158,2,0,P|385:108|353:120,1,90,8|0,2:0|2:0,2:0:0:0:
317,195,27482,6,0,L|347:295,1,90,2|0,3:2|2:0,2:0:0:0:
242,336,27806,1,10,2:0:0:0:
131,296,27969,1,0,2:0:0:0:
131,296,28050,1,0,2:0:0:0:
131,296,28131,2,0,P|144:250|133:196,1,90,0|0,3:0|3:0,2:0:0:0:
212,53,28455,2,0,P|206:97|219:140,1,90,8|0,2:0|2:0,2:0:0:0:
310,232,28779,5,0,3:0:0:0:
468,170,28942,1,0,2:0:0:0:
301,94,29104,2,0,L|392:126,1,90,8|0,2:0|2:0,2:0:0:0:
230,177,29428,1,2,1:0:0:0:
72,239,29591,1,0,3:0:0:0:
239,315,29753,2,0,L|148:283,1,90,8|2,2:0|1:0,2:0:0:0:
72,239,30077,6,0,P|55:195|64:152,1,90,2|0,3:2|2:0,2:0:0:0:
137,67,30401,1,8,2:0:0:0:
243,107,30563,1,0,2:0:0:0:
269,105,30644,1,0,2:0:0:0:
295,99,30725,2,0,P|339:104|376:129,1,90,2|0,3:2|3:0,2:0:0:0:
455,263,31050,2,0,P|410:257|373:232,1,90,8|0,2:0|2:0,2:0:0:0:
289,209,31374,6,0,L|191:235,1,90,4|0,3:0|1:0,1:0:0:0:
103,61,31698,1,8,1:0:0:0:
99,74,31779,1,2,1:0:0:0:
96,87,31860,1,2,1:0:0:0:
94,100,31941,1,2,1:0:0:0:
91,113,32022,2,0,L|72:205,1,90,2|0,1:0|3:0,1:0:0:0:
103,293,32347,2,0,P|133:325|176:337,1,90,8|2,1:0|1:0,1:0:0:0:
260,274,32671,6,0,B|286:294|312:272|312:272|286:247,1,90,0|0,3:0|1:0,1:0:0:0:
207,160,32996,2,0,B|187:186|209:212|209:212|234:186,1,90,8|0,1:0|1:0,1:0:0:0:
319,99,33320,2,0,B|293:79|267:101|267:101|293:126,1,90,0|0,3:0|3:0,1:0:0:0:
366,160,33644,2,0,B|386:186|364:212|364:212|339:186,1,90,8|0,1:0|1:0,1:0:0:0:
415,90,33969,6,0,P|455:152|440:260,1,180,2|8,3:2|1:0,1:0:0:0:
365,326,34455,1,2,1:0:0:0:
266,346,34617,2,0,B|220:331|220:331|82:351,1,180,2|8,1:2|1:0,1:0:0:0:
52,259,35104,1,0,1:0:0:0:
88,169,35266,6,0,L|67:67,1,90,6|4,3:0|3:0,1:0:0:0:
168,39,35590,1,4,3:0:0:0:
253,99,35752,2,0,L|267:150,1,45,2|0,3:2|1:0,1:0:0:0:
368,220,35996,2,0,L|356:176,1,45,4|8,1:2|1:3,1:0:0:0:
288,330,36239,1,0,2:0:0:0:
278,304,36320,1,8,1:3:0:0:
269,279,36401,1,0,3:0:0:0:
257,254,36482,1,0,3:0:0:0:
242,231,36563,6,0,P|201:216|152:227,1,90,6|0,2:0|2:0,2:0:0:0:
75,286,36888,1,8,2:1:0:0:
75,286,37050,1,8,2:0:0:0:
155,342,37212,1,8,2:0:0:0:
155,342,37374,1,0,3:0:0:0:
250,323,37536,2,0,P|283:288|291:244,1,90,8|8,2:1|2:0,2:0:0:0:
300,130,37861,5,2,3:2:0:0:
288,110,37942,1,0,2:0:0:0:
276,90,38023,1,0,3:0:0:0:
264,70,38104,1,0,2:0:0:0:
271,43,38185,2,0,L|296:83,1,45,8|0,2:1|2:0,2:0:0:0:
368,61,38347,2,0,L|393:101,1,45,0|0,2:0|2:0,2:0:0:0:
430,168,38509,2,0,P|443:219|489:248,1,90,0|0,2:0|3:0,2:0:0:0:
317,247,38834,2,0,L|307:348,1,90,8|0,2:1|2:0,2:0:0:0:
185,328,39158,6,0,P|140:313|87:326,1,90,0|0,3:0|2:0,2:0:0:0:
34,260,39482,1,8,2:1:0:0:
27,243,39563,1,0,2:0:0:0:
20,226,39644,1,0,2:0:0:0:
12,209,39725,1,0,2:0:0:0:
17,180,39806,2,0,L|31:134,3,45,2|0|0|0,1:0|2:0|3:0|2:0,2:0:0:0:
94,82,40131,2,0,L|136:59,3,45,8|0|2|0,2:1|2:0|1:0|2:0,2:0:0:0:
198,105,40455,6,0,L|307:133,1,90,2|0,3:2|3:0,2:0:0:0:
388,182,40779,1,8,2:1:0:0:
388,182,40942,1,2,2:0:0:0:
287,337,41104,2,0,L|315:228,1,90,8|0,2:3|3:0,2:0:0:0:
385,177,41428,2,0,L|396:129,3,45,8|0|0|0,2:1|2:0|2:0|2:0,2:0:0:0:
373,89,41752,6,0,B|331:96|331:96|283:81,1,90,6|0,3:0|1:0,1:0:0:0:
179,59,42077,1,8,1:3:0:0:
120,149,42239,2,0,P|108:192|120:242,1,90,8|2,1:3|1:0,1:0:0:0:
209,321,42563,1,0,3:0:0:0:
330,286,42725,2,0,B|378:274|424:288|424:288|394:253|360:249,1,135,8|0,1:3|1:0,1:0:0:0:
347,203,43050,5,0,3:0:0:0:
314,94,43212,1,0,3:0:0:0:
208,59,43374,2,0,P|162:54|119:76,1,90,8|2,1:3|1:0,1:0:0:0:
64,152,43698,2,0,L|76:246,1,90,8|0,1:3|3:0,1:0:0:0:
179,336,44023,2,0,L|190:246,1,90,8|8,1:3|1:3,1:0:0:0:
216,156,44347,6,0,P|261:170|312:161,1,90,4|0,3:0|1:0,1:0:0:0:
400,107,44671,1,8,1:3:0:0:
471,226,44834,2,0,P|393:230|334:322,1,180,8|0,1:3|3:0,1:0:0:0:
226,288,45320,2,0,L|134:325,1,90,8|0,1:3|1:0,1:0:0:0:
34,263,45644,5,0,3:0:0:0:
120,157,45806,1,0,3:0:0:0:
224,97,45969,2,0,L|320:115,1,90,8|2,1:3|1:0,1:0:0:0:
211,199,46293,1,8,1:3:0:0:
141,39,46455,1,0,3:0:0:0:
39,176,46617,2,0,P|28:228|41:277,1,90,8|0,1:3|1:0,1:0:0:0:
121,336,46942,6,0,P|165:342|208:331,1,90,4|0,3:0|2:0,2:0:0:0:
300,284,47266,1,8,2:1:0:0:
392,312,47428,1,8,2:0:0:0:
465,204,47590,2,0,P|417:205|370:234,1,90,8|0,2:0|3:0,2:0:0:0:
300,284,47915,1,8,2:1:0:0:
218,252,48077,1,8,2:0:0:0:
130,272,48239,5,2,3:2:0:0:
112,276,48320,1,0,2:0:0:0:
97,286,48401,1,0,3:0:0:0:
85,299,48482,1,0,2:0:0:0:
71,319,48563,2,0,L|61:363,1,45,8|0,2:1|2:0,2:0:0:0:
3,250,48725,2,0,L|0:295,1,45,0|0,2:0|2:0,2:0:0:0:
61,191,48888,2,0,P|75:141|59:93,1,90,0|0,2:0|3:0,2:0:0:0:
127,43,49212,2,0,P|165:75|210:78,1,90,8|0,2:1|2:0,2:0:0:0:
219,176,49536,6,0,P|181:208|171:252,1,90,0|0,3:0|2:0,2:0:0:0:
196,327,49861,1,8,2:1:0:0:
213,339,49942,1,0,2:0:0:0:
234,348,50023,1,0,2:0:0:0:
254,354,50104,1,0,2:0:0:0:
285,352,50185,2,0,L|325:330,3,45,2|0|0|0,1:0|2:0|3:0|2:0,2:0:0:0:
382,284,50509,2,0,L|405:244,3,45,8|0|2|0,2:1|2:0|1:0|2:0,2:0:0:0:
418,206,50834,6,0,P|405:158|415:108,1,90,2|0,3:2|3:0,2:0:0:0:
362,55,51158,1,8,2:1:0:0:
362,55,51320,1,2,2:0:0:0:
287,95,51482,2,0,P|246:116|190:114,1,90,8|0,2:3|3:0,2:0:0:0:
123,169,51806,2,0,L|138:214,3,45,8|0|0|0,2:1|2:0|2:0|2:0,2:0:0:0:
150,250,52131,6,0,P|194:251|234:272,1,90,6|0,3:0|1:0,1:0:0:0:
354,308,52455,1,8,1:3:0:0:
402,211,52617,2,0,L|378:111,1,90,8|2,1:3|1:0,1:0:0:0:
401,35,52942,1,0,3:0:0:0:
289,40,53104,2,0,B|271:84|271:84|291:155,1,90,8|0,1:3|1:0,1:0:0:0:
278,202,53428,6,0,L|269:251,3,45,0|0|0|0,3:0|1:0|3:0|1:0,1:0:0:0:
339,298,53752,2,0,L|346:347,3,45,8|0|2|2,1:3|1:0|1:0|1:0,1:0:0:0:
358,365,54077,2,0,P|420:372|465:275,1,180,8|8,1:3|1:3,1:0:0:0:
415,192,54563,1,8,1:3:0:0:
471,114,54725,6,0,L|493:21,1,90,4|0,3:0|1:0,1:0:0:0:
362,72,55050,1,8,1:3:0:0:
244,53,55212,2,0,P|196:58|144:89,1,90,8|2,1:3|1:0,1:0:0:0:
102,171,55536,1,0,3:0:0:0:
177,248,55698,2,0,P|191:290|185:339,1,90,8|0,1:3|1:0,1:0:0:0:
96,296,56023,5,0,3:0:0:0:
96,296,56185,1,8,3:0:0:0:
53,127,56347,2,0,L|65:223,1,90,8|0,2:3|2:0,1:0:0:0:
118,48,56671,1,0,3:0:0:0:
136,60,56752,1,0,3:0:0:0:
155,71,56834,1,0,3:0:0:0:
173,83,56915,1,0,3:0:0:0:
191,95,56996,2,0,P|224:175|166:251,1,180,8|4,1:3|2:1,1:0:0:0:
94,261,67698,6,0,L|121:170,1,90,4|0,3:1|2:0,2:0:0:0:
199,85,68023,1,8,2:1:0:0:
270,187,68185,2,0,P|313:167|335:123,1,90,2|0,2:0|3:0,2:0:0:0:
447,55,68509,1,8,2:1:0:0:
452,76,68590,1,0,2:0:0:0:
466,98,68671,1,0,2:0:0:0:
467,199,68834,6,0,L|413:274,1,90,8|0,2:0|3:0,2:0:0:0:
327,305,69158,2,0,P|281:311|244:353,1,90,0|8,2:0|2:1,2:0:0:0:
183,240,69482,2,0,L|212:143,1,90,0|0,2:0|3:0,2:0:0:0:
300,45,69806,1,8,2:1:0:0:
366,135,69969,2,0,B|326:158|326:158|307:210,1,90,0|0,2:0|2:0,2:0:0:0:
267,302,70293,6,0,P|230:330|168:334,1,90,0|0,3:0|2:0,2:0:0:0:
87,304,70617,1,8,2:1:0:0:
60,210,70779,2,0,B|50:167|50:167|64:119,1,90,8|0,2:0|3:0,2:0:0:0:
142,59,71104,2,0,L|191:67,3,45,8|0|0|0,2:1|2:0|2:0|2:0,2:0:0:0:
225,76,71428,2,0,P|254:114|256:159,1,90,8|0,2:0|3:0,2:0:0:0:
324,249,71752,6,0,P|347:211|388:193,1,90,0|8,2:0|2:1,2:0:0:0:
425,108,72077,2,0,P|380:113|340:94,1,90,8|0,2:0|3:0,2:0:0:0:
244,213,72401,2,0,L|214:301,2,90,8|8|8,2:1|2:0|2:0,2:0:0:0:
329,150,72888,6,0,P|344:196|384:221,1,90,4|0,3:2|2:0,2:0:0:0:
443,293,73212,1,8,2:1:0:0:
366,326,73374,2,0,L|266:355,1,90,2|0,2:0|3:0,2:0:0:0:
128,334,73698,1,8,2:1:0:0:
128,334,73779,1,0,2:0:0:0:
128,334,73861,1,0,2:0:0:0:
71,247,74023,1,8,2:0:0:0:
74,145,74185,5,4,3:2:0:0:
166,76,74347,2,0,P|211:81|264:63,1,90,0|8,2:0|2:1,2:0:0:0:
372,96,74671,2,0,P|335:124|310:174,1,90,0|0,2:0|3:0,2:0:0:0:
304,264,74996,1,8,2:1:0:0:
376,344,75158,2,0,P|425:309|438:273,1,90,0|0,2:0|2:0,2:0:0:0:
452,172,75482,5,4,3:2:0:0:
452,172,75644,1,0,2:0:0:0:
372,96,75806,2,0,L|277:77,1,90,8|8,2:1|2:0,2:0:0:0:
191,48,76131,1,4,3:2:0:0:
119,130,76293,1,8,2:1:0:0:
104,162,76374,1,0,2:0:0:0:
99,199,76455,2,0,L|97:247,2,45,0|0|8,2:0|2:0|2:0,2:0:0:0:
175,317,76779,6,0,L|282:305,1,90,4|0,3:2|2:0,2:0:0:0:
425,328,77104,2,0,L|379:308,1,45,8|0,2:1|2:0,2:0:0:0:
360,281,77266,2,0,P|349:215|373:152,1,135,4|0,3:2|2:0,2:0:0:0:
401,115,77590,2,0,P|425:65|420:30,2,90,12|8|8,2:1|2:0|3:2,2:0:0:0:
306,72,78077,6,0,P|282:122|287:157,1,90,4|0,3:0|3:0,2:0:0:0:
295,255,78401,1,0,3:0:0:0:
300,276,78482,1,0,3:0:0:0:
305,298,78563,1,0,3:0:0:0:
311,320,78644,1,0,3:0:0:0:
281,348,78725,1,0,3:0:0:0:
276,327,78806,1,0,3:0:0:0:
271,305,78887,1,0,3:0:0:0:
265,283,78968,1,0,3:0:0:0:
239,263,79050,2,0,L|227:219,1,45,8|0,3:0|2:0,2:0:0:0:
152,164,79212,2,0,L|140:120,2,45,8|0|6,3:0|2:0|3:0,2:0:0:0:
55,314,79698,6,0,B|98:322|98:322|153:309,1,90,8|0,2:0|2:0,2:0:0:0:
265,283,80023,1,0,2:0:0:0:
329,182,80185,1,0,3:0:0:0:
306,168,80266,1,0,2:0:0:0:
281,160,80347,2,0,P|232:152|188:174,1,90,8|0,2:0|2:0,2:0:0:0:
62,189,80671,6,0,P|96:161|106:118,1,90,2|0,3:2|2:0,2:0:0:0:
200,56,80996,1,10,2:0:0:0:
325,62,81158,1,0,2:0:0:0:
351,77,81239,1,0,2:0:0:0:
379,101,81320,2,0,P|416:142|426:178,1,90,0|0,3:0|3:0,2:0:0:0:
370,291,81644,2,0,L|273:319,1,90,8|0,2:0|2:0,2:0:0:0:
146,335,81969,5,0,3:0:0:0:
146,335,82131,1,0,2:0:0:0:
146,335,82293,2,0,L|122:246,1,90,8|0,2:0|2:0,2:0:0:0:
46,101,82617,1,2,1:0:0:0:
46,101,82779,1,0,3:0:0:0:
46,101,82941,2,0,L|135:77,1,90,8|2,2:0|1:0,2:0:0:0:
305,64,83266,5,2,3:2:0:0:
305,64,83428,1,0,2:0:0:0:
305,64,83590,2,0,L|329:153,1,90,8|0,2:0|2:0,2:0:0:0:
381,335,83915,1,0,3:0:0:0:
381,335,84077,1,0,3:0:0:0:
381,335,84239,2,0,L|293:349,1,90,8|0,2:0|2:0,2:0:0:0:
191,349,84563,6,0,L|175:256,1,90,6|0,3:0|1:0,1:0:0:0:
119,173,84888,1,8,1:0:0:0:
204,96,85050,2,0,B|240:126|240:126|267:278,1,180,2|0,1:0|3:0,1:0:0:0:
304,343,85536,1,8,1:0:0:0:
351,276,85698,1,2,1:0:0:0:
376,198,85861,6,0,P|380:143|330:80,1,135,0|0,3:0|1:0,1:0:0:0:
324,45,86185,2,0,P|390:84|459:77,1,135,8|0,1:0|1:0,1:0:0:0:
463,113,86509,2,0,P|458:168|508:230,1,135,0|0,3:0|1:0,1:0:0:0:
489,261,86834,2,0,P|428:288|387:346,1,135,10|0,1:0|1:0,1:0:0:0:
252,346,87158,6,0,P|218:313|157:314,1,90,2|2,3:2|1:0,1:0:0:0:
99,236,87482,2,0,L|105:183,3,45,8|2|2|2,1:0|1:0|1:0|1:0,1:0:0:0:
114,150,87806,2,0,P|154:124|199:124,1,90,2|0,1:2|3:0,1:0:0:0:
304,110,88131,1,8,1:0:0:0:
344,189,88293,1,0,1:0:0:0:
317,212,88374,1,0,1:0:0:0:
288,236,88455,6,0,L|198:204,1,90,2|0,3:2|1:0,1:0:0:0:
304,110,88779,1,8,1:0:0:0:
438,233,88942,1,2,3:2:0:0:
438,233,89023,1,0,1:0:0:0:
438,233,89104,2,0,L|364:302,1,90,0|0,1:0|3:0,1:0:0:0:
291,339,89428,2,0,B|260:327|260:327|197:331,1,90,10|0,1:2|1:0,1:0:0:0:
143,261,89752,6,0,P|115:301|71:327,1,90,6|0,3:2|2:0,2:0:0:0:
58,217,90077,1,8,2:0:0:0:
93,99,90239,1,0,2:0:0:0:
180,159,90401,2,0,P|228:170|286:155,1,90,0|0,2:0|3:0,2:0:0:0:
376,165,90725,2,0,L|460:196,1,90,8|0,2:0|2:0,2:0:0:0:
398,38,91050,6,0,P|351:62|333:107,1,90,2|0,3:2|2:0,2:0:0:0:
369,256,91374,1,10,2:0:0:0:
304,332,91536,1,0,2:0:0:0:
278,340,91617,1,0,2:0:0:0:
251,338,91698,2,0,L|155:305,1,90,0|0,3:0|3:0,2:0:0:0:
96,233,92023,1,8,2:0:0:0:
124,113,92185,1,0,2:0:0:0:
124,113,92266,1,0,2:0:0:0:
124,113,92347,6,0,P|168:133|213:131,1,90,0|0,3:0|2:0,2:0:0:0:
317,115,92671,1,8,2:0:0:0:
436,141,92834,1,0,2:0:0:0:
455,253,92996,2,0,P|401:251|362:271,1,90,2|0,1:0|3:0,2:0:0:0:
280,312,93320,1,8,2:0:0:0:
197,343,93482,1,2,1:0:0:0:
112,332,93644,6,0,P|79:293|68:246,1,90,2|0,3:2|2:0,2:0:0:0:
74,162,93969,1,8,2:0:0:0:
131,54,94131,1,0,2:0:0:0:
154,65,94212,1,0,2:0:0:0:
172,78,94293,2,0,P|196:117|199:162,1,90,2|0,3:2|3:0,2:0:0:0:
221,252,94617,2,0,P|254:280|310:283,1,90,8|0,2:0|2:0,2:0:0:0:
370,233,94942,6,0,L|402:130,1,90,4|0,3:0|1:0,1:0:0:0:
336,45,95266,2,0,L|320:96,3,45,8|2|2|2,1:0|1:0|1:0|1:0,1:0:0:0:
310,120,95590,2,0,P|287:172|240:198,1,90,2|0,1:0|3:0,1:0:0:0:
133,331,95915,2,0,L|164:244,1,90,8|2,1:0|1:0,1:0:0:0:
123,275,96239,6,0,L|110:137,1,135,0|0,3:0|1:0,1:0:0:0:
85,226,96563,2,0,L|33:90,1,135,8|0,1:0|1:0,1:0:0:0:
169,68,96888,2,0,P|241:44|314:57,1,135,0|0,3:0|1:0,1:0:0:0:
455,62,97212,2,0,P|401:89|302:63,1,135,8|0,1:0|1:0,1:0:0:0:
270,138,97536,6,0,L|240:253,1,90,2|2,3:2|1:0,1:0:0:0:
279,331,97861,1,8,1:0:0:0:
371,250,98023,1,2,1:0:0:0:
386,217,98104,1,2,1:0:0:0:
398,179,98185,2,0,P|399:129|378:88,1,90,2|0,1:2|3:0,1:0:0:0:
324,38,98509,2,0,B|296:46|267:46|267:46|331:73,1,90,8|0,1:0|1:0,1:0:0:0:
317,138,98834,5,6,3:0:0:0:
263,301,98996,1,4,3:0:0:0:
381,234,99158,1,4,3:0:0:0:
214,194,99320,2,0,L|196:235,1,45,2|0,3:2|1:0,1:0:0:0:
100,254,99563,2,0,L|81:298,1,45,4|8,1:2|1:3,1:0:0:0:
112,151,99806,2,0,L|131:107,3,45,0|8|0|0,2:0|1:3|3:0|3:0,1:0:0:0:
166,93,100131,6,0,B|260:100|260:100|338:137,1,148.50000453186,6|0,2:0|2:0,2:0:0:0:
348,150,100455,1,8,2:1:0:0:
319,314,100617,1,8,2:0:0:0:
197,317,100779,2,0,L|77:338,1,99.0000030212403,8|0,2:0|3:0,2:0:0:0:
33,228,101104,2,0,L|153:207,1,99.0000030212403,8|8,2:1|2:0,2:0:0:0:
260,192,101428,5,2,3:2:0:0:
279,197,101509,1,0,2:0:0:0:
298,199,101590,1,0,3:0:0:0:
317,197,101671,1,0,2:0:0:0:
336,192,101752,2,0,L|382:176,3,49.5000015106202,8|0|0|0,2:1|2:0|2:0|2:0,2:0:0:0:
415,174,102077,2,0,P|462:214|472:254,1,99.0000030212403,0|0,2:0|3:0,2:0:0:0:
478,108,102401,2,0,P|431:68|421:28,1,99.0000030212403,8|0,2:1|2:0,2:0:0:0:
325,50,102725,6,0,P|269:88|235:89,1,99.0000030212403,0|0,3:0|2:0,2:0:0:0:
145,84,103050,1,8,2:1:0:0:
121,93,103131,1,0,2:0:0:0:
99,106,103212,1,0,2:0:0:0:
80,123,103293,1,0,2:0:0:0:
66,149,103374,2,0,L|60:203,3,49.5000015106202,2|0|0|0,1:0|2:0|3:0|2:0,2:0:0:0:
83,269,103698,2,0,L|116:311,3,49.5000015106202,8|0|2|0,2:1|2:0|1:0|2:0,2:0:0:0:
140,324,104023,6,0,L|242:336,1,99.0000030212403,2|0,3:2|3:0,2:0:0:0:
364,273,104347,1,8,2:1:0:0:
262,215,104509,1,2,2:0:0:0:
466,116,104671,2,0,L|369:141,1,99.0000030212403,8|0,2:3|3:0,2:0:0:0:
262,215,104996,1,8,2:1:0:0:
158,162,105158,1,0,2:0:0:0:
138,163,105239,1,0,2:0:0:0:
115,161,105320,6,0,P|133:113|189:83,1,99.0000030212403,6|0,3:0|1:0,1:0:0:0:
284,77,105644,1,8,1:3:0:0:
361,143,105806,2,0,L|382:240,1,99.0000030212403,8|2,1:3|1:0,1:0:0:0:
426,338,106131,1,0,3:0:0:0:
312,320,106293,2,0,P|264:298|207:301,1,99.0000030212403,8|0,1:3|1:0,1:0:0:0:
116,257,106617,5,0,3:0:0:0:
236,205,106779,1,0,3:0:0:0:
262,195,106861,1,0,1:0:0:0:
290,185,106942,2,0,L|394:149,1,99.0000030212403,8|2,1:3|1:0,1:0:0:0:
442,65,107266,2,0,B|392:67|392:67|337:33,1,99.0000030212403,8|0,1:3|3:0,1:0:0:0:
242,43,107590,2,0,B|135:72,1,99.0000030212403,8|8,1:3|1:3,1:0:0:0:
85,142,107915,6,0,L|67:207,1,67.5,4|0,3:0|1:0,1:0:0:0:
61,250,108239,6,0,B|147:226|147:226|242:241,1,180,8|2,1:3|1:0,1:0:0:0:
396,246,108725,1,0,3:0:0:0:
305,329,108888,2,0,P|258:346|193:343,1,90,8|0,1:3|1:0,1:0:0:0:
127,328,109212,5,0,3:0:0:0:
61,250,109374,1,0,3:0:0:0:
56,157,109536,2,0,L|69:114,2,45,8|0|2,1:3|1:0|1:0,1:0:0:0:
242,59,109861,1,8,1:3:0:0:
242,59,109942,1,0,1:0:0:0:
242,59,110023,2,0,L|230:107,1,45,0|0,3:0|1:0,1:0:0:0:
180,162,110185,2,0,L|168:210,1,45,8|0,1:3|1:0,1:0:0:0:
206,283,110347,2,0,L|194:331,1,45,0|0,1:0|1:0,1:0:0:0:
306,222,110509,6,0,L|268:370,1,135,4|0,3:0|2:0,2:0:0:0:
108,355,110834,1,8,2:1:0:0:
108,355,110996,1,8,2:0:0:0:
56,193,111158,2,0,L|78:291,1,90,8|0,2:0|3:0,2:0:0:0:
106,115,111482,1,8,2:1:0:0:
106,115,111644,1,8,2:0:0:0:
192,68,111806,5,0,2:0:0:0:
236,57,111887,1,0,2:0:0:0:
280,47,111968,1,0,2:0:0:0:
323,37,112049,1,8,2:1:0:0:
348,40,112130,1,0,2:0:0:0:
369,46,112211,1,0,3:0:0:0:
390,54,112292,1,0,2:0:0:0:
411,63,112374,1,2,3:2:0:0:
429,81,112455,2,0,L|411:186,1,90,0|0,2:0|3:0,2:0:0:0:
282,292,112779,2,0,L|252:196,1,90,8|0,2:1|2:0,2:0:0:0:
159,101,113104,5,0,3:0:0:0:
159,101,113266,1,0,3:0:0:0:
134,216,113428,1,8,2:1:0:0:
143,236,113509,1,0,2:0:0:0:
157,252,113590,1,0,2:0:0:0:
176,262,113671,1,0,2:0:0:0:
220,260,113752,1,2,1:0:0:0:
254,250,113833,1,0,2:0:0:0:
289,256,113914,1,0,3:0:0:0:
319,276,113995,1,0,2:0:0:0:
347,302,114077,1,8,2:1:0:0:
388,318,114158,1,0,2:0:0:0:
432,311,114239,1,2,1:0:0:0:
465,282,114320,1,0,2:0:0:0:
465,243,114401,6,0,L|431:140,1,90,2|0,3:2|3:0,2:0:0:0:
360,86,114725,1,8,2:1:0:0:
366,82,114888,1,2,2:0:0:0:
261,57,115050,2,0,L|173:78,1,90,8|0,2:3|3:0,2:0:0:0:
89,151,115374,1,8,2:1:0:0:
97,146,115536,1,0,2:0:0:0:
180,224,115698,6,0,L|256:334,1,135,6|0,3:0|1:0,1:0:0:0:
291,348,116023,2,0,P|334:333|370:294,1,90,8|8,1:3|1:3,1:0:0:0:
430,216,116347,1,2,1:0:0:0:
420,126,116509,2,0,L|399:86,1,45,0|0,3:0|1:0,1:0:0:0:
370,63,116671,2,0,P|343:106|295:124,1,90,8|0,1:3|1:0,1:0:0:0:
180,106,116996,5,0,3:0:0:0:
54,153,117158,1,0,3:0:0:0:
175,233,117320,1,8,1:3:0:0:
194,244,117401,1,0,1:0:0:0:
214,253,117482,1,2,1:0:0:0:
233,263,117563,1,2,1:0:0:0:
254,269,117644,2,0,B|384:219,1,135,8|0,1:3|1:0,1:0:0:0:
444,142,117969,2,0,P|445:89|428:54,1,90,8|8,1:3|1:3,1:0:0:0:
341,39,118293,6,0,L|233:74,1,90,4|0,3:0|1:0,1:0:0:0:
164,141,118617,1,8,1:3:0:0:
162,251,118779,2,0,P|187:290|241:311,1,90,8|2,1:3|1:0,1:0:0:0:
335,296,119104,1,0,3:0:0:0:
412,217,119266,2,0,L|460:91,1,135,8|0,1:3|1:0,1:0:0:0:
453,57,119590,5,0,3:0:0:0:
331,101,119752,1,8,3:0:0:0:
201,53,119915,5,8,2:3:0:0:
195,182,120077,1,0,2:0:0:0:
202,209,120158,1,0,1:0:0:0:
69,152,120320,5,4,1:2:0:0:
76,125,120401,1,0,3:0:0:0:
339,217,120563,5,8,1:3:0:0:
330,244,120644,1,0,3:0:0:0:
315,276,120725,1,0,3:0:0:0:
295,304,120806,1,0,3:0:0:0:
264,328,120888,6,0,P|83:279|345:177,1,720,4|0,3:0|1:0,1:0:0:0:
