osu file format v14

[General]
AudioFilename: audio.mp3
AudioLeadIn: 0
PreviewTime: 79374
Countdown: 0
SampleSet: Normal
StackLeniency: 0.3
Mode: 0
LetterboxInBreaks: 0
EpilepsyWarning: 1
WidescreenStoryboard: 1

[Editor]
DistanceSpacing: 1.3
BeatDivisor: 8
GridSize: 8
TimelineZoom: 2.699999

[Metadata]
Title:Oriens
TitleUnicode:Oriens
Artist:ginkiha
ArtistUnicode:ginkiha
Creator:SuperBox
Version:Expert
Source:
Tags:FA featured artist electronic instrumental BOF2012 BMS OF FIGHTERS 2012 Shade of Mythology Freestyle Oriental Electro SOUND VOLTEX IV HEAVENLY HAVEN SDVX 4 BEMANI KONAMI Cytus Rayark Muse Dash PeroPeroGames 110 Gyro Zeppeli Lobelia wyrio Muziyami
BeatmapID:2508517
BeatmapSetID:655406

[Difficulty]
HPDrainRate:5.5
CircleSize:4
OverallDifficulty:8.5
ApproachRate:9.2
SliderMultiplier:1.4
SliderTickRate:1

[Events]
//Background and Video events
0,0,"57534432_p0_master1200.png",0,0
//Break Periods
2,57520,67098
//Storyboard Layer 0 (Background)
//Storyboard Layer 1 (Fail)
//Storyboard Layer 2 (Pass)
//Storyboard Layer 3 (Foreground)
Sprite,Foreground,Centre,"sb\info\info-mapper0.png",320,240 M,0,62509,,22.74744,403.84 F,0,62509,62590,0,1 S,30,62509,62590,0.5878404,0.4766633 F,0,62590,65023,1,0.9885963 S,0,62590,65023,0.4766633,0.500069 F,0,65023,,0.9885963,1 M,0,65023,65104,22.74744,403.84,22.74744,366.3909 F,0,65023,65104,1,0 S,0,65023,65104,0.500069,0.4181492
Sprite,Foreground,Centre,"sb\white.png",320,240 M,0,34617,,320,240 S,0,34617,,1 R,0,34617,,0 F,2,34617,35266,0,1 F,0,35266,36563,1 S,0,36563,,1.146286 R,0,36563,,-0.8543089 M,2,36563,36644,134.5098,50.99886,-225.3531,-292.48 F,3,36563,36644,1,0 C,3,36563,36644,0,0,0,16,19,40
Sprite,Foreground,Centre,"sb\white.png",320,240 F,0,36563,,1 S,0,36563,,1.146286 R,0,36563,,-0.8543089 M,2,36563,36644,535.3326,425.4904,940.2515,682.3679 F,3,36563,36644,1,0 C,3,36563,36644,0,0,0,16,19,40
Sprite,Foreground,TopCentre,"sb\effect\feather.png",320,240 R,0,36563,,-0.8543089 M,2,36563,36644,341.97,231.67,-17.89,-111.81 F,3,36563,36644,1,0 C,3,36563,36644,0,0,0,16,19,40 V,0,36563,36644,1.3,0.1,1.3,1
Sprite,Foreground,TopCentre,"sb\effect\feather.png",320,240 R,0,36563,,2.287284 M,2,36563,36644,327.87,244.82,732.79,501.69 F,3,36563,36644,1,0 C,3,36563,36644,0,0,0,16,19,40 V,0,36563,36644,1.3,0.1,1.3,1
Sprite,Foreground,TopCentre,"sb\effect\feather.png",320,240 R,0,100131,,2.287284 M,2,100131,100212,185.0952,157.0486,590.0151,413.9185 F,3,100131,100212,1,0 C,3,100131,100212,0,0,0,16,19,40 V,0,100131,100212,1.3,0.1,1.3,1
Sprite,Foreground,TopCentre,"sb\effect\feather.png",320,240 R,0,100131,,-0.8543089 M,2,100131,100212,199.1951,143.8986,-160.6649,-199.5814 F,3,100131,100212,1,0 C,3,100131,100212,0,0,0,16,19,40 V,0,100131,100212,1.3,0.1,1.3,1
Sprite,Foreground,TopCentre,"sb\white.png",320,240 F,0,100131,,1 S,0,100131,,1.333532 R,0,100131,,-0.8543089 M,2,100131,100212,185.0952,157.0486,590.0151,413.9185 F,3,100131,100212,1,0 C,3,100131,100212,0,0,0,16,19,40
Sprite,Foreground,Centre,"sb\white.png",320,240 M,0,98185,,320,240 S,0,98185,,1 R,0,98185,,0 F,2,98185,98834,0,1 F,0,98834,100131,1 S,0,100131,,1.146286 R,0,100131,,-0.8543089 M,2,100131,100212,-8.265053,-36.77258,-368.128,-380.2514 F,3,100131,100212,1,0 C,3,100131,100212,0,0,0,16,19,40
//Storyboard Layer 4 (Overlay)
//Storyboard Sound Samples

[TimingPoints]
379,428.571428571429,4,1,11,70,1,0
807,-100,4,1,10,70,0,0
15379,-76.9230769230769,4,1,10,70,0,0
15807,324.324324324324,4,1,10,90,1,0
15807,-133.333333333333,4,1,10,90,0,0
16131,-66.6666666666667,4,1,10,90,0,0
16942,-100,4,1,10,90,0,0
17104,-66.6666666666667,4,1,10,90,0,0
19779,-100,4,1,10,90,0,0
20671,-66.6666666666667,4,1,10,90,0,0
20996,-133.333333333333,4,1,10,90,0,0
21320,-66.6666666666667,4,1,10,90,0,0
21806,-100,4,1,10,90,0,0
22293,-66.6666666666667,4,1,10,90,0,0
24239,-52.6315789473684,4,1,10,90,0,0
26185,-133.333333333333,4,1,10,90,0,0
26509,-66.6666666666667,4,1,10,90,0,0
27320,-100,4,1,10,90,0,0
27482,-66.6666666666667,4,1,10,90,0,0
30158,-100,4,1,10,90,0,0
31050,-66.6666666666667,4,1,10,90,0,0
31374,-133.333333333333,4,1,10,90,0,0
31698,-66.6666666666667,4,1,10,90,0,0
32347,-100,4,1,10,90,0,0
32671,-66.6666666666667,4,1,10,90,0,0
34617,-52.6315789473684,4,1,10,90,0,0
35996,-52.6315789473684,4,1,11,90,0,0
36077,-52.6315789473684,4,1,10,90,0,0
36563,-100,4,1,10,90,0,0
38509,-66.6666666666667,4,1,10,90,0,0
41104,-66.6666666666667,4,1,11,90,0,0
41266,-66.6666666666667,4,1,10,90,0,0
42239,-66.6666666666667,4,1,11,80,0,0
42401,-66.6666666666667,4,1,10,90,0,0
43698,-66.6666666666667,4,1,11,90,0,0
43861,-66.6666666666667,4,1,10,90,0,0
44185,-66.6666666666667,4,1,11,90,0,0
44347,-66.6666666666667,4,1,10,90,0,0
44834,-66.6666666666667,4,1,11,90,0,0
44996,-66.6666666666667,4,1,10,90,0,0
46293,-66.6666666666667,4,1,11,90,0,0
46455,-66.6666666666667,4,1,10,90,0,0
46942,-133.333333333333,4,1,11,90,0,0
47023,-133.333333333333,4,2,10,90,0,0
48888,-66.6666666666667,4,2,10,90,0,0
51482,-66.6666666666667,4,2,11,90,0,0
51644,-66.6666666666667,4,2,10,90,0,0
52617,-66.6666666666667,4,2,11,90,0,0
52779,-66.6666666666667,4,2,10,90,0,0
54077,-66.6666666666667,4,2,11,90,0,0
54239,-66.6666666666667,4,2,10,90,0,0
54563,-66.6666666666667,4,2,11,90,0,0
54725,-66.6666666666667,4,2,10,90,0,0
55212,-66.6666666666667,4,2,11,90,0,0
55374,-66.6666666666667,4,1,10,90,0,0
56185,-66.6666666666667,4,1,11,90,0,0
56347,-66.6666666666667,4,1,10,90,0,0
56996,-52.6315789473684,4,1,10,90,0,0
57320,-52.6315789473684,4,1,10,70,0,0
67698,-52.6315789473684,4,1,10,80,0,0
71428,-100,4,1,10,80,0,0
72888,-100,4,1,11,80,0,0
73213,-100,4,1,10,80,0,0
74185,-100,4,1,11,80,0,0
74509,-100,4,1,10,80,0,0
75482,-100,4,1,11,80,0,0
75807,-100,4,1,10,80,0,0
76131,-100,4,1,11,80,0,0
76293,-100,4,1,10,80,0,0
76779,-100,4,1,11,80,0,0
77104,-100,4,1,10,80,0,0
78239,-100,4,1,10,55,0,0
78401,-100,4,1,10,60,0,0
78563,-100,4,1,10,65,0,0
78725,-100,4,1,10,70,0,0
78888,-100,4,1,10,75,0,0
79050,-100,4,1,10,80,0,0
79374,-133.333333333333,4,1,10,90,0,0
79698,-66.6666666666667,4,1,10,90,0,0
80509,-100,4,1,10,90,0,0
80671,-66.6666666666667,4,1,10,90,0,0
83347,-100,4,1,10,90,0,0
84239,-66.6666666666667,4,1,10,90,0,0
84563,-133.333333333333,4,1,10,90,0,0
84888,-66.6666666666667,4,1,10,90,0,0
85374,-100,4,1,10,90,0,0
85861,-66.6666666666667,4,1,10,90,0,0
87806,-52.6315789473684,4,1,10,90,0,0
89752,-133.333333333333,4,1,10,90,0,0
90077,-66.6666666666667,4,1,10,90,0,0
90888,-100,4,1,10,90,0,0
91050,-66.6666666666667,4,1,10,90,0,0
93725,-100,4,1,10,90,0,0
94617,-66.6666666666667,4,1,10,90,0,0
94942,-133.333333333333,4,1,10,90,0,0
95266,-66.6666666666667,4,1,10,90,0,0
95915,-100,4,1,10,90,0,0
96239,-66.6666666666667,4,1,10,90,0,0
98185,-52.6315789473684,4,1,10,90,0,0
99563,-52.6315789473684,4,1,11,90,0,0
99644,-52.6315789473684,4,1,10,90,0,0
100131,-100,4,1,10,95,0,1
102076,-66.6666666666667,4,1,10,95,0,1
104671,-66.6666666666667,4,1,11,95,0,1
104833,-66.6666666666667,4,1,10,95,0,1
105806,-66.6666666666667,4,1,11,95,0,1
105969,-66.6666666666667,4,1,10,95,0,1
107266,-66.6666666666667,4,1,11,95,0,1
107428,-66.6666666666667,4,1,10,95,0,1
107752,-66.6666666666667,4,1,11,95,0,1
107914,-66.6666666666667,4,1,10,95,0,1
108401,-66.6666666666667,4,1,11,95,0,1
108563,-66.6666666666667,4,1,10,95,0,1
109861,-66.6666666666667,4,1,11,95,0,1
110023,-66.6666666666667,4,1,10,95,0,1
110509,-133.333333333333,4,1,11,95,0,1
110590,-133.333333333333,4,2,10,95,0,1
112455,-66.6666666666667,4,2,10,95,0,1
115050,-66.6666666666667,4,2,11,95,0,1
115212,-66.6666666666667,4,2,10,95,0,1
116185,-66.6666666666667,4,2,11,95,0,1
116347,-66.6666666666667,4,2,10,95,0,1
117644,-66.6666666666667,4,2,11,95,0,1
117806,-66.6666666666667,4,2,10,95,0,1
118131,-66.6666666666667,4,1,11,95,0,1
118293,-66.6666666666667,4,1,10,95,0,1
118779,-66.6666666666667,4,1,11,95,0,1
118942,-66.6666666666667,4,1,10,95,0,1
119752,-66.6666666666667,4,1,11,95,0,1
119914,-66.6666666666667,4,1,10,95,0,1
120319,-66.6666666666667,4,1,11,95,0,1
120401,-66.6666666666667,4,1,10,95,0,1
120887,-66.6666666666667,4,1,11,90,0,1
120969,-66.6666666666667,4,1,11,90,0,0
122185,-66.6666666666667,4,1,11,70,0,0
122834,-66.6666666666667,4,1,11,50,0,0
123158,-66.6666666666667,4,1,11,30,0,0
123320,-66.6666666666667,4,1,11,10,0,0

[Colours]
Combo1 : 233,182,29
Combo2 : 89,80,203
Combo3 : 66,198,221
Combo4 : 224,73,73

[HitObjects]
28,120,379,5,4,3:0:0:0:
34,124,593,2,0,P|65:122|113:134,1,70,0|2,1:0|1:0,1:0:0:0:
134,144,914,2,0,L|143:199,2,35,2|0|4,1:0|1:0|3:0,1:0:0:0:
126,56,1236,6,0,B|195:40|248:100|335:72,1,210,8|0,1:3|1:0,1:0:0:0:
406,50,1986,1,2,3:2:0:0:
479,84,2093,6,0,L|471:158,1,70,0|2,3:0|3:2,1:0:0:0:
416,214,2414,1,0,3:0:0:0:
416,214,2521,2,0,L|422:267,3,35,2|2|2|0,1:0|1:0|3:2|3:0,1:0:0:0:
350,302,2950,1,8,1:3:0:0:
350,322,3379,5,0,3:0:0:0:
242,303,3486,1,2,3:2:0:0:
242,303,3807,6,0,L|250:341,2,23.3333333333333,0|0|0,3:0|3:0|3:0,1:0:0:0:
221,280,4021,2,0,P|227:259|229:229,1,35,0|0,3:0|1:0,1:0:0:0:
261,211,4236,2,0,L|256:164,3,35,2|2|4|2,1:0|1:0|3:0|1:0,1:0:0:0:
320,270,4664,6,0,B|244:246|191:318|98:283,1,210,8|0,1:3|1:0,1:0:0:0:
50,330,5414,1,2,3:2:0:0:
0,266,5521,6,0,L|8:184,1,70,0|2,3:0|3:2,1:0:0:0:
79,167,5843,1,2,1:0:0:0:
79,167,5950,2,0,P|84:189|94:216,2,35,2|2|2,1:0|1:0|3:2,1:0:0:0:
150,135,6271,1,0,1:0:0:0:
150,135,6379,2,0,P|137:78|138:8,1,105,8|0,1:3|3:0,1:0:0:0:
168,24,6807,2,0,L|180:62,3,35,8|0|2|2,1:3|1:0|3:1|3:1,1:0:0:0:
236,112,7236,6,0,B|287:99,3,35,4|0|0|0,3:0|1:0|1:0|1:0,1:0:0:0:
328,163,7664,1,2,1:0:0:0:
328,163,7771,2,0,P|318:201|315:238,1,70,2|4,1:0|3:0,1:0:0:0:
309,312,8093,6,0,B|324:225|397:239|411:130,1,210,8|0,1:3|1:0,1:0:0:0:
468,74,8843,1,0,3:0:0:0:
411,16,8950,2,0,L|333:8,1,70,2|2,3:2|3:2,1:0:0:0:
270,39,9271,1,0,1:0:0:0:
270,39,9379,2,0,L|229:33,3,35,2|2|0|0,1:0|1:0|3:0|1:0,1:0:0:0:
157,75,9807,1,8,1:3:0:0:
145,82,10236,5,0,3:0:0:0:
37,46,10343,1,2,1:0:0:0:
37,46,10664,6,0,L|49:10,2,23.3333333333333,0|0|0,3:0|3:0|3:0,1:0:0:0:
17,60,10879,2,0,P|29:81|41:113,1,35,0|0,3:0|1:0,1:0:0:0:
62,124,11093,2,0,P|57:149|55:172,3,35,2|2|4|2,1:0|1:0|3:0|1:0,1:0:0:0:
131,164,11521,6,0,B|142:208|102:223|118:272,1,105,8|0,1:3|1:0,1:0:0:0:
116,265,11950,1,8,1:3:0:0:
144,347,12057,2,0,P|182:331|219:327,1,70,0|0,3:0|1:0,1:0:0:0:
286,383,12379,5,0,3:0:0:0:
212,191,12593,1,0,1:0:0:0:
212,191,12700,1,2,1:0:0:0:
212,191,12807,2,0,L|203:239,1,35,0|0,2:0|1:0,1:0:0:0:
355,220,13021,2,0,L|348:181,1,35,2|0,3:2|1:0,1:0:0:0:
282,274,13236,1,8,1:3:0:0:
281,282,13450,1,0,2:0:0:0:
279,78,13664,5,4,1:0:0:0:
261,75,13771,1,8,1:3:0:0:
245,85,13879,1,0,3:0:0:0:
243,0,14093,5,6,3:2:0:0:
273,181,14307,1,4,3:0:0:0:
264,341,14521,5,4,3:0:0:0:
260,325,14629,1,0,1:0:0:0:
323,264,14736,1,4,3:0:0:0:
327,280,14843,1,0,1:0:0:0:
406,319,14950,5,0,3:0:0:0:
441,291,15057,1,0,3:0:0:0:
453,247,15164,1,0,3:0:0:0:
430,207,15271,1,0,3:0:0:0:
383,192,15379,6,0,L|382:216,7,22.7499989585877,0|0|0|0|0|0|0|0,3:0|3:0|3:0|3:0|3:0|3:0|3:0|3:0,1:0:0:0:
409,167,15807,6,0,L|393:88,1,78.7500030040742,2|0,3:0|2:0,2:0:0:0:
451,38,16131,6,0,P|372:62|293:25,1,157.500006008148,8|0,2:0|2:0,2:0:0:0:
249,98,16455,5,0,2:0:0:0:
43,142,16617,1,0,3:0:0:0:
95,42,16779,1,8,2:0:0:0:
168,226,16942,2,0,L|158:177,1,35,0|0,2:0|2:0,2:0:0:0:
150,115,17104,6,0,P|196:92|254:100,1,105,2|0,3:2|2:0,2:0:0:0:
286,114,17347,1,0,2:0:0:0:
286,114,17428,2,0,L|267:236,1,105.000004005432,10|0,2:0|2:0,2:0:0:0:
285,380,17752,5,0,3:0:0:0:
375,190,17914,1,0,3:0:0:0:
161,191,18077,1,8,2:0:0:0:
161,191,18239,1,0,2:0:0:0:
269,14,18401,5,0,3:0:0:0:
301,214,18563,1,0,2:0:0:0:
235,173,18725,1,8,2:0:0:0:
345,48,18888,1,0,2:0:0:0:
504,237,19050,5,2,1:0:0:0:
488,246,19131,1,2,2:0:0:0:
472,256,19212,1,0,3:0:0:0:
329,62,19374,1,8,2:0:0:0:
241,296,19536,1,2,1:0:0:0:
269,14,19698,5,2,3:2:0:0:
269,14,19779,2,0,L|211:21,2,35,0|0|0,2:0|2:0|2:0,2:0:0:0:
120,94,20023,2,0,P|161:105|202:113,1,70,8|0,2:0|2:0,2:0:0:0:
213,121,20266,1,0,2:0:0:0:
213,121,20347,2,0,L|210:162,1,35,0|0,3:0|2:0,2:0:0:0:
81,214,20509,2,0,L|84:173,1,35,0|0,3:0|2:0,2:0:0:0:
196,177,20671,6,0,P|276:150|363:186,1,157.500006008148,8|0,2:0|2:0,2:0:0:0:
323,173,20996,6,0,B|294:201|294:201|306:250,1,78.7500030040742,6|0,3:0|1:0,1:0:0:0:
241,296,21320,6,0,B|198:176|198:176|311:81,1,262.500010013581,8|2,1:0|1:0,1:0:0:0:
378,101,21806,6,0,L|456:116,2,70,0|8|2,3:0|1:0|1:0,1:0:0:0:
140,19,22293,6,0,P|179:77|219:159,1,157.500006008148,0|0,3:0|1:0,1:0:0:0:
188,225,22617,2,0,P|269:247|353:257,1,157.500006008148,8|0,1:0|1:0,1:0:0:0:
392,318,22942,2,0,B|438:304|463:286|463:286|499:276,1,105.000004005432,0|0,3:0|3:0,1:0:0:0:
338,172,23266,5,10,1:0:0:0:
216,361,23428,1,0,1:0:0:0:
30,230,23590,6,0,L|12:174,3,52.5000020027161,2|2|2|2,3:2|1:0|1:0|1:0,1:0:0:0:
2,305,23915,2,0,L|21:365,3,52.5000020027161,8|2|2|2,1:0|1:0|1:0|1:0,1:0:0:0:
47,218,24239,6,0,P|81:225|122:230,1,66.4999982242585,2|0,1:2|1:0,1:0:0:0:
254,130,24401,2,0,P|219:128|178:122,1,66.4999982242585,0|0,3:0|1:0,1:0:0:0:
79,113,24563,2,0,P|109:228|145:317,1,199.499994672775,8|0,1:0|1:0,1:0:0:0:
204,352,24888,6,2,B|339:308|339:308|452:380,1,265.999992897034,2|8,3:2|1:0,1:0:0:0:
444,65,25374,2,2,B|296:111|296:111|124:41,1,332.499991121292,2|0,3:2|1:0,1:0:0:0:
210,22,25861,1,10,1:2:0:0:
220,35,26185,6,0,L|248:124,1,78.7500030040742,6|0,3:2|2:0,2:0:0:0:
322,123,26509,6,0,P|259:171|251:263,1,157.500006008148,8|0,2:0|2:0,2:0:0:0:
264,320,26834,5,0,2:0:0:0:
58,237,26996,1,0,3:0:0:0:
168,167,27158,1,8,2:0:0:0:
135,373,27320,2,0,L|122:327,1,35,0|0,2:0|2:0,2:0:0:0:
158,256,27482,6,0,P|205:289|222:342,1,105.000004005432,2|0,3:2|2:0,2:0:0:0:
223,376,27725,1,0,2:0:0:0:
223,376,27806,2,0,L|337:362,1,105.000004005432,10|0,2:0|2:0,2:0:0:0:
498,287,28131,5,0,3:0:0:0:
512,55,28293,1,0,3:0:0:0:
303,144,28455,1,8,2:0:0:0:
303,144,28617,1,0,2:0:0:0:
56,174,28779,5,0,3:0:0:0:
255,211,28942,1,0,2:0:0:0:
214,139,29104,1,8,2:0:0:0:
97,246,29266,1,0,2:0:0:0:
296,280,29428,5,2,1:0:0:0:
314,272,29509,1,2,2:0:0:0:
331,265,29590,1,0,3:0:0:0:
83,261,29752,1,8,2:0:0:0:
197,38,29915,1,2,1:0:0:0:
9,186,30077,5,2,3:2:0:0:
9,186,30158,2,0,L|56:195,2,35,0|0|0,2:0|2:0|2:0,2:0:0:0:
0,306,30401,1,8,2:0:0:0:
46,113,30563,1,0,2:0:0:0:
39,91,30644,1,0,2:0:0:0:
31,69,30725,2,0,L|76:78,1,35,2|0,3:2|2:0,2:0:0:0:
141,41,30888,2,0,L|186:50,1,35,0|0,3:0|2:0,2:0:0:0:
272,16,31050,2,0,P|315:45|428:36,1,157.500006008148,8|0,2:0|2:0,2:0:0:0:
416,63,31374,6,0,B|432:101|432:101|473:104,1,78.7500030040742,4|0,3:0|1:0,1:0:0:0:
507,178,31698,6,0,B|380:172|380:172|326:45,1,262.500010013581,8|2,1:0|1:0,1:0:0:0:
313,66,32185,5,0,3:0:0:0:
225,298,32347,2,0,L|304:266,1,70,8|2,1:0|1:0,1:0:0:0:
476,324,32671,6,0,P|416:319|314:351,1,157.500006008148,0|0,3:0|1:0,1:0:0:0:
244,375,32996,2,0,P|189:310|121:274,1,157.500006008148,8|0,1:0|1:0,1:0:0:0:
38,277,33320,2,0,B|22:243|20:201|20:201|0:163,1,105.000004005432,0|0,3:0|3:0,1:0:0:0:
65,366,33644,5,8,1:0:0:0:
187,188,33806,1,0,1:0:0:0:
369,300,33969,6,0,L|364:365,3,52.5000020027161,2|2|2|2,3:2|1:0|1:0|1:0,1:0:0:0:
447,251,34293,2,0,L|455:188,3,52.5000020027161,8|2|2|2,1:0|1:0|1:0|1:0,1:0:0:0:
356,286,34617,6,0,P|323:281|275:273,1,66.4999982242585,2|0,1:2|1:0,1:0:0:0:
175,175,34779,2,0,P|211:173|240:170,1,66.4999982242585,0|0,3:0|1:0,1:0:0:0:
386,47,34941,2,0,P|294:41|171:29,1,199.499994672775,8|0,1:0|1:0,1:0:0:0:
108,0,35266,5,6,3:0:0:0:
119,257,35428,1,4,3:0:0:0:
308,75,35590,1,4,3:0:0:0:
111,106,35752,6,0,P|183:142|240:139,1,132.999996448517,2|0,3:2|3:0,1:0:0:0:
232,128,35996,1,4,1:2:0:0:
230,116,36077,2,0,L|196:254,1,132.999996448517,8|0,1:3|2:0,1:0:0:0:
123,271,36320,5,8,1:3:0:0:
116,300,36401,1,0,3:0:0:0:
122,329,36482,1,0,3:0:0:0:
191,363,36563,6,0,P|244:357|284:295,1,105,6|0,2:0|2:0,2:0:0:0:
240,250,36888,5,8,2:1:0:0:
240,250,37050,1,8,2:0:0:0:
435,162,37212,1,8,2:0:0:0:
435,162,37374,1,0,3:0:0:0:
407,384,37536,1,8,2:1:0:0:
407,384,37698,1,8,2:0:0:0:
356,130,37861,5,2,3:2:0:0:
311,110,37942,1,0,2:0:0:0:
264,114,38023,1,0,3:0:0:0:
223,137,38104,1,0,2:0:0:0:
200,178,38185,1,8,2:1:0:0:
178,201,38266,1,0,2:0:0:0:
148,210,38347,1,0,2:0:0:0:
116,207,38428,1,0,2:0:0:0:
89,193,38509,6,0,L|96:255,1,52.5000020027161,0|0,2:0|2:0,2:0:0:0:
167,290,38671,1,0,3:0:0:0:
125,91,38834,2,0,P|48:90|-2:153,1,157.500006008148,8|0,2:1|2:0,2:0:0:0:
9,168,39158,6,0,L|137:181,1,105.000004005432,0|0,3:0|2:0,2:0:0:0:
191,194,39401,1,0,2:0:0:0:
217,168,39482,2,0,B|206:143|206:143|203:115,3,52.5000020027161,8|0|0|0,2:1|2:0|2:0|2:0,2:0:0:0:
227,86,39806,5,2,1:0:0:0:
262,95,39888,1,0,2:0:0:0:
298,92,39969,1,0,3:0:0:0:
331,76,40050,1,0,2:0:0:0:
361,55,40131,1,8,2:1:0:0:
413,44,40212,1,0,2:0:0:0:
462,62,40293,1,2,1:0:0:0:
486,108,40374,1,0,2:0:0:0:
483,160,40455,5,2,3:2:0:0:
261,213,40617,1,0,3:0:0:0:
416,356,40779,1,8,2:1:0:0:
370,213,40942,1,2,2:0:0:0:
370,213,41023,1,0,2:0:0:0:
370,213,41104,6,0,L|381:158,3,52.5000020027161,8|0|0|0,2:3|2:0|3:0|2:0,2:0:0:0:
466,236,41428,2,0,L|452:300,3,52.5000020027161,8|0|0|0,2:1|2:0|2:0|2:0,2:0:0:0:
500,152,41752,6,0,P|444:142|396:170,1,105.000004005432,6|0,3:0|1:0,1:0:0:0:
503,372,42077,1,8,1:3:0:0:
470,280,42239,2,0,B|401:274|401:274|327:294|327:294|254:285,1,210.000008010865,8|0,1:3|3:0,1:0:0:0:
91,112,42725,2,0,L|206:96,1,105.000004005432,8|0,1:3|1:0,1:0:0:0:
13,49,43050,5,0,3:0:0:0:
162,195,43212,1,0,3:0:0:0:
13,49,43374,2,0,P|-9:102|34:193,1,157.500006008148,8|2,1:3|1:0,1:0:0:0:
23,204,43698,5,8,1:3:0:0:
143,7,43861,1,0,3:0:0:0:
257,200,44023,2,0,L|244:308,1,105.000004005432,8|8,1:3|1:3,1:0:0:0:
202,125,44347,6,0,P|261:107|320:133,1,105.000004005432,4|0,3:0|1:0,1:0:0:0:
336,256,44671,1,8,1:3:0:0:
257,200,44834,2,0,B|324:209|324:209|389:192|389:192|466:203,1,210.000008010865,8|0,1:3|3:0,1:0:0:0:
244,304,45320,2,0,L|140:289,1,105.000004005432,8|0,1:3|1:0,1:0:0:0:
39,29,45644,5,0,3:0:0:0:
217,0,45807,1,0,3:0:0:0:
39,29,45969,2,0,P|44:88|78:146,1,105.000004005432,8|2,1:3|1:0,1:0:0:0:
80,125,46212,1,2,1:0:0:0:
95,117,46293,2,0,L|75:229,1,105.000004005432,8|0,1:3|3:0,1:0:0:0:
189,199,46618,2,0,P|138:220|73:206,1,105.000004005432,8|0,1:3|1:0,1:0:0:0:
39,29,46942,6,0,L|125:46,1,78.7500030040742,4|0,3:0|2:0,2:0:0:0:
197,61,47266,5,8,2:1:0:0:
197,61,47428,1,8,2:0:0:0:
441,0,47590,1,8,2:0:0:0:
441,0,47752,1,0,3:0:0:0:
388,234,47914,1,8,2:1:0:0:
388,234,48076,1,8,2:0:0:0:
247,122,48239,5,2,3:2:0:0:
292,112,48320,1,0,2:0:0:0:
338,120,48401,1,0,3:0:0:0:
374,149,48482,1,0,2:0:0:0:
399,188,48563,1,8,2:1:0:0:
425,206,48644,1,0,2:0:0:0:
456,206,48725,1,0,2:0:0:0:
485,194,48806,1,0,2:0:0:0:
509,173,48888,6,0,L|502:238,1,52.5000020027161,0|0,2:0|2:0,2:0:0:0:
450,288,49050,1,0,3:0:0:0:
338,120,49212,2,0,P|413:86|432:16,1,157.500006008148,8|0,2:1|2:0,2:0:0:0:
444,30,49536,6,0,L|316:43,1,105.000004005432,0|0,3:0|2:0,2:0:0:0:
267,55,49779,1,0,2:0:0:0:
238,31,49861,2,0,B|210:30|210:30|177:21,3,52.5000020027161,8|0|0|0,2:1|2:0|2:0|2:0,2:0:0:0:
161,50,50185,5,2,1:0:0:0:
150,85,50266,1,0,2:0:0:0:
158,121,50347,1,0,3:0:0:0:
186,145,50428,1,0,2:0:0:0:
221,157,50509,1,8,2:1:0:0:
272,163,50590,1,0,2:0:0:0:
310,199,50671,1,2,1:0:0:0:
316,250,50752,1,0,2:0:0:0:
289,295,50833,5,2,3:2:0:0:
512,194,50995,1,0,3:0:0:0:
355,133,51158,1,8,2:1:0:0:
446,359,51320,1,2,2:0:0:0:
446,359,51401,1,0,2:0:0:0:
446,359,51482,6,0,L|510:351,3,52.5000020027161,8|0|0|0,2:3|2:0|3:0|2:0,2:0:0:0:
422,285,51806,2,0,L|361:293,3,52.5000020027161,8|0|0|0,2:1|2:0|2:0|2:0,2:0:0:0:
469,221,52130,6,0,P|499:260|495:321,1,105.000004005432,6|0,3:0|1:0,1:0:0:0:
332,363,52455,1,8,1:3:0:0:
255,295,52617,2,0,L|263:188,2,105.000004005432,8|2|0,1:3|1:0|3:0,1:0:0:0:
115,67,53104,5,8,1:3:0:0:
38,273,53266,1,0,1:0:0:0:
32,119,53428,6,0,L|36:182,1,52.5000020027161,0|0,3:0|1:0,1:0:0:0:
117,210,53590,2,0,L|113:141,1,52.5000020027161,0|0,3:0|1:0,1:0:0:0:
202,164,53752,1,8,1:3:0:0:
202,164,53833,1,0,1:0:0:0:
202,164,53915,2,0,L|196:104,1,52.5000020027161,2|2,1:0|1:0,1:0:0:0:
96,70,54077,5,8,1:3:0:0:
211,255,54239,1,0,3:0:0:0:
257,45,54401,2,0,B|313:45|313:45|366:68,1,105.000004005432,8|8,1:3|1:3,1:0:0:0:
319,238,54725,6,0,P|288:194|293:142,1,105.000004005432,4|0,3:0|1:0,1:0:0:0:
429,22,55050,1,8,1:3:0:0:
357,64,55212,2,0,B|280:50|280:50|223:66|223:66|136:51,1,210.000008010865,8|0,1:3|3:0,1:0:0:0:
0,269,55698,2,0,L|116:291,1,105.000004005432,8|0,1:3|1:0,1:0:0:0:
305,372,56023,5,0,3:0:0:0:
133,203,56185,1,8,3:0:0:0:
362,151,56347,5,8,2:3:0:0:
281,366,56509,1,0,2:0:0:0:
230,188,56671,5,0,3:0:0:0:
249,193,56752,1,0,3:0:0:0:
269,197,56834,1,0,3:0:0:0:
289,201,56915,1,0,3:0:0:0:
313,207,56996,6,0,B|408:179|408:179|366:173,1,132.999996448517,8|0,1:3|1:0,1:0:0:0:
256,0,57320,5,4,2:1:0:0:
2,181,67698,5,4,3:1:0:0:
67,127,67861,1,0,2:0:0:0:
150,123,68023,1,8,2:1:0:0:
220,169,68185,1,2,2:0:0:0:
220,169,68509,5,8,2:1:0:0:
210,327,68671,1,0,2:0:0:0:
217,335,68752,1,0,2:0:0:0:
224,343,68834,1,8,2:0:0:0:
186,250,69158,1,0,2:0:0:0:
220,169,69482,1,0,2:0:0:0:
324,308,69806,1,8,2:1:0:0:
153,330,69969,1,0,2:0:0:0:
276,240,70292,5,0,3:0:0:0:
363,268,70454,1,0,2:0:0:0:
448,233,70617,1,8,2:1:0:0:
464,152,70779,1,8,2:0:0:0:
461,142,70861,1,0,2:0:0:0:
457,132,70942,1,0,3:0:0:0:
385,175,71104,5,8,2:1:0:0:
512,296,71266,1,0,2:0:0:0:
512,296,71347,1,0,2:0:0:0:
512,296,71428,2,0,L|434:322,1,70,8|0,2:0|3:0,2:0:0:0:
347,336,71752,2,0,L|366:255,1,70,0|8,2:0|2:1,2:0:0:0:
272,214,72077,5,8,2:0:0:0:
262,210,72158,1,0,2:0:0:0:
252,206,72239,1,0,3:0:0:0:
285,73,72401,1,8,2:1:0:0:
385,175,72564,1,8,2:0:0:0:
252,206,72725,1,8,2:0:0:0:
383,87,72888,5,4,3:2:0:0:
307,149,73051,1,0,2:0:0:0:
205,134,73213,1,8,2:1:0:0:
170,48,73375,1,2,2:0:0:0:
175,36,73455,1,0,2:0:0:0:
180,23,73536,1,0,3:0:0:0:
0,79,73698,6,0,L|21:161,1,70,8|0,2:1|2:0,2:0:0:0:
5,223,73942,1,0,2:0:0:0:
5,223,74024,1,8,2:0:0:0:
89,111,74185,1,4,3:2:0:0:
89,111,74347,2,0,L|108:184,1,70,0|8,2:0|2:1,2:0:0:0:
181,216,74672,1,0,2:0:0:0:
183,226,74752,1,0,2:0:0:0:
186,237,74834,1,0,3:0:0:0:
151,51,74996,1,8,2:1:0:0:
330,99,75158,1,0,2:0:0:0:
224,133,75320,1,0,2:0:0:0:
312,5,75482,5,4,3:2:0:0:
406,39,75645,1,0,2:0:0:0:
416,147,75807,1,8,2:1:0:0:
326,200,75969,1,8,2:0:0:0:
327,200,76050,1,0,2:0:0:0:
327,200,76131,1,4,3:2:0:0:
214,63,76293,6,0,L|225:144,1,70,8|0,2:1|2:0,2:0:0:0:
187,203,76536,1,0,2:0:0:0:
187,203,76617,2,0,L|198:282,1,70,8|4,2:0|3:2,2:0:0:0:
141,348,76942,1,0,2:0:0:0:
141,348,77104,1,8,2:1:0:0:
114,141,77266,5,4,3:2:0:0:
114,141,77347,1,0,3:0:0:0:
114,141,77428,1,0,3:0:0:0:
327,200,77590,1,12,2:1:0:0:
141,348,77753,1,8,2:0:0:0:
114,141,77915,1,8,3:2:0:0:
256,192,78077,12,0,79212,3:0:0:0:
40,38,79374,6,0,L|59:131,1,78.7500030040742,6|0,3:0|2:0,2:0:0:0:
6,175,79698,6,0,P|69:138|164:157,1,157.500006008148,8|0,2:0|2:0,2:0:0:0:
202,86,80023,5,0,2:0:0:0:
304,270,80185,1,0,3:0:0:0:
348,155,80346,1,8,2:0:0:0:
157,242,80509,2,0,L|164:283,1,35,0|0,2:0|2:0,2:0:0:0:
109,341,80671,6,0,P|159:360|214:345,1,105,2|0,3:2|2:0,2:0:0:0:
248,329,80915,1,0,2:0:0:0:
248,329,80995,2,0,L|228:210,1,105,10|0,2:0|2:0,2:0:0:0:
285,83,81320,5,0,3:0:0:0:
423,241,81482,1,0,3:0:0:0:
510,42,81644,1,8,2:0:0:0:
510,42,81806,1,0,2:0:0:0:
392,326,81968,5,0,3:0:0:0:
498,197,82131,1,0,2:0:0:0:
423,159,82293,1,8,2:0:0:0:
475,313,82455,1,0,2:0:0:0:
490,26,82617,5,2,1:0:0:0:
487,40,82698,1,2,2:0:0:0:
484,54,82779,1,0,3:0:0:0:
311,232,82941,1,8,2:0:0:0:
219,7,83104,1,2,1:0:0:0:
228,213,83266,5,2,3:2:0:0:
228,213,83347,2,0,L|224:247,2,35,0|0|0,2:0|2:0|2:0,2:0:0:0:
310,25,83590,2,0,P|307:68|299:102,1,70,8|0,2:0|2:0,2:0:0:0:
284,116,83834,1,0,2:0:0:0:
284,116,83915,2,0,L|274:69,1,35,0|0,3:0|2:0,2:0:0:0:
140,49,84077,2,0,L|150:96,1,35,0|0,3:0|2:0,2:0:0:0:
201,140,84239,6,0,P|286:126|353:167,1,157.500006008148,8|0,2:0|2:0,2:0:0:0:
352,173,84563,6,0,B|387:188|387:188|421:161,1,78.7500030040742,6|0,3:0|1:0,1:0:0:0:
502,191,84888,6,0,B|398:274|398:274|277:219,1,262.500010013581,8|2,1:0|1:0,1:0:0:0:
229,288,85374,6,0,L|244:364,2,70,0|8|2,3:0|1:0|1:0,1:0:0:0:
210,42,85861,6,0,P|168:99|80:146,1,157.500006008148,0|0,3:0|1:0,1:0:0:0:
24,193,86185,2,0,P|92:208|169:251,1,157.500006008148,8|0,1:0|1:0,1:0:0:0:
220,310,86509,2,0,B|257:302|304:314|304:314|342:312,1,105.000004005432,0|0,3:0|3:0,1:0:0:0:
106,333,86834,5,10,1:0:0:0:
236,120,86996,1,0,1:0:0:0:
405,295,87158,6,0,L|399:361,3,52.5000020027161,2|2|2|2,3:2|1:0|1:0|1:0,1:0:0:0:
317,291,87482,2,0,L|320:230,3,52.5000020027161,8|2|2|2,1:0|1:0|1:0|1:0,1:0:0:0:
416,313,87806,6,0,P|455:318|498:329,1,66.4999982242585,2|0,1:2|1:0,1:0:0:0:
452,122,87969,2,0,P|416:117|385:110,1,66.4999982242585,0|0,3:0|1:0,1:0:0:0:
221,210,88131,2,0,P|317:225|426:205,1,199.499994672775,8|0,1:0|1:0,1:0:0:0:
493,216,88455,6,2,B|501:84|501:84|385:-8,1,265.999992897034,2|8,3:2|1:0,1:0:0:0:
90,158,88942,2,2,B|109:317|109:317|270:384,1,332.499991121292,2|0,3:2|1:0,1:0:0:0:
338,343,89428,1,10,1:2:0:0:
342,329,89752,6,0,L|315:239,1,78.7500030040742,6|0,3:2|2:0,2:0:0:0:
276,177,90077,2,0,P|338:173|417:109,1,157.500006008148,8|0,2:0|2:0,2:0:0:0:
432,33,90401,5,0,2:0:0:0:
395,235,90563,1,0,3:0:0:0:
494,181,90725,1,8,2:0:0:0:
285,94,90888,2,0,L|298:136,1,35,0|0,2:0|2:0,2:0:0:0:
286,13,91050,6,0,P|231:18|196:54,1,105.000004005432,2|0,3:2|2:0,2:0:0:0:
188,86,91293,1,0,2:0:0:0:
188,86,91374,2,0,L|222:194,1,105.000004005432,10|0,2:0|2:0,2:0:0:0:
362,141,91698,5,0,3:0:0:0:
284,375,91860,1,0,3:0:0:0:
123,204,92023,1,8,2:0:0:0:
123,204,92184,1,0,2:0:0:0:
0,247,92346,5,0,3:0:0:0:
209,226,92509,1,0,2:0:0:0:
162,295,92671,1,8,2:0:0:0:
46,180,92833,1,0,2:0:0:0:
310,224,92995,5,2,1:0:0:0:
300,234,93077,1,2,2:0:0:0:
289,245,93158,1,0,3:0:0:0:
32,166,93320,1,8,2:0:0:0:
241,0,93482,1,2,1:0:0:0:
0,94,93644,5,2,3:2:0:0:
0,94,93725,2,0,L|7:47,2,35,0|0|0,2:0|2:0|2:0,2:0:0:0:
92,217,93969,1,8,2:0:0:0:
125,10,94131,1,0,2:0:0:0:
141,25,94212,1,0,2:0:0:0:
158,39,94293,2,0,L|150:86,1,35,2|0,3:2|2:0,2:0:0:0:
204,138,94455,2,0,L|197:181,1,35,0|0,3:0|2:0,2:0:0:0:
161,290,94617,2,0,P|235:299|291:228,1,157.500006008148,8|0,2:0|2:0,2:0:0:0:
296,260,94942,6,0,B|326:284|326:284|366:274,1,78.7500030040742,4|0,3:0|1:0,1:0:0:0:
432,333,95266,6,0,B|305:362|305:362|203:273,1,262.500010013581,8|2,1:0|1:0,1:0:0:0:
189,285,95752,5,0,3:0:0:0:
260,45,95915,2,0,L|271:133,1,70,8|2,1:0|1:0,1:0:0:0:
2,199,96239,6,0,P|62:170|129:95,1,157.500006008148,0|0,3:0|1:0,1:0:0:0:
195,135,96564,2,0,P|275:141|347:184,1,157.500006008148,8|0,1:0|1:0,1:0:0:0:
391,119,96888,2,0,B|441:113|471:92|471:92|509:88,1,105.000004005432,0|0,3:0|3:0,1:0:0:0:
309,259,97212,5,8,1:0:0:0:
373,36,97374,1,0,1:0:0:0:
505,237,97536,6,0,L|515:304,3,52.5000020027161,2|2|2|2,3:2|1:0|1:0|1:0,1:0:0:0:
443,188,97861,2,0,L|433:130,3,52.5000020027161,8|2|2|2,1:0|1:0|1:0|1:0,1:0:0:0:
491,255,98185,6,0,P|457:260|411:270,1,66.4999982242585,2|0,1:2|1:0,1:0:0:0:
264,160,98347,2,0,P|301:164|340:168,1,66.4999982242585,0|0,3:0|1:0,1:0:0:0:
510,19,98508,2,0,P|422:32|299:52,1,199.499994672775,8|0,1:0|1:0,1:0:0:0:
248,2,98834,5,6,3:0:0:0:
195,252,98995,1,4,3:0:0:0:
3,78,99157,1,4,3:0:0:0:
104,177,99320,6,0,P|119:112|114:37,1,132.999996448517,2|0,3:2|3:0,1:0:0:0:
101,54,99563,1,4,1:2:0:0:
89,59,99644,2,0,L|230:90,1,132.999996448517,8|0,1:3|2:0,1:0:0:0:
263,167,99887,5,8,1:3:0:0:
220,173,99969,1,0,3:0:0:0:
180,164,100050,1,0,3:0:0:0:
119,108,100131,6,0,P|157:79|216:79,1,105,6|0,2:0|2:0,2:0:0:0:
296,88,100455,5,8,2:1:0:0:
296,88,100617,1,8,2:0:0:0:
253,298,100779,1,8,2:0:0:0:
253,298,100941,1,0,3:0:0:0:
467,236,101104,1,8,2:1:0:0:
467,236,101265,1,8,2:0:0:0:
276,164,101428,5,2,3:2:0:0:
247,201,101509,1,0,2:0:0:0:
205,224,101590,1,0,3:0:0:0:
157,220,101671,1,0,2:0:0:0:
113,201,101752,1,8,2:1:0:0:
98,228,101833,1,0,2:0:0:0:
72,244,101914,1,0,2:0:0:0:
41,248,101995,1,0,2:0:0:0:
12,238,102076,6,0,L|16:172,1,52.5000020027161,0|0,2:0|2:0,2:0:0:0:
0,105,102239,1,0,3:0:0:0:
162,143,102401,2,0,P|133:218|140:308,1,157.500006008148,8|0,2:1|2:0,2:0:0:0:
124,306,102725,6,0,L|232:319,1,105.000004005432,0|0,3:0|2:0,2:0:0:0:
305,356,102969,1,0,2:0:0:0:
340,367,103050,2,0,B|364:354|364:354|397:351,3,52.5000020027161,8|0|0|0,2:1|2:0|2:0|2:0,2:0:0:0:
425,343,103374,5,2,1:0:0:0:
433,306,103455,1,0,2:0:0:0:
417,273,103536,1,0,3:0:0:0:
392,245,103617,1,0,2:0:0:0:
355,234,103699,1,8,2:1:0:0:
302,233,103780,1,0,2:0:0:0:
258,203,103861,1,2,1:0:0:0:
236,154,103943,1,0,2:0:0:0:
251,105,104023,5,2,3:2:0:0:
436,216,104185,1,0,3:0:0:0:
435,0,104346,1,8,2:1:0:0:
347,94,104509,1,2,2:0:0:0:
347,94,104590,1,0,2:0:0:0:
347,94,104671,6,0,L|402:104,3,52.5000020027161,8|0|0|0,2:3|2:0|3:0|2:0,2:0:0:0:
321,10,104996,2,0,L|266:0,3,52.5000020027161,8|0|0|0,2:1|2:0|2:0|2:0,2:0:0:0:
419,14,105319,6,0,P|364:22|334:63,1,105.000004005432,6|0,3:0|1:0,1:0:0:0:
509,196,105644,1,8,1:3:0:0:
474,111,105806,2,0,B|414:97|414:97|343:109|343:109|264:94,1,210.000008010865,8|0,1:3|3:0,1:0:0:0:
14,37,106292,2,0,L|128:17,1,105.000004005432,8|0,1:3|1:0,1:0:0:0:
357,137,106617,5,0,3:0:0:0:
182,81,106779,1,0,3:0:0:0:
357,137,106942,2,0,P|301:185|208:166,1,157.500006008148,8|2,1:3|1:0,1:0:0:0:
215,158,107266,5,8,1:3:0:0:
6,243,107428,1,0,3:0:0:0:
187,384,107590,2,0,L|297:363,1,105.000004005432,8|8,1:3|1:3,1:0:0:0:
505,326,107914,6,0,P|452:338|396:314,1,105.000004005432,4|0,3:0|1:0,1:0:0:0:
468,72,108239,1,8,1:3:0:0:
437,153,108401,2,0,L|460:271,2,105.000004005432,8|2|0,1:3|1:0|3:0,1:0:0:0:
238,132,108887,2,0,L|254:24,1,105.000004005432,8|0,1:3|1:0,1:0:0:0:
226,239,109212,5,0,3:0:0:0:
340,47,109374,1,0,3:0:0:0:
114,49,109536,2,0,P|147:92|154:152,1,105.000004005432,8|2,1:3|1:0,1:0:0:0:
148,159,109779,1,2,1:0:0:0:
141,172,109861,2,0,L|244:129,1,105.000004005432,8|0,1:3|3:0,1:0:0:0:
337,165,110185,2,0,P|283:169|238:142,1,105.000004005432,8|0,1:3|1:0,1:0:0:0:
114,49,110509,6,0,L|36:80,1,78.7500030040742,4|0,3:0|2:0,2:0:0:0:
0,147,110833,5,8,2:1:0:0:
0,147,110995,1,8,2:0:0:0:
33,379,111158,1,8,2:0:0:0:
33,379,111319,1,0,3:0:0:0:
236,228,111481,1,8,2:1:0:0:
236,228,111643,1,8,2:0:0:0:
40,78,111806,5,2,3:2:0:0:
75,46,111887,1,0,2:0:0:0:
122,41,111968,1,0,3:0:0:0:
167,57,112049,1,0,2:0:0:0:
195,96,112131,1,8,2:1:0:0:
220,114,112212,1,0,2:0:0:0:
250,120,112293,1,0,2:0:0:0:
280,112,112374,1,0,2:0:0:0:
305,93,112455,6,0,L|302:158,1,52.5000020027161,0|0,2:0|2:0,2:0:0:0:
354,214,112617,1,0,3:0:0:0:
260,6,112779,2,0,P|346:8|396:60,1,157.500006008148,8|0,2:1|2:0,2:0:0:0:
380,49,113104,6,0,L|499:36,1,105.000004005432,0|0,3:0|2:0,2:0:0:0:
507,115,113347,1,0,2:0:0:0:
480,140,113428,2,0,L|469:199,3,52.5000020027161,8|0|0|0,2:1|2:0|2:0|2:0,2:0:0:0:
460,227,113752,5,2,1:0:0:0:
428,247,113834,1,0,2:0:0:0:
391,247,113915,1,0,3:0:0:0:
357,231,113996,1,0,2:0:0:0:
336,201,114077,1,8,2:1:0:0:
296,167,114158,1,0,2:0:0:0:
243,169,114239,1,2,1:0:0:0:
207,208,114321,1,0,2:0:0:0:
204,260,114401,5,2,3:2:0:0:
467,153,114563,1,0,3:0:0:0:
278,69,114725,1,8,2:1:0:0:
394,341,114888,1,2,2:0:0:0:
394,341,114969,1,0,2:0:0:0:
394,341,115050,6,0,L|461:350,3,52.5000020027161,8|0|0|0,2:3|2:0|3:0|2:0,2:0:0:0:
370,257,115374,2,0,L|313:249,3,52.5000020027161,8|0|0|0,2:1|2:0|2:0|2:0,2:0:0:0:
312,354,115698,6,0,P|269:339|202:359,1,105.000004005432,6|0,3:0|1:0,1:0:0:0:
32,198,116023,1,8,1:3:0:0:
2,287,116185,2,0,B|51:305|51:305|115:299,2,105.000004005432,8|2|0,1:3|1:0|3:0,1:0:0:0:
95,45,116671,5,8,1:3:0:0:
248,246,116834,1,0,1:0:0:0:
161,171,116996,6,0,L|172:117,1,52.5000020027161,0|0,3:0|1:0,1:0:0:0:
302,84,117158,2,0,L|291:135,1,52.5000020027161,0|0,3:0|1:0,1:0:0:0:
409,173,117320,1,8,1:3:0:0:
409,173,117401,1,0,1:0:0:0:
409,173,117482,2,0,L|395:240,1,52.5000020027161,2|2,1:0|1:0,1:0:0:0:
243,227,117644,5,8,1:3:0:0:
297,0,117806,1,0,3:0:0:0:
506,134,117968,2,0,P|431:144|384:73,1,157.500006008148,8|0,1:3|1:0,1:0:0:0:
394,68,118293,6,0,L|409:179,1,105.000004005432,4|0,3:0|1:0,1:0:0:0:
486,0,118617,1,8,1:3:0:0:
290,135,118779,1,8,1:3:0:0:
290,135,118861,1,0,1:0:0:0:
290,135,118942,1,2,1:0:0:0:
381,273,119103,5,0,3:0:0:0:
310,47,119266,2,0,L|331:216,1,157.500006008148,8|0,1:3|1:0,1:0:0:0:
271,256,119590,5,0,3:0:0:0:
322,28,119752,1,8,3:0:0:0:
196,189,119914,5,8,2:3:0:0:
412,99,120076,1,0,2:0:0:0:
444,117,120158,1,0,1:0:0:0:
464,147,120239,1,0,3:0:0:0:
473,181,120319,1,4,1:2:0:0:
468,217,120401,1,0,3:0:0:0:
171,283,120562,5,8,1:3:0:0:
113,276,120644,1,0,3:0:0:0:
62,249,120725,1,0,3:0:0:0:
29,203,120806,1,0,3:0:0:0:
30,153,120887,1,4,3:0:0:0:
256,192,120969,12,0,123482,1:0:0:0:
