osu file format v14

[General]
AudioFilename: audio.mp3
AudioLeadIn: 0
PreviewTime: 2592
Countdown: 0
SampleSet: Normal
StackLeniency: 0.7
Mode: 1
LetterboxInBreaks: 0
WidescreenStoryboard: 1

[Editor]
Bookmarks: 136,2943,14171,25399,36627,47855,59083,70311,81539,92767,103995,106802
DistanceSpacing: 1.2
BeatDivisor: 4
GridSize: 32
TimelineZoom: 1.4

[Metadata]
Title:Once in a life
TitleUnicode:Once in a life
Artist:ginkiha
ArtistUnicode:ginkiha
Creator:Hivie
Version:Oni
Source:osu!
Tags:fa featured artist mg mappers' guild j-pop pop japanese XZY CALM LIFE NIZI-RINGO shiki short version
BeatmapID:2351040
BeatmapSetID:1123399

[Difficulty]
HPDrainRate:5.5
CircleSize:3
OverallDifficulty:5.5
ApproachRate:9
SliderMultiplier:1.4
SliderTickRate:1

[Events]
//Background and Video events
0,0,"bg.jpg",0,90
//Break Periods
//Storyboard Layer 0 (Background)
//Storyboard Layer 1 (Fail)
//Storyboard Layer 2 (Pass)
//Storyboard Layer 3 (Foreground)
//Storyboard Layer 4 (Overlay)
//Storyboard Sound Samples

[TimingPoints]
136,350.877192982456,4,1,0,80,1,0
136,-117.647058823529,4,1,0,80,0,0
1890,-111.111111111111,4,1,0,80,0,0
2592,-111.111111111111,4,1,0,80,0,0
2679,-108.167746541336,4,1,0,80,0,0
2767,-105.376298762882,4,1,0,80,0,0
2855,-102.725407794188,4,1,0,80,0,0
2943,-100,4,1,0,100,0,1
14171,-100,4,1,0,100,0,0
14521,-117.647058823529,4,1,0,80,0,0
25399,-111.111111111111,4,1,0,85,0,0
36627,-117.647058823529,4,1,0,80,0,0
47855,-111.111111111111,4,1,0,85,0,0
59083,-117.647058823529,4,1,0,80,0,0
67504,-111.111111111111,4,1,0,85,0,0
68907,-109.762254955766,4,1,0,85,0,0
69083,-108.445755433132,4,1,0,85,0,0
69258,-107.160462075912,4,1,0,85,0,0
69434,-105.905278319071,4,1,0,85,0,0
69609,-104.679158379567,4,1,0,85,0,0
69697,-104.076792020224,4,1,0,85,0,0
69785,-103.481211433846,4,1,0,85,0,0
69960,-102.310268165444,4,1,0,85,0,0
70048,-101.734677994484,4,1,0,85,0,0
70135,-101.165528048648,4,1,0,85,0,0
70223,-100.602710840646,4,1,0,85,0,0
70311,-100,4,1,0,100,0,1
80661,-98.3717507810717,4,1,0,100,0,1
80749,-97.5773495650002,4,1,0,100,0,1
80837,-96.7957696376837,4,1,0,100,0,1
80925,-96.0265186833996,4,1,0,100,0,1
81012,-95.2693980403085,4,1,0,100,0,1
81188,-93.7904178081742,4,1,0,100,0,1
81275,-93.0680150360685,4,1,0,100,0,1
81363,-92.3566555438468,4,1,0,100,0,1
81539,-90.9661514950287,4,1,0,100,0,1
92767,-90.9090909090909,4,1,0,100,0,0
93293,-111.111111111111,4,1,0,85,0,0

[HitObjects]
256,185,136,5,8,0:0:0:0:
256,185,486,1,8,0:0:0:0:
256,185,662,1,0,0:0:0:0:
256,185,837,1,8,0:0:0:0:
256,185,1013,1,0,0:0:0:0:
256,185,1188,1,8,0:0:0:0:
256,185,1276,1,0,0:0:0:0:
256,185,1364,1,0,0:0:0:0:
256,185,1539,1,8,0:0:0:0:
256,185,1890,1,8,0:0:0:0:
256,185,2065,1,0,0:0:0:0:
256,185,2153,1,8,0:0:0:0:
256,185,2241,1,8,0:0:0:0:
256,185,2416,1,0,0:0:0:0:
256,185,2592,1,8,0:0:0:0:
256,185,2679,1,0,0:0:0:0:
256,185,2767,1,8,0:0:0:0:
256,185,2855,1,8,0:0:0:0:
256,185,2943,1,0,0:0:0:0:
256,185,3293,1,8,0:0:0:0:
256,185,3469,1,8,0:0:0:0:
256,185,3557,1,0,0:0:0:0:
256,185,3644,1,0,0:0:0:0:
256,185,3820,1,8,0:0:0:0:
256,185,3995,1,0,0:0:0:0:
256,185,4171,1,8,0:0:0:0:
256,185,4346,1,0,0:0:0:0:
256,185,4697,1,8,0:0:0:0:
256,185,4872,1,8,0:0:0:0:
256,185,4960,1,0,0:0:0:0:
256,185,5048,1,0,0:0:0:0:
256,185,5223,1,8,0:0:0:0:
256,185,5399,1,0,0:0:0:0:
256,185,5574,1,8,0:0:0:0:
256,185,5662,1,8,0:0:0:0:
256,185,5750,1,0,0:0:0:0:
256,185,5925,1,0,0:0:0:0:
256,185,6100,1,8,0:0:0:0:
256,185,6276,1,8,0:0:0:0:
256,185,6627,1,8,0:0:0:0:
256,185,6802,1,0,0:0:0:0:
256,185,6978,1,8,0:0:0:0:
256,185,7153,1,0,0:0:0:0:
256,185,7328,1,0,0:0:0:0:
256,185,7504,1,8,0:0:0:0:
256,185,7679,1,0,0:0:0:0:
256,185,7767,1,0,0:0:0:0:
256,185,7855,1,8,0:0:0:0:
256,185,7943,1,8,0:0:0:0:
256,185,8030,1,0,0:0:0:0:
256,185,8206,1,8,0:0:0:0:
256,185,8293,1,8,0:0:0:0:
256,185,8381,1,0,0:0:0:0:
256,185,8557,1,4,0:0:0:0:
256,185,8907,1,8,0:0:0:0:
256,185,9083,1,8,0:0:0:0:
256,185,9171,1,8,0:0:0:0:
256,185,9258,1,0,0:0:0:0:
256,185,9434,1,8,0:0:0:0:
256,185,9609,1,0,0:0:0:0:
256,185,9785,1,8,0:0:0:0:
256,185,9960,1,0,0:0:0:0:
256,185,10311,1,8,0:0:0:0:
256,185,10486,1,8,0:0:0:0:
256,185,10574,1,8,0:0:0:0:
256,185,10662,1,0,0:0:0:0:
256,185,10837,1,0,0:0:0:0:
256,185,11013,1,8,0:0:0:0:
256,185,11188,1,0,0:0:0:0:
256,185,11276,1,0,0:0:0:0:
256,185,11364,1,8,0:0:0:0:
256,185,11539,1,0,0:0:0:0:
256,185,11714,1,8,0:0:0:0:
256,185,11890,1,8,0:0:0:0:
256,185,12241,1,8,0:0:0:0:
256,185,12328,1,8,0:0:0:0:
256,185,12416,1,0,0:0:0:0:
256,185,12592,1,8,0:0:0:0:
256,185,12767,1,0,0:0:0:0:
256,185,12943,1,0,0:0:0:0:
256,185,13118,1,8,0:0:0:0:
256,185,13293,1,0,0:0:0:0:
256,185,13381,1,0,0:0:0:0:
256,185,13469,1,8,0:0:0:0:
256,185,13557,1,0,0:0:0:0:
256,185,13644,1,8,0:0:0:0:
256,185,13820,1,0,0:0:0:0:
256,185,13907,1,0,0:0:0:0:
256,185,13995,1,8,0:0:0:0:
256,185,14171,1,4,0:0:0:0:
256,185,14521,1,8,0:0:0:0:
256,185,14697,1,0,0:0:0:0:
256,185,14872,1,0,0:0:0:0:
256,185,15048,1,0,0:0:0:0:
256,185,15223,1,8,0:0:0:0:
256,185,15399,1,0,0:0:0:0:
256,185,15750,1,0,0:0:0:0:
256,185,15837,1,0,0:0:0:0:
256,185,15925,1,8,0:0:0:0:
256,185,16100,1,0,0:0:0:0:
256,185,16276,1,8,0:0:0:0:
256,185,16627,1,8,0:0:0:0:
256,185,16802,1,0,0:0:0:0:
256,185,16978,1,8,0:0:0:0:
256,185,17153,1,0,0:0:0:0:
256,185,17328,1,8,0:0:0:0:
256,185,17504,1,8,0:0:0:0:
256,185,17679,1,8,0:0:0:0:
256,185,17855,1,0,0:0:0:0:
256,185,18030,1,8,0:0:0:0:
256,185,18118,1,0,0:0:0:0:
256,185,18206,1,8,0:0:0:0:
256,185,18557,1,0,0:0:0:0:
256,185,18732,1,8,0:0:0:0:
256,185,18907,1,0,0:0:0:0:
256,185,19083,1,0,0:0:0:0:
256,185,19434,1,8,0:0:0:0:
256,185,19785,1,0,0:0:0:0:
256,185,20135,1,8,0:0:0:0:
256,185,20311,1,0,0:0:0:0:
256,185,20486,1,0,0:0:0:0:
256,185,20662,1,0,0:0:0:0:
256,185,20837,1,8,0:0:0:0:
256,185,21013,1,8,0:0:0:0:
256,185,21364,1,0,0:0:0:0:
256,185,21451,1,0,0:0:0:0:
256,185,21539,1,8,0:0:0:0:
256,185,21714,1,0,0:0:0:0:
256,185,21890,1,8,0:0:0:0:
256,185,22241,1,8,0:0:0:0:
256,185,22416,1,0,0:0:0:0:
256,185,22592,1,8,0:0:0:0:
256,185,22767,1,8,0:0:0:0:
256,185,22943,1,0,0:0:0:0:
256,185,23118,1,0,0:0:0:0:
256,185,23293,1,8,0:0:0:0:
256,185,23469,1,8,0:0:0:0:
256,185,23644,1,0,0:0:0:0:
256,185,23732,1,0,0:0:0:0:
256,185,23820,1,8,0:0:0:0:
256,185,24171,1,0,0:0:0:0:
256,185,24346,1,8,0:0:0:0:
256,185,24521,1,0,0:0:0:0:
256,185,24697,1,0,0:0:0:0:
256,185,25048,5,8,0:0:0:0:
256,185,25399,5,4,0:0:0:0:
256,185,25574,1,8,0:0:0:0:
256,185,25750,1,8,0:0:0:0:
256,185,25925,1,0,0:0:0:0:
256,185,26100,1,0,0:0:0:0:
256,185,26276,1,0,0:0:0:0:
256,185,26364,1,0,0:0:0:0:
256,185,26451,1,8,0:0:0:0:
256,185,26627,1,8,0:0:0:0:
256,185,26978,1,0,0:0:0:0:
256,185,27153,1,8,0:0:0:0:
256,185,27328,1,0,0:0:0:0:
256,185,27504,1,8,0:0:0:0:
256,185,27855,1,8,0:0:0:0:
256,185,28030,1,0,0:0:0:0:
256,185,28206,1,8,0:0:0:0:
256,185,28381,1,8,0:0:0:0:
256,185,28469,1,8,0:0:0:0:
256,185,28557,1,0,0:0:0:0:
256,185,28732,1,0,0:0:0:0:
256,185,28907,1,8,0:0:0:0:
256,185,29083,1,0,0:0:0:0:
256,185,29258,1,8,0:0:0:0:
256,185,29346,1,0,0:0:0:0:
256,185,29434,1,8,0:0:0:0:
256,185,29785,1,0,0:0:0:0:
256,185,29960,1,8,0:0:0:0:
256,185,30135,1,0,0:0:0:0:
256,185,30311,1,8,0:0:0:0:
256,185,30399,1,0,0:0:0:0:
256,185,30486,1,0,0:0:0:0:
256,185,30662,1,8,0:0:0:0:
256,185,31013,5,4,0:0:0:0:
256,185,31188,1,8,0:0:0:0:
256,185,31364,1,0,0:0:0:0:
256,185,31539,1,8,0:0:0:0:
256,185,31714,1,0,0:0:0:0:
256,185,31890,1,0,0:0:0:0:
256,185,31978,1,0,0:0:0:0:
256,185,32065,1,8,0:0:0:0:
256,185,32241,1,8,0:0:0:0:
256,185,32592,1,0,0:0:0:0:
256,185,32767,1,8,0:0:0:0:
256,185,32943,1,0,0:0:0:0:
256,185,33118,1,8,0:0:0:0:
256,185,33469,1,8,0:0:0:0:
256,185,33644,1,0,0:0:0:0:
256,185,33820,1,8,0:0:0:0:
256,185,33995,1,8,0:0:0:0:
256,185,34083,1,0,0:0:0:0:
256,185,34171,1,0,0:0:0:0:
256,185,34346,1,0,0:0:0:0:
256,185,34521,1,8,0:0:0:0:
256,185,34697,1,8,0:0:0:0:
256,185,34872,1,0,0:0:0:0:
256,185,34960,1,0,0:0:0:0:
256,185,35048,1,8,0:0:0:0:
256,185,35399,1,0,0:0:0:0:
256,185,35574,1,8,0:0:0:0:
256,185,35750,1,0,0:0:0:0:
256,185,35925,1,8,0:0:0:0:
256,185,36276,1,8,0:0:0:0:
256,185,36627,5,4,0:0:0:0:
256,185,36890,1,0,0:0:0:0:
256,185,37153,1,0,0:0:0:0:
256,185,37328,1,8,0:0:0:0:
256,185,37504,1,0,0:0:0:0:
256,185,37679,1,0,0:0:0:0:
256,185,38030,1,0,0:0:0:0:
256,185,38293,1,8,0:0:0:0:
256,185,38557,1,0,0:0:0:0:
256,185,38644,1,8,0:0:0:0:
256,185,38732,1,8,0:0:0:0:
256,185,38907,1,8,0:0:0:0:
256,185,39083,1,0,0:0:0:0:
256,185,39434,1,8,0:0:0:0:
256,185,39697,1,0,0:0:0:0:
256,185,39960,1,0,0:0:0:0:
256,185,40135,1,8,0:0:0:0:
256,185,40311,1,0,0:0:0:0:
256,185,40486,1,8,0:0:0:0:
256,185,40837,1,0,0:0:0:0:
256,185,41013,1,8,0:0:0:0:
256,185,41100,1,0,0:0:0:0:
256,185,41188,1,0,0:0:0:0:
256,185,41364,1,0,0:0:0:0:
256,185,41539,1,8,0:0:0:0:
256,185,41714,1,8,0:0:0:0:
256,185,41890,1,0,0:0:0:0:
256,185,42241,5,0,0:0:0:0:
256,185,42504,1,0,0:0:0:0:
256,185,42767,1,0,0:0:0:0:
256,185,42943,1,8,0:0:0:0:
256,185,43118,1,0,0:0:0:0:
256,185,43293,1,0,0:0:0:0:
256,185,43644,1,8,0:0:0:0:
256,185,43907,1,0,0:0:0:0:
256,185,44171,1,0,0:0:0:0:
256,185,44258,1,0,0:0:0:0:
256,185,44346,1,8,0:0:0:0:
256,185,44521,1,8,0:0:0:0:
256,185,44697,1,0,0:0:0:0:
256,185,45048,1,8,0:0:0:0:
256,185,45311,1,0,0:0:0:0:
256,185,45574,1,0,0:0:0:0:
256,185,45750,1,8,0:0:0:0:
256,185,45925,1,0,0:0:0:0:
256,185,46100,1,8,0:0:0:0:
256,185,46451,1,0,0:0:0:0:
256,185,46627,1,8,0:0:0:0:
256,185,46714,1,0,0:0:0:0:
256,185,46802,1,0,0:0:0:0:
256,185,46978,1,8,0:0:0:0:
256,185,47153,1,8,0:0:0:0:
256,185,47328,1,8,0:0:0:0:
256,185,47504,5,0,0:0:0:0:
256,185,47855,1,4,0:0:0:0:
256,185,48030,5,8,0:0:0:0:
256,185,48206,1,8,0:0:0:0:
256,185,48381,1,0,0:0:0:0:
256,185,48469,1,0,0:0:0:0:
256,185,48557,1,8,0:0:0:0:
256,185,48732,1,0,0:0:0:0:
256,185,48907,1,8,0:0:0:0:
256,185,49258,1,0,0:0:0:0:
256,185,49434,1,0,0:0:0:0:
256,185,49521,1,0,0:0:0:0:
256,185,49609,1,8,0:0:0:0:
256,185,49785,1,0,0:0:0:0:
256,185,49960,1,8,0:0:0:0:
256,185,50048,1,0,0:0:0:0:
256,185,50135,1,8,0:0:0:0:
256,185,50311,1,0,0:0:0:0:
256,185,50662,1,0,0:0:0:0:
256,185,50837,1,0,0:0:0:0:
256,185,50925,1,0,0:0:0:0:
256,185,51013,1,8,0:0:0:0:
256,185,51188,1,0,0:0:0:0:
256,185,51364,1,8,0:0:0:0:
256,185,51539,1,8,0:0:0:0:
256,185,51714,1,0,0:0:0:0:
256,185,52065,1,8,0:0:0:0:
256,185,52241,1,0,0:0:0:0:
256,185,52328,1,0,0:0:0:0:
256,185,52416,1,8,0:0:0:0:
256,185,52592,1,0,0:0:0:0:
256,185,52767,1,8,0:0:0:0:
256,185,52855,1,8,0:0:0:0:
256,185,52943,1,0,0:0:0:0:
256,185,53118,1,8,0:0:0:0:
256,185,53469,1,4,0:0:0:0:
256,185,53644,5,8,0:0:0:0:
256,185,53820,1,8,0:0:0:0:
256,185,53995,1,0,0:0:0:0:
256,185,54083,1,0,0:0:0:0:
256,185,54171,1,8,0:0:0:0:
256,185,54346,1,0,0:0:0:0:
256,185,54521,1,8,0:0:0:0:
256,185,54872,1,0,0:0:0:0:
256,185,55048,1,0,0:0:0:0:
256,185,55135,1,8,0:0:0:0:
256,185,55223,1,8,0:0:0:0:
256,185,55399,1,0,0:0:0:0:
256,185,55574,1,8,0:0:0:0:
256,185,55662,1,8,0:0:0:0:
256,185,55750,1,0,0:0:0:0:
256,185,55925,1,0,0:0:0:0:
256,185,56276,1,0,0:0:0:0:
256,185,56451,1,0,0:0:0:0:
256,185,56539,1,0,0:0:0:0:
256,185,56627,1,8,0:0:0:0:
256,185,56802,1,0,0:0:0:0:
256,185,56978,1,8,0:0:0:0:
256,185,57153,1,8,0:0:0:0:
256,185,57328,1,0,0:0:0:0:
256,185,57679,5,8,0:0:0:0:
256,185,57855,1,0,0:0:0:0:
256,185,57943,1,0,0:0:0:0:
256,185,58030,1,8,0:0:0:0:
256,185,58206,1,0,0:0:0:0:
256,185,58381,1,8,0:0:0:0:
256,185,58469,1,8,0:0:0:0:
256,185,58557,1,0,0:0:0:0:
256,185,58644,1,0,0:0:0:0:
256,185,58732,1,8,0:0:0:0:
256,185,59083,1,4,0:0:0:0:
256,185,59434,1,8,0:0:0:0:
256,185,59609,1,0,0:0:0:0:
256,185,59785,1,0,0:0:0:0:
256,185,59960,1,8,0:0:0:0:
256,185,60048,1,0,0:0:0:0:
256,185,60135,1,8,0:0:0:0:
256,185,60311,1,8,0:0:0:0:
256,185,60486,1,0,0:0:0:0:
256,185,60837,1,8,0:0:0:0:
256,185,61013,1,8,0:0:0:0:
256,185,61100,1,8,0:0:0:0:
256,185,61188,1,0,0:0:0:0:
256,185,61364,1,0,0:0:0:0:
256,185,61539,1,8,0:0:0:0:
256,185,61714,1,0,0:0:0:0:
256,185,61890,1,0,0:0:0:0:
256,185,62065,1,0,0:0:0:0:
256,185,62153,1,0,0:0:0:0:
256,185,62241,1,8,0:0:0:0:
256,185,62416,1,0,0:0:0:0:
256,185,62767,1,8,0:0:0:0:
256,185,62855,1,8,0:0:0:0:
256,185,62943,1,0,0:0:0:0:
256,185,63118,1,8,0:0:0:0:
256,185,63293,1,0,0:0:0:0:
256,185,63469,1,8,0:0:0:0:
256,185,63820,1,8,0:0:0:0:
256,185,63907,1,8,0:0:0:0:
256,185,63995,1,0,0:0:0:0:
256,185,64171,1,0,0:0:0:0:
256,185,64346,1,8,0:0:0:0:
256,185,64521,1,0,0:0:0:0:
256,185,64697,1,8,0:0:0:0:
256,185,65048,1,8,0:0:0:0:
256,185,65223,1,8,0:0:0:0:
256,185,65399,1,0,0:0:0:0:
256,185,65574,1,8,0:0:0:0:
256,185,65662,1,0,0:0:0:0:
256,185,65750,1,8,0:0:0:0:
256,185,65925,1,8,0:0:0:0:
256,185,66276,1,0,0:0:0:0:
256,185,66451,1,8,0:0:0:0:
256,185,66627,1,8,0:0:0:0:
256,185,66714,1,8,0:0:0:0:
256,185,66802,1,0,0:0:0:0:
256,185,66978,1,0,0:0:0:0:
256,185,67153,1,8,0:0:0:0:
256,185,67328,1,0,0:0:0:0:
256,185,67504,1,12,0:0:0:0:
256,185,67855,1,0,0:0:0:0:
256,185,68030,1,0,0:0:0:0:
256,185,68206,1,8,0:0:0:0:
256,185,68381,1,0,0:0:0:0:
256,185,68469,1,0,0:0:0:0:
256,185,68557,1,8,0:0:0:0:
256,185,68732,1,0,0:0:0:0:
256,185,68907,1,8,0:0:0:0:
256,185,69083,1,0,0:0:0:0:
256,185,69258,1,8,0:0:0:0:
256,185,69434,1,0,0:0:0:0:
256,185,69609,1,8,0:0:0:0:
256,185,69697,1,0,0:0:0:0:
256,185,69785,1,0,0:0:0:0:
256,185,69960,1,8,0:0:0:0:
256,185,70048,1,0,0:0:0:0:
256,185,70135,1,8,0:0:0:0:
256,185,70223,1,8,0:0:0:0:
256,185,70311,1,0,0:0:0:0:
256,185,70662,1,8,0:0:0:0:
256,185,70837,1,8,0:0:0:0:
256,185,70925,1,8,0:0:0:0:
256,185,71013,1,0,0:0:0:0:
256,185,71188,1,8,0:0:0:0:
256,185,71364,1,0,0:0:0:0:
256,185,71539,1,8,0:0:0:0:
256,185,71714,1,0,0:0:0:0:
256,185,72065,1,8,0:0:0:0:
256,185,72241,1,8,0:0:0:0:
256,185,72328,1,8,0:0:0:0:
256,185,72416,1,0,0:0:0:0:
256,185,72592,1,8,0:0:0:0:
256,185,72767,1,0,0:0:0:0:
256,185,72943,1,8,0:0:0:0:
256,185,73030,1,0,0:0:0:0:
256,185,73118,1,0,0:0:0:0:
256,185,73293,1,0,0:0:0:0:
256,185,73469,1,8,0:0:0:0:
256,185,73644,1,8,0:0:0:0:
256,185,73995,1,8,0:0:0:0:
256,185,74171,1,0,0:0:0:0:
256,185,74346,1,8,0:0:0:0:
256,185,74521,1,0,0:0:0:0:
256,185,74697,1,0,0:0:0:0:
256,185,74872,1,8,0:0:0:0:
256,185,75048,1,0,0:0:0:0:
256,185,75135,1,0,0:0:0:0:
256,185,75223,1,8,0:0:0:0:
256,185,75311,1,8,0:0:0:0:
256,185,75399,1,0,0:0:0:0:
256,185,75574,1,8,0:0:0:0:
256,185,75662,1,8,0:0:0:0:
256,185,75750,1,0,0:0:0:0:
256,185,75925,1,4,0:0:0:0:
256,185,76276,1,8,0:0:0:0:
256,185,76451,1,8,0:0:0:0:
256,185,76539,1,8,0:0:0:0:
256,185,76627,1,0,0:0:0:0:
256,185,76802,1,8,0:0:0:0:
256,185,76978,1,0,0:0:0:0:
256,185,77153,1,8,0:0:0:0:
256,185,77328,1,0,0:0:0:0:
256,185,77679,1,8,0:0:0:0:
256,185,77855,1,8,0:0:0:0:
256,185,77943,1,8,0:0:0:0:
256,185,78030,1,0,0:0:0:0:
256,185,78206,1,0,0:0:0:0:
256,185,78381,1,8,0:0:0:0:
256,185,78557,1,0,0:0:0:0:
256,185,78644,1,0,0:0:0:0:
256,185,78732,1,8,0:0:0:0:
256,185,78907,1,0,0:0:0:0:
256,185,79083,1,0,0:0:0:0:
256,185,79258,1,8,0:0:0:0:
256,185,79609,1,8,0:0:0:0:
256,185,79697,1,8,0:0:0:0:
256,185,79785,1,0,0:0:0:0:
256,185,79960,1,8,0:0:0:0:
256,185,80135,1,0,0:0:0:0:
256,185,80311,1,0,0:0:0:0:
256,185,80486,1,8,0:0:0:0:
256,185,80662,1,0,0:0:0:0:
256,185,80750,1,0,0:0:0:0:
256,185,80837,1,8,0:0:0:0:
256,185,80925,1,0,0:0:0:0:
256,185,81013,1,8,0:0:0:0:
256,185,81188,5,0,0:0:0:0:
256,185,81276,1,0,0:0:0:0:
256,185,81364,1,8,0:0:0:0:
256,185,81539,1,4,0:0:0:0:
256,185,81890,1,8,0:0:0:0:
256,185,82065,1,0,0:0:0:0:
256,185,82153,1,8,0:0:0:0:
256,185,82241,1,8,0:0:0:0:
256,185,82416,1,8,0:0:0:0:
256,185,82592,1,0,0:0:0:0:
256,185,82767,1,8,0:0:0:0:
256,185,82943,1,0,0:0:0:0:
256,185,83293,1,8,0:0:0:0:
256,185,83469,1,8,0:0:0:0:
256,185,83557,1,8,0:0:0:0:
256,185,83644,1,0,0:0:0:0:
256,185,83820,1,8,0:0:0:0:
256,185,83995,1,0,0:0:0:0:
256,185,84171,1,8,0:0:0:0:
256,185,84258,1,0,0:0:0:0:
256,185,84346,1,0,0:0:0:0:
256,185,84521,1,0,0:0:0:0:
256,185,84697,1,8,0:0:0:0:
256,185,84872,1,8,0:0:0:0:
256,185,85223,1,8,0:0:0:0:
256,185,85399,1,0,0:0:0:0:
256,185,85574,1,8,0:0:0:0:
256,185,85750,1,0,0:0:0:0:
256,185,85925,1,0,0:0:0:0:
256,185,86100,1,8,0:0:0:0:
256,185,86276,1,0,0:0:0:0:
256,185,86364,1,0,0:0:0:0:
256,185,86451,1,8,0:0:0:0:
256,185,86539,1,8,0:0:0:0:
256,185,86627,1,0,0:0:0:0:
256,185,86802,1,8,0:0:0:0:
256,185,86890,1,8,0:0:0:0:
256,185,86978,1,0,0:0:0:0:
256,185,87153,1,4,0:0:0:0:
256,185,87504,1,8,0:0:0:0:
256,185,87679,1,8,0:0:0:0:
256,185,87767,1,8,0:0:0:0:
256,185,87855,1,0,0:0:0:0:
256,185,88030,1,8,0:0:0:0:
256,185,88206,1,0,0:0:0:0:
256,185,88381,1,8,0:0:0:0:
256,185,88557,1,0,0:0:0:0:
256,185,88907,1,8,0:0:0:0:
256,185,89083,1,8,0:0:0:0:
256,185,89171,1,8,0:0:0:0:
256,185,89258,1,0,0:0:0:0:
256,185,89434,1,0,0:0:0:0:
256,185,89609,1,8,0:0:0:0:
256,185,89785,1,0,0:0:0:0:
256,185,89872,1,0,0:0:0:0:
256,185,89960,1,8,0:0:0:0:
256,185,90135,1,0,0:0:0:0:
256,185,90311,1,8,0:0:0:0:
256,185,90486,1,8,0:0:0:0:
256,185,90837,1,8,0:0:0:0:
256,185,90925,1,8,0:0:0:0:
256,185,91013,1,0,0:0:0:0:
256,185,91188,1,8,0:0:0:0:
256,185,91539,1,0,0:0:0:0:
256,185,91890,1,8,0:0:0:0:
256,185,91978,1,0,0:0:0:0:
256,185,92065,1,8,0:0:0:0:
256,185,92153,1,8,0:0:0:0:
256,185,92241,1,0,0:0:0:0:
256,185,92416,5,8,0:0:0:0:
256,185,92504,1,8,0:0:0:0:
256,185,92592,1,8,0:0:0:0:
256,185,92767,5,4,0:0:0:0:
256,185,93293,1,0,0:0:0:0:
256,185,93469,1,8,0:0:0:0:
256,185,93644,1,8,0:0:0:0:
256,185,93820,1,0,0:0:0:0:
256,185,94171,1,0,0:0:0:0:
256,185,94434,1,0,0:0:0:0:
256,185,94697,1,0,0:0:0:0:
256,185,94785,1,8,0:0:0:0:
256,185,94872,1,8,0:0:0:0:
256,185,95048,1,8,0:0:0:0:
256,185,95223,1,0,0:0:0:0:
256,185,95574,1,8,0:0:0:0:
256,185,95837,1,8,0:0:0:0:
256,185,96100,1,0,0:0:0:0:
256,185,96276,1,8,0:0:0:0:
256,185,96451,1,0,0:0:0:0:
256,185,96627,1,8,0:0:0:0:
256,185,96978,1,0,0:0:0:0:
256,185,97153,1,8,0:0:0:0:
256,185,97241,1,0,0:0:0:0:
256,185,97328,1,0,0:0:0:0:
256,185,97504,1,0,0:0:0:0:
256,185,97679,1,8,0:0:0:0:
256,185,97855,1,8,0:0:0:0:
256,185,98030,1,0,0:0:0:0:
256,185,98381,5,8,0:0:0:0:
256,185,98644,1,0,0:0:0:0:
256,185,98907,1,0,0:0:0:0:
256,185,99083,1,8,0:0:0:0:
256,185,99258,1,8,0:0:0:0:
256,185,99434,1,0,0:0:0:0:
256,185,99785,1,0,0:0:0:0:
256,185,100048,1,0,0:0:0:0:
256,185,100311,1,0,0:0:0:0:
256,185,100399,1,8,0:0:0:0:
256,185,100486,1,8,0:0:0:0:
256,185,100662,1,8,0:0:0:0:
256,185,100837,1,0,0:0:0:0:
256,185,101188,1,8,0:0:0:0:
256,185,101451,1,0,0:0:0:0:
256,185,101714,1,0,0:0:0:0:
256,185,101890,1,8,0:0:0:0:
256,185,102065,1,0,0:0:0:0:
256,185,102241,1,8,0:0:0:0:
256,185,102592,5,8,0:0:0:0:
256,185,102679,1,8,0:0:0:0:
256,185,102767,1,0,0:0:0:0:
256,185,102943,1,0,0:0:0:0:
256,185,103118,1,8,0:0:0:0:
256,185,103293,1,8,0:0:0:0:
256,185,103381,1,0,0:0:0:0:
256,185,103469,1,8,0:0:0:0:
256,185,103557,1,8,0:0:0:0:
256,185,103644,1,0,0:0:0:0:
256,185,103820,1,8,0:0:0:0:
256,185,103907,1,8,0:0:0:0:
