osu file format v14

[General]
AudioFilename: audio.mp3
AudioLeadIn: 2000
PreviewTime: 123483
Countdown: 0
SampleSet: Soft
StackLeniency: 0.2
Mode: 0
LetterboxInBreaks: 0
EpilepsyWarning: 1
WidescreenStoryboard: 1

[Editor]
Bookmarks: 141,11112,22083,33055,44026,54998,65969,76940,87912,98883,101626,112598,123569,134540,145512,147912
DistanceSpacing: 1
BeatDivisor: 4
GridSize: 4
TimelineZoom: 2

[Metadata]
Title:EOS
TitleUnicode:EOS
Artist:ginkiha
ArtistUnicode:ginkiha
Creator:too
Version:PotatoDew's Easy
Source:
Tags:Apis035 KimikaMyMommy HinaMommy PotatoDew KogumaX ponbot rrtyui bof2012 of fighters fa featured artist electronic english instrumental daybreak uk hardcore shade of mythology bms groundbreaking video game SOUND VOLTEX II -infinite infection- happy
BeatmapID:2876932
BeatmapSetID:1284506

[Difficulty]
HPDrainRate:2
CircleSize:2.2
OverallDifficulty:3
ApproachRate:4
SliderMultiplier:0.899999999999999
SliderTickRate:1

[Events]
//Background and Video events
0,0,"bg1.jpg",0,0
//Break Periods
2,77140,86592
//Storyboard Layer 0 (Background)
Sprite,Background,Centre,"bg1.jpg",320,240 F,0,0,,0
//Storyboard Layer 1 (Fail)
//Storyboard Layer 2 (Pass)
//Storyboard Layer 3 (Foreground)
Sprite,Foreground,CentreLeft,"sb/font/0042.png",515,425.5 S,0,3569,,0.5 F,0,3569,3669,0,1 F,0,6798,6998,1,0
Sprite,Foreground,CentreLeft,"sb/font/0065.png",525.5,425.5 S,0,3629,,0.5 F,0,3629,3729,0,1 F,0,6798,6998,1,0
Sprite,Foreground,CentreLeft,"sb/font/0061.png",532,425.5 S,0,3689,,0.5 F,0,3689,3789,0,1 F,0,6798,6998,1,0
Sprite,Foreground,CentreLeft,"sb/font/0074.png",541,425.5 S,0,3749,,0.5 F,0,3749,3849,0,1 F,0,6798,6998,1,0
Sprite,Foreground,CentreLeft,"sb/font/006d.png",548,425.5 S,0,3809,,0.5 F,0,3809,3909,0,1 F,0,6798,6998,1,0
Sprite,Foreground,CentreLeft,"sb/font/0061.png",559.5,425.5 S,0,3869,,0.5 F,0,3869,3969,0,1 F,0,6798,6998,1,0
Sprite,Foreground,CentreLeft,"sb/font/0070.png",568.5,425.5 S,0,3929,,0.5 F,0,3929,4029,0,1 F,0,6798,6998,1,0
Sprite,Foreground,CentreLeft,"sb/font/007c.png",581.5,425.5 S,0,4049,,0.5 F,0,4049,4149,0,1 F,0,6798,6998,1,0
Sprite,Foreground,CentreLeft,"sb/font/0050.png",593.5,425.5 S,0,4169,,0.5 F,0,4169,4269,0,1 F,0,6798,6998,1,0
Sprite,Foreground,CentreLeft,"sb/font/006f.png",603,425.5 S,0,4229,,0.5 F,0,4229,4329,0,1 F,0,6798,6998,1,0
Sprite,Foreground,CentreLeft,"sb/font/0074.png",610.5,425.5 S,0,4289,,0.5 F,0,4289,4389,0,1 F,0,6798,6998,1,0
Sprite,Foreground,CentreLeft,"sb/font/0061.png",617.5,425.5 S,0,4349,,0.5 F,0,4349,4449,0,1 F,0,6798,6998,1,0
Sprite,Foreground,CentreLeft,"sb/font/0074.png",626.5,425.5 S,0,4409,,0.5 F,0,4409,4509,0,1 F,0,6798,6998,1,0
Sprite,Foreground,CentreLeft,"sb/font/006f.png",633.5,425.5 S,0,4469,,0.5 F,0,4469,4569,0,1 F,0,6798,6998,1,0
Sprite,Foreground,CentreLeft,"sb/font/0044.png",641,425.5 S,0,4529,,0.5 F,0,4529,4629,0,1 F,0,6798,6998,1,0
Sprite,Foreground,CentreLeft,"sb/font/0065.png",653,425.5 S,0,4589,,0.5 F,0,4589,4689,0,1 F,0,6798,6998,1,0
Sprite,Foreground,CentreLeft,"sb/font/0077.png",659.5,425.5 S,0,4649,,0.5 F,0,4649,4749,0,1 F,0,6798,6998,1,0
Sprite,Foreground,Centre,"sb/ring.png",0,0 M,0,8369,,252,299 S,19,8369,9395,0.2,0.8 F,4,8369,9395,1,0 P,0,8369,9395,A M,0,9397,,252,299 S,19,9397,10423,0.2,0.8 F,4,9397,10423,1,0 P,0,9397,10423,A M,0,10426,,447,245 S,19,10426,11452,0.2,0.8 F,4,10426,11452,1,0 P,0,10426,11452,A M,0,27569,,225,212 S,19,27569,28595,0.2,0.8 F,4,27569,28595,1,0 P,0,27569,28595,A M,0,28940,,528,246 S,19,28940,29966,0.2,0.8 F,4,28940,29966,1,0 P,0,28940,29966,A M,0,30312,,301,395 S,19,30312,31338,0.2,0.8 F,4,30312,31338,1,0 P,0,30312,31338,A M,0,31683,,196,156 S,19,31683,32709,0.2,0.8 F,4,31683,32709,1,0 P,0,31683,32709,A M,0,44026,,306,258 S,19,44026,45052,0.2,0.8 F,4,44026,45052,1,0 P,0,44026,45052,A M,0,52255,,526,294 S,19,52255,53281,0.2,0.8 F,4,52255,53281,1,0 P,0,52255,53281,A M,0,53626,,323,155 S,19,53626,54652,0.2,0.8 F,4,53626,54652,1,0 P,0,53626,54652,A M,0,54655,,155,255 S,19,54655,55681,0.2,0.8 F,4,54655,55681,1,0 P,0,54655,55681,A
Sprite,Foreground,Centre,"sb/ring.png",0,0 M,0,8883,,235.2938,431.2374 S,19,8883,9909,0.2,0.8 F,4,8883,9909,1,0 P,0,8883,9909,A M,0,10769,,520,193 S,19,10769,11795,0.2,0.8 F,4,10769,11795,1,0 P,0,10769,11795,A M,0,30997,,148.4768,330.1683 S,19,30997,32023,0.2,0.8 F,4,30997,32023,1,0 P,0,30997,32023,A M,0,32026,,281,127 S,19,32026,33052,0.2,0.8 F,4,32026,33052,1,0 P,0,32026,33052,A M,0,54312,,160,166 S,19,54312,55338,0.2,0.8 F,4,54312,55338,1,0 P,0,54312,55338,A
Sprite,Foreground,Centre,"sb/ring.png",0,0 M,0,32369,,365,159 S,19,32369,33395,0.2,0.8 F,4,32369,33395,1,0 P,0,32369,33395,A M,0,87912,,167,108 S,19,87912,88938,0.2,0.8 F,4,87912,88938,1,0 P,0,87912,88938,A M,0,90655,,260,337 S,19,90655,91681,0.2,0.8 F,4,90655,91681,1,0 P,0,90655,91681,A
Sprite,Foreground,Centre,"sb/ring.png",0,0 M,0,93398,,174,424 S,19,93398,94424,0.2,0.8 F,4,93398,94424,1,0 P,0,93398,94424,A M,0,94769,,511,397 S,19,94769,95795,0.2,0.8 F,4,94769,95795,1,0 P,0,94769,95795,A M,0,96140,,485,99 S,19,96140,97166,0.2,0.8 F,4,96140,97166,1,0 P,0,96140,97166,A M,0,97512,,161,177 S,19,97512,98538,0.2,0.8 F,4,97512,98538,1,0 P,0,97512,98538,A M,0,98712,,163,310 S,19,98712,99738,0.2,0.8 F,4,98712,99738,1,0 P,0,98712,99738,A M,0,112598,,437,88 S,19,112598,113624,0.2,0.8 F,4,112598,113624,1,0 P,0,112598,113624,A M,0,120826,,176,393 S,19,120826,121852,0.2,0.8 F,4,120826,121852,1,0 P,0,120826,121852,A M,0,122198,,521,428 S,19,122198,123224,0.2,0.8 F,4,122198,123224,1,0 P,0,122198,123224,A M,0,123226,,544,168 S,19,123226,124252,0.2,0.8 F,4,123226,124252,1,0 P,0,123226,124252,A M,0,145512,,382,272 S,19,145512,147564,0.2,1.2 F,4,145512,147564,1,0 P,0,145512,147564,A
Sprite,Foreground,Centre,"sb/ring.png",0,0 M,0,96826,,319,108 S,19,96826,97852,0.2,0.8 F,4,96826,97852,1,0 P,0,96826,97852,A M,0,98198,,163,310 S,19,98198,99224,0.2,0.8 F,4,98198,99224,1,0 P,0,98198,99224,A M,0,122883,,564,256 S,19,122883,123909,0.2,0.8 F,4,122883,123909,1,0 P,0,122883,123909,A
Sprite,Foreground,Centre,"sb/ring.png",0,0 M,0,98455,,97.25652,323.6723 S,19,98455,99481,0.2,0.8 F,4,98455,99481,1,0 P,0,98455,99481,A
Sprite,Foreground,Centre,"sb/ring.png",0,0 M,0,11454,,435.6482,68.96144 S,19,11454,13506,0.2,1.2 F,4,11454,13506,1,0 P,0,11454,13506,A M,0,22083,,275,342 S,19,22083,24135,0.2,1.2 F,4,22083,24135,1,0 P,0,22083,24135,A M,0,33055,,372,324 S,19,33055,35107,0.2,1.2 F,4,33055,35107,1,0 P,0,33055,35107,A M,0,54998,,218,318 S,19,54998,57050,0.2,1.2 F,4,54998,57050,1,0 P,0,54998,57050,A
Sprite,Foreground,Centre,"sb/ring.png",0,0 M,0,76940,,495,263 S,19,76940,78992,0.2,1.2 F,4,76940,78992,1,0 P,0,76940,78992,A M,0,101626,,403,108 S,19,101626,103678,0.2,1.2 F,4,101626,103678,1,0 P,0,101626,103678,A M,0,123569,,473,112 S,19,123569,125621,0.2,1.2 F,4,123569,125621,1,0 P,0,123569,125621,A
Sprite,Foreground,Centre,"sb/particle.png",0,0 M,7,2198,3098,388,425,359.9877,329.0036 S,7,2198,3098,0.1,0 M,7,4426,5326,399,285,378.582,366.4807 S,7,4426,5326,0.1,0 M,7,7169,8069,130,58,89.26788,144.9304 S,7,7169,8069,0.1,0 M,7,9741,10641,287,216,269.8254,321.6127 S,7,9741,10641,0.1,0 M,7,10769,11669,520,193,448.7454,121.4194 S,7,10769,11669,0.1,0
Sprite,Foreground,Centre,"sb/particle.png",0,0 M,7,2198,3098,388,425,269.6758,437.6638 S,7,2198,3098,0.1,0 M,7,4426,5326,399,285,295.8386,323.1802 S,7,4426,5326,0.1,0 M,7,7169,8069,130,58,179.8428,137.6975 S,7,7169,8069,0.1,0 M,7,9741,10641,287,216,220.0162,283.366 S,7,9741,10641,0.1,0 M,7,10769,11669,520,193,601.3871,203.0065 S,7,10769,11669,0.1,0
Sprite,Foreground,Centre,"sb/particle.png",0,0 M,7,2198,3098,388,425,455.5454,471.4931 S,7,2198,3098,0.1,0 M,7,4426,5326,399,285,422.3403,373.9901 S,7,4426,5326,0.1,0 M,7,7169,8069,130,58,203.6041,138.3955 S,7,7169,8069,0.1,0 M,7,9741,10641,287,216,203.2092,210.0758 S,7,9741,10641,0.1,0 M,7,10769,11669,520,193,569.7072,269.2246 S,7,10769,11669,0.1,0
Sprite,Foreground,Centre,"sb/particle.png",0,0 M,7,2198,3098,388,425,473.0886,451.0948 S,7,2198,3098,0.1,0 M,7,4426,5326,399,285,451.4379,215.5791 S,7,4426,5326,0.1,0 M,7,7169,8069,130,58,202.9935,134.8632 S,7,7169,8069,0.1,0 M,7,9741,10641,287,216,198.0241,213.9273 S,7,9741,10641,0.1,0 M,7,10769,11669,520,193,425.4247,201.9729 S,7,10769,11669,0.1,0
Sprite,Foreground,Centre,"sb/particle.png",0,0 M,7,2198,3098,388,425,272.1657,408.5254 S,7,2198,3098,0.1,0 M,7,4426,5326,399,285,506.7474,325.1932 S,7,4426,5326,0.1,0 M,7,7169,8069,130,58,186.2783,-44.57562 S,7,7169,8069,0.1,0 M,7,9741,10641,287,216,215.9404,177.1217 S,7,9741,10641,0.1,0 M,7,10769,11669,520,193,569.6852,295.603 S,7,10769,11669,0.1,0
Sprite,Foreground,Centre,"sb/particle.png",0,0 M,7,2198,3098,388,425,349.0693,517.1108 S,7,2198,3098,0.1,0 M,7,4426,5326,399,285,327.2736,230.6371 S,7,4426,5326,0.1,0 M,7,7169,8069,130,58,238.6994,84.98951 S,7,7169,8069,0.1,0 M,7,9741,10641,287,216,210.3324,245.0875 S,7,9741,10641,0.1,0 M,7,10769,11669,520,193,439.5011,201.996 S,7,10769,11669,0.1,0
Sprite,Foreground,Centre,"sb/particle.png",0,0 M,7,2198,3098,388,425,470.1842,377.3475 S,7,2198,3098,0.1,0 M,7,4426,5326,399,285,485.7381,260.9895 S,7,4426,5326,0.1,0 M,7,7169,8069,130,58,210.322,144.4429 S,7,7169,8069,0.1,0 M,7,9741,10641,287,216,212.9354,150.308 S,7,9741,10641,0.1,0 M,7,10769,11669,520,193,584.1724,145.2307 S,7,10769,11669,0.1,0
Sprite,Foreground,Centre,"sb/particle.png",0,0 M,7,2198,3098,388,425,351.5583,321.2117 S,7,2198,3098,0.1,0 M,7,4426,5326,399,285,481.2885,210.5043 S,7,4426,5326,0.1,0 M,7,7169,8069,130,58,88.36464,135.5274 S,7,7169,8069,0.1,0 M,7,9741,10641,287,216,374.8455,174.864 S,7,9741,10641,0.1,0 M,7,10769,11669,520,193,590.7209,277.253 S,7,10769,11669,0.1,0
Sprite,Foreground,Centre,"sb/particle.png",0,0 M,7,2540,3440,475.6175,414.8398,486.8587,521.2476 S,7,2540,3440,0.1,0 M,7,4940,5840,268.929,265.7089,365.2186,288.7158 S,7,4940,5840,0.1,0 M,7,7683,8583,110.2225,190.1775,23.83127,179.9035 S,7,7683,8583,0.1,0 M,7,10083,10983,372.4174,195.2183,484.4158,194.6219 S,7,10083,10983,0.1,0
Sprite,Foreground,Centre,"sb/particle.png",0,0 M,7,2540,3440,475.6175,414.8398,497.9269,298.9679 S,7,2540,3440,0.1,0 M,7,4940,5840,268.929,265.7089,384.9095,250.2968 S,7,4940,5840,0.1,0 M,7,7683,8583,110.2225,190.1775,190.1999,192.0807 S,7,7683,8583,0.1,0 M,7,10083,10983,372.4174,195.2183,282.3008,154.2305 S,7,10083,10983,0.1,0
Sprite,Foreground,Centre,"sb/particle.png",0,0 M,7,2540,3440,475.6175,414.8398,497.7392,330.6992 S,7,2540,3440,0.1,0 M,7,4940,5840,268.929,265.7089,269.0995,370.7087 S,7,4940,5840,0.1,0 M,7,7683,8583,110.2225,190.1775,190.5381,211.1158 S,7,7683,8583,0.1,0 M,7,10083,10983,372.4174,195.2183,285.6341,270.6747 S,7,10083,10983,0.1,0
Sprite,Foreground,Centre,"sb/particle.png",0,0 M,7,2540,3440,475.6175,414.8398,494.9551,334.1238 S,7,2540,3440,0.1,0 M,7,4940,5840,268.929,265.7089,249.2202,363.7474 S,7,4940,5840,0.1,0 M,7,7683,8583,110.2225,190.1775,154.4299,118.7513 S,7,7683,8583,0.1,0 M,7,10083,10983,372.4174,195.2183,273.199,182.7399 S,7,10083,10983,0.1,0
Sprite,Foreground,Centre,"sb/particle.png",0,0 M,7,2540,3440,475.6175,414.8398,501.3566,330.6881 S,7,2540,3440,0.1,0 M,7,4940,5840,268.929,265.7089,259.559,171.1721 S,7,4940,5840,0.1,0 M,7,7683,8583,110.2225,190.1775,184.8791,156.26 S,7,7683,8583,0.1,0 M,7,10083,10983,372.4174,195.2183,455.8925,143.8773 S,7,10083,10983,0.1,0
Sprite,Foreground,Centre,"sb/particle.png",0,0 M,7,2540,3440,475.6175,414.8398,500.9602,498.0668 S,7,2540,3440,0.1,0 M,7,4940,5840,268.929,265.7089,315.6809,370.7767 S,7,4940,5840,0.1,0 M,7,7683,8583,110.2225,190.1775,188.1555,260.544 S,7,7683,8583,0.1,0 M,7,10083,10983,372.4174,195.2183,393.0753,292.039 S,7,10083,10983,0.1,0
Sprite,Foreground,Centre,"sb/particle.png",0,0 M,7,2540,3440,475.6175,414.8398,526.0991,347.701 S,7,2540,3440,0.1,0 M,7,4940,5840,268.929,265.7089,334.0439,173.356 S,7,4940,5840,0.1,0 M,7,7683,8583,110.2225,190.1775,96.18638,96.22012 S,7,7683,8583,0.1,0 M,7,10083,10983,372.4174,195.2183,461.8108,262.6929 S,7,10083,10983,0.1,0
Sprite,Foreground,Centre,"sb/particle.png",0,0 M,7,2540,3440,475.6175,414.8398,435.1396,328.8947 S,7,2540,3440,0.1,0 M,7,4940,5840,268.929,265.7089,199.4899,331.9978 S,7,4940,5840,0.1,0 M,7,7683,8583,110.2225,190.1775,189.6319,152.2545 S,7,7683,8583,0.1,0 M,7,10083,10983,372.4174,195.2183,383.6845,282.494 S,7,10083,10983,0.1,0
Sprite,Foreground,Centre,"sb/particle.png",0,0 M,7,5283,6183,210,197,196.3451,313.2004 S,7,5283,6183,0.1,0 M,7,8026,8926,181,245,179.578,349.9904 S,7,8026,8926,0.1,0 M,7,10426,11326,447,245,434.8864,333.1718 S,7,10426,11326,0.1,0
Sprite,Foreground,Centre,"sb/particle.png",0,0 M,7,5283,6183,210,197,236.2427,305.8821 S,7,5283,6183,0.1,0 M,7,8026,8926,181,245,94.1787,201.7442 S,7,8026,8926,0.1,0 M,7,10426,11326,447,245,391.5555,304.05 S,7,10426,11326,0.1,0
Sprite,Foreground,Centre,"sb/particle.png",0,0 M,7,5283,6183,210,197,319.5953,158.9886 S,7,5283,6183,0.1,0 M,7,8026,8926,181,245,150.5858,171.0069 S,7,8026,8926,0.1,0 M,7,10426,11326,447,245,547.6293,253.646 S,7,10426,11326,0.1,0
Sprite,Foreground,Centre,"sb/particle.png",0,0 M,7,5283,6183,210,197,98.82417,163.8951 S,7,5283,6183,0.1,0 M,7,8026,8926,181,245,162.3971,344.272 S,7,8026,8926,0.1,0 M,7,10426,11326,447,245,424.84,162.9395 S,7,10426,11326,0.1,0
Sprite,Foreground,Centre,"sb/particle.png",0,0 M,7,5283,6183,210,197,260.5009,106.0843 S,7,5283,6183,0.1,0 M,7,8026,8926,181,245,215.963,149.1794 S,7,8026,8926,0.1,0 M,7,10426,11326,447,245,508.3415,314.9015 S,7,10426,11326,0.1,0
Sprite,Foreground,Centre,"sb/particle.png",0,0 M,7,5283,6183,210,197,305.5112,132.9484 S,7,5283,6183,0.1,0 M,7,8026,8926,181,245,260.0204,232.5186 S,7,8026,8926,0.1,0 M,7,10426,11326,447,245,508.8121,160.1221 S,7,10426,11326,0.1,0
Sprite,Foreground,Centre,"sb/particle.png",0,0 M,7,5283,6183,210,197,124.3286,145.4209 S,7,5283,6183,0.1,0 M,7,8026,8926,181,245,262.5415,172.6675 S,7,8026,8926,0.1,0 M,7,10426,11326,447,245,365.5907,211.5855 S,7,10426,11326,0.1,0
Sprite,Foreground,Centre,"sb/particle.png",0,0 M,7,5283,6183,210,197,275.8699,273.5647 S,7,5283,6183,0.1,0 M,7,8026,8926,181,245,208.1018,134.2684 S,7,8026,8926,0.1,0 M,7,10426,11326,447,245,527.8357,201.0729 S,7,10426,11326,0.1,0
Sprite,Foreground,Centre,"sb/glow.png",0,0 M,0,54998,,218,318 S,0,54998,55998,1,1.2 F,1,54998,55998,0.3,0 C,0,54998,,252,167,188 P,0,54998,,A M,0,54998,55040,218,318,229.123,319.6853 M,0,55040,55083,229.123,319.6853,240.2461,321.3706 M,0,55083,55126,240.2461,321.3706,251.3691,323.0559 M,0,55126,55169,251.3691,323.0559,262.4922,324.7412 M,0,55169,55212,262.4922,324.7412,273.6152,326.4265 M,0,55212,55255,273.6152,326.4265,284.7383,328.1119 M,0,55255,55297,284.7383,328.1119,295.8614,329.7972 M,0,55297,55340,295.8614,329.7972,306.9844,331.4825 M,0,56369,,534,330 S,0,56369,57369,1,1.2 F,1,56369,57369,0.3,0 C,0,56369,,252,167,188 P,0,56369,,A M,0,56369,56411,534,330,526.9965,338.7807 M,0,56411,56454,526.9965,338.7807,520.8561,348.1759 M,0,56454,56497,520.8561,348.1759,515.3713,357.9819 M,0,56497,56540,515.3713,357.9819,511.3026,368.4494 M,0,56540,56583,511.3026,368.4494,508.2406,379.2467 M,0,56583,56626,508.2406,379.2467,505.9531,390.2434 M,0,56626,56668,505.9531,390.2434,505.188,401.4467 M,0,56668,56711,505.188,401.4467,505.4822,412.6653 M,0,56711,56754,505.4822,412.6653,505.188,401.4467 M,0,56754,56797,505.188,401.4467,505.9531,390.2434 M,0,56797,56840,505.9531,390.2434,508.2406,379.2467 M,0,56840,56883,508.2406,379.2467,511.3026,368.4494 M,0,56883,56926,511.3026,368.4494,515.3713,357.9819 M,0,56926,56968,515.3713,357.9819,520.8561,348.1759 M,0,56968,57011,520.8561,348.1759,526.9965,338.7807 M,0,57011,57054,526.9965,338.7807,534,330 M,0,57398,,558,243 S,0,57398,58398,1,1.2 F,1,57398,58398,0.3,0 C,0,57398,,252,167,188 P,0,57398,,A M,0,58426,,377,150 S,0,58426,59426,1,1.2 F,1,58426,59426,0.3,0 C,0,58426,,130,235,247 P,0,58426,,A M,0,58426,58468,377,150,378.6339,161.1307 M,0,58468,58511,378.6339,161.1307,380.2677,172.2614 M,0,58511,58554,380.2677,172.2614,381.9016,183.3922 M,0,58554,58597,381.9016,183.3922,383.5355,194.5229 M,0,58597,58640,383.5355,194.5229,385.1693,205.6536 M,0,58640,58683,385.1693,205.6536,386.8032,216.7843 M,0,58683,58725,386.8032,216.7843,388.4371,227.9151 M,0,58725,58768,388.4371,227.9151,390.071,239.0458 M,0,60140,,121,241 S,0,60140,61140,1,1.2 F,1,60140,61140,0.3,0 C,0,60140,,130,235,247 P,0,60140,,A M,0,61512,,409,130 S,0,61512,62512,1,1.2 F,1,61512,62512,0.3,0 C,0,61512,,200,200,255 P,0,61512,,A M,0,63226,,364,235 S,0,63226,64226,1,1.2 F,1,63226,64226,0.3,0 C,0,63226,,191,255,223 P,0,63226,,A M,0,63226,63268,364,235,353.3121,231.5695 M,0,63268,63311,353.3121,231.5695,342.3201,229.3514 M,0,63311,63354,342.3201,229.3514,331.1558,228.3706 M,0,63354,63397,331.1558,228.3706,319.9482,228.4342 M,0,63397,63440,319.9482,228.4342,308.8697,230.1829 M,0,63440,63483,308.8697,230.1829,298.0616,233.1514 M,0,63483,63525,298.0616,233.1514,287.5517,237.0642 M,0,63525,63568,287.5517,237.0642,277.7733,242.5625 M,0,64598,,295,429 S,0,64598,65598,1,1.2 F,1,64598,65598,0.3,0 C,0,64598,,191,255,223 P,0,64598,,A M,0,65626,,436,282 S,0,65626,66626,1,1.2 F,1,65626,66626,0.3,0 C,0,65626,,191,255,223 P,0,65626,,A M,0,66655,,239,247 S,0,66655,67655,1,1.2 F,1,66655,67655,0.3,0 C,0,66655,,252,167,188 P,0,66655,,A M,0,66655,66697,239,247,227.7984,246.3963 M,0,66697,66740,227.7984,246.3963,216.625,247.2109 M,0,66740,66783,216.625,247.2109,205.6522,249.4287 M,0,66783,66826,205.6522,249.4287,194.9661,252.775 M,0,66826,66869,194.9661,252.775,185.0079,257.9156 M,0,66869,66912,185.0079,257.9156,175.7872,264.267 M,0,66912,66954,175.7872,264.267,167.2153,271.4906 M,0,66954,66997,167.2153,271.4906,159.9163,280.0291 M,0,68369,,73,245 S,0,68369,69369,1,1.2 F,1,68369,69369,0.3,0 C,0,68369,,252,167,188 P,0,68369,,A M,0,69398,,270,169 S,0,69398,70398,1,1.2 F,1,69398,70398,0.3,0 C,0,69398,,130,235,247 P,0,69398,,A M,0,69398,69440,270,169,281.1561,170.4503 M,0,69440,69483,281.1561,170.4503,292.3123,171.9006 M,0,69483,69526,292.3123,171.9006,303.4684,173.3509 M,0,69526,69569,303.4684,173.3509,314.6245,174.8012 M,0,69569,69612,314.6245,174.8012,325.7806,176.2515 M,0,69612,69655,325.7806,176.2515,336.9368,177.7018 M,0,69655,69697,336.9368,177.7018,348.0929,179.1521 M,0,69697,69740,348.0929,179.1521,359.249,180.6024 M,0,71112,,501,329 S,0,71112,72112,1,1.2 F,1,71112,72112,0.3,0 C,0,71112,,130,235,247 P,0,71112,,A M,0,72483,,230,416 S,0,72483,73483,1,1.2 F,1,72483,73483,0.3,0 C,0,72483,,200,200,255 P,0,72483,,A M,0,73855,,187,295 S,0,73855,74855,1,1.2 F,1,73855,74855,0.3,0 C,0,73855,,200,200,255 P,0,73855,,A M,0,74883,,172,82 S,0,74883,75883,1,1.2 F,1,74883,75883,0.3,0 C,0,74883,,191,255,223 P,0,74883,,A M,0,74883,74925,172,82,183.1151,83.73674 M,0,74925,74968,183.1151,83.73674,194.2303,85.47348 M,0,74968,75011,194.2303,85.47348,205.3454,87.21022 M,0,75011,75054,205.3454,87.21022,216.4605,88.94696 M,0,75054,75097,216.4605,88.94696,227.5757,90.6837 M,0,75097,75140,227.5757,90.6837,238.6908,92.42044 M,0,75140,75182,238.6908,92.42044,249.8059,94.15718 M,0,75182,75225,249.8059,94.15718,260.9211,95.89392 M,0,75912,,397,138 S,0,75912,76912,1,1.2 F,1,75912,76912,0.3,0 C,0,75912,,191,255,223 P,0,75912,,A
Sprite,Foreground,Centre,"sb/glow.png",0,0 M,0,55683,,382,281 S,0,55683,56683,1,1.2 F,1,55683,56683,0.3,0 C,0,55683,,252,167,188 P,0,55683,,A M,0,55683,55725,382,281,392.2167,276.3207 M,0,55725,55768,392.2167,276.3207,402.7666,272.4673 M,0,55768,55811,402.7666,272.4673,413.5854,269.4626 M,0,55811,55854,413.5854,269.4626,424.5804,267.185 M,0,55854,55897,424.5804,267.185,435.7601,266.0955 M,0,55897,55940,435.7601,266.0955,446.9872,265.8951 M,0,55940,55982,446.9872,265.8951,458.2073,266.4053 M,0,55982,56025,458.2073,266.4053,469.3048,268.1497 M,0,57740,,520,161 S,0,57740,58740,1,1.2 F,1,57740,58740,0.3,0 C,0,57740,,130,235,247 P,0,57740,,A M,0,57740,57782,520,161,516.1294,150.4805 M,0,57782,57825,516.1294,150.4805,510.8259,140.6254 M,0,57825,57868,510.8259,140.6254,504.5059,131.3616 M,0,57868,57911,504.5059,131.3616,496.4276,123.5964 M,0,57911,57954,496.4276,123.5964,487.3501,117.0541 M,0,57954,57997,487.3501,117.0541,477.5969,111.5418 M,0,57997,58039,477.5969,111.5418,466.9395,108.0921 M,0,58039,58082,466.9395,108.0921,455.9168,106.1785 M,0,59112,,309,280 S,0,59112,60112,1,1.2 F,1,59112,60112,0.3,0 C,0,59112,,130,235,247 P,0,59112,,A M,0,59112,59154,309,280,299.0072,285.1621 M,0,59154,59197,299.0072,285.1621,289.4704,291.1223 M,0,59197,59240,289.4704,291.1223,280.5766,298.0024 M,0,59240,59283,280.5766,298.0024,272.5751,305.8989 M,0,59283,59326,272.5751,305.8989,265.7771,314.8488 M,0,59326,59369,265.7771,314.8488,260.5014,324.7702 M,0,59369,59411,260.5014,324.7702,256.9683,335.4368 M,0,59411,59454,256.9683,335.4368,255.2235,346.5389 M,0,59454,59497,255.2235,346.5389,251.7553,345.0454 M,0,59497,59540,251.7553,345.0454,245.4465,335.7397 M,0,59540,59583,245.4465,335.7397,238.0204,327.2992 M,0,59583,59626,238.0204,327.2992,229.5894,319.8618 M,0,59626,59669,229.5894,319.8618,220.3227,313.4943 M,0,59669,59711,220.3227,313.4943,210.4053,308.1945 M,0,59711,59754,210.4053,308.1945,200.0105,303.9031 M,0,59754,59797,200.0105,303.9031,189.2818,300.5284 M,0,60483,,148,155 S,0,60483,61483,1,1.2 F,1,60483,61483,0.3,0 C,0,60483,,200,200,255 P,0,60483,,A M,0,61855,,464,200 S,0,61855,62855,1,1.2 F,1,61855,62855,0.3,0 C,0,61855,,200,200,255 P,0,61855,,A M,0,63912,,204,295 S,0,63912,64912,1,1.2 F,1,63912,64912,0.3,0 C,0,63912,,191,255,223 P,0,63912,,A M,0,63912,63954,204,295,205.591,306.1369 M,0,63954,63997,205.591,306.1369,207.182,317.2739 M,0,63997,64040,207.182,317.2739,208.773,328.4108 M,0,64040,64083,208.773,328.4108,210.364,339.5477 M,0,64083,64126,210.364,339.5477,211.955,350.6847 M,0,64126,64169,211.955,350.6847,213.5459,361.8216 M,0,64169,64211,213.5459,361.8216,215.1369,372.9585 M,0,64211,64254,215.1369,372.9585,216.7279,384.0955 M,0,64940,,384,437 S,0,64940,65940,1,1.2 F,1,64940,65940,0.3,0 C,0,64940,,191,255,223 P,0,64940,,A M,0,65969,,378,212 S,0,65969,66969,1,1.2 F,1,65969,66969,0.3,0 C,0,65969,,252,167,188 P,0,65969,,A M,0,65969,66011,378,212,370.5655,203.6019 M,0,66011,66054,370.5655,203.6019,362.1324,196.2279 M,0,66054,66097,362.1324,196.2279,352.977,189.7631 M,0,66097,66140,352.977,189.7631,342.813,185.0369 M,0,66140,66183,342.813,185.0369,332.1393,181.6469 M,0,66183,66226,332.1393,181.6469,321.1541,179.5121 M,0,66226,66268,321.1541,179.5121,309.9537,179.24 M,0,66268,66311,309.9537,179.24,298.7705,180.0848 M,0,67340,,88,335 S,0,67340,68340,1,1.2 F,1,67340,68340,0.3,0 C,0,67340,,252,167,188 P,0,67340,,A M,0,67340,67382,88,335,89.50325,346.1491 M,0,67382,67425,89.50325,346.1491,91.0065,357.2982 M,0,67425,67468,91.0065,357.2982,92.50975,368.4473 M,0,67468,67511,92.50975,368.4473,94.013,379.5965 M,0,67511,67554,94.013,379.5965,95.51626,390.7456 M,0,67554,67597,95.51626,390.7456,97.01951,401.8947 M,0,67597,67639,97.01951,401.8947,98.52276,413.0438 M,0,67639,67682,98.52276,413.0438,100,424 M,0,67682,67725,100,424,98.52276,413.0438 M,0,67725,67768,98.52276,413.0438,97.01951,401.8947 M,0,67768,67811,97.01951,401.8947,95.51626,390.7456 M,0,67811,67854,95.51626,390.7456,94.013,379.5965 M,0,67854,67897,94.013,379.5965,92.50975,368.4473 M,0,67897,67939,92.50975,368.4473,91.0065,357.2982 M,0,67939,67982,91.0065,357.2982,89.50325,346.1491 M,0,67982,68025,89.50325,346.1491,88,335 M,0,68712,,112,163 S,0,68712,69712,1,1.2 F,1,68712,69712,0.3,0 C,0,68712,,130,235,247 P,0,68712,,A M,0,68712,68754,112,163,119.6619,154.7943 M,0,68754,68797,119.6619,154.7943,128.1487,147.4608 M,0,68797,68840,128.1487,147.4608,137.3661,141.079 M,0,68840,68883,137.3661,141.079,147.1479,135.6124 M,0,68883,68926,147.1479,135.6124,157.6044,131.5542 M,0,68926,68969,157.6044,131.5542,168.4296,128.6379 M,0,68969,69011,168.4296,128.6379,179.4788,126.7706 M,0,69011,69054,179.4788,126.7706,190.6909,126.459 M,0,70083,,394,97 S,0,70083,71083,1,1.2 F,1,70083,71083,0.3,0 C,0,70083,,130,235,247 P,0,70083,,A M,0,70083,70125,394,97,395.933,108.0827 M,0,70125,70168,395.933,108.0827,397.8661,119.1654 M,0,70168,70211,397.8661,119.1654,399.7991,130.248 M,0,70211,70254,399.7991,130.248,401.7321,141.3307 M,0,70254,70297,401.7321,141.3307,403.6651,152.4134 M,0,70297,70340,403.6651,152.4134,405.5981,163.4961 M,0,70340,70382,405.5981,163.4961,407.5312,174.5788 M,0,70382,70425,407.5312,174.5788,411.1613,184.621 M,0,70425,70468,411.1613,184.621,417.8187,192.8659 M,0,70468,70511,417.8187,192.8659,420.1493,203.8719 M,0,70511,70554,420.1493,203.8719,422.48,214.8778 M,0,70554,70597,422.48,214.8778,424.8107,225.8837 M,0,70597,70640,424.8107,225.8837,427.1413,236.8896 M,0,70640,70682,427.1413,236.8896,429.472,247.8956 M,0,70682,70725,429.472,247.8956,431.8027,258.9015 M,0,70725,70768,431.8027,258.9015,434.1333,269.9074 M,0,71455,,444,399 S,0,71455,72455,1,1.2 F,1,71455,72455,0.3,0 C,0,71455,,200,200,255 P,0,71455,,A M,0,72826,,148,377 S,0,72826,73826,1,1.2 F,1,72826,73826,0.3,0 C,0,72826,,200,200,255 P,0,72826,,A M,0,72826,72868,148,377,136.7902,377.5046 M,0,72868,72911,136.7902,377.5046,125.7351,379.3484 M,0,72911,72954,125.7351,379.3484,114.9888,382.5036 M,0,72954,72997,114.9888,382.5036,104.5806,386.6619 M,0,72997,73040,104.5806,386.6619,95.01073,392.5058 M,0,73040,73083,95.01073,392.5058,86.21958,399.4496 M,0,73083,73125,86.21958,399.4496,78.03093,407.1295 M,0,73125,73168,78.03093,407.1295,71.21468,416.0613 M,0,73168,73211,71.21468,416.0613,78.03093,407.1295 M,0,73211,73254,78.03093,407.1295,86.21958,399.4496 M,0,73254,73297,86.21958,399.4496,95.01073,392.5058 M,0,73297,73340,95.01073,392.5058,104.5806,386.6619 M,0,73340,73383,104.5806,386.6619,114.9888,382.5036 M,0,73383,73425,114.9888,382.5036,125.7351,379.3484 M,0,73425,73468,125.7351,379.3484,136.7902,377.5046 M,0,73468,73511,136.7902,377.5046,148,377 M,0,74198,,121,233 S,0,74198,75198,1,1.2 F,1,74198,75198,0.3,0 C,0,74198,,191,255,223 P,0,74198,,A M,0,74198,74240,121,233,119.2633,221.8849 M,0,74240,74283,119.2633,221.8849,117.5265,210.7697 M,0,74283,74326,117.5265,210.7697,115.7898,199.6546 M,0,74326,74369,115.7898,199.6546,114.053,188.5395 M,0,74369,74412,114.053,188.5395,112.3163,177.4243 M,0,74412,74455,112.3163,177.4243,110.5796,166.3092 M,0,74455,74497,110.5796,166.3092,108.8428,155.1941 M,0,74497,74540,108.8428,155.1941,107.1061,144.0789 M,0,75569,,346,65 S,0,75569,76569,1,1.2 F,1,75569,76569,0.3,0 C,0,75569,,191,255,223 P,0,75569,,A M,0,76598,,526,179 S,0,76598,77598,1,1.2 F,1,76598,77598,0.3,0 C,0,76598,,191,255,223 P,0,76598,,A
Sprite,Foreground,Centre,"sb/glow.png",0,0 M,0,60826,,231,121 S,0,60826,61826,1,1.2 F,1,60826,61826,0.3,0 C,0,60826,,200,200,255 P,0,60826,,A M,0,60826,60868,231,121,242.0829,122.9319 M,0,60868,60911,242.0829,122.9319,253.1658,124.8638 M,0,60911,60954,253.1658,124.8638,264.2487,126.7956 M,0,60954,60997,264.2487,126.7956,275.3315,128.7275 M,0,60997,61040,275.3315,128.7275,286.4144,130.6594 M,0,61040,61083,286.4144,130.6594,297.4973,132.5913 M,0,61083,61125,297.4973,132.5913,308.5802,134.5232 M,0,61125,61168,308.5802,134.5232,319.6631,136.455 M,0,62198,,439,286 S,0,62198,63198,1,1.2 F,1,62198,63198,0.3,0 C,0,62198,,200,200,255 P,0,62198,,A M,0,62198,62240,439,286,443.3097,296.3875 M,0,62240,62283,443.3097,296.3875,447.1592,306.9523 M,0,62283,62326,447.1592,306.9523,450.6385,317.6459 M,0,62326,62369,450.6385,317.6459,453.4451,328.5353 M,0,62369,62412,453.4451,328.5353,455.7713,339.5361 M,0,62412,62455,455.7713,339.5361,457.6742,350.6174 M,0,62455,62497,457.6742,350.6174,458.9222,361.7926 M,0,62497,62540,458.9222,361.7926,459.8084,373.0047 M,0,62540,62583,459.8084,373.0047,458.9222,361.7926 M,0,62583,62626,458.9222,361.7926,457.6742,350.6174 M,0,62626,62669,457.6742,350.6174,455.7713,339.5361 M,0,62669,62712,455.7713,339.5361,453.4451,328.5353 M,0,62712,62755,453.4451,328.5353,450.6385,317.6459 M,0,62755,62797,450.6385,317.6459,447.1592,306.9523 M,0,62797,62840,447.1592,306.9523,443.3097,296.3875 M,0,62840,62883,443.3097,296.3875,439,286 M,0,65283,,446,372 S,0,65283,66283,1,1.2 F,1,65283,66283,0.3,0 C,0,65283,,191,255,223 P,0,65283,,A M,0,71798,,369,348 S,0,71798,72798,1,1.2 F,1,71798,72798,0.3,0 C,0,71798,,200,200,255 P,0,71798,,A M,0,71798,71840,369,348,358.4716,344.073 M,0,71840,71883,358.4716,344.073,347.6704,340.9937 M,0,71883,71926,347.6704,340.9937,336.6917,338.6127 M,0,71926,71969,336.6917,338.6127,325.5157,337.4702 M,0,71969,72012,325.5157,337.4702,314.2881,337.2165 M,0,72012,72055,314.2881,337.2165,303.0742,337.7641 M,0,72055,72097,303.0742,337.7641,291.9736,339.4788 M,0,72097,72140,291.9736,339.4788,280.9862,341.8483 M,0,76255,,479,103 S,0,76255,77255,1,1.2 F,1,76255,77255,0.3,0 C,0,76255,,191,255,223 P,0,76255,,A
Sprite,Foreground,Centre,"sb/glow.png",0,0 M,0,123569,,473,112 S,0,123569,124569,1,1.2 F,1,123569,124569,0.3,0 C,0,123569,,191,255,223 P,0,123569,,A M,0,123569,123611,473,112,462.6991,107.5232 M,0,123611,123654,462.6991,107.5232,452.0259,104.0528 M,0,123654,123697,452.0259,104.0528,441.0748,101.6185 M,0,123697,123740,441.0748,101.6185,429.9649,100.0454 M,0,123740,123783,429.9649,100.0454,418.74,99.9382 M,0,123783,123826,418.74,99.9382,407.5619,100.9027 M,0,123826,123868,407.5619,100.9027,396.4746,102.6751 M,0,123868,123911,396.4746,102.6751,385.7324,105.9424 M,0,124940,,156,169 S,0,124940,125940,1,1.2 F,1,124940,125940,0.3,0 C,0,124940,,191,255,223 P,0,124940,,A M,0,124940,124982,156,169,144.8545,167.4702 M,0,124982,125025,144.8545,167.4702,133.709,165.9405 M,0,125025,125068,133.709,165.9405,122.5635,164.4107 M,0,125068,125111,122.5635,164.4107,111.418,162.8809 M,0,125111,125154,111.418,162.8809,100.2725,161.3511 M,0,125154,125197,100.2725,161.3511,89.12697,159.8214 M,0,125197,125239,89.12697,159.8214,77.98146,158.2916 M,0,125239,125282,77.98146,158.2916,66.83595,156.7618 M,0,125282,125325,66.83595,156.7618,77.98146,158.2916 M,0,125325,125368,77.98146,158.2916,89.12697,159.8214 M,0,125368,125411,89.12697,159.8214,100.2725,161.3511 M,0,125411,125454,100.2725,161.3511,111.418,162.8809 M,0,125454,125497,111.418,162.8809,122.5635,164.4107 M,0,125497,125539,122.5635,164.4107,133.709,165.9405 M,0,125539,125582,133.709,165.9405,144.8545,167.4702 M,0,125582,125625,144.8545,167.4702,156,169 M,0,125969,,198,248 S,0,125969,126969,1,1.2 F,1,125969,126969,0.3,0 C,0,125969,,191,255,223 P,0,125969,,A M,0,126998,,243,431 S,0,126998,127998,1,1.2 F,1,126998,127998,0.3,0 C,0,126998,,252,167,188 P,0,126998,,A M,0,126998,127040,243,431,254.1588,429.6357 M,0,127040,127083,254.1588,429.6357,265.2076,427.5788 M,0,127083,127126,265.2076,427.5788,276.1434,424.9782 M,0,127126,127169,276.1434,424.9782,286.805,421.4175 M,0,127169,127212,286.805,421.4175,297.2213,417.1997 M,0,127212,127255,297.2213,417.1997,307.3934,412.4247 M,0,127255,127297,307.3934,412.4247,317.1302,406.8109 M,0,127297,127340,317.1302,406.8109,326.6092,400.761 M,0,128712,,231,109 S,0,128712,129712,1,1.2 F,1,128712,129712,0.3,0 C,0,128712,,252,167,188 P,0,128712,,A M,0,130083,,153,317 S,0,130083,131083,1,1.2 F,1,130083,131083,0.3,0 C,0,130083,,130,235,247 P,0,130083,,A M,0,131798,,260,252 S,0,131798,132798,1,1.2 F,1,131798,132798,0.3,0 C,0,131798,,200,200,255 P,0,131798,,A M,0,131798,131840,260,252,254.8979,242.0003 M,0,131840,131883,254.8979,242.0003,250.9156,231.5159 M,0,131883,131926,250.9156,231.5159,248.0969,220.6667 M,0,131926,131969,248.0969,220.6667,246.2932,209.6044 M,0,131969,132012,246.2932,209.6044,246.1178,198.389 M,0,132012,132055,246.1178,198.389,247.1608,187.2275 M,0,132055,132097,247.1608,187.2275,249.1899,176.1995 M,0,132097,132140,249.1899,176.1995,252.8435,165.5925 M,0,133169,,471,182 S,0,133169,134169,1,1.2 F,1,133169,134169,0.3,0 C,0,133169,,200,200,255 P,0,133169,,A M,0,134198,,423,405 S,0,134198,135198,1,1.2 F,1,134198,135198,0.3,0 C,0,134198,,200,200,255 P,0,134198,,A M,0,135226,,188,320 S,0,135226,136226,1,1.2 F,1,135226,136226,0.3,0 C,0,135226,,191,255,223 P,0,135226,,A M,0,135226,135268,188,320,182.4259,310.2482 M,0,135268,135311,182.4259,310.2482,177.7728,300.0328 M,0,135311,135354,177.7728,300.0328,173.888,289.4976 M,0,135354,135397,173.888,289.4976,171.3969,278.5485 M,0,135397,135440,171.3969,278.5485,169.9213,267.4222 M,0,135440,135483,169.9213,267.4222,169.3662,256.2161 M,0,135483,135525,169.3662,256.2161,170.1721,245.0188 M,0,135525,135568,170.1721,245.0188,171.7668,233.8993 M,0,136940,,309,203 S,0,136940,137940,1,1.2 F,1,136940,137940,0.3,0 C,0,136940,,191,255,223 P,0,136940,,A M,0,137969,,489,203 S,0,137969,138969,1,1.2 F,1,137969,138969,0.3,0 C,0,137969,,252,167,188 P,0,137969,,A M,0,137969,138011,489,203,490.6853,214.123 M,0,138011,138054,490.6853,214.123,492.3706,225.2461 M,0,138054,138097,492.3706,225.2461,494.0559,236.3691 M,0,138097,138140,494.0559,236.3691,495.7412,247.4922 M,0,138140,138183,495.7412,247.4922,497.4265,258.6152 M,0,138183,138226,497.4265,258.6152,499.1119,269.7383 M,0,138226,138268,499.1119,269.7383,500.7972,280.8614 M,0,138268,138311,500.7972,280.8614,502.4825,291.9844 M,0,139683,,330,297 S,0,139683,140683,1,1.2 F,1,139683,140683,0.3,0 C,0,139683,,252,167,188 P,0,139683,,A M,0,141055,,153,225 S,0,141055,142055,1,1.2 F,1,141055,142055,0.3,0 C,0,141055,,130,235,247 P,0,141055,,A M,0,142769,,249,408 S,0,142769,143769,1,1.2 F,1,142769,143769,0.3,0 C,0,142769,,200,200,255 P,0,142769,,A M,0,142769,142811,249,408,260.0359,405.8158 M,0,142811,142854,260.0359,405.8158,271.0719,403.6316 M,0,142854,142897,271.0719,403.6316,282.1078,401.4474 M,0,142897,142940,282.1078,401.4474,293.1437,399.2632 M,0,142940,142983,293.1437,399.2632,304.1797,397.079 M,0,142983,143026,304.1797,397.079,315.2156,394.8948 M,0,143026,143068,315.2156,394.8948,326.2515,392.7106 M,0,143068,143111,326.2515,392.7106,337.2875,390.5264 M,0,144140,,566,332 S,0,144140,145140,1,1.2 F,1,144140,145140,0.3,0 C,0,144140,,200,200,255 P,0,144140,,A M,0,145169,,420,191 S,0,145169,146169,1,1.2 F,1,145169,146169,0.3,0 C,0,145169,,200,200,255 P,0,145169,,A
Sprite,Foreground,Centre,"sb/glow.png",0,0 M,0,124255,,299,81 S,0,124255,125255,1,1.2 F,1,124255,125255,0.3,0 C,0,124255,,191,255,223 P,0,124255,,A M,0,124255,124297,299,81,289.7722,87.39449 M,0,124297,124340,289.7722,87.39449,279.9285,92.77234 M,0,124340,124383,279.9285,92.77234,269.6724,97.33904 M,0,124383,124426,269.6724,97.33904,258.8427,100.2866 M,0,124426,124469,258.8427,100.2866,247.7701,102.0708 M,0,124469,124512,247.7701,102.0708,236.5816,102.888 M,0,124512,124554,236.5816,102.888,225.3917,102.0527 M,0,124554,124597,225.3917,102.0527,214.3598,100.0395 M,0,126312,,132,309 S,0,126312,127312,1,1.2 F,1,126312,127312,0.3,0 C,0,126312,,252,167,188 P,0,126312,,A M,0,126312,126354,132,309,133.3642,320.1588 M,0,126354,126397,133.3642,320.1588,135.4212,331.2076 M,0,126397,126440,135.4212,331.2076,138.0218,342.1434 M,0,126440,126483,138.0218,342.1434,141.5825,352.805 M,0,126483,126526,141.5825,352.805,145.8003,363.2213 M,0,126526,126569,145.8003,363.2213,150.5753,373.3934 M,0,126569,126611,150.5753,373.3934,156.1891,383.1302 M,0,126611,126654,156.1891,383.1302,162.2391,392.6092 M,0,127683,,372,323 S,0,127683,128683,1,1.2 F,1,127683,128683,0.3,0 C,0,127683,,252,167,188 P,0,127683,,A M,0,127683,127725,372,323,371.7097,311.7579 M,0,127725,127768,371.7097,311.7579,370.9153,300.5419 M,0,127768,127811,370.9153,300.5419,369.7478,289.3563 M,0,127811,127854,369.7478,289.3563,367.8478,278.2725 M,0,127854,127897,367.8478,278.2725,365.4526,267.2867 M,0,127897,127940,365.4526,267.2867,362.6757,256.3896 M,0,127940,127982,362.6757,256.3896,359.2053,245.6933 M,0,127982,128025,359.2053,245.6933,355.2589,235.1649 M,0,128025,128068,355.2589,235.1649,350.9316,224.7866 M,0,128068,128111,350.9316,224.7866,345.9628,214.6991 M,0,128111,128154,345.9628,214.6991,340.5469,204.8459 M,0,128154,128197,340.5469,204.8459,334.7609,195.2055 M,0,128197,128240,334.7609,195.2055,328.3965,185.9355 M,0,128240,128282,328.3965,185.9355,321.6231,176.9613 M,0,128282,128325,321.6231,176.9613,314.5008,168.2623 M,0,128325,128368,314.5008,168.2623,306.8724,160.0014 M,0,129055,,143,87 S,0,129055,130055,1,1.2 F,1,129055,130055,0.3,0 C,0,129055,,130,235,247 P,0,129055,,A M,0,130426,,218,378 S,0,130426,131426,1,1.2 F,1,130426,131426,0.3,0 C,0,130426,,130,235,247 P,0,130426,,A M,0,132483,,320,106 S,0,132483,133483,1,1.2 F,1,132483,133483,0.3,0 C,0,132483,,200,200,255 P,0,132483,,A M,0,132483,132525,320,106,331.1491,107.5033 M,0,132525,132568,331.1491,107.5033,342.2982,109.0065 M,0,132568,132611,342.2982,109.0065,353.4473,110.5098 M,0,132611,132654,353.4473,110.5098,364.5965,112.013 M,0,132654,132697,364.5965,112.013,375.7456,113.5163 M,0,132697,132740,375.7456,113.5163,386.8947,115.0195 M,0,132740,132782,386.8947,115.0195,398.0438,116.5228 M,0,132782,132825,398.0438,116.5228,409,118 M,0,133512,,424,259 S,0,133512,134512,1,1.2 F,1,133512,134512,0.3,0 C,0,133512,,200,200,255 P,0,133512,,A M,0,134540,,342,365 S,0,134540,135540,1,1.2 F,1,134540,135540,0.3,0 C,0,134540,,191,255,223 P,0,134540,,A M,0,134540,134582,342,365,332.2482,370.5741 M,0,134582,134625,332.2482,370.5741,322.0327,375.2272 M,0,134625,134668,322.0327,375.2272,311.4976,379.112 M,0,134668,134711,311.4976,379.112,300.5485,381.6031 M,0,134711,134754,300.5485,381.6031,289.4222,383.0787 M,0,134754,134797,289.4222,383.0787,278.2161,383.6339 M,0,134797,134839,278.2161,383.6339,267.0188,382.8279 M,0,134839,134882,267.0188,382.8279,255.8993,381.2332 M,0,135912,,229,164 S,0,135912,136912,1,1.2 F,1,135912,136912,0.3,0 C,0,135912,,191,255,223 P,0,135912,,A M,0,135912,135954,229,164,226.5928,153.0106 M,0,135954,135997,226.5928,153.0106,224.1856,142.0211 M,0,135997,136040,224.1856,142.0211,221.7784,131.0317 M,0,136040,136083,221.7784,131.0317,219.3712,120.0422 M,0,136083,136126,219.3712,120.0422,216.9639,109.0528 M,0,136126,136169,216.9639,109.0528,214.5567,98.06335 M,0,136169,136211,214.5567,98.06335,212.1495,87.07391 M,0,136211,136254,212.1495,87.07391,209.7423,76.08447 M,0,136254,136297,209.7423,76.08447,212.1495,87.07391 M,0,136297,136340,212.1495,87.07391,214.5567,98.06335 M,0,136340,136383,214.5567,98.06335,216.9639,109.0528 M,0,136383,136426,216.9639,109.0528,219.3712,120.0422 M,0,136426,136469,219.3712,120.0422,221.7784,131.0317 M,0,136469,136511,221.7784,131.0317,224.1856,142.0211 M,0,136511,136554,224.1856,142.0211,226.5928,153.0106 M,0,136554,136597,226.5928,153.0106,229,164 M,0,137283,,354,125 S,0,137283,138283,1,1.2 F,1,137283,138283,0.3,0 C,0,137283,,252,167,188 P,0,137283,,A M,0,137283,137325,354,125,364.7419,121.704 M,0,137325,137368,364.7419,121.704,375.7115,119.2986 M,0,137368,137411,375.7115,119.2986,386.8157,117.5776 M,0,137411,137454,386.8157,117.5776,398.0433,117.1847 M,0,137454,137497,398.0433,117.1847,409.2604,117.7111 M,0,137497,137540,409.2604,117.7111,420.4208,118.9771 M,0,137540,137582,420.4208,118.9771,431.3637,121.5136 M,0,137582,137625,431.3637,121.5136,442.1413,124.7121 M,0,138655,,564,357 S,0,138655,139655,1,1.2 F,1,138655,139655,0.3,0 C,0,138655,,252,167,188 P,0,138655,,A M,0,138655,138697,564,357,553.8879,352.0866 M,0,138697,138740,553.8879,352.0866,543.2606,348.4196 M,0,138740,138783,543.2606,348.4196,532.2635,346.0869 M,0,138783,138826,532.2635,346.0869,521.0581,345.1938 M,0,138826,138869,521.0581,345.1938,509.8418,345.9107 M,0,138869,138912,509.8418,345.9107,498.8672,348.3308 M,0,138912,138954,498.8672,348.3308,488.366,352.3428 M,0,138954,138997,488.366,352.3428,478.3235,357.4085 M,0,138997,139040,478.3235,357.4085,468.3916,362.6918 M,0,139040,139083,468.3916,362.6918,458.1389,367.3098 M,0,139083,139126,458.1389,367.3098,447.3864,370.5821 M,0,139126,139169,447.3864,370.5821,436.2556,372.1249 M,0,139169,139212,436.2556,372.1249,425.0215,371.8649 M,0,139212,139254,425.0215,371.8649,413.9565,369.8947 M,0,139254,139297,413.9565,369.8947,403.2952,366.3334 M,0,139297,139340,403.2952,366.3334,393.2165,361.3563 M,0,140026,,364,213 S,0,140026,141026,1,1.2 F,1,140026,141026,0.3,0 C,0,140026,,130,235,247 P,0,140026,,A M,0,141398,,209,294 S,0,141398,142398,1,1.2 F,1,141398,142398,0.3,0 C,0,141398,,130,235,247 P,0,141398,,A M,0,143455,,420,425 S,0,143455,144455,1,1.2 F,1,143455,144455,0.3,0 C,0,143455,,200,200,255 P,0,143455,,A M,0,143455,143497,420,425,431.228,425.1685 M,0,143497,143540,431.228,425.1685,442.4069,424.2073 M,0,143540,143583,442.4069,424.2073,453.4277,422.1268 M,0,143583,143626,453.4277,422.1268,464.2148,419.072 M,0,143626,143669,464.2148,419.072,474.5138,414.619 M,0,143669,143712,474.5138,414.619,484.3081,409.1545 M,0,143712,143754,484.3081,409.1545,493.5785,402.8478 M,0,143754,143797,493.5785,402.8478,501.9368,395.3615 M,0,144483,,574,242 S,0,144483,145483,1,1.2 F,1,144483,145483,0.3,0 C,0,144483,,200,200,255 P,0,144483,,A M,0,145512,,382,272 S,0,145512,146512,1,1.2 F,1,145512,146512,0.3,0 C,0,145512,,191,255,223 P,0,145512,,A M,0,145512,145554,382,272,374.2771,280.176 M,0,145554,145597,374.2771,280.176,365.8887,287.6668 M,0,145597,145640,365.8887,287.6668,356.8586,294.3694 M,0,145640,145683,356.8586,294.3694,347.2264,300.1726 M,0,145683,145726,347.2264,300.1726,337.0526,304.9618 M,0,145726,145769,337.0526,304.9618,326.4212,308.6227 M,0,145769,145811,326.4212,308.6227,315.4423,311.0473 M,0,145811,145854,315.4423,311.0473,304.2537,312.1531 M,0,145854,145897,304.2537,312.1531,293.0129,311.9102 M,0,145897,145940,293.0129,311.9102,281.8722,310.3868 M,0,145940,145983,281.8722,310.3868,270.9324,307.7784 M,0,145983,146026,270.9324,307.7784,260.199,304.4128 M,0,146026,146069,260.199,304.4128,249.5717,300.7219 M,0,146069,146111,249.5717,300.7219,238.8929,297.1849 M,0,146111,146154,238.8929,297.1849,228.03,294.27 M,0,146154,146197,228.03,294.27,216.9473,292.3672 M,0,146197,146240,216.9473,292.3672,205.7223,291.7278 M,0,146240,146283,205.7223,291.7278,194.502,292.4448 M,0,146283,146326,194.502,292.4448,183.4449,294.4846 M,0,146326,146369,183.4449,294.4846,172.6824,297.7421 M,0,146369,146411,172.6824,297.7421,162.31,302.0862 M,0,146411,146454,162.31,302.0862,152.3902,307.3846 M,0,146454,146497,152.3902,307.3846,142.9599,313.5133 M,0,146497,146540,142.9599,313.5133,134.0429,320.3681 M,0,146540,146583,134.0429,320.3681,125.6477,327.8534 M,0,146583,146626,125.6477,327.8534,117.7758,335.8878 M,0,146626,146669,117.7758,335.8878,110.4227,344.3999 M,0,146669,146711,110.4227,344.3999,103.5791,353.3269 M,0,146711,146754,103.5791,353.3269,97.23027,362.6126 M,0,146754,146797,97.23027,362.6126,91.36388,372.2106 M,0,146797,146840,91.36388,372.2106,85.96327,381.9218 M,0,146840,146883,85.96327,381.9218,81.42639,371.6288 M,0,146883,146926,81.42639,371.6288,77.48354,361.0941 M,0,146926,146969,77.48354,361.0941,74.18517,350.3405 M,0,146969,147011,74.18517,350.3405,71.59273,339.3956 M,0,147011,147054,71.59273,339.3956,69.78256,328.2948 M,0,147054,147097,69.78256,328.2948,68.84829,317.087 M,0,147097,147140,68.84829,317.087,68.90927,305.8414 M,0,147140,147183,68.90927,305.8414,70.10222,294.6603 M,0,147183,147226,70.10222,294.6603,72.57365,283.6925 M,0,147226,147269,72.57365,283.6925,76.43941,273.1368 M,0,147269,147311,76.43941,273.1368,81.71758,263.212 M,0,147311,147354,81.71758,263.212,88.25573,254.0657 M,0,147354,147397,88.25573,254.0657,95.7279,245.6604 M,0,147397,147440,95.7279,245.6604,103.7097,237.7333 M,0,147440,147483,103.7097,237.7333,111.7577,229.8729 M,0,147483,147526,111.7577,229.8729,119.4372,221.6549 M,0,147526,147569,119.4372,221.6549,126.3373,212.7765 M,0,147569,147611,126.3373,212.7765,132.1266,203.1395 M,0,147611,147654,132.1266,203.1395,136.6123,192.8313 M,0,147654,147697,136.6123,192.8313,139.746,182.0341 M,0,147697,147740,139.746,182.0341,141.5777,170.9405 M,0,147740,147783,141.5777,170.9405,142.1873,159.7123 M,0,147783,147826,142.1873,159.7123,141.6528,148.4796 M,0,147826,147869,141.6528,148.4796,140.0293,137.3519 M,0,147869,147911,140.0293,137.3519,137.3524,126.4295
Sprite,Foreground,Centre,"sb/glow.png",0,0 M,0,129398,,86,156 S,0,129398,130398,1,1.2 F,1,129398,130398,0.3,0 C,0,129398,,130,235,247 P,0,129398,,A M,0,129398,129440,86,156,90.56715,166.2716 M,0,129440,129483,90.56715,166.2716,94.45187,176.8162 M,0,129483,129526,94.45187,176.8162,97.82181,187.5416 M,0,129526,129569,97.82181,187.5416,100.1499,198.5383 M,0,129569,129612,100.1499,198.5383,101.7537,209.6602 M,0,129612,129655,101.7537,209.6602,102.7906,220.8524 M,0,129655,129697,102.7906,220.8524,102.7779,232.092 M,0,129697,129740,102.7779,232.092,102.0307,243.3038 M,0,130769,,297,335 S,0,130769,131769,1,1.2 F,1,130769,131769,0.3,0 C,0,130769,,130,235,247 P,0,130769,,A M,0,130769,130811,297,335,308.0829,336.9319 M,0,130811,130854,308.0829,336.9319,319.1658,338.8638 M,0,130854,130897,319.1658,338.8638,330.2487,340.7956 M,0,130897,130940,330.2487,340.7956,341.3315,342.7275 M,0,130940,130983,341.3315,342.7275,352.4144,344.6594 M,0,130983,131026,352.4144,344.6594,363.4973,346.5913 M,0,131026,131068,363.4973,346.5913,374.5802,348.5232 M,0,131068,131111,374.5802,348.5232,385.6631,350.455 M,0,131111,131154,385.6631,350.455,374.5802,348.5232 M,0,131154,131197,374.5802,348.5232,363.4973,346.5913 M,0,131197,131240,363.4973,346.5913,352.4144,344.6594 M,0,131240,131283,352.4144,344.6594,341.3315,342.7275 M,0,131283,131326,341.3315,342.7275,330.2487,340.7956 M,0,131326,131368,330.2487,340.7956,319.1658,338.8638 M,0,131368,131411,319.1658,338.8638,308.0829,336.9319 M,0,131411,131454,308.0829,336.9319,297,335 M,0,133855,,476,332 S,0,133855,134855,1,1.2 F,1,133855,134855,0.3,0 C,0,133855,,200,200,255 P,0,133855,,A M,0,140369,,304,145 S,0,140369,141369,1,1.2 F,1,140369,141369,0.3,0 C,0,140369,,130,235,247 P,0,140369,,A M,0,140369,140411,304,145,292.8966,146.8103 M,0,140411,140454,292.8966,146.8103,281.7932,148.6207 M,0,140454,140497,281.7932,148.6207,270.6898,150.431 M,0,140497,140540,270.6898,150.431,259.5865,152.2413 M,0,140540,140583,259.5865,152.2413,248.4831,154.0517 M,0,140583,140626,248.4831,154.0517,237.3797,155.862 M,0,140626,140668,237.3797,155.862,226.2763,157.6723 M,0,140668,140711,226.2763,157.6723,215.1729,159.4827 M,0,141740,,167,373 S,0,141740,142740,1,1.2 F,1,141740,142740,0.3,0 C,0,141740,,130,235,247 P,0,141740,,A M,0,141740,141782,167,373,155.9734,375.1943 M,0,141782,141825,155.9734,375.1943,144.8399,376.7371 M,0,141825,141868,144.8399,376.7371,133.6455,377.7863 M,0,141868,141911,133.6455,377.7863,122.4038,377.8754 M,0,141911,141954,122.4038,377.8754,111.1789,377.3045 M,0,141954,141997,111.1789,377.3045,99.99131,376.2086 M,0,141997,142039,99.99131,376.2086,88.93269,374.1897 M,0,142039,142082,88.93269,374.1897,78.01395,371.5256 M,0,142082,142125,78.01395,371.5256,88.93269,374.1897 M,0,142125,142168,88.93269,374.1897,99.99131,376.2086 M,0,142168,142211,99.99131,376.2086,111.1789,377.3045 M,0,142211,142254,111.1789,377.3045,122.4038,377.8754 M,0,142254,142297,122.4038,377.8754,133.6455,377.7863 M,0,142297,142339,133.6455,377.7863,144.8399,376.7371 M,0,142339,142382,144.8399,376.7371,155.9734,375.1943 M,0,142382,142425,155.9734,375.1943,167,373 M,0,144826,,510,178 S,0,144826,145826,1,1.2 F,1,144826,145826,0.3,0 C,0,144826,,200,200,255 P,0,144826,,A
//Storyboard Sound Samples

[TimingPoints]
141,342.857142857,4,2,11,50,1,0
8369,-100,4,2,11,60,0,0
11455,-100,4,2,11,70,0,0
32369,-100,4,2,11,75,0,0
32626,-100,4,2,11,80,0,0
32883,-100,4,2,11,85,0,0
33055,-100,4,2,11,70,0,0
53626,-100,4,2,11,75,0,0
54312,-100,4,2,11,80,0,0
54655,-100,4,2,11,85,0,0
54998,-100,4,2,11,90,0,1
76940,-100,4,2,11,50,0,0
76941,-100,4,2,11,50,0,0
82426,-100,4,2,11,55,0,0
87912,-100,4,2,11,60,0,0
96141,-100,4,2,11,70,0,0
97512,-100,4,2,11,80,0,0
98198,-100,4,2,11,85,0,0
98455,-100,4,2,11,90,0,0
98712,-100,4,2,11,95,0,0
98883,-100,4,2,11,30,0,0
99226,-100,4,2,11,40,0,0
99569,-100,4,2,11,50,0,0
99912,-100,4,2,11,60,0,0
100255,-100,4,2,11,70,0,0
101626,-100,4,2,11,85,0,0
122883,-100,4,2,11,90,0,0
123226,-100,4,2,11,95,0,0
123569,-100,4,2,11,100,0,1
145512,-100,4,2,11,100,0,0
145598,-100,4,2,12,30,0,0
147912,-100,4,2,12,5,0,0

[Colours]
Combo1 : 191,255,223
Combo2 : 252,167,188
Combo3 : 130,235,247
Combo4 : 200,200,255

[HitObjects]
157,157,141,6,0,L|6:141,2,135,6|2|2,3:2|0:0|0:0,0:0:0:0:
324,369,2198,2,0,P|373:371|424:352,1,89.9999999999999,2|10,0:0|0:0,0:0:0:0:
460,283,2883,6,0,L|479:137,2,135,2|2|2,3:2|3:2|0:0,0:0:0:0:
335,229,4426,2,0,P|276:207|193:213,1,135,2|2,0:0|0:0,0:0:0:0:
146,141,5283,1,10,0:0:0:0:
188,61,5626,6,0,L|333:44,2,135,4|2|2,3:1|3:2|3:2,0:0:0:0:
66,2,7169,2,0,P|47:74|48:149,1,135,2|2,3:2|3:2,0:0:0:0:
117,189,8026,1,10,3:2:0:0:
188,243,8369,6,0,B|178:304|178:304|182:311|182:311|170:383,2,135,6|6|6,3:2|3:2|3:2,0:0:0:0:
223,160,9740,2,0,P|271:140|323:142,1,89.9999999999999,2|2,3:2|3:2,0:0:0:0:
383,189,10426,1,6,0:0:0:0:
456,137,10769,1,6,3:2:0:0:
454,46,11112,6,0,P|414:23|353:12,1,89.9999999999999,2|4,0:0|0:0,0:0:0:0:
295,61,11798,2,0,L|187:71,1,89.9999999999999,2|10,3:2|0:0,0:0:0:0:
157,145,12483,2,0,P|175:191|176:244,1,89.9999999999999,2|10,3:2|0:0,0:0:0:0:
228,305,13169,1,2,3:2:0:0:
61,374,13855,6,0,L|74:269,1,89.9999999999999,2|10,3:2|0:0,0:0:0:0:
10,219,14540,2,0,L|-3:114,1,89.9999999999999,2|10,3:2|0:0,0:0:0:0:
66,69,15226,2,0,P|116:52|166:52,1,89.9999999999999,2|10,3:2|0:0,0:0:0:0:
232,94,15912,1,2,3:2:0:0:
303,39,16255,1,10,0:0:0:0:
389,14,16598,6,0,L|400:107,1,89.9999999999999,2|10,3:2|0:0,0:0:0:0:
459,170,17283,2,0,P|442:208|441:260,1,89.9999999999999,2|10,3:2|0:0,0:0:0:0:
389,330,17969,2,0,L|281:317,1,89.9999999999999,2|10,3:2|0:0,0:0:0:0:
237,253,18655,1,2,3:2:0:0:
324,95,19340,6,0,P|275:96|219:75,1,89.9999999999999,2|10,3:2|0:0,0:0:0:0:
151,53,20026,2,0,L|51:66,1,89.9999999999999,2|10,3:2|0:0,0:0:0:0:
7,136,20712,2,0,P|21:195|16:234,1,89.9999999999999,2|10,3:2|0:0,0:0:0:0:
59,304,21398,1,2,3:2:0:0:
140,341,21740,1,10,0:0:0:0:
211,286,22083,6,0,L|307:278,1,89.9999999999999,6|10,0:0|0:0,0:0:0:0:
369,220,22769,2,0,L|465:228,1,89.9999999999999,2|10,3:2|0:0,0:0:0:0:
502,148,23455,2,0,P|506:103|492:47,1,89.9999999999999,0|8,3:2|0:0,0:0:0:0:
422,8,24140,1,0,3:2:0:0:
265,97,24826,6,0,L|279:193,1,89.9999999999999,2|10,3:2|0:0,0:0:0:0:
313,269,25512,2,0,P|310:313|282:357,1,89.9999999999999,2|10,3:2|0:0,0:0:0:0:
199,373,26198,2,0,L|103:359,1,89.9999999999999,2|10,3:2|0:0,0:0:0:0:
49,292,26883,1,2,3:2:0:0:
92,213,27226,1,10,0:0:0:0:
161,156,27569,6,0,L|259:172,1,89.9999999999999,6|10,3:2|0:0,0:0:0:0:
316,109,28255,2,0,L|414:125,1,89.9999999999999,2|10,3:2|0:0,0:0:0:0:
464,190,28940,2,0,P|474:241|462:295,1,89.9999999999999,6|10,3:2|0:0,0:0:0:0:
385,314,29626,2,0,P|352:354|303:379,1,89.9999999999999,2|10,3:2|0:0,0:0:0:0:
237,339,30312,6,0,B|118:324|118:324|81:269,1,180,6|6,3:2|3:2,0:0:0:0:
132,100,31683,1,6,3:2:0:0:
217,71,32026,1,10,3:2:0:0:
301,103,32369,1,14,3:2:0:0:
339,184,32712,1,2,3:2:0:0:
308,268,33055,6,0,P|406:296|473:240,1,180,6|2,3:2|3:2,0:0:0:0:
495,170,34083,1,10,0:0:0:0:
457,88,34426,1,0,3:2:0:0:
287,148,35112,2,0,P|237:139|190:114,1,89.9999999999999,2|8,3:2|0:0,0:0:0:0:
132,64,35798,6,0,B|154:136|154:136|147:179|147:179|163:253,1,180,2|2,3:2|3:2,0:0:0:0:
107,311,36826,1,10,0:0:0:0:
168,376,37169,1,0,3:2:0:0:
326,290,37855,2,0,P|365:279|424:280,1,89.9999999999999,2|8,3:2|0:0,0:0:0:0:
464,204,38540,6,0,B|495:169|494:132|494:132|450:98|464:37,1,180,2|2,3:2|3:2,0:0:0:0:
381,3,39569,1,10,0:0:0:0:
295,32,39912,1,2,3:2:0:0:
147,139,40598,2,0,L|50:124,1,89.9999999999999,2|10,3:2|0:0,0:0:0:0:
3,53,41283,6,0,P|21:128|14:237,1,180,2|2,3:2|3:2,0:0:0:0:
67,303,42312,1,10,0:0:0:0:
154,282,42655,1,2,3:2:0:0:
315,361,43340,1,2,3:2:0:0:
302,271,43683,1,8,0:0:0:0:
242,202,44026,6,0,B|250:132|250:132|241:108|241:108|252:17,1,180,6|2,3:2|3:2,0:0:0:0:
339,7,45055,1,8,0:0:0:0:
415,55,45398,1,2,3:2:0:0:
487,220,46083,2,0,L|479:313,1,89.9999999999999,2|8,3:2|0:0,0:0:0:0:
400,354,46769,6,0,B|291:338|358:279|239:263,1,180,2|2,3:2|3:2,0:0:0:0:
168,299,47798,1,10,0:0:0:0:
114,371,48140,1,0,3:2:0:0:
15,220,48826,2,0,P|25:170|70:142,1,89.9999999999999,2|8,3:2|0:0,0:0:0:0:
134,105,49512,6,0,B|179:81|180:34|180:34|198:82|256:87,1,180,2|2,3:2|3:2,0:0:0:0:
313,152,50540,1,8,0:0:0:0:
277,234,50883,1,0,3:2:0:0:
409,355,51569,2,0,P|460:349|494:316,1,89.9999999999999,2|10,3:2|0:0,0:0:0:0:
462,238,52255,6,0,L|475:144,1,89.9999999999999,6|10,3:2|0:0,0:0:0:0:
427,71,52940,2,0,P|372:70|329:51,1,89.9999999999999,2|10,3:2|0:0,0:0:0:0:
259,99,53626,1,4,3:2:0:0:
175,66,53969,1,10,3:2:0:0:
96,110,54312,1,4,3:2:0:0:
91,199,54655,1,14,3:2:0:0:
154,262,54998,6,0,L|253:277,1,89.9999999999999,4|10,0:0|0:0,0:0:0:0:
318,225,55683,2,0,P|370:210|418:215,1,89.9999999999999,2|10,3:2|0:0,0:0:0:0:
470,274,56369,2,0,P|444:323|444:375,2,89.9999999999999,2|10|2,3:2|0:0|3:2,0:0:0:0:
494,187,57398,1,10,0:0:0:0:
456,105,57740,6,0,P|431:66|374:50,1,89.9999999999999,0|10,3:2|0:0,0:0:0:0:
313,94,58426,2,0,L|329:203,1,89.9999999999999,2|10,3:2|0:0,0:0:0:0:
245,224,59112,2,0,B|192:249|191:295|191:295|169:251|109:241,1,180,2|2,3:2|3:2,0:0:0:0:
57,185,60140,1,10,0:0:0:0:
84,99,60483,5,2,3:2:0:0:
167,65,60826,2,0,L|276:84,1,89.9999999999999,10|2,0:0|3:2,0:0:0:0:
345,74,61512,1,10,0:0:0:0:
400,144,61855,1,2,3:2:0:0:
375,230,62198,2,0,P|392:284|396:333,2,89.9999999999999,8|2|10,0:0|3:2|0:0,0:0:0:0:
300,179,63226,6,0,P|240:175|203:194,1,89.9999999999999,2|10,3:2|0:0,0:0:0:0:
140,239,63912,2,0,L|153:330,1,89.9999999999999,2|10,3:2|0:0,0:0:0:0:
231,373,64598,1,2,3:2:0:0:
320,381,64940,1,10,0:0:0:0:
382,316,65283,1,2,3:2:0:0:
372,226,65626,1,10,0:0:0:0:
314,156,65969,6,0,P|271:126|220:128,1,89.9999999999999,6|10,3:2|0:0,0:0:0:0:
175,191,66655,2,0,P|130:197|93:228,1,89.9999999999999,2|10,3:2|0:0,0:0:0:0:
24,279,67340,2,0,L|36:368,2,89.9999999999999,2|10|2,3:2|0:0|3:2,0:0:0:0:
9,189,68369,1,10,0:0:0:0:
48,107,68712,6,0,P|84:79|138:71,1,89.9999999999999,2|10,3:2|0:0,0:0:0:0:
206,113,69398,2,0,L|306:126,1,89.9999999999999,2|10,3:2|0:0,0:0:0:0:
330,41,70083,2,0,B|345:127|345:127|353:133|353:133|371:218,1,180,2|2,3:2|3:2,0:0:0:0:
437,273,71112,1,10,0:0:0:0:
380,343,71455,5,2,3:2:0:0:
305,292,71798,2,0,P|256:281|210:288,1,89.9999999999999,10|2,0:0|3:2,0:0:0:0:
166,360,72483,1,10,0:0:0:0:
84,321,72826,2,0,P|46:328|4:365,2,89.9999999999999,2|10|2,3:2|0:0|3:2,0:0:0:0:
123,239,73855,1,10,0:0:0:0:
57,177,74198,6,0,L|42:81,1,89.9999999999999,2|10,3:2|0:0,0:0:0:0:
108,26,74883,2,0,L|204:41,1,89.9999999999999,2|10,3:2|0:0,0:0:0:0:
282,9,75569,1,2,3:2:0:0:
333,82,75912,1,10,0:0:0:0:
415,47,76255,1,2,3:2:0:0:
462,123,76598,1,10,0:0:0:0:
431,207,76940,5,6,0:0:0:0:
103,52,87912,6,0,P|174:33|209:35,1,89.9999999999999,6|10,0:0|0:0,0:0:0:0:
265,82,88598,2,0,L|401:105,2,135,2|10|10,0:0|0:0|0:0,0:0:0:0:
207,151,89969,1,2,0:0:0:0:
263,221,90312,1,8,0:3:0:0:
196,281,90655,6,0,P|150:258|91:252,1,89.9999999999999,4|10,0:0|0:0,0:0:0:0:
42,194,91340,2,0,B|21:108|21:108|56:68,2,135,2|2|10,0:0|0:0|0:0,0:0:0:0:
2,275,92712,2,0,P|6:337|24:362,1,89.9999999999999,2|8,0:0|0:3,0:0:0:0:
110,368,93398,6,0,L|214:382,1,89.9999999999999,6|10,3:2|0:0,0:0:0:0:
278,337,94083,2,0,P|330:313|380:314,1,89.9999999999999,2|8,0:0|0:0,0:0:0:0:
447,341,94769,1,4,3:2:0:0:
510,276,95112,1,10,0:0:0:0:
476,192,95455,2,0,L|491:94,1,89.9999999999999,2|8,0:0|0:0,0:0:0:0:
421,43,96140,6,0,P|382:21|321:16,1,89.9999999999999,4|10,0:0|0:0,0:0:0:0:
255,52,96826,2,0,L|148:64,1,89.9999999999999,6|8,0:0|3:2,0:0:0:0:
97,121,97512,5,4,3:2:0:0:
158,186,97855,1,2,3:2:0:0:
99,254,98198,2,0,P|60:265|24:268,2,67.4999999999999,6|6|6,3:2|3:2|3:2,0:0:0:0:
256,192,98883,12,2,100255,1:3:0:0:
339,52,101626,6,0,B|358:148|358:148|331:242,1,180,4|2,3:2|3:2,0:0:0:0:
267,286,102655,1,8,0:0:0:0:
186,246,102998,1,2,3:2:0:0:
276,90,103683,2,0,P|218:60|174:57,1,89.9999999999999,2|8,3:2|0:0,0:0:0:0:
111,19,104369,6,0,P|144:63|50:123,1,180,2|2,3:2|3:2,0:0:0:0:
2,193,105398,1,10,0:0:0:0:
53,266,105740,1,2,3:2:0:0:
202,165,106426,2,0,P|246:177|277:226,1,89.9999999999999,2|10,3:2|0:0,0:0:0:0:
302,295,107112,6,0,B|383:278|383:278|391:269|391:269|480:251,1,180,2|2,3:2|3:2,0:0:0:0:
509,169,108140,1,10,0:0:0:0:
447,103,108483,1,2,3:2:0:0:
268,129,109169,2,0,P|237:177|234:224,1,89.9999999999999,2|10,3:2|0:0,0:0:0:0:
168,272,109855,6,0,B|117:270|91:314|91:314|98:263|55:229,1,180,2|2,3:2|3:2,0:0:0:0:
13,159,110883,1,10,0:0:0:0:
52,78,111226,1,2,3:2:0:0:
221,18,111912,1,0,3:2:0:0:
292,72,112255,1,10,3:2:0:0:
373,32,112598,6,0,B|417:7|456:32|456:32|486:84|433:124,1,180,6|2,3:2|3:2,0:0:0:0:
382,181,113626,1,8,3:2:0:0:
437,251,113969,1,0,3:2:0:0:
296,363,114655,2,0,P|251:337|206:326,1,89.9999999999999,2|8,3:2|3:2,0:0:0:0:
127,350,115340,6,0,B|173:308|173:308|148:181,1,180,2|2,3:2|3:2,0:0:0:0:
216,130,116369,1,8,3:2:0:0:
293,175,116712,1,0,3:2:0:0:
439,280,117398,2,0,P|424:239|432:181,1,89.9999999999999,2|10,3:2|3:2,0:0:0:0:
474,116,118083,6,0,P|452:63|327:37,1,180,2|2,3:2|3:2,0:0:0:0:
264,76,119112,1,10,3:2:0:0:
183,35,119455,1,2,3:2:0:0:
61,167,120140,2,0,P|73:209|73:267,1,89.9999999999999,2|10,3:2|3:2,0:0:0:0:
112,337,120826,6,0,L|212:355,1,89.9999999999999,6|10,3:2|3:2,0:0:0:0:
281,313,121512,2,0,L|381:331,1,89.9999999999999,2|10,3:2|3:2,0:0:0:0:
457,372,122198,5,6,3:2:0:0:
494,290,122540,1,10,3:2:0:0:
500,200,122883,1,6,3:2:0:0:
480,112,123226,1,14,3:2:0:0:
409,56,123569,6,0,P|367:44|309:55,1,89.9999999999999,6|10,3:2|3:2,0:0:0:0:
235,25,124255,2,0,P|174:47|134:39,1,89.9999999999999,2|10,3:2|3:2,0:0:0:0:
92,113,124940,2,0,L|-10:99,2,89.9999999999999,2|10|2,3:2|3:2|3:2,0:0:0:0:
134,192,125969,1,10,3:2:0:0:
68,253,126312,6,0,P|79:301|103:343,1,89.9999999999999,2|10,3:2|3:2,0:0:0:0:
179,375,126998,2,0,P|227:364|269:340,1,89.9999999999999,2|10,3:2|3:2,0:0:0:0:
308,267,127683,2,0,P|300:205|235:96,1,180,2|2,3:2|3:2,0:0:0:0:
167,53,128712,1,10,3:2:0:0:
79,31,129055,5,2,3:2:0:0:
22,100,129398,2,0,P|36:141|37:197,1,89.9999999999999,10|2,3:2|3:2,0:0:0:0:
89,261,130083,1,10,3:2:0:0:
154,322,130426,1,2,3:2:0:0:
233,279,130769,2,0,L|342:298,2,89.9999999999999,10|2|10,3:2|3:2|3:2,0:0:0:0:
196,196,131798,6,0,P|182:152|194:98,1,89.9999999999999,2|10,3:2|3:2,0:0:0:0:
256,50,132483,2,0,L|345:62,1,89.9999999999999,2|10,3:2|3:2,0:0:0:0:
407,126,133169,1,2,3:2:0:0:
360,203,133512,1,10,3:2:0:0:
412,276,133855,1,2,3:2:0:0:
359,349,134198,1,10,3:2:0:0:
278,309,134540,6,0,P|229:327|177:321,1,89.9999999999999,6|10,3:2|3:2,0:0:0:0:
124,264,135226,2,0,P|106:215|112:163,1,89.9999999999999,2|10,3:2|3:2,0:0:0:0:
165,108,135912,2,0,L|142:3,2,89.9999999999999,2|10|2,3:2|3:2|3:2,0:0:0:0:
245,147,136940,1,10,3:2:0:0:
290,69,137283,6,0,P|334:61|379:69,1,89.9999999999999,0|10,3:2|3:2,0:0:0:0:
425,147,137969,2,0,L|440:246,1,89.9999999999999,2|10,3:2|3:2,0:0:0:0:
500,301,138655,2,0,B|454:275|406:292|420:310|370:336|321:300,1,180,2|2,3:2|3:2,0:0:0:0:
266,241,139683,1,10,3:2:0:0:
300,157,140026,5,2,3:2:0:0:
240,89,140369,2,0,L|148:104,1,89.9999999999999,10|2,3:2|3:2,0:0:0:0:
89,169,141055,1,10,3:2:0:0:
145,238,141398,1,2,3:2:0:0:
103,317,141740,2,0,P|58:322|5:313,2,89.9999999999999,10|2|10,3:2|3:2|3:2,0:0:0:0:
185,352,142769,6,0,L|281:333,1,89.9999999999999,2|10,3:2|3:2,0:0:0:0:
356,369,143455,2,0,P|406:361|446:331,1,89.9999999999999,2|10,3:2|3:2,0:0:0:0:
502,276,144140,1,2,3:2:0:0:
510,186,144483,1,10,3:2:0:0:
446,122,144826,1,2,3:2:0:0:
356,135,145169,1,10,3:2:0:0:
318,216,145512,6,0,B|251:293|167:249|201:231|92:191|22:326|22:326|-25:227|23:159|60:205|100:127|68:56,1,629.999999999999,6|0,3:2|0:0,0:0:0:0:
