osu file format v14

[General]
AudioFilename: audio.mp3
AudioLeadIn: 2000
PreviewTime: 123483
Countdown: 0
SampleSet: Soft
StackLeniency: 0.4
Mode: 0
LetterboxInBreaks: 0
EpilepsyWarning: 1
WidescreenStoryboard: 1

[Editor]
Bookmarks: 141,11112,22083,33055,44026,54998,65969,76940,87912,98883,101626,112598,123569,134540,145512,147912
DistanceSpacing: 1
BeatDivisor: 4
GridSize: 32
TimelineZoom: 1.9

[Metadata]
Title:EOS
TitleUnicode:EOS
Artist:ginkiha
ArtistUnicode:ginkiha
Creator:too
Version:Normal
Source:
Tags:Apis035 KimikaMyMommy HinaMommy PotatoDew KogumaX ponbot rrtyui bof2012 of fighters fa featured artist electronic english instrumental daybreak uk hardcore shade of mythology bms groundbreaking video game SOUND VOLTEX II -infinite infection- happy
BeatmapID:2794063
BeatmapSetID:1284506

[Difficulty]
HPDrainRate:4
CircleSize:3.2
OverallDifficulty:4
ApproachRate:6
SliderMultiplier:1
SliderTickRate:1

[Events]
//Background and Video events
0,0,"bg1.jpg",0,0
//Break Periods
2,77140,86690
//Storyboard Layer 0 (Background)
Sprite,Background,Centre,"bg1.jpg",320,240 F,0,0,,0
//Storyboard Layer 1 (Fail)
//Storyboard Layer 2 (Pass)
//Storyboard Layer 3 (Foreground)
Sprite,Foreground,CentreLeft,"sb/font/0042.png",569.5,425.5 S,0,3569,,0.5 F,0,3569,3669,0,1 F,0,6798,6998,1,0
Sprite,Foreground,CentreLeft,"sb/font/0065.png",580,425.5 S,0,3629,,0.5 F,0,3629,3729,0,1 F,0,6798,6998,1,0
Sprite,Foreground,CentreLeft,"sb/font/0061.png",586.5,425.5 S,0,3689,,0.5 F,0,3689,3789,0,1 F,0,6798,6998,1,0
Sprite,Foreground,CentreLeft,"sb/font/0074.png",595.5,425.5 S,0,3749,,0.5 F,0,3749,3849,0,1 F,0,6798,6998,1,0
Sprite,Foreground,CentreLeft,"sb/font/006d.png",602.5,425.5 S,0,3809,,0.5 F,0,3809,3909,0,1 F,0,6798,6998,1,0
Sprite,Foreground,CentreLeft,"sb/font/0061.png",614,425.5 S,0,3869,,0.5 F,0,3869,3969,0,1 F,0,6798,6998,1,0
Sprite,Foreground,CentreLeft,"sb/font/0070.png",623,425.5 S,0,3929,,0.5 F,0,3929,4029,0,1 F,0,6798,6998,1,0
Sprite,Foreground,CentreLeft,"sb/font/007c.png",636,425.5 S,0,4049,,0.5 F,0,4049,4149,0,1 F,0,6798,6998,1,0
Sprite,Foreground,CentreLeft,"sb/font/0074.png",648,425.5 S,0,4169,,0.5 F,0,4169,4269,0,1 F,0,6798,6998,1,0
Sprite,Foreground,CentreLeft,"sb/font/006f.png",655,425.5 S,0,4229,,0.5 F,0,4229,4329,0,1 F,0,6798,6998,1,0
Sprite,Foreground,CentreLeft,"sb/font/006f.png",662.5,425.5 S,0,4289,,0.5 F,0,4289,4389,0,1 F,0,6798,6998,1,0
Sprite,Foreground,Centre,"sb/ring.png",0,0 M,0,8369,,484,391 S,19,8369,9395,0.2,0.8 F,4,8369,9395,1,0 P,0,8369,9395,A M,0,9398,,216,352 S,19,9398,10424,0.2,0.8 F,4,9398,10424,1,0 P,0,9398,10424,A M,0,10426,,201,100 S,19,10426,11452,0.2,0.8 F,4,10426,11452,1,0 P,0,10426,11452,A M,0,27569,,437,424 S,19,27569,28595,0.2,0.8 F,4,27569,28595,1,0 P,0,27569,28595,A M,0,28940,,293,299 S,19,28940,29966,0.2,0.8 F,4,28940,29966,1,0 P,0,28940,29966,A M,0,30312,,148,392 S,19,30312,31338,0.2,0.8 F,4,30312,31338,1,0 P,0,30312,31338,A M,0,31683,,498,385 S,19,31683,32709,0.2,0.8 F,4,31683,32709,1,0 P,0,31683,32709,A M,0,32883,,484.9289,91.50253 S,19,32883,33909,0.2,0.8 F,4,32883,33909,1,0 P,0,32883,33909,A M,0,44026,,209,261 S,19,44026,45052,0.2,0.8 F,4,44026,45052,1,0 P,0,44026,45052,A M,0,52255,,409,440 S,19,52255,53281,0.2,0.8 F,4,52255,53281,1,0 P,0,52255,53281,A M,0,53626,,468,241 S,19,53626,54652,0.2,0.8 F,4,53626,54652,1,0 P,0,53626,54652,A M,0,54655,,375,91 S,19,54655,55681,0.2,0.8 F,4,54655,55681,1,0 P,0,54655,55681,A
Sprite,Foreground,Centre,"sb/ring.png",0,0 M,0,8883,,350,373 S,19,8883,9909,0.2,0.8 F,4,8883,9909,1,0 P,0,8883,9909,A M,0,10768,,112.1314,83.00777 S,19,10768,11794,0.2,0.8 F,4,10768,11794,1,0 P,0,10768,11794,A M,0,30998,,321,362 S,19,30998,32024,0.2,0.8 F,4,30998,32024,1,0 P,0,30998,32024,A M,0,32026,,513,296 S,19,32026,33052,0.2,0.8 F,4,32026,33052,1,0 P,0,32026,33052,A M,0,54312,,465,84 S,19,54312,55338,0.2,0.8 F,4,54312,55338,1,0 P,0,54312,55338,A
Sprite,Foreground,Centre,"sb/ring.png",0,0 M,0,32369,,528,207 S,19,32369,33395,0.2,0.8 F,4,32369,33395,1,0 P,0,32369,33395,A M,0,87912,,182,131 S,19,87912,88938,0.2,0.8 F,4,87912,88938,1,0 P,0,87912,88938,A M,0,90655,,352,431 S,19,90655,91681,0.2,0.8 F,4,90655,91681,1,0 P,0,90655,91681,A
Sprite,Foreground,Centre,"sb/ring.png",0,0 M,0,93398,,355,156 S,19,93398,94424,0.2,0.8 F,4,93398,94424,1,0 P,0,93398,94424,A M,0,94769,,266,180 S,19,94769,95795,0.2,0.8 F,4,94769,95795,1,0 P,0,94769,95795,A M,0,96140,,82,328 S,19,96140,97166,0.2,0.8 F,4,96140,97166,1,0 P,0,96140,97166,A M,0,97512,,152,76 S,19,97512,98538,0.2,0.8 F,4,97512,98538,1,0 P,0,97512,98538,A M,0,98712,,337,118 S,19,98712,99738,0.2,0.8 F,4,98712,99738,1,0 P,0,98712,99738,A M,0,112598,,481,362 S,19,112598,113624,0.2,0.8 F,4,112598,113624,1,0 P,0,112598,113624,A M,0,120826,,263,388 S,19,120826,121852,0.2,0.8 F,4,120826,121852,1,0 P,0,120826,121852,A M,0,122198,,408,343 S,19,122198,123224,0.2,0.8 F,4,122198,123224,1,0 P,0,122198,123224,A M,0,123226,,524,123 S,19,123226,124252,0.2,0.8 F,4,123226,124252,1,0 P,0,123226,124252,A M,0,145512,,272,345 S,19,145512,147564,0.2,1.2 F,4,145512,147564,1,0 P,0,145512,147564,A
Sprite,Foreground,Centre,"sb/ring.png",0,0 M,0,96826,,143,206 S,19,96826,97852,0.2,0.8 F,4,96826,97852,1,0 P,0,96826,97852,A M,0,98198,,337,118 S,19,98198,99224,0.2,0.8 F,4,98198,99224,1,0 P,0,98198,99224,A M,0,122883,,543,222 S,19,122883,123909,0.2,0.8 F,4,122883,123909,1,0 P,0,122883,123909,A
Sprite,Foreground,Centre,"sb/ring.png",0,0 M,0,98455,,411.1464,106.7169 S,19,98455,99481,0.2,0.8 F,4,98455,99481,1,0 P,0,98455,99481,A
Sprite,Foreground,Centre,"sb/ring.png",0,0 M,0,11455,,109,266 S,19,11455,13507,0.2,1.2 F,4,11455,13507,1,0 P,0,11455,13507,A M,0,22083,,494,359 S,19,22083,24135,0.2,1.2 F,4,22083,24135,1,0 P,0,22083,24135,A M,0,33055,,439,89 S,19,33055,35107,0.2,1.2 F,4,33055,35107,1,0 P,0,33055,35107,A M,0,54998,,282,108 S,19,54998,57050,0.2,1.2 F,4,54998,57050,1,0 P,0,54998,57050,A
Sprite,Foreground,Centre,"sb/ring.png",0,0 M,0,76940,,236,315 S,19,76940,78992,0.2,1.2 F,4,76940,78992,1,0 P,0,76940,78992,A M,0,101626,,398,314 S,19,101626,103678,0.2,1.2 F,4,101626,103678,1,0 P,0,101626,103678,A M,0,123569,,425,141 S,19,123569,125621,0.2,1.2 F,4,123569,125621,1,0 P,0,123569,125621,A
Sprite,Foreground,Centre,"sb/particle.png",0,0 M,7,1683,2583,230,166,201.9877,70.00359 S,7,1683,2583,0.1,0 M,7,4426,5326,207,184,166.2679,270.9304 S,7,4426,5326,0.1,0 M,7,7169,8069,484,197,412.7454,125.4194 S,7,7169,8069,0.1,0 M,7,9741,10641,203,263,295.7395,202.0051 S,7,9741,10641,0.1,0 M,7,10769,11669,112.1314,83.00777,9.672075,105.966 S,7,10769,11669,0.1,0
Sprite,Foreground,Centre,"sb/particle.png",0,0 M,7,1683,2583,230,166,111.6757,178.6637 S,7,1683,2583,0.1,0 M,7,4426,5326,207,184,256.8428,263.6975 S,7,4426,5326,0.1,0 M,7,7169,8069,484,197,565.3871,207.0065 S,7,7169,8069,0.1,0 M,7,9741,10641,203,263,123.0147,264.5353 S,7,9741,10641,0.1,0 M,7,10769,11669,112.1314,83.00777,198.4292,147.9438 S,7,10769,11669,0.1,0
Sprite,Foreground,Centre,"sb/particle.png",0,0 M,7,1683,2583,230,166,297.5454,212.4931 S,7,1683,2583,0.1,0 M,7,4426,5326,207,184,280.6041,264.3955 S,7,4426,5326,0.1,0 M,7,7169,8069,484,197,533.7072,273.2246 S,7,7169,8069,0.1,0 M,7,9741,10641,203,263,258.0775,348.8514 S,7,9741,10641,0.1,0 M,7,10769,11669,112.1314,83.00777,131.9738,-7.8508 S,7,10769,11669,0.1,0
Sprite,Foreground,Centre,"sb/particle.png",0,0 M,7,1683,2583,230,166,315.0886,192.0948 S,7,1683,2583,0.1,0 M,7,4426,5326,207,184,279.9935,260.8632 S,7,4426,5326,0.1,0 M,7,7169,8069,484,197,389.4247,205.9729 S,7,7169,8069,0.1,0 M,7,9741,10641,203,263,305.6667,236.6265 S,7,9741,10641,0.1,0 M,7,10769,11669,112.1314,83.00777,118.3953,-7.776395 S,7,10769,11669,0.1,0
Sprite,Foreground,Centre,"sb/particle.png",0,0 M,7,1683,2583,230,166,114.1657,149.5254 S,7,1683,2583,0.1,0 M,7,4426,5326,207,184,263.2783,81.42438 S,7,4426,5326,0.1,0 M,7,7169,8069,484,197,533.6852,299.603 S,7,7169,8069,0.1,0 M,7,9741,10641,203,263,245.9199,367.5317 S,7,9741,10641,0.1,0 M,7,10769,11669,112.1314,83.00777,70.85451,193.5528 S,7,10769,11669,0.1,0
Sprite,Foreground,Centre,"sb/particle.png",0,0 M,7,1683,2583,230,166,191.0693,258.1108 S,7,1683,2583,0.1,0 M,7,4426,5326,207,184,315.6994,210.9895 S,7,4426,5326,0.1,0 M,7,7169,8069,484,197,403.5011,205.996 S,7,7169,8069,0.1,0 M,7,9741,10641,203,263,137.8504,209.9762 S,7,9741,10641,0.1,0 M,7,10769,11669,112.1314,83.00777,141.8139,-18.75151 S,7,10769,11669,0.1,0
Sprite,Foreground,Centre,"sb/particle.png",0,0 M,7,1683,2583,230,166,312.1842,118.3475 S,7,1683,2583,0.1,0 M,7,4426,5326,207,184,287.322,270.4429 S,7,4426,5326,0.1,0 M,7,7169,8069,484,197,548.1724,149.2307 S,7,7169,8069,0.1,0 M,7,9741,10641,203,263,288.2381,291.8873 S,7,9741,10641,0.1,0 M,7,10769,11669,112.1314,83.00777,213.6533,24.85019 S,7,10769,11669,0.1,0
Sprite,Foreground,Centre,"sb/particle.png",0,0 M,7,1683,2583,230,166,193.5583,62.21172 S,7,1683,2583,0.1,0 M,7,4426,5326,207,184,165.3646,261.5274 S,7,4426,5326,0.1,0 M,7,7169,8069,484,197,554.7209,281.253 S,7,7169,8069,0.1,0 M,7,9741,10641,203,263,120.353,313.7787 S,7,9741,10641,0.1,0 M,7,10769,11669,112.1314,83.00777,16.77235,71.93326 S,7,10769,11669,0.1,0
Sprite,Foreground,Centre,"sb/particle.png",0,0 M,7,1855,2755,230,166,241.2413,272.4079 S,7,1855,2755,0.1,0 M,7,4598,5498,199.7253,134.532,113.3341,124.2581 S,7,4598,5498,0.1,0 M,7,7683,8583,473,289,509.5759,207.863 S,7,7683,8583,0.1,0 M,7,9912,10812,197.5532,213.2976,229.6996,296.2892 S,7,9912,10812,0.1,0
Sprite,Foreground,Centre,"sb/particle.png",0,0 M,7,1855,2755,230,166,252.3094,50.12813 S,7,1855,2755,0.1,0 M,7,4598,5498,199.7253,134.532,279.7027,136.4352 S,7,4598,5498,0.1,0 M,7,7683,8583,473,289,502.2454,199.6652 S,7,7683,8583,0.1,0 M,7,9912,10812,197.5532,213.2976,273.5434,123.0231 S,7,9912,10812,0.1,0
Sprite,Foreground,Centre,"sb/particle.png",0,0 M,7,1855,2755,230,166,252.1217,81.85947 S,7,1855,2755,0.1,0 M,7,4598,5498,199.7253,134.532,280.0409,155.4703 S,7,4598,5498,0.1,0 M,7,7683,8583,473,289,560.7452,364.8734 S,7,7683,8583,0.1,0 M,7,9912,10812,197.5532,213.2976,296.2574,249.1094 S,7,9912,10812,0.1,0
Sprite,Foreground,Centre,"sb/particle.png",0,0 M,7,1855,2755,230,166,249.3376,85.2841 S,7,1855,2755,0.1,0 M,7,4598,5498,199.7253,134.532,243.9327,63.10581 S,7,4598,5498,0.1,0 M,7,7683,8583,473,289,384.8486,331.8174 S,7,7683,8583,0.1,0 M,7,9912,10812,197.5532,213.2976,162.3543,326.9727 S,7,9912,10812,0.1,0
Sprite,Foreground,Centre,"sb/particle.png",0,0 M,7,1855,2755,230,166,255.7392,81.84837 S,7,1855,2755,0.1,0 M,7,4598,5498,199.7253,134.532,274.3819,100.6145 S,7,4598,5498,0.1,0 M,7,7683,8583,473,289,547.1712,351.5111 S,7,7683,8583,0.1,0 M,7,9912,10812,197.5532,213.2976,164.077,135.1673 S,7,9912,10812,0.1,0
Sprite,Foreground,Centre,"sb/particle.png",0,0 M,7,1855,2755,230,166,255.3427,249.2271 S,7,1855,2755,0.1,0 M,7,4598,5498,199.7253,134.532,277.6583,204.8985 S,7,4598,5498,0.1,0 M,7,7683,8583,473,289,422.1734,353.3479 S,7,7683,8583,0.1,0 M,7,9912,10812,197.5532,213.2976,110.8002,233.1703 S,7,9912,10812,0.1,0
Sprite,Foreground,Centre,"sb/particle.png",0,0 M,7,1855,2755,230,166,280.4816,98.86124 S,7,1855,2755,0.1,0 M,7,4598,5498,199.7253,134.532,185.6892,40.57467 S,7,4598,5498,0.1,0 M,7,7683,8583,473,289,582.7222,323.439 S,7,7683,8583,0.1,0 M,7,9912,10812,197.5532,213.2976,219.9001,302.5423 S,7,9912,10812,0.1,0
Sprite,Foreground,Centre,"sb/particle.png",0,0 M,7,1855,2755,230,166,189.5221,80.055 S,7,1855,2755,0.1,0 M,7,4598,5498,199.7253,134.532,279.1346,96.60905 S,7,4598,5498,0.1,0 M,7,7683,8583,473,289,576.2407,257.2925 S,7,7683,8583,0.1,0 M,7,9912,10812,197.5532,213.2976,288.2804,233.732 S,7,9912,10812,0.1,0
Sprite,Foreground,Centre,"sb/particle.png",0,0 M,7,2198,3098,318,149,297.582,230.4807 S,7,2198,3098,0.1,0 M,7,4769,5669,204,93,202.578,197.9904 S,7,4769,5669,0.1,0 M,7,7855,8755,521,277,410.9268,243.6998 S,7,7855,8755,0.1,0 M,7,10083,10983,229,181,176.6621,93.45145 S,7,10083,10983,0.1,0
Sprite,Foreground,Centre,"sb/particle.png",0,0 M,7,2198,3098,318,149,214.8386,187.1802 S,7,2198,3098,0.1,0 M,7,4769,5669,204,93,117.1787,49.74424 S,7,4769,5669,0.1,0 M,7,7855,8755,521,277,585.8015,198.2296 S,7,7855,8755,0.1,0 M,7,10083,10983,229,181,231.1211,270.975 S,7,10083,10983,0.1,0
Sprite,Foreground,Centre,"sb/particle.png",0,0 M,7,2198,3098,318,149,341.3403,237.9901 S,7,2198,3098,0.1,0 M,7,4769,5669,204,93,173.5858,19.00691 S,7,4769,5669,0.1,0 M,7,7855,8755,521,277,547.6337,195.2281 S,7,7855,8755,0.1,0 M,7,10083,10983,229,181,273.1562,258.2737 S,7,10083,10983,0.1,0
Sprite,Foreground,Centre,"sb/particle.png",0,0 M,7,2198,3098,318,149,370.4379,79.57909 S,7,2198,3098,0.1,0 M,7,4769,5669,204,93,185.3971,192.272 S,7,4769,5669,0.1,0 M,7,7855,8755,521,277,634.5995,312.4422 S,7,7855,8755,0.1,0 M,7,10083,10983,229,181,329.2913,153.4745 S,7,10083,10983,0.1,0
Sprite,Foreground,Centre,"sb/particle.png",0,0 M,7,2198,3098,318,149,425.7474,189.1932 S,7,2198,3098,0.1,0 M,7,4769,5669,204,93,238.963,-2.820602 S,7,4769,5669,0.1,0 M,7,7855,8755,521,277,529.1456,158.2791 S,7,7855,8755,0.1,0 M,7,10083,10983,229,181,287.8307,243.7291 S,7,10083,10983,0.1,0
Sprite,Foreground,Centre,"sb/particle.png",0,0 M,7,2198,3098,318,149,246.2736,94.63713 S,7,2198,3098,0.1,0 M,7,4769,5669,204,93,283.0204,80.51859 S,7,4769,5669,0.1,0 M,7,7855,8755,521,277,571.5643,207.4352 S,7,7855,8755,0.1,0 M,7,10083,10983,229,181,295.7104,259.4775 S,7,10083,10983,0.1,0
Sprite,Foreground,Centre,"sb/particle.png",0,0 M,7,2198,3098,318,149,404.7381,124.9895 S,7,2198,3098,0.1,0 M,7,4769,5669,204,93,285.5415,20.6675 S,7,4769,5669,0.1,0 M,7,7855,8755,521,277,621.3334,311.1936 S,7,7855,8755,0.1,0 M,7,10083,10983,229,181,306.6276,151.6238 S,7,10083,10983,0.1,0
Sprite,Foreground,Centre,"sb/particle.png",0,0 M,7,2198,3098,318,149,400.2885,74.50434 S,7,2198,3098,0.1,0 M,7,4769,5669,204,93,231.1018,-17.73161 S,7,4769,5669,0.1,0 M,7,7855,8755,521,277,526.644,360.8102 S,7,7855,8755,0.1,0 M,7,10083,10983,229,181,175.3855,81.52898 S,7,10083,10983,0.1,0
Sprite,Foreground,Centre,"sb/particle.png",0,0 M,7,2369,3269,366.5211,153.903,462.8107,176.9098 S,7,2369,3269,0.1,0 M,7,4940,5840,204,93,186.8254,198.6127 S,7,4940,5840,0.1,0 M,7,8026,8926,535,319,564.1257,396.7219 S,7,8026,8926,0.1,0 M,7,10255,11155,234.4468,131.2976,296.9388,209.3665 S,7,10255,11155,0.1,0
Sprite,Foreground,Centre,"sb/particle.png",0,0 M,7,2369,3269,366.5211,153.903,482.5016,138.4909 S,7,2369,3269,0.1,0 M,7,4940,5840,204,93,137.0162,160.366 S,7,4940,5840,0.1,0 M,7,8026,8926,535,319,576.4681,235.757 S,7,8026,8926,0.1,0 M,7,10255,11155,234.4468,131.2976,129.2536,106.8359 S,7,10255,11155,0.1,0
Sprite,Foreground,Centre,"sb/particle.png",0,0 M,7,2369,3269,366.5211,153.903,366.6916,258.9028 S,7,2369,3269,0.1,0 M,7,4940,5840,204,93,120.2092,87.07581 S,7,4940,5840,0.1,0 M,7,8026,8926,535,319,449.9068,375.2419 S,7,8026,8926,0.1,0 M,7,10255,11155,234.4468,131.2976,149.2153,91.65446 S,7,10255,11155,0.1,0
Sprite,Foreground,Centre,"sb/particle.png",0,0 M,7,2369,3269,366.5211,153.903,346.8123,251.9415 S,7,2369,3269,0.1,0 M,7,4940,5840,204,93,115.0241,90.92728 S,7,4940,5840,0.1,0 M,7,8026,8926,535,319,562.6799,423.3926 S,7,8026,8926,0.1,0 M,7,10255,11155,234.4468,131.2976,237.9441,222.2303 S,7,10255,11155,0.1,0
Sprite,Foreground,Centre,"sb/particle.png",0,0 M,7,2369,3269,366.5211,153.903,357.1511,59.36617 S,7,2369,3269,0.1,0 M,7,4940,5840,204,93,132.9404,54.12165 S,7,4940,5840,0.1,0 M,7,8026,8926,535,319,615.4565,381.6957 S,7,8026,8926,0.1,0 M,7,10255,11155,234.4468,131.2976,135.2626,144.045 S,7,10255,11155,0.1,0
Sprite,Foreground,Centre,"sb/particle.png",0,0 M,7,2369,3269,366.5211,153.903,413.273,258.9708 S,7,2369,3269,0.1,0 M,7,4940,5840,204,93,127.3324,122.0875 S,7,4940,5840,0.1,0 M,7,8026,8926,535,319,639.3965,287.6574 S,7,8026,8926,0.1,0 M,7,10255,11155,234.4468,131.2976,201.1777,204.0517 S,7,10255,11155,0.1,0
Sprite,Foreground,Centre,"sb/particle.png",0,0 M,7,2369,3269,366.5211,153.903,431.636,61.55009 S,7,2369,3269,0.1,0 M,7,4940,5840,204,93,129.9354,27.30801 S,7,4940,5840,0.1,0 M,7,8026,8926,535,319,625.1963,283.3121 S,7,8026,8926,0.1,0 M,7,10255,11155,234.4468,131.2976,319.7057,197.5919 S,7,10255,11155,0.1,0
Sprite,Foreground,Centre,"sb/particle.png",0,0 M,7,2369,3269,366.5211,153.903,297.082,220.1919 S,7,2369,3269,0.1,0 M,7,4940,5840,204,93,291.8455,51.86399 S,7,4940,5840,0.1,0 M,7,8026,8926,535,319,491.8285,399.1075 S,7,8026,8926,0.1,0 M,7,10255,11155,234.4468,131.2976,127.953,171.98 S,7,10255,11155,0.1,0
Sprite,Foreground,Centre,"sb/particle.png",0,0 M,7,2540,3440,396,187,382.3451,303.2004 S,7,2540,3440,0.1,0 M,7,5112,6012,253.468,85.7253,365.4664,85.12891 S,7,5112,6012,0.1,0 M,7,10426,11326,201,100,223.5204,11.83066 S,7,10426,11326,0.1,0
Sprite,Foreground,Centre,"sb/particle.png",0,0 M,7,2540,3440,396,187,422.2427,295.8821 S,7,2540,3440,0.1,0 M,7,5112,6012,253.468,85.7253,163.3514,44.7375 S,7,5112,6012,0.1,0 M,7,10426,11326,201,100,104.744,127.1068 S,7,10426,11326,0.1,0
Sprite,Foreground,Centre,"sb/particle.png",0,0 M,7,2540,3440,396,187,505.5953,148.9886 S,7,2540,3440,0.1,0 M,7,5112,6012,253.468,85.7253,166.6847,161.1817 S,7,5112,6012,0.1,0 M,7,10426,11326,201,100,284.6758,114.9453 S,7,10426,11326,0.1,0
Sprite,Foreground,Centre,"sb/particle.png",0,0 M,7,2540,3440,396,187,284.8242,153.8951 S,7,2540,3440,0.1,0 M,7,5112,6012,253.468,85.7253,154.2496,73.24689 S,7,5112,6012,0.1,0 M,7,10426,11326,201,100,179.0648,215.9433 S,7,10426,11326,0.1,0
Sprite,Foreground,Centre,"sb/particle.png",0,0 M,7,2540,3440,396,187,446.5009,96.0843 S,7,2540,3440,0.1,0 M,7,5112,6012,253.468,85.7253,336.9431,34.38424 S,7,5112,6012,0.1,0 M,7,10426,11326,201,100,182.9814,187.1569 S,7,10426,11326,0.1,0
Sprite,Foreground,Centre,"sb/particle.png",0,0 M,7,2540,3440,396,187,491.5112,122.9484 S,7,2540,3440,0.1,0 M,7,5112,6012,253.468,85.7253,274.1259,182.546 S,7,5112,6012,0.1,0 M,7,10426,11326,201,100,255.2707,-1.388794 S,7,10426,11326,0.1,0
Sprite,Foreground,Centre,"sb/particle.png",0,0 M,7,2540,3440,396,187,310.3286,135.4209 S,7,2540,3440,0.1,0 M,7,5112,6012,253.468,85.7253,342.8613,153.1999 S,7,5112,6012,0.1,0 M,7,10426,11326,201,100,93.26536,107.5661 S,7,10426,11326,0.1,0
Sprite,Foreground,Centre,"sb/particle.png",0,0 M,7,2540,3440,396,187,461.8699,263.5647 S,7,2540,3440,0.1,0 M,7,5112,6012,253.468,85.7253,264.7351,173.001 S,7,5112,6012,0.1,0 M,7,10426,11326,201,100,298.3024,133.7824 S,7,10426,11326,0.1,0
Sprite,Foreground,Centre,"sb/particle.png",0,0 M,7,5283,6183,297,76,284.8864,164.1718 S,7,5283,6183,0.1,0
Sprite,Foreground,Centre,"sb/particle.png",0,0 M,7,5283,6183,297,76,241.5555,135.05 S,7,5283,6183,0.1,0
Sprite,Foreground,Centre,"sb/particle.png",0,0 M,7,5283,6183,297,76,397.6292,84.64597 S,7,5283,6183,0.1,0
Sprite,Foreground,Centre,"sb/particle.png",0,0 M,7,5283,6183,297,76,274.84,-6.060541 S,7,5283,6183,0.1,0
Sprite,Foreground,Centre,"sb/particle.png",0,0 M,7,5283,6183,297,76,358.3415,145.9015 S,7,5283,6183,0.1,0
Sprite,Foreground,Centre,"sb/particle.png",0,0 M,7,5283,6183,297,76,358.8121,-8.877909 S,7,5283,6183,0.1,0
Sprite,Foreground,Centre,"sb/particle.png",0,0 M,7,5283,6183,297,76,215.5907,42.58551 S,7,5283,6183,0.1,0
Sprite,Foreground,Centre,"sb/particle.png",0,0 M,7,5283,6183,297,76,377.8357,32.07287 S,7,5283,6183,0.1,0
Sprite,Foreground,Centre,"sb/glow.png",0,0 M,0,54998,,282,108 S,0,54998,55998,1,1.2 F,1,54998,55998,0.3,0 C,0,54998,,200,200,255 P,0,54998,,A M,0,54998,55040,282,108,269.0747,110.2809 M,0,55040,55083,269.0747,110.2809,256.1494,112.5619 M,0,55083,55126,256.1494,112.5619,243.2242,114.8428 M,0,55126,55169,243.2242,114.8428,230.2989,117.1237 M,0,56198,,201,337 S,0,56198,57198,1,1.2 F,1,56198,57198,0.3,0 C,0,56198,,200,200,255 P,0,56198,,A M,0,57398,,181,236 S,0,57398,58398,1,1.2 F,1,57398,58398,0.3,0 C,0,57398,,191,255,223 P,0,57398,,A M,0,57398,57440,181,236,193.857,233.7501 M,0,57440,57483,193.857,233.7501,206.3261,229.8046 M,0,57483,57526,206.3261,229.8046,217.3743,222.8596 M,0,57526,57569,217.3743,222.8596,227,215 M,0,58426,,342,107 S,0,58426,59426,1,1.2 F,1,58426,59426,0.3,0 C,0,58426,,252,167,188 P,0,58426,,A M,0,59798,,464,438 S,0,59798,60798,1,1.2 F,1,59798,60798,0.3,0 C,0,59798,,130,235,247 P,0,59798,,A M,0,60826,,533,189 S,0,60826,61826,1,1.2 F,1,60826,61826,0.3,0 C,0,60826,,200,200,255 P,0,60826,,A M,0,61855,,398,211 S,0,61855,62855,1,1.2 F,1,61855,62855,0.3,0 C,0,61855,,191,255,223 P,0,61855,,A M,0,62883,,300,366 S,0,62883,63883,1,1.2 F,1,62883,63883,0.3,0 C,0,62883,,191,255,223 P,0,62883,,A M,0,62883,62925,300,366,287.9871,360.8102 M,0,62925,62968,287.9871,360.8102,276.732,354.1601 M,0,62968,63011,276.732,354.1601,266.396,346.1853 M,0,63011,63054,266.396,346.1853,257.4427,336.6592 M,0,63912,,112,150 S,0,63912,64912,1,1.2 F,1,63912,64912,0.3,0 C,0,63912,,252,167,188 P,0,63912,,A M,0,63912,63954,112,150,101.8771,158.2919 M,0,63954,63997,101.8771,158.2919,92.64044,167.573 M,0,63997,64040,92.64044,167.573,85.28017,178.3888 M,0,64040,64083,85.28017,178.3888,79.11024,189.9264 M,0,64083,64126,79.11024,189.9264,75.1132,202.381 M,0,64126,64169,75.1132,202.381,72.52684,215.1974 M,0,64169,64211,72.52684,215.1974,72.21867,228.2719 M,0,64211,64254,72.21867,228.2719,73.42995,241.2826 M,0,65112,,147,328 S,0,65112,66112,1,1.2 F,1,65112,66112,0.3,0 C,0,65112,,130,235,247 P,0,65112,,A M,0,65112,65154,147,328,159.9464,325.8423 M,0,65154,65197,159.9464,325.8423,172.8928,323.6845 M,0,65197,65240,172.8928,323.6845,185.8393,321.5268 M,0,65240,65283,185.8393,321.5268,198.7857,319.369 M,0,66312,,391,398 S,0,66312,67312,1,1.2 F,1,66312,67312,0.3,0 C,0,66312,,200,200,255 P,0,66312,,A M,0,66312,66354,391,398,403.8797,400.5255 M,0,66354,66397,403.8797,400.5255,416.7595,403.0509 M,0,66397,66440,416.7595,403.0509,429.6392,405.5763 M,0,66440,66483,429.6392,405.5763,442,408 M,0,67340,,471,182 S,0,67340,68340,1,1.2 F,1,67340,68340,0.3,0 C,0,67340,,191,255,223 P,0,67340,,A M,0,67340,67382,471,182,458.5337,178.1174 M,0,67382,67425,458.5337,178.1174,445.6474,175.9344 M,0,67425,67468,445.6474,175.9344,432.6323,176.9112 M,0,67468,67511,432.6323,176.9112,419.8855,179.7107 M,0,67511,67554,419.8855,179.7107,408.1471,185.4064 M,0,67554,67597,408.1471,185.4064,397.3913,192.7686 M,0,67597,67639,397.3913,192.7686,388.5751,202.3814 M,0,67639,67682,388.5751,202.3814,381.3693,213.2261 M,0,68369,,380,358 S,0,68369,69369,1,1.2 F,1,68369,69369,0.3,0 C,0,68369,,191,255,223 P,0,68369,,A M,0,68369,68411,380,358,370.3207,366.7123 M,0,68411,68454,370.3207,366.7123,359.1049,373.2623 M,0,68454,68497,359.1049,373.2623,346.8474,377.4061 M,0,68497,68540,346.8474,377.4061,333.89,378.3075 M,0,69398,,323,281 S,0,69398,70398,1,1.2 F,1,69398,70398,0.3,0 C,0,69398,,252,167,188 P,0,69398,,A M,0,70769,,268,210 S,0,70769,71769,1,1.2 F,1,70769,71769,0.3,0 C,0,70769,,130,235,247 P,0,70769,,A M,0,71797,,164,98 S,0,71797,72797,1,1.2 F,1,71797,72797,0.3,0 C,0,71797,,200,200,255 P,0,71797,,A M,0,72826,,295,238 S,0,72826,73826,1,1.2 F,1,72826,73826,0.3,0 C,0,72826,,191,255,223 P,0,72826,,A M,0,73855,,425,309 S,0,73855,74855,1,1.2 F,1,73855,74855,0.3,0 C,0,73855,,191,255,223 P,0,73855,,A M,0,73855,73897,425,309,424.801,295.9159 M,0,73897,73940,424.801,295.9159,425.8457,282.8523 M,0,73940,73983,425.8457,282.8523,429.3303,270.2392 M,0,73983,74026,429.3303,270.2392,434,258 M,0,74883,,419,105 S,0,74883,75883,1,1.2 F,1,74883,75883,0.3,0 C,0,74883,,252,167,188 P,0,74883,,A M,0,74883,74925,419,105,408.8771,113.2919 M,0,74925,74968,408.8771,113.2919,399.6404,122.573 M,0,74968,75011,399.6404,122.573,392.2802,133.3888 M,0,75011,75054,392.2802,133.3888,386.1102,144.9264 M,0,75054,75097,386.1102,144.9264,382.1132,157.381 M,0,75097,75140,382.1132,157.381,379.5269,170.1974 M,0,75140,75182,379.5269,170.1974,379.2187,183.2719 M,0,75182,75225,379.2187,183.2719,380.43,196.2826 M,0,76083,,353,273 S,0,76083,77083,1,1.2 F,1,76083,77083,0.3,0 C,0,76083,,130,235,247 P,0,76083,,A
Sprite,Foreground,Centre,"sb/glow.png",0,0 M,0,55340,,211,165 S,0,55340,56340,1,1.2 F,1,55340,56340,0.3,0 C,0,55340,,200,200,255 P,0,55340,,A M,0,55340,55382,211,165,198.0747,162.7191 M,0,55382,55425,198.0747,162.7191,185.1494,160.4381 M,0,55425,55468,185.1494,160.4381,172.2242,158.1572 M,0,55468,55511,172.2242,158.1572,159.2989,155.8763 M,0,56369,,180,385 S,0,56369,57369,1,1.2 F,1,56369,57369,0.3,0 C,0,56369,,191,255,223 P,0,56369,,A M,0,56369,56411,180,385,167.5337,388.8825 M,0,56411,56454,167.5337,388.8825,154.6474,391.0656 M,0,56454,56497,154.6474,391.0656,141.6323,390.0888 M,0,56497,56540,141.6323,390.0888,128.8855,387.2893 M,0,56540,56583,128.8855,387.2893,117.1471,381.5936 M,0,56583,56626,117.1471,381.5936,106.3913,374.2314 M,0,56626,56668,106.3913,374.2314,97.57509,364.6186 M,0,56668,56711,97.57509,364.6186,90.36928,353.7739 M,0,57740,,264,178 S,0,57740,58740,1,1.2 F,1,57740,58740,0.3,0 C,0,57740,,252,167,188 P,0,57740,,A M,0,57740,57782,264,178,276.6279,181.5779 M,0,57782,57825,276.6279,181.5779,289.2558,185.1558 M,0,57825,57868,289.2558,185.1558,301.8837,188.7337 M,0,57868,57911,301.8837,188.7337,314.5117,192.3116 M,0,57911,57954,314.5117,192.3116,301.8837,188.7337 M,0,57954,57997,301.8837,188.7337,289.2558,185.1558 M,0,57997,58039,289.2558,185.1558,276.6279,181.5779 M,0,58039,58082,276.6279,181.5779,264,178 M,0,58769,,412,174 S,0,58769,59769,1,1.2 F,1,58769,59769,0.3,0 C,0,58769,,252,167,188 P,0,58769,,A M,0,58769,58811,412,174,409.6861,186.9194 M,0,58811,58854,409.6861,186.9194,407.3722,199.8388 M,0,58854,58897,407.3722,199.8388,405.0582,212.7583 M,0,58897,58940,405.0582,212.7583,402.7443,225.6777 M,0,59969,,464,438 S,0,59969,60969,1,1.2 F,1,59969,60969,0.3,0 C,0,59969,,130,235,247 P,0,59969,,A M,0,61169,,465,112 S,0,61169,62169,1,1.2 F,1,61169,62169,0.3,0 C,0,61169,,200,200,255 P,0,61169,,A M,0,61169,61211,465,112,451.8807,111.6141 M,0,61211,61254,451.8807,111.6141,438.7614,111.2283 M,0,61254,61297,438.7614,111.2283,425.642,110.8424 M,0,61297,61340,425.642,110.8424,412.5227,110.4566 M,0,62369,,387,318 S,0,62369,63369,1,1.2 F,1,62369,63369,0.3,0 C,0,62369,,191,255,223 P,0,62369,,A M,0,63569,,174,219 S,0,63569,64569,1,1.2 F,1,63569,64569,0.3,0 C,0,63569,,252,167,188 P,0,63569,,A M,0,63569,63611,174,219,173.1713,205.9303 M,0,63611,63654,173.1713,205.9303,171.2136,192.9747 M,0,63654,63697,171.2136,192.9747,167.232,180.5007 M,0,63697,63740,167.232,180.5007,162.1363,168.4375 M,0,64598,,97,344 S,0,64598,65598,1,1.2 F,1,64598,65598,0.3,0 C,0,64598,,130,235,247 P,0,64598,,A M,0,64598,64640,97,344,94.22073,356.8274 M,0,64640,64683,94.22073,356.8274,91.44147,369.6547 M,0,64683,64726,91.44147,369.6547,88.66222,382.4821 M,0,64726,64769,88.66222,382.4821,85.88295,395.3094 M,0,64769,64812,85.88295,395.3094,88.66222,382.4821 M,0,64812,64855,88.66222,382.4821,91.44147,369.6547 M,0,64855,64897,91.44147,369.6547,94.22073,356.8274 M,0,64897,64940,94.22073,356.8274,97,344 M,0,65626,,247,295 S,0,65626,66626,1,1.2 F,1,65626,66626,0.3,0 C,0,65626,,130,235,247 P,0,65626,,A M,0,66655,,468,362 S,0,66655,67655,1,1.2 F,1,66655,67655,0.3,0 C,0,66655,,200,200,255 P,0,66655,,A M,0,66655,66697,468,362,461.6809,350.5145 M,0,66697,66740,461.6809,350.5145,456.1505,338.6286 M,0,66740,66783,456.1505,338.6286,452.0264,326.1871 M,0,66783,66826,452.0264,326.1871,448.8226,313.4815 M,0,66826,66869,448.8226,313.4815,447.0304,300.4986 M,0,66869,66912,447.0304,300.4986,446.2645,287.4223 M,0,66912,66954,446.2645,287.4223,446.6287,274.3112 M,0,66954,66997,446.6287,274.3112,448.4174,261.316 M,0,68026,,310,291 S,0,68026,69026,1,1.2 F,1,68026,69026,0.3,0 C,0,68026,,191,255,223 P,0,68026,,A M,0,68026,68068,310,291,319.6793,299.7123 M,0,68068,68111,319.6793,299.7123,330.8951,306.2624 M,0,68111,68154,330.8951,306.2624,343.1526,310.4061 M,0,68154,68197,343.1526,310.4061,356.11,311.3075 M,0,69570,,374,272 S,0,69570,70570,1,1.2 F,1,69570,70570,0.3,0 C,0,69570,,252,167,188 P,0,69570,,A M,0,70940,,268,210 S,0,70940,71940,1,1.2 F,1,70940,71940,0.3,0 C,0,70940,,130,235,247 P,0,70940,,A M,0,72140,,167,202 S,0,72140,73140,1,1.2 F,1,72140,73140,0.3,0 C,0,72140,,200,200,255 P,0,72140,,A M,0,72140,72182,167,202,168.7847,215.0031 M,0,72182,72225,168.7847,215.0031,170.5695,228.0062 M,0,72225,72268,170.5695,228.0062,172.3542,241.0093 M,0,72268,72311,172.3542,241.0093,174,253 M,0,73340,,335,335 S,0,73340,74340,1,1.2 F,1,73340,74340,0.3,0 C,0,73340,,191,255,223 P,0,73340,,A M,0,74369,,483,165 S,0,74369,75369,1,1.2 F,1,74369,75369,0.3,0 C,0,74369,,252,167,188 P,0,74369,,A M,0,74369,74411,483,165,482.1713,151.9303 M,0,74411,74454,482.1713,151.9303,480.2136,138.9747 M,0,74454,74497,480.2136,138.9747,476.232,126.5007 M,0,74497,74540,476.232,126.5007,471.1363,114.4375 M,0,75569,,400,299 S,0,75569,76569,1,1.2 F,1,75569,76569,0.3,0 C,0,75569,,130,235,247 P,0,75569,,A M,0,75569,75611,400,299,402.487,311.8872 M,0,75611,75654,402.487,311.8872,404.974,324.7744 M,0,75654,75697,404.974,324.7744,407.461,337.6617 M,0,75697,75740,407.461,337.6617,409.948,350.5489 M,0,75740,75783,409.948,350.5489,407.461,337.6617 M,0,75783,75826,407.461,337.6617,404.974,324.7744 M,0,75826,75868,404.974,324.7744,402.487,311.8872 M,0,75868,75911,402.487,311.8872,400,299
Sprite,Foreground,Centre,"sb/glow.png",0,0 M,0,55683,,139,204 S,0,55683,56683,1,1.2 F,1,55683,56683,0.3,0 C,0,55683,,200,200,255 P,0,55683,,A M,0,55683,55725,139,204,141.3479,216.9133 M,0,55725,55768,141.3479,216.9133,143.6957,229.8266 M,0,55768,55811,143.6957,229.8266,146.0436,242.7399 M,0,55811,55854,146.0436,242.7399,148.3915,255.6532 M,0,55854,55897,148.3915,255.6532,150.7393,268.5665 M,0,55897,55940,150.7393,268.5665,153.0872,281.4798 M,0,55940,55982,153.0872,281.4798,155.4351,294.3931 M,0,55982,56025,155.4351,294.3931,157.783,307.3063 M,0,57055,,83,248 S,0,57055,58055,1,1.2 F,1,57055,58055,0.3,0 C,0,57055,,191,255,223 P,0,57055,,A M,0,57055,57097,83,248,92.67926,239.2876 M,0,57097,57140,92.67926,239.2876,103.8951,232.7376 M,0,57140,57183,103.8951,232.7376,116.1526,228.5939 M,0,57183,57226,116.1526,228.5939,129.11,227.6925 M,0,58598,,391,126 S,0,58598,59598,1,1.2 F,1,58598,59598,0.3,0 C,0,58598,,252,167,188 P,0,58598,,A M,0,60140,,486,390 S,0,60140,61140,1,1.2 F,1,60140,61140,0.3,0 C,0,60140,,130,235,247 P,0,60140,,A M,0,60140,60182,486,390,485.0907,376.9065 M,0,60182,60225,485.0907,376.9065,484.1815,363.8131 M,0,60225,60268,484.1815,363.8131,483.2722,350.7196 M,0,60268,60311,483.2722,350.7196,482.3629,337.6261 M,0,61512,,359,109 S,0,61512,62512,1,1.2 F,1,61512,62512,0.3,0 C,0,61512,,200,200,255 P,0,61512,,A M,0,62540,,387,318 S,0,62540,63540,1,1.2 F,1,62540,63540,0.3,0 C,0,62540,,191,255,223 P,0,62540,,A M,0,62540,62582,387,318,374.888,322.9425 M,0,62582,62625,374.888,322.9425,362.2419,326.2326 M,0,62625,62668,362.2419,326.2326,349.2934,327.8225 M,0,62668,62711,349.2934,327.8225,336.2391,327.2431 M,0,65455,,247,295 S,0,65455,66455,1,1.2 F,1,65455,66455,0.3,0 C,0,65455,,130,235,247 P,0,65455,,A M,0,67169,,492,231 S,0,67169,68169,1,1.2 F,1,67169,68169,0.3,0 C,0,67169,,200,200,255 P,0,67169,,A M,0,68712,,281,378 S,0,68712,69712,1,1.2 F,1,68712,69712,0.3,0 C,0,68712,,252,167,188 P,0,68712,,A M,0,68712,68754,281,378,268.1111,375.5214 M,0,68754,68797,268.1111,375.5214,255.2223,373.0428 M,0,68797,68840,255.2223,373.0428,242.3335,370.5641 M,0,68840,68883,242.3335,370.5641,229.4447,368.0855 M,0,68883,68926,229.4447,368.0855,242.3335,370.5641 M,0,68926,68969,242.3335,370.5641,255.2223,373.0428 M,0,68969,69011,255.2223,373.0428,268.1112,375.5214 M,0,69011,69054,268.1112,375.5214,281,378 M,0,69740,,425,263 S,0,69740,70740,1,1.2 F,1,69740,70740,0.3,0 C,0,69740,,252,167,188 P,0,69740,,A M,0,69740,69782,425,263,427.4786,250.1112 M,0,69782,69825,427.4786,250.1112,429.9572,237.2223 M,0,69825,69868,429.9572,237.2223,432.4359,224.3335 M,0,69868,69911,432.4359,224.3335,434.9145,211.4447 M,0,71111,,246,162 S,0,71111,72111,1,1.2 F,1,71111,72111,0.3,0 C,0,71111,,130,235,247 P,0,71111,,A M,0,71111,71153,246,162,246.9093,148.9065 M,0,71153,71196,246.9093,148.9065,247.8185,135.8131 M,0,71196,71239,247.8185,135.8131,248.7278,122.7196 M,0,71239,71282,248.7278,122.7196,249.6371,109.6261 M,0,72483,,206,295 S,0,72483,73483,1,1.2 F,1,72483,73483,0.3,0 C,0,72483,,200,200,255 P,0,72483,,A M,0,73512,,335,335 S,0,73512,74512,1,1.2 F,1,73512,74512,0.3,0 C,0,73512,,191,255,223 P,0,73512,,A M,0,73512,73554,335,335,347.112,339.9425 M,0,73554,73597,347.112,339.9425,359.7581,343.2326 M,0,73597,73640,359.7581,343.2326,372.7066,344.8225 M,0,73640,73683,372.7066,344.8225,385.7609,344.2431 M,0,74712,,419,105 S,0,74712,75712,1,1.2 F,1,74712,75712,0.3,0 C,0,74712,,252,167,188 P,0,74712,,A M,0,76255,,308,245 S,0,76255,77255,1,1.2 F,1,76255,77255,0.3,0 C,0,76255,,130,235,247 P,0,76255,,A M,0,76255,76297,308,245,305.5214,232.1112 M,0,76297,76340,305.5214,232.1112,303.0428,219.2223 M,0,76340,76383,303.0428,219.2223,300.5641,206.3335 M,0,76383,76426,300.5641,206.3335,298.0855,193.4447 M,0,76426,76469,298.0855,193.4447,300.5641,206.3335 M,0,76469,76512,300.5641,206.3335,303.0428,219.2223 M,0,76512,76554,303.0428,219.2223,305.5214,232.1112 M,0,76554,76597,305.5214,232.1112,308,245
Sprite,Foreground,Centre,"sb/glow.png",0,0 M,0,59112,,366,263 S,0,59112,60112,1,1.2 F,1,59112,60112,0.3,0 C,0,59112,,130,235,247 P,0,59112,,A M,0,59112,59154,366,263,367.516,276.0372 M,0,59154,59197,367.516,276.0372,369.0319,289.0743 M,0,59197,59240,369.0319,289.0743,370.5479,302.1115 M,0,59240,59283,370.5479,302.1115,372.0638,315.1486 M,0,59283,59326,372.0638,315.1486,373.5797,328.1858 M,0,59326,59369,373.5797,328.1858,375.0957,341.223 M,0,59369,59411,375.0957,341.223,376.6116,354.2601 M,0,59411,59454,376.6116,354.2601,378.1276,367.2973 M,0,60483,,510,292 S,0,60483,61483,1,1.2 F,1,60483,61483,0.3,0 C,0,60483,,200,200,255 P,0,60483,,A M,0,62026,,398,211 S,0,62026,63026,1,1.2 F,1,62026,63026,0.3,0 C,0,62026,,191,255,223 P,0,62026,,A M,0,62026,62068,398,211,396.9933,224.0863 M,0,62068,62111,396.9933,224.0863,395.9867,237.1727 M,0,62111,62154,395.9867,237.1727,394.9801,250.259 M,0,62154,62197,394.9801,250.259,394,263 M,0,63226,,208,317 S,0,63226,64226,1,1.2 F,1,63226,64226,0.3,0 C,0,63226,,252,167,188 P,0,63226,,A M,0,65969,,291,390 S,0,65969,66969,1,1.2 F,1,65969,66969,0.3,0 C,0,65969,,200,200,255 P,0,65969,,A M,0,65969,66011,291,390,303.8798,387.4745 M,0,66011,66054,303.8798,387.4745,316.7595,384.9491 M,0,66054,66097,316.7595,384.9491,329.6392,382.4237 M,0,66097,66140,329.6392,382.4237,342,380 M,0,70083,,459,164 S,0,70083,71083,1,1.2 F,1,70083,71083,0.3,0 C,0,70083,,130,235,247 P,0,70083,,A M,0,70083,70125,459,164,445.9628,162.4841 M,0,70125,70168,445.9628,162.4841,432.9257,160.9681 M,0,70168,70211,432.9257,160.9681,419.8885,159.4521 M,0,70211,70254,419.8885,159.4521,406.8514,157.9362 M,0,70254,70297,406.8514,157.9362,393.8142,156.4203 M,0,70297,70340,393.8142,156.4203,380.777,154.9043 M,0,70340,70382,380.777,154.9043,367.7399,153.3884 M,0,70382,70425,367.7399,153.3884,354.7027,151.8724 M,0,71454,,261,58 S,0,71454,72454,1,1.2 F,1,71454,72454,0.3,0 C,0,71454,,200,200,255 P,0,71454,,A M,0,72997,,295,238 S,0,72997,73997,1,1.2 F,1,72997,73997,0.3,0 C,0,72997,,191,255,223 P,0,72997,,A M,0,72997,73039,295,238,296.0067,251.0863 M,0,73039,73082,296.0067,251.0863,297.0133,264.1727 M,0,73082,73125,297.0133,264.1727,298.0199,277.259 M,0,73125,73168,298.0199,277.259,299,290
Sprite,Foreground,Centre,"sb/glow.png",0,0 M,0,123569,,425,141 S,0,123569,124569,1,1.2 F,1,123569,124569,0.3,0 C,0,123569,,191,255,223 P,0,123569,,A M,0,123569,123611,425,141,412.0556,143.0642 M,0,123611,123654,412.0556,143.0642,398.9991,144.3085 M,0,123654,123697,398.9991,144.3085,385.8971,143.9203 M,0,123697,123740,385.8971,143.9203,372.839,142.7 M,0,124769,,279,271 S,0,124769,125769,1,1.2 F,1,124769,125769,0.3,0 C,0,124769,,191,255,223 P,0,124769,,A M,0,125969,,148,144 S,0,125969,126969,1,1.2 F,1,125969,126969,0.3,0 C,0,125969,,252,167,188 P,0,125969,,A M,0,125969,126011,148,144,149.8892,156.9883 M,0,126011,126054,149.8892,156.9883,151.7784,169.9767 M,0,126054,126097,151.7784,169.9767,153.6676,182.965 M,0,126097,126140,153.6676,182.965,155.5568,195.9533 M,0,126997,,283,286 S,0,126997,127997,1,1.2 F,1,126997,127997,0.3,0 C,0,126997,,130,235,247 P,0,126997,,A M,0,128369,,145,321 S,0,128369,129369,1,1.2 F,1,128369,129369,0.3,0 C,0,128369,,200,200,255 P,0,128369,,A M,0,129397,,183,134 S,0,129397,130397,1,1.2 F,1,129397,130397,0.3,0 C,0,129397,,191,255,223 P,0,129397,,A M,0,130426,,474,160 S,0,130426,131426,1,1.2 F,1,130426,131426,0.3,0 C,0,130426,,252,167,188 P,0,130426,,A M,0,131455,,371,314 S,0,131455,132455,1,1.2 F,1,131455,132455,0.3,0 C,0,131455,,252,167,188 P,0,131455,,A M,0,131455,131497,371,314,358.987,308.8101 M,0,131497,131540,358.987,308.8101,347.732,302.1601 M,0,131540,131583,347.732,302.1601,337.396,294.1853 M,0,131583,131626,337.396,294.1853,328.4427,284.6592 M,0,132483,,245,389 S,0,132483,133483,1,1.2 F,1,132483,133483,0.3,0 C,0,132483,,130,235,247 P,0,132483,,A M,0,132483,132525,245,389,253.118,399.2615 M,0,132525,132568,253.118,399.2615,262.3536,408.5184 M,0,132568,132611,262.3536,408.5184,273.0945,415.9798 M,0,132611,132654,273.0945,415.9798,284.6899,421.9829 M,0,132654,132697,284.6899,421.9829,297.0557,426.2741 M,0,132697,132740,297.0557,426.2741,309.9941,428.1988 M,0,132740,132782,309.9941,428.1988,323.0549,428.5285 M,0,132782,132825,323.0549,428.5285,336,427 M,0,133683,,410,364 S,0,133683,134683,1,1.2 F,1,133683,134683,0.3,0 C,0,133683,,200,200,255 P,0,133683,,A M,0,133683,133725,410,364,412.2575,351.0706 M,0,133725,133768,412.2575,351.0706,414.515,338.1412 M,0,133768,133811,414.515,338.1412,416.7726,325.2118 M,0,133811,133854,416.7726,325.2118,419.0301,312.2824 M,0,134883,,386,205 S,0,134883,135883,1,1.2 F,1,134883,135883,0.3,0 C,0,134883,,191,255,223 P,0,134883,,A M,0,134883,134925,386,205,373.1203,207.5254 M,0,134925,134968,373.1203,207.5254,360.2405,210.0509 M,0,134968,135011,360.2405,210.0509,347.3608,212.5763 M,0,135011,135054,347.3608,212.5763,335,215 M,0,135912,,191,131 S,0,135912,136912,1,1.2 F,1,135912,136912,0.3,0 C,0,135912,,252,167,188 P,0,135912,,A M,0,135912,135954,191,131,202.2382,124.2712 M,0,135954,135997,202.2382,124.2712,214.0197,118.5457 M,0,135997,136040,214.0197,118.5457,226.514,114.6229 M,0,136040,136083,226.514,114.6229,239.316,111.8992 M,0,136083,136126,239.316,111.8992,252.3783,110.9974 M,0,136126,136169,252.3783,110.9974,265.4521,111.4305 M,0,136169,136211,265.4521,111.4305,278.4241,113.3163 M,0,136211,136254,278.4241,113.3163,291.0155,116.9775 M,0,136940,,324,250 S,0,136940,137940,1,1.2 F,1,136940,137940,0.3,0 C,0,136940,,252,167,188 P,0,136940,,A M,0,136940,136982,324,250,327.6057,262.62 M,0,136982,137025,327.6057,262.62,331.2114,275.24 M,0,137025,137068,331.2114,275.24,334.8171,287.86 M,0,137068,137111,334.8171,287.86,338.4229,300.48 M,0,137969,,262,307 S,0,137969,138969,1,1.2 F,1,137969,138969,0.3,0 C,0,137969,,130,235,247 P,0,137969,,A M,0,139340,,349,317 S,0,139340,140340,1,1.2 F,1,139340,140340,0.3,0 C,0,139340,,200,200,255 P,0,139340,,A M,0,140368,,515,225 S,0,140368,141368,1,1.2 F,1,140368,141368,0.3,0 C,0,140368,,191,255,223 P,0,140368,,A M,0,141397,,248,151 S,0,141397,142397,1,1.2 F,1,141397,142397,0.3,0 C,0,141397,,252,167,188 P,0,141397,,A M,0,142426,,259,336 S,0,142426,143426,1,1.2 F,1,142426,143426,0.3,0 C,0,142426,,252,167,188 P,0,142426,,A M,0,142426,142468,259,336,258.8818,349.0848 M,0,142468,142511,258.8818,349.0848,260.0706,362.1276 M,0,142511,142554,260.0706,362.1276,263.6599,374.7088 M,0,142554,142597,263.6599,374.7088,268,386 M,0,143455,,458,395 S,0,143455,144455,1,1.2 F,1,143455,144455,0.3,0 C,0,143455,,130,235,247 P,0,143455,,A M,0,143455,143497,458,395,461.241,382.3048 M,0,143497,143540,461.241,382.3048,463.5081,369.3943 M,0,143540,143583,463.5081,369.3943,463.9436,356.3005 M,0,143583,143626,463.9436,356.3005,463.3387,343.2118 M,0,143626,143669,463.3387,343.2118,460.9489,330.3319 M,0,143669,143712,460.9489,330.3319,457.5032,317.6953 M,0,143712,143754,457.5032,317.6953,452.4004,305.6315 M,0,143754,143797,452.4004,305.6315,446.2818,294.0553 M,0,144483,,247,200 S,0,144483,145483,1,1.2 F,1,144483,145483,0.3,0 C,0,144483,,200,200,255 P,0,144483,,A M,0,144483,144525,247,200,248.5464,213.0336 M,0,144525,144568,248.5464,213.0336,250.0927,226.0672 M,0,144568,144611,250.0927,226.0672,251.6391,239.1008 M,0,144611,144654,251.6391,239.1008,253.1854,252.1344 M,0,145512,,272,345 S,0,145512,146512,1,1.2 F,1,145512,146512,0.3,0 C,0,145512,,191,255,223 P,0,145512,,A M,0,145512,145554,272,345,284.2066,342.3805 M,0,145554,145597,284.2066,342.3805,295.743,337.6149 M,0,145597,145640,295.743,337.6149,306.2053,330.8061 M,0,145640,145683,306.2053,330.8061,315.346,322.2998 M,0,145683,145726,315.346,322.2998,323.1286,312.5303 M,0,145726,145769,323.1286,312.5303,329.6629,301.8816 M,0,145769,145811,329.6629,301.8816,335.1158,290.6382 M,0,145811,145854,335.1158,290.6382,339.6547,278.9942 M,0,145854,145897,339.6547,278.9942,343.2386,267.0202 M,0,145897,145940,343.2386,267.0202,346.7751,255.0309 M,0,145940,145983,346.7751,255.0309,350.3115,243.0415 M,0,145983,146026,350.3115,243.0415,353.8479,231.0522 M,0,146026,146069,353.8479,231.0522,357.3843,219.0629 M,0,146069,146111,357.3843,219.0629,360.9207,207.0736 M,0,146111,146154,360.9207,207.0736,364.4572,195.0843 M,0,146154,146197,364.4572,195.0843,367.9936,183.0949 M,0,146197,146240,367.9936,183.0949,371.53,171.1056 M,0,146240,146283,371.53,171.1056,375.0664,159.1163 M,0,146283,146326,375.0664,159.1163,378.6028,147.127 M,0,146326,146369,378.6028,147.127,382.3478,135.2056 M,0,146369,146411,382.3478,135.2056,387.2812,123.7263 M,0,146411,146454,387.2812,123.7263,393.4763,112.8786 M,0,146454,146497,393.4763,112.8786,401.0616,102.9568 M,0,146497,146540,401.0616,102.9568,410.064,94.30377 M,0,146540,146583,410.064,94.30377,420.3533,87.23097 M,0,146583,146626,420.3533,87.23097,431.6514,81.91304 M,0,146626,146669,431.6514,81.91304,443.6182,78.33714 M,0,146669,146711,443.6182,78.33714,455.9507,76.3441 M,0,146711,146754,455.9507,76.3441,466.7901,81.00258 M,0,146754,146797,466.7901,81.00258,476.0282,89.40954 M,0,146797,146840,476.0282,89.40954,483.9508,99.06151 M,0,146840,146883,483.9508,99.06151,490.1628,109.8904 M,0,146883,146926,490.1628,109.8904,494.366,121.645 M,0,146926,146969,494.366,121.645,496.4857,133.9494 M,0,146969,147011,496.4857,133.9494,496.6808,146.4372 M,0,147011,147054,496.6808,146.4372,495.2412,158.8466 M,0,147054,147097,495.2412,158.8466,492.481,171.0336 M,0,147097,147140,492.481,171.0336,489.4294,183.1554 M,0,147140,147183,489.4294,183.1554,486.3778,195.2772 M,0,147183,147226,486.3778,195.2772,483.3261,207.399 M,0,147226,147269,483.3261,207.399,480.2745,219.5208 M,0,147269,147311,480.2745,219.5208,477.2229,231.6425 M,0,147311,147354,477.2229,231.6425,474.1712,243.7643 M,0,147354,147397,474.1712,243.7643,471.1196,255.8861 M,0,147397,147440,471.1196,255.8861,468.068,268.0079 M,0,147440,147483,468.068,268.0079,465.0163,280.1296 M,0,147483,147526,465.0163,280.1296,461.9647,292.2514 M,0,147526,147569,461.9647,292.2514,458.913,304.3732 M,0,147569,147611,458.913,304.3732,456.4648,316.6226 M,0,147611,147654,456.4648,316.6226,455.3583,329.0678 M,0,147654,147697,455.3583,329.0678,455.58,341.5598 M,0,147697,147740,455.58,341.5598,457.1358,353.9567 M,0,147740,147783,457.1358,353.9567,459.9726,366.125 M,0,147783,147826,459.9726,366.125,463.9904,377.9567 M,0,147826,147869,463.9904,377.9567,469.0605,389.3781 M,0,147869,147911,469.0605,389.3781,475.0456,400.3485
Sprite,Foreground,Centre,"sb/glow.png",0,0 M,0,123912,,334,106 S,0,123912,124912,1,1.2 F,1,123912,124912,0.3,0 C,0,123912,,191,255,223 P,0,123912,,A M,0,123912,123954,334,106,320.9684,104.5868 M,0,123954,123997,320.9684,104.5868,307.8705,104.2625 M,0,123997,124040,307.8705,104.2625,294.7957,104.9891 M,0,124040,124083,294.7957,104.9891,281.8128,106.8553 M,0,124940,,264,321 S,0,124940,125940,1,1.2 F,1,124940,125940,0.3,0 C,0,124940,,252,167,188 P,0,124940,,A M,0,124940,124982,264,321,250.927,319.8328 M,0,124982,125025,250.927,319.8328,237.854,318.6655 M,0,125025,125068,237.854,318.6655,224.781,317.4983 M,0,125068,125111,224.781,317.4983,211.708,316.3311 M,0,125111,125154,211.708,316.3311,198.635,315.1638 M,0,125154,125197,198.635,315.1638,185.562,313.9966 M,0,125197,125239,185.562,313.9966,172.489,312.8294 M,0,125239,125282,172.489,312.8294,159.416,311.6621 M,0,126312,,196,229 S,0,126312,127312,1,1.2 F,1,126312,127312,0.3,0 C,0,126312,,130,235,247 P,0,126312,,A M,0,126312,126354,196,229,208.8124,227.2026 M,0,126354,126397,208.8124,227.2026,220.5872,221.9947 M,0,126397,126440,220.5872,221.9947,230.4257,213.8334 M,0,126440,126483,230.4257,213.8334,236.9556,202.737 M,0,126483,126526,236.9556,202.737,230.4257,213.8334 M,0,126526,126569,230.4257,213.8334,220.5872,221.9947 M,0,126569,126611,220.5872,221.9947,208.8124,227.2026 M,0,126611,126654,208.8124,227.2026,196,229 M,0,127340,,353,353 S,0,127340,128340,1,1.2 F,1,127340,128340,0.3,0 C,0,127340,,130,235,247 P,0,127340,,A M,0,127340,127382,353,353,350.6861,365.9194 M,0,127382,127425,350.6861,365.9194,348.3722,378.8388 M,0,127425,127468,348.3722,378.8388,346.0582,391.7582 M,0,127468,127511,346.0582,391.7582,343.7443,404.6777 M,0,128540,,145,321 S,0,128540,129540,1,1.2 F,1,128540,129540,0.3,0 C,0,128540,,200,200,255 P,0,128540,,A M,0,129740,,279,93 S,0,129740,130740,1,1.2 F,1,129740,130740,0.3,0 C,0,129740,,191,255,223 P,0,129740,,A M,0,129740,129782,279,93,292.1226,93.25236 M,0,129782,129825,292.1226,93.25236,305.2451,93.50471 M,0,129825,129868,305.2451,93.50471,318.3677,93.75707 M,0,129868,129911,318.3677,93.75707,331,94 M,0,130940,,458,266 S,0,130940,131940,1,1.2 F,1,130940,131940,0.3,0 C,0,130940,,252,167,188 P,0,130940,,A M,0,132140,,223,287 S,0,132140,133140,1,1.2 F,1,132140,133140,0.3,0 C,0,132140,,130,235,247 P,0,132140,,A M,0,132140,132182,223,287,223.8287,300.0697 M,0,132182,132225,223.8287,300.0697,225.7864,313.0253 M,0,132225,132268,225.7864,313.0253,229.768,325.4993 M,0,132268,132311,229.768,325.4993,234.8637,337.5626 M,0,133169,,436,411 S,0,133169,134169,1,1.2 F,1,133169,134169,0.3,0 C,0,133169,,200,200,255 P,0,133169,,A M,0,133169,133211,436,411,449.064,409.7357 M,0,133211,133254,449.064,409.7357,462.1279,408.4715 M,0,133254,133297,462.1279,408.4715,475.1919,407.2072 M,0,133297,133340,475.1919,407.2072,488.2559,405.943 M,0,133340,133383,488.2559,405.943,475.1919,407.2072 M,0,133383,133426,475.1919,407.2072,462.1279,408.4715 M,0,133426,133468,462.1279,408.4715,449.064,409.7357 M,0,133468,133511,449.064,409.7357,436,411 M,0,134198,,464,283 S,0,134198,135198,1,1.2 F,1,134198,135198,0.3,0 C,0,134198,,200,200,255 P,0,134198,,A M,0,135226,,299,254 S,0,135226,136226,1,1.2 F,1,135226,136226,0.3,0 C,0,135226,,191,255,223 P,0,135226,,A M,0,135226,135268,299,254,285.9591,255.3524 M,0,135268,135311,285.9591,255.3524,272.8593,255.8221 M,0,135311,135354,272.8593,255.8221,259.7828,254.9026 M,0,135354,135397,259.7828,254.9026,246.8206,252.9966 M,0,135397,135440,246.8206,252.9966,234.054,250.0008 M,0,135440,135483,234.054,250.0008,221.6994,245.6157 M,0,135483,135525,221.6994,245.6157,209.6928,240.3643 M,0,135525,135568,209.6928,240.3643,198.1681,234.0976 M,0,136598,,382,170 S,0,136598,137598,1,1.2 F,1,136598,137598,0.3,0 C,0,136598,,252,167,188 P,0,136598,,A M,0,136598,136640,382,170,378.3943,182.62 M,0,136640,136683,378.3943,182.62,374.7886,195.24 M,0,136683,136726,374.7886,195.24,371.1829,207.86 M,0,136726,136769,371.1829,207.86,367.5771,220.48 M,0,138141,,211,298 S,0,138141,139141,1,1.2 F,1,138141,139141,0.3,0 C,0,138141,,130,235,247 P,0,138141,,A M,0,139511,,349,317 S,0,139511,140511,1,1.2 F,1,139511,140511,0.3,0 C,0,139511,,200,200,255 P,0,139511,,A M,0,140711,,451,141 S,0,140711,141711,1,1.2 F,1,140711,141711,0.3,0 C,0,140711,,191,255,223 P,0,140711,,A M,0,140711,140753,451,141,437.8774,140.7477 M,0,140753,140796,437.8774,140.7477,424.7549,140.4953 M,0,140796,140839,424.7549,140.4953,411.6323,140.2429 M,0,140839,140882,411.6323,140.2429,399,140 M,0,141912,,288,249 S,0,141912,142912,1,1.2 F,1,141912,142912,0.3,0 C,0,141912,,252,167,188 P,0,141912,,A M,0,142940,,362,434 S,0,142940,143940,1,1.2 F,1,142940,143940,0.3,0 C,0,142940,,130,235,247 P,0,142940,,A M,0,142940,142982,362,434,375.0771,434.5309 M,0,142982,143025,375.0771,434.5309,388.1515,433.7768 M,0,143025,143068,388.1515,433.7768,400.8704,430.7018 M,0,143068,143111,400.8704,430.7018,412,427 M,0,144140,,358,235 S,0,144140,145140,1,1.2 F,1,144140,145140,0.3,0 C,0,144140,,200,200,255 P,0,144140,,A
Sprite,Foreground,Centre,"sb/glow.png",0,0 M,0,124255,,238,137 S,0,124255,125255,1,1.2 F,1,124255,125255,0.3,0 C,0,124255,,191,255,223 P,0,124255,,A M,0,124255,124297,238,137,231.315,148.23 M,0,124297,124340,231.315,148.23,226.0767,160.2084 M,0,124340,124383,226.0767,160.2084,223.5468,173.0247 M,0,124383,124426,223.5468,173.0247,222.7498,186.0541 M,0,124426,124469,222.7498,186.0541,224.6649,198.972 M,0,124469,124512,224.6649,198.972,228.3945,211.4653 M,0,124512,124554,228.3945,211.4653,234.5303,222.9894 M,0,124554,124597,234.5303,222.9894,242.3239,233.4277 M,0,125626,,98,226 S,0,125626,126626,1,1.2 F,1,125626,126626,0.3,0 C,0,125626,,252,167,188 P,0,125626,,A M,0,125626,125668,98,226,99.88921,213.0117 M,0,125668,125711,99.88921,213.0117,101.7784,200.0234 M,0,125711,125754,101.7784,200.0234,103.6676,187.035 M,0,125754,125797,103.6676,187.035,105.5568,174.0467 M,0,127169,,332,305 S,0,127169,128169,1,1.2 F,1,127169,128169,0.3,0 C,0,127169,,130,235,247 P,0,127169,,A M,0,128711,,145,321 S,0,128711,129711,1,1.2 F,1,128711,129711,0.3,0 C,0,128711,,200,200,255 P,0,128711,,A M,0,128711,128753,145,321,145.9093,307.9066 M,0,128753,128796,145.9093,307.9066,146.8185,294.813 M,0,128796,128839,146.8185,294.813,147.7278,281.7196 M,0,128839,128882,147.7278,281.7196,148.6371,268.6261 M,0,130083,,384,97 S,0,130083,131083,1,1.2 F,1,130083,131083,0.3,0 C,0,130083,,191,255,223 P,0,130083,,A M,0,131112,,458,266 S,0,131112,132112,1,1.2 F,1,131112,132112,0.3,0 C,0,131112,,252,167,188 P,0,131112,,A M,0,131112,131154,458,266,445.888,270.9424 M,0,131154,131197,445.888,270.9424,433.2419,274.2325 M,0,131197,131240,433.2419,274.2325,420.2934,275.8225 M,0,131240,131283,420.2934,275.8225,407.2391,275.2431 M,0,134026,,464,283 S,0,134026,135026,1,1.2 F,1,134026,135026,0.3,0 C,0,134026,,200,200,255 P,0,134026,,A M,0,135740,,182,183 S,0,135740,136740,1,1.2 F,1,135740,136740,0.3,0 C,0,135740,,191,255,223 P,0,135740,,A M,0,137283,,360,348 S,0,137283,138283,1,1.2 F,1,137283,138283,0.3,0 C,0,137283,,130,235,247 P,0,137283,,A M,0,137283,137325,360,348,372.8782,350.5334 M,0,137325,137368,372.8782,350.5334,385.7563,353.0668 M,0,137368,137411,385.7563,353.0668,398.6345,355.6003 M,0,137411,137454,398.6345,355.6003,411.5127,358.1336 M,0,137454,137497,411.5127,358.1336,398.6345,355.6002 M,0,137497,137540,398.6345,355.6002,385.7563,353.0668 M,0,137540,137582,385.7563,353.0668,372.8782,350.5334 M,0,137582,137625,372.8782,350.5334,360,348 M,0,138311,,159,291 S,0,138311,139311,1,1.2 F,1,138311,139311,0.3,0 C,0,138311,,130,235,247 P,0,138311,,A M,0,138311,138353,159,291,161.7672,303.83 M,0,138353,138396,161.7672,303.83,164.5345,316.6599 M,0,138396,138439,164.5345,316.6599,167.3017,329.4899 M,0,138439,138482,167.3017,329.4899,170,342 M,0,139683,,399,299 S,0,139683,140683,1,1.2 F,1,139683,140683,0.3,0 C,0,139683,,200,200,255 P,0,139683,,A M,0,139683,139725,399,299,412.0935,298.0907 M,0,139725,139768,412.0935,298.0907,425.1869,297.1815 M,0,139768,139811,425.1869,297.1815,438.2804,296.2722 M,0,139811,139854,438.2804,296.2722,451.3739,295.3629 M,0,141054,,349,158 S,0,141054,142054,1,1.2 F,1,141054,142054,0.3,0 C,0,141054,,191,255,223 P,0,141054,,A M,0,142083,,288,249 S,0,142083,143083,1,1.2 F,1,142083,143083,0.3,0 C,0,142083,,252,167,188 P,0,142083,,A M,0,142083,142125,288,249,292.9424,261.112 M,0,142125,142168,292.9424,261.112,296.2325,273.7581 M,0,142168,142211,296.2325,273.7581,297.8225,286.7066 M,0,142211,142254,297.8225,286.7066,297.2431,299.7609 M,0,143283,,458,395 S,0,143283,144283,1,1.2 F,1,143283,144283,0.3,0 C,0,143283,,130,235,247 P,0,143283,,A M,0,144311,,304,214 S,0,144311,145311,1,1.2 F,1,144311,145311,0.3,0 C,0,144311,,200,200,255 P,0,144311,,A
Sprite,Foreground,Centre,"sb/glow.png",0,0 M,0,127683,,292,418 S,0,127683,128683,1,1.2 F,1,127683,128683,0.3,0 C,0,127683,,200,200,255 P,0,127683,,A M,0,127683,127725,292,418,278.9628,416.484 M,0,127725,127768,278.9628,416.484,265.9257,414.9681 M,0,127768,127811,265.9257,414.9681,252.8885,413.4521 M,0,127811,127854,252.8885,413.4521,239.8514,411.9362 M,0,127854,127897,239.8514,411.9362,226.8142,410.4203 M,0,127897,127940,226.8142,410.4203,213.7771,408.9043 M,0,127940,127982,213.7771,408.9043,200.7399,407.3884 M,0,127982,128025,200.7399,407.3884,187.7027,405.8724 M,0,129054,,192,239 S,0,129054,130054,1,1.2 F,1,129054,130054,0.3,0 C,0,129054,,191,255,223 P,0,129054,,A M,0,130597,,474,160 S,0,130597,131597,1,1.2 F,1,130597,131597,0.3,0 C,0,130597,,252,167,188 P,0,130597,,A M,0,130597,130639,474,160,472.9933,173.0863 M,0,130639,130682,472.9933,173.0863,471.9867,186.1727 M,0,130682,130725,471.9867,186.1727,470.9801,199.259 M,0,130725,130768,470.9801,199.259,470,212 M,0,131797,,314,234 S,0,131797,132797,1,1.2 F,1,131797,132797,0.3,0 C,0,131797,,130,235,247 P,0,131797,,A M,0,134540,,476,179 S,0,134540,135540,1,1.2 F,1,134540,135540,0.3,0 C,0,134540,,191,255,223 P,0,134540,,A M,0,134540,134582,476,179,463.1203,176.4746 M,0,134582,134625,463.1203,176.4746,450.2405,173.9491 M,0,134625,134668,450.2405,173.9491,437.3608,171.4237 M,0,134668,134711,437.3608,171.4237,425,169 M,0,138655,,190,391 S,0,138655,139655,1,1.2 F,1,138655,139655,0.3,0 C,0,138655,,200,200,255 P,0,138655,,A M,0,138655,138697,190,391,198.9104,400.512 M,0,138697,138740,198.9104,400.512,209.2955,408.3622 M,0,138740,138783,209.2955,408.3622,221.4028,413.1518 M,0,138783,138826,221.4028,413.1518,234.156,415.5462 M,0,138826,138869,234.156,415.5462,247.2064,415.1701 M,0,138869,138912,247.2064,415.1701,259.6054,411.1711 M,0,138912,138954,259.6054,411.1711,271.0739,405.0493 M,0,138954,138997,271.0739,405.0493,280.5682,396.1448 M,0,140025,,491,328 S,0,140025,141025,1,1.2 F,1,140025,141025,0.3,0 C,0,140025,,191,255,223 P,0,140025,,A M,0,141568,,248,151 S,0,141568,142568,1,1.2 F,1,141568,142568,0.3,0 C,0,141568,,252,167,188 P,0,141568,,A M,0,141568,141610,248,151,249.0066,164.0863 M,0,141610,141653,249.0066,164.0863,250.0133,177.1727 M,0,141653,141696,250.0133,177.1727,251.0199,190.259 M,0,141696,141739,251.0199,190.259,252,203 M,0,144826,,244,304 S,0,144826,145826,1,1.2 F,1,144826,145826,0.3,0 C,0,144826,,200,200,255 P,0,144826,,A M,0,144826,144868,244,304,234.6798,313.1721 M,0,144868,144911,234.6798,313.1721,224.2959,321.1052 M,0,144911,144954,224.2959,321.1052,212.5607,326.8576 M,0,144954,144997,212.5607,326.8576,200.1596,330.9051 M,0,144997,145040,200.1596,330.9051,187.239,332.9757 M,0,145040,145083,187.239,332.9757,174.1801,332.372 M,0,145083,145125,174.1801,332.372,187.239,332.9757 M,0,145125,145168,187.239,332.9757,200.1596,330.9051 M,0,145168,145211,200.1596,330.9051,212.5607,326.8576 M,0,145211,145254,212.5607,326.8576,224.2959,321.1052 M,0,145254,145297,224.2959,321.1052,234.6798,313.1721 M,0,145297,145340,234.6798,313.1721,244,304
//Storyboard Sound Samples

[TimingPoints]
141,342.857142857,4,2,11,50,1,0
141,-100,4,2,11,50,0,0
8369,-100,4,2,11,60,0,0
11455,-100,4,2,11,70,0,0
32369,-100,4,2,11,75,0,0
32626,-100,4,2,11,80,0,0
32883,-100,4,2,11,85,0,0
33055,-100,4,2,11,70,0,0
53626,-100,4,2,11,75,0,0
54312,-100,4,2,11,80,0,0
54655,-100,4,2,11,85,0,0
54998,-95.2380952380952,4,2,11,90,0,0
76940,-100,4,2,11,50,0,0
76941,-100,4,2,11,50,0,0
82426,-100,4,2,11,55,0,0
86540,-100,4,2,11,55,0,0
87740,-100,4,2,11,55,0,0
87912,-100,4,2,11,60,0,0
96141,-100,4,2,11,70,0,0
97512,-100,4,2,11,80,0,0
98198,-100,4,2,11,85,0,0
98455,-100,4,2,11,90,0,0
98712,-100,4,2,11,95,0,0
98883,-100,4,2,11,30,0,0
99226,-100,4,2,11,40,0,0
99569,-100,4,2,11,50,0,0
99912,-100,4,2,11,60,0,0
100255,-100,4,2,11,70,0,0
101626,-100,4,2,11,85,0,0
122883,-100,4,2,11,90,0,0
123226,-100,4,2,11,95,0,0
123569,-95.2380952380952,4,2,11,100,0,0
145512,-100,4,2,11,100,0,0
145598,-100,4,2,12,30,0,0
147912,-100,4,2,12,5,0,0

[Colours]
Combo1 : 191,255,223
Combo2 : 252,167,188
Combo3 : 130,235,247
Combo4 : 200,200,255

[HitObjects]
70,205,141,6,0,L|95:362,2,150,6|2|2,3:2|0:0|0:0,0:0:0:0:
166,110,1683,1,2,0:0:0:0:
166,110,1855,1,2,0:0:0:0:
254,93,2198,2,0,P|281:91|308:101,1,50,2|2,0:0|0:0,0:0:0:0:
332,131,2540,1,10,0:0:0:0:
264,190,2883,6,0,L|239:347,2,150,2|2|2,3:2|3:2|0:0,0:0:0:0:
143,128,4426,2,0,L|133:60,1,50,2|0,0:0|0:0,0:0:0:0:
140,37,4769,1,2,0:0:0:0:
140,37,4940,2,0,L|208:27,1,50,2|2,0:0|0:0,0:0:0:0:
233,20,5283,1,10,0:0:0:0:
305,72,5626,6,0,B|383:95|383:21|466:42,2,150,4|2|2,3:1|3:2|3:2,0:0:0:0:
420,141,7169,1,2,3:2:0:0:
409,233,7512,1,2,3:2:0:0:
409,233,7683,2,0,P|433:230|457:221,1,50,2|2,3:2|3:2,0:0:0:0:
471,263,8026,2,0,P|468:287|459:311,1,50,10|2,3:2|3:2,0:0:0:0:
420,335,8369,5,6,3:2:0:0:
286,317,8883,1,6,3:2:0:0:
152,296,9398,1,6,3:2:0:0:
139,207,9740,2,0,L|131:134,1,50,2|2,3:2|3:2,0:0:0:0:
165,125,10083,2,0,L|173:52,1,50,2|2,3:2|3:2,0:0:0:0:
137,44,10426,2,0,P|75:17|36:37,1,100,6|6,0:0|3:2,0:0:0:0:
37,116,11112,6,0,L|43:179,1,50,2|2,0:0|0:0,0:0:0:0:
45,210,11455,1,4,0:0:0:0:
122,254,11798,1,2,3:2:0:0:
114,343,12141,1,10,0:0:0:0:
199,371,12483,6,0,L|205:308,1,50,2|2,3:2|0:0,0:0:0:0:
209,276,12826,1,10,0:0:0:0:
262,203,13169,1,2,3:2:0:0:
223,121,13512,1,10,0:0:0:0:
286,56,13855,6,0,P|364:41|397:56,1,100,2|10,3:2|0:0,0:0:0:0:
342,128,14540,1,2,3:2:0:0:
416,179,14883,2,0,L|428:251,1,50,10|2,0:0|0:0,0:0:0:0:
430,273,15226,6,0,P|392:322|347:342,1,100,2|10,3:2|0:0,0:0:0:0:
281,292,15912,2,0,P|278:263|294:226,2,50,2|2|10,3:2|0:0|0:0,0:0:0:0:
256,331,16426,1,2,3:2:0:0:
256,331,16598,6,0,P|190:359|152:345,1,100,2|10,3:2|0:0,0:0:0:0:
104,286,17283,2,0,P|169:257|207:271,1,100,2|10,3:2|0:0,0:0:0:0:
283,243,17969,5,2,3:2:0:0:
254,157,18312,1,10,0:0:0:0:
274,69,18655,2,0,L|173:52,1,100,2|10,3:2|0:0,0:0:0:0:
88,29,19340,6,0,P|92:71|61:144,1,100,2|10,3:2|0:0,0:0:0:0:
46,160,19855,2,0,P|49:197|81:266,1,100,2|2,0:0|0:0,0:0:0:0:
111,277,20369,1,10,0:0:0:0:
152,197,20712,6,0,P|180:218|198:285,1,100,2|10,3:2|0:0,0:0:0:0:
256,346,21398,2,0,L|317:329,1,50,2|2,3:2|3:2,0:0:0:0:
339,304,21740,2,0,L|400:321,1,50,10|2,0:0|3:2,0:0:0:0:
430,303,22083,5,6,0:0:0:0:
450,215,22426,1,10,0:0:0:0:
389,148,22769,2,0,L|281:168,1,100,2|10,3:2|0:0,0:0:0:0:
229,232,23455,1,0,3:2:0:0:
157,177,23798,1,8,0:0:0:0:
85,231,24140,2,0,L|79:281,2,50,0|2|10,3:2|0:0|0:0,0:0:0:0:
65,190,24655,1,2,0:0:0:0:
65,190,24826,6,0,L|84:86,1,100,2|10,3:2|0:0,0:0:0:0:
154,36,25512,1,2,3:2:0:0:
238,67,25855,2,0,L|296:76,1,50,10|2,0:0|0:0,0:0:0:0:
330,60,26198,2,0,P|362:94|363:159,1,100,2|10,3:2|0:0,0:0:0:0:
340,231,26883,2,0,P|341:322|347:333,1,100,2|10,3:2|0:0,0:0:0:0:
373,368,27398,1,2,3:2:0:0:
373,368,27569,5,6,3:2:0:0:
283,379,27912,2,0,P|217:354|208:326,1,100,10|2,0:0|3:2,0:0:0:0:
229,243,28598,1,10,0:0:0:0:
229,243,28769,1,2,3:2:0:0:
229,243,28940,6,0,P|181:203|145:197,1,100,6|10,3:2|0:0,0:0:0:0:
66,239,29626,1,2,3:2:0:0:
84,336,29969,1,10,0:0:0:0:
84,336,30140,1,2,3:2:0:0:
84,336,30312,6,0,L|189:357,1,100,6|10,3:2|0:0,0:0:0:0:
257,306,30998,2,0,L|355:286,1,100,6|10,3:2|0:0,0:0:0:0:
434,329,31683,5,6,3:2:0:0:
449,240,32026,1,10,3:2:0:0:
464,151,32369,2,0,L|472:95,1,50,14|0,3:2|3:2,0:0:0:0:
428,85,32712,2,0,L|420:29,1,50,2|6,3:2|3:2,0:0:0:0:
375,33,33055,5,6,3:2:0:0:
320,105,33398,2,0,P|272:116|220:97,2,100,10|2|10,0:0|3:2|0:0,0:0:0:0:
279,24,34426,5,0,3:2:0:0:
189,14,34769,1,8,0:0:0:0:
127,79,35112,1,2,3:2:0:0:
127,79,35283,2,0,L|141:189,1,100,2|0,0:0|0:0,0:0:0:0:
172,209,35798,6,0,L|242:220,2,50,2|0|10,3:2|0:0|0:0,0:0:0:0:
144,244,36312,2,0,P|98:285|44:292,1,100,2|2,0:0|0:0,0:0:0:0:
23,283,36826,1,10,0:0:0:0:
23,283,36998,1,2,0:0:0:0:
129,366,37512,5,8,0:0:0:0:
214,331,37855,1,2,3:2:0:0:
214,331,38026,2,0,B|266:314|257:352|324:334,1,100,2|2,0:0|0:0,0:0:0:0:
354,323,38540,6,0,L|362:214,1,100,2|10,3:2|0:0,0:0:0:0:
368,178,39055,1,2,0:0:0:0:
411,99,39398,1,2,0:0:0:0:
500,87,39740,1,2,0:0:0:0:
500,87,39912,6,0,P|506:140|475:194,1,100,2|10,3:2|0:0,0:0:0:0:
423,245,40598,1,2,3:2:0:0:
423,245,40769,2,0,L|317:262,1,100,2|2,0:0|0:0,0:0:0:0:
292,228,41283,6,0,P|256:196|192:209,1,100,2|10,3:2|0:0,0:0:0:0:
189,241,41798,2,0,P|148:288|95:301,1,100,2|2,0:0|0:0,0:0:0:0:
75,319,42312,1,10,0:0:0:0:
75,319,42484,1,2,0:0:0:0:
56,231,42826,6,0,L|44:125,2,100,2|2|0,0:0|0:0|0:0,0:0:0:0:
145,205,43855,1,2,3:2:0:0:
145,205,44026,5,6,3:2:0:0:
127,116,44369,2,0,P|188:126|222:169,1,100,10|2,0:0|3:2,0:0:0:0:
258,157,44883,2,0,L|308:164,1,50,2|8,0:0|0:0,0:0:0:0:
352,167,45226,1,2,0:0:0:0:
480,125,45740,5,10,0:0:0:0:
490,218,46083,1,2,3:2:0:0:
490,218,46255,2,0,L|496:325,1,100,2|2,0:0|0:0,0:0:0:0:
474,357,46769,6,0,P|440:342|412:281,1,100,2|10,3:2|0:0,0:0:0:0:
392,247,47283,2,0,P|337:213|291:233,1,100,2|2,0:0|0:0,0:0:0:0:
284,262,47798,1,10,0:0:0:0:
284,262,47969,1,2,0:0:0:0:
166,328,48483,5,10,0:0:0:0:
80,319,48826,1,2,3:2:0:0:
80,319,48998,2,0,P|97:272|137:245,1,100,2|2,0:0|0:0,0:0:0:0:
156,203,49512,6,0,L|167:102,1,100,2|10,3:2|0:0,0:0:0:0:
188,65,50026,1,2,0:0:0:0:
280,103,50369,1,2,0:0:0:0:
303,194,50712,1,2,0:0:0:0:
303,194,50883,6,0,L|232:206,1,50,0|2,3:2|0:0,0:0:0:0:
226,238,51226,1,10,0:0:0:0:
308,285,51569,1,2,3:2:0:0:
308,285,51740,2,0,L|294:386,1,100,2|2,0:0|0:0,0:0:0:0:
345,384,52255,6,0,P|401:368|429:319,1,100,6|10,3:2|0:0,0:0:0:0:
487,271,52940,2,0,P|477:218|437:182,1,100,2|10,3:2|0:0,0:0:0:0:
404,185,53455,1,2,3:2:0:0:
404,185,53626,6,0,L|391:116,1,50,4|2,3:2|3:2,0:0:0:0:
428,105,53969,2,0,L|441:36,1,50,10|2,3:2|3:2,0:0:0:0:
401,28,54312,1,4,3:2:0:0:
311,35,54655,1,14,3:2:0:0:
218,52,54998,6,0,L|150:64,1,52.4999983978272,4|2,0:0|0:0,0:0:0:0:
147,109,55340,2,0,L|79:97,1,52.4999983978272,10|2,0:0|0:0,0:0:0:0:
75,148,55683,2,0,L|95:258,1,104.999996795654,2|10,3:2|0:0,0:0:0:0:
137,281,56198,1,2,0:0:0:0:
116,329,56369,6,0,P|61:330|21:285,1,104.999996795654,2|10,3:2|0:0,0:0:0:0:
19,192,57055,2,0,P|45:174|74:172,1,52.4999983978272,2|2,3:2|0:0,0:0:0:0:
117,180,57398,2,0,P|142:174|163:159,1,52.4999983978272,10|2,0:0|0:0,0:0:0:0:
200,122,57740,6,0,L|260:139,2,52.4999983978272,0|2|10,3:2|0:0|0:0,0:0:0:0:
278,51,58426,1,2,3:2:0:0:
327,70,58598,1,2,0:0:0:0:
348,118,58769,2,0,L|336:185,1,52.4999983978272,10|2,0:0|0:0,0:0:0:0:
302,207,59112,6,0,L|317:336,1,104.999996795654,2|10,3:2|0:0,0:0:0:0:
400,382,59798,1,2,3:2:0:0:
400,382,59969,1,2,0:0:0:0:
422,334,60140,2,0,L|417:262,1,52.4999983978272,10|2,0:0|0:0,0:0:0:0:
446,236,60483,5,2,3:2:0:0:
469,133,60826,1,10,0:0:0:0:
401,56,61169,2,0,L|333:54,1,52.4999983978272,2|2,3:2|0:0,0:0:0:0:
295,53,61512,1,10,0:0:0:0:
334,155,61855,5,2,3:2:0:0:
334,155,62026,2,0,L|330:207,1,52.4999983978272,2|8,0:0|0:0,0:0:0:0:
323,262,62369,1,2,0:0:0:0:
323,262,62540,2,0,P|288:272|255:268,1,52.4999983978272,2|2,3:2|0:0,0:0:0:0:
236,310,62883,2,0,P|204:292|183:266,1,52.4999983978272,10|2,0:0|0:0,0:0:0:0:
144,261,63226,5,2,3:2:0:0:
110,163,63569,2,0,P|100:116|90:99,1,52.4999983978272,10|2,0:0|0:0,0:0:0:0:
48,94,63912,2,0,P|12:142|16:207,1,104.999996795654,2|10,3:2|0:0,0:0:0:0:
33,288,64598,6,0,L|20:348,2,52.4999983978272,2|2|10,3:2|0:0|0:0,0:0:0:0:
83,272,65112,2,0,L|149:261,1,52.4999983978272,2|2,0:0|3:2,0:0:0:0:
183,239,65455,1,2,0:0:0:0:
183,239,65626,1,10,0:0:0:0:
227,334,65969,6,0,L|278:324,1,52.4999983978272,6|2,3:2|0:0,0:0:0:0:
327,342,66312,2,0,L|378:352,1,52.4999983978272,10|2,0:0|0:0,0:0:0:0:
404,306,66655,2,0,P|385:259|385:202,1,104.999996795654,2|10,3:2|0:0,0:0:0:0:
428,175,67169,1,2,0:0:0:0:
407,126,67340,6,0,P|352:125|312:170,1,104.999996795654,2|10,3:2|0:0,0:0:0:0:
246,235,68026,2,0,P|272:253|301:255,1,52.4999983978272,2|2,3:2|0:0,0:0:0:0:
316,302,68369,2,0,P|290:320|261:322,1,52.4999983978272,10|2,0:0|0:0,0:0:0:0:
217,322,68712,6,0,L|165:312,2,52.4999983978272,2|2|10,3:2|0:0|0:0,0:0:0:0:
259,225,69398,1,2,3:2:0:0:
310,216,69570,1,2,0:0:0:0:
361,207,69740,2,0,L|371:155,1,52.4999983978272,10|2,0:0|0:0,0:0:0:0:
395,108,70083,6,0,L|266:93,1,104.999996795654,2|10,3:2|0:0,0:0:0:0:
204,154,70769,1,2,3:2:0:0:
204,154,70940,1,2,0:0:0:0:
182,106,71111,2,0,L|187:34,1,52.4999983978272,10|2,0:0|0:0,0:0:0:0:
197,2,71454,5,2,3:2:0:0:
100,42,71797,1,10,0:0:0:0:
103,146,72140,2,0,L|110:197,1,52.4999983978272,2|2,3:2|0:0,0:0:0:0:
142,239,72483,1,10,0:0:0:0:
231,182,72826,5,2,3:2:0:0:
231,182,72997,2,0,L|235:234,1,52.4999983978272,2|10,0:0|0:0,0:0:0:0:
271,279,73340,1,2,0:0:0:0:
271,279,73512,2,0,P|306:289|339:285,1,52.4999983978272,2|2,3:2|0:0,0:0:0:0:
361,253,73855,2,0,P|362:226|370:202,1,52.4999983978272,10|2,0:0|0:0,0:0:0:0:
419,109,74369,6,0,P|409:62|399:45,1,52.4999983978272,2|10,0:0|0:0,0:0:0:0:
355,49,74712,1,2,0:0:0:0:
355,49,74883,2,0,P|319:97|323:162,1,104.999996795654,2|10,3:2|0:0,0:0:0:0:
336,243,75569,6,0,L|347:300,2,52.4999983978272,2|2|10,3:2|0:0|0:0,0:0:0:0:
289,217,76083,1,2,0:0:0:0:
244,189,76255,2,0,L|234:137,2,52.4999983978272,2|2|10,3:2|0:0|0:0,0:0:0:0:
172,259,76940,1,6,0:0:0:0:
118,75,87740,5,2,3:2:0:0:
118,75,87912,1,6,0:0:0:0:
203,101,88255,1,10,0:0:0:0:
217,189,88598,2,0,P|233:243|251:276,2,75,2|2|10,0:0|0:0|0:0,0:0:0:0:
172,184,89283,6,0,P|138:190|120:204,1,50,8|2,0:3|0:0,0:0:0:0:
105,238,89626,1,10,0:0:0:0:
116,327,89969,2,0,L|171:335,1,50,2|8,0:0|0:0,0:0:0:0:
197,366,90312,2,0,L|252:358,1,50,8|2,0:3|0:0,0:0:0:0:
288,375,90655,5,4,0:0:0:0:
322,291,90998,1,10,0:0:0:0:
403,316,91340,2,0,P|444:312|473:296,2,75,2|2|2,0:0|0:0|0:0,0:0:0:0:
416,272,92026,6,0,P|421:233|418:213,1,50,8|2,0:3|0:0,0:0:0:0:
404,180,92369,1,10,0:0:0:0:
457,107,92712,2,0,P|426:89|403:85,1,50,2|2,0:0|0:3,0:0:0:0:
375,59,93055,2,0,P|343:76|328:94,1,50,8|2,0:3|3:2,0:0:0:0:
291,100,93398,5,6,3:2:0:0:
229,34,93740,1,10,0:0:0:0:
142,58,94083,2,0,P|108:54|92:37,2,50,2|8|8,0:0|3:3|0:0,0:0:0:0:
202,124,94769,5,4,3:2:0:0:
210,213,95112,1,10,0:0:0:0:
166,291,95455,2,0,L|100:301,1,50,2|0,0:0|3:2,0:0:0:0:
79,324,95798,2,0,L|13:314,1,50,8|2,0:0|3:2,0:0:0:0:
18,272,96140,5,4,0:0:0:0:
18,272,96312,2,0,L|41:170,1,100,2|2,3:2|3:2,0:0:0:0:
79,150,96826,1,6,0:0:0:0:
79,150,96998,2,0,L|56:48,1,100,0|2,3:2|3:2,0:0:0:0:
88,20,97512,5,4,3:2:0:0:
174,69,97855,1,2,3:2:0:0:
273,62,98198,2,0,L|365:48,2,75,6|6|6,3:2|3:2|3:2,0:0:0:0:
256,192,98883,12,2,100255,1:3:0:0:
286,270,100940,6,0,P|243:254|222:216,2,75,2|2|2,1:2|0:0|0:0,0:0:0:0:
334,258,101626,6,0,L|355:152,1,100,4|10,3:2|0:0,0:0:0:0:
448,127,102312,2,0,P|439:103|425:83,1,50,2|2,3:2|0:0,0:0:0:0:
375,76,102655,2,0,P|350:71|325:73,1,50,8|2,0:0|0:0,0:0:0:0:
288,107,102998,6,0,P|250:110|183:70,1,100,2|10,3:2|0:0,0:0:0:0:
152,11,103683,1,2,3:2:0:0:
152,11,103855,2,0,L|42:23,1,100,2|2,0:0|0:0,0:0:0:0:
47,71,104369,6,0,L|64:188,1,100,2|8,3:2|0:0,0:0:0:0:
67,270,105055,2,0,P|77:318|125:326,1,100,2|10,3:2|0:0,0:0:0:0:
167,303,105569,1,2,0:0:0:0:
167,303,105740,5,2,3:2:0:0:
255,348,106083,1,10,0:0:0:0:
349,316,106426,2,0,P|372:281|379:239,2,75,2|2|2,3:2|0:0|0:0,0:0:0:0:
383,352,107112,5,2,3:2:0:0:
459,294,107455,1,10,0:0:0:0:
459,294,107626,2,0,L|466:191,1,100,2|2,0:0|0:0,0:0:0:0:
468,93,108312,1,2,0:0:0:0:
468,93,108483,6,0,P|434:81|412:84,1,50,2|2,3:2|0:0,0:0:0:0:
373,99,108826,2,0,P|339:110|317:108,1,50,10|2,0:0|0:0,0:0:0:0:
282,83,109169,1,2,3:2:0:0:
187,115,109512,2,0,L|179:179,1,50,10|2,0:0|0:0,0:0:0:0:
156,208,109855,6,0,L|102:198,2,50,2|2|10,3:2|0:0|0:0,0:0:0:0:
184,249,110369,2,0,L|238:239,2,50,2|2|2,0:0|3:2|0:0,0:0:0:0:
147,282,110883,2,0,P|130:324|132:343,1,50,10|2,0:0|0:0,0:0:0:0:
144,375,111226,5,2,3:2:0:0:
236,336,111569,1,10,0:0:0:0:
332,362,111912,1,0,3:2:0:0:
417,306,112255,1,10,3:2:0:0:
417,306,112426,1,2,3:2:0:0:
417,306,112598,6,0,L|426:205,1,100,6|10,3:2|3:2,0:0:0:0:
405,160,113112,2,0,P|422:120|474:93,2,100,2|2|2,0:0|0:0|0:0,0:0:0:0:
354,162,113969,6,0,L|250:136,1,100,0|10,3:2|3:2,0:0:0:0:
231,45,114655,1,2,3:2:0:0:
231,45,114826,2,0,L|127:71,1,100,2|2,0:0|0:0,0:0:0:0:
84,79,115340,6,0,L|59:188,1,100,2|10,3:2|3:2,0:0:0:0:
50,225,115855,2,0,L|76:329,1,100,2|2,0:0|0:0,0:0:0:0:
101,363,116369,2,0,P|130:373|158:366,1,50,8|2,3:2|0:0,0:0:0:0:
181,332,116712,5,0,3:2:0:0:
273,294,117055,1,10,3:2:0:0:
293,196,117398,1,2,3:2:0:0:
384,155,117740,1,10,3:2:0:0:
334,68,118083,6,0,P|288:62|248:96,1,100,2|10,3:2|3:2,0:0:0:0:
230,141,118598,1,2,0:0:0:0:
136,174,118940,1,2,0:0:0:0:
59,118,119283,1,2,0:0:0:0:
59,118,119455,6,0,L|45:183,1,50,2|2,3:2|0:0,0:0:0:0:
57,216,119798,2,0,L|71:281,1,50,10|2,3:2|0:0,0:0:0:0:
44,309,120140,1,2,3:2:0:0:
121,372,120483,2,0,L|191:375,1,50,10|2,3:2|0:0,0:0:0:0:
199,332,120826,6,0,L|233:221,1,100,6|10,3:2|3:2,0:0:0:0:
317,191,121512,1,2,3:2:0:0:
344,287,121855,1,10,3:2:0:0:
344,287,122026,1,2,3:2:0:0:
344,287,122198,6,0,L|410:267,1,50,6|2,3:2|3:2,0:0:0:0:
410,226,122540,2,0,L|476:206,1,50,10|2,3:2|3:2,0:0:0:0:
479,166,122883,1,6,3:2:0:0:
460,67,123226,1,14,3:2:0:0:
361,85,123569,6,0,P|320:88|292:83,1,52.4999983978272,6|2,3:2|0:0,0:0:0:0:
270,50,123912,2,0,P|243:48|217:51,1,52.4999983978272,10|2,3:2|0:0,0:0:0:0:
174,81,124255,2,0,P|159:118|194:191,1,104.999996795654,2|10,3:2|3:2,0:0:0:0:
215,215,124769,1,2,0:0:0:0:
200,265,124940,6,0,L|88:255,1,104.999996795654,2|10,3:2|3:2,0:0:0:0:
34,170,125626,2,0,L|42:115,1,52.4999983978272,2|2,3:2|0:0,0:0:0:0:
84,88,125969,2,0,L|92:143,1,52.4999983978272,10|2,3:2|0:0,0:0:0:0:
132,173,126312,6,0,P|161:164|177:130,2,52.4999983978272,2|2|10,3:2|0:0|3:2,0:0:0:0:
219,230,126997,1,2,3:2:0:0:
268,249,127169,1,2,0:0:0:0:
289,297,127340,2,0,L|277:364,1,52.4999983978272,10|2,3:2|0:0,0:0:0:0:
228,362,127683,6,0,L|99:347,1,104.999996795654,2|10,3:2|3:2,0:0:0:0:
81,265,128369,1,2,3:2:0:0:
81,265,128540,1,2,0:0:0:0:
81,265,128711,2,0,L|86:193,1,52.4999983978272,10|2,3:2|0:0,0:0:0:0:
128,183,129054,5,2,3:2:0:0:
119,78,129397,1,10,3:2:0:0:
215,37,129740,2,0,L|267:38,1,52.4999983978272,2|2,3:2|0:0,0:0:0:0:
320,41,130083,1,10,3:2:0:0:
410,104,130426,5,2,3:2:0:0:
410,104,130597,2,0,L|406:156,1,52.4999983978272,2|10,0:0|3:2,0:0:0:0:
394,210,130940,1,2,0:0:0:0:
394,210,131112,2,0,P|359:220|326:216,1,52.4999983978272,2|2,3:2|0:0,0:0:0:0:
307,258,131455,2,0,P|275:240|254:214,1,52.4999983978272,10|2,3:2|0:0,0:0:0:0:
250,178,131797,5,2,3:2:0:0:
159,231,132140,2,0,P|169:278|179:295,1,52.4999983978272,10|2,3:2|0:0,0:0:0:0:
181,333,132483,2,0,P|220:366|272:371,1,104.999996795654,2|10,3:2|3:2,0:0:0:0:
372,355,133169,6,0,L|434:349,2,52.4999983978272,2|2|10,3:2|0:0|3:2,0:0:0:0:
346,308,133683,2,0,L|357:245,1,52.4999983978272,2|2,0:0|3:2,0:0:0:0:
400,227,134026,1,2,0:0:0:0:
400,227,134198,1,10,3:2:0:0:
412,123,134540,6,0,L|361:113,1,52.4999983978272,6|2,3:2|0:0,0:0:0:0:
322,149,134883,2,0,L|271:159,1,52.4999983978272,10|2,3:2|0:0,0:0:0:0:
235,198,135226,2,0,P|182:197|134:178,1,104.999996795654,2|10,3:2|3:2,0:0:0:0:
118,127,135740,1,2,0:0:0:0:
127,75,135912,6,0,P|182:55|230:62,1,104.999996795654,2|10,3:2|3:2,0:0:0:0:
318,114,136598,2,0,L|302:170,1,52.4999983978272,2|2,3:2|0:0,0:0:0:0:
260,194,136940,2,0,L|276:250,1,52.4999983978272,10|2,3:2|0:0,0:0:0:0:
296,292,137283,6,0,L|357:304,2,52.4999983978272,0|2|10,3:2|0:0|3:2,0:0:0:0:
198,251,137969,1,2,3:2:0:0:
147,242,138141,1,2,0:0:0:0:
95,235,138311,2,0,L|106:286,1,52.4999983978272,10|2,3:2|0:0,0:0:0:0:
126,335,138655,6,0,P|171:360|229:319,1,104.999996795654,2|10,3:2|3:2,0:0:0:0:
285,261,139340,1,2,3:2:0:0:
285,261,139511,1,2,0:0:0:0:
335,243,139683,2,0,L|407:238,1,52.4999983978272,10|2,3:2|0:0,0:0:0:0:
427,272,140025,5,2,3:2:0:0:
451,169,140368,1,10,3:2:0:0:
387,85,140711,2,0,L|335:84,1,52.4999983978272,2|2,3:2|0:0,0:0:0:0:
285,102,141054,1,10,3:2:0:0:
184,95,141397,5,2,3:2:0:0:
184,95,141568,2,0,L|188:147,1,52.4999983978272,2|10,0:0|3:2,0:0:0:0:
224,193,141912,1,2,0:0:0:0:
224,193,142083,2,0,P|234:228|230:261,1,52.4999983978272,2|2,3:2|0:0,0:0:0:0:
195,280,142426,2,0,P|196:306|204:330,1,52.4999983978272,10|2,3:2|0:0,0:0:0:0:
298,378,142940,6,0,P|323:378|348:371,1,52.4999983978272,2|10,0:0|3:2,0:0:0:0:
394,339,143283,1,2,0:0:0:0:
394,339,143455,2,0,P|398:278|374:226,1,104.999996795654,2|10,3:2|3:2,0:0:0:0:
294,179,144140,5,2,3:2:0:0:
240,158,144311,1,2,0:0:0:0:
183,144,144483,2,0,L|190:203,1,52.4999983978272,10|2,3:2|0:0,0:0:0:0:
180,248,144826,2,0,P|144:273|100:275,2,78.7499975967408,2|0|2,3:2|3:2|3:2,0:0:0:0:
208,289,145512,6,0,B|255:283|276:222|276:222|317:83|317:83|337:24|396:20|396:20|443:52|430:109|430:109|394:252|394:252|382:308|423:362,1,700,6|0,3:2|0:0,0:0:0:0:
