osu file format v14

[General]
AudioFilename: audio.mp3
AudioLeadIn: 2000
PreviewTime: 123483
Countdown: 0
SampleSet: Soft
StackLeniency: 0.2
Mode: 0
LetterboxInBreaks: 0
EpilepsyWarning: 1
WidescreenStoryboard: 1

[Editor]
Bookmarks: 141,11112,22083,33055,44026,54998,65969,76940,87912,98883,101626,112598,123569,134540,145512,147912
DistanceSpacing: 1
BeatDivisor: 4
GridSize: 16
TimelineZoom: 4.099998

[Metadata]
Title:EOS
TitleUnicode:EOS
Artist:ginkiha
ArtistUnicode:ginkiha
Creator:too
Version:KogumaX, ponbot & rrtyui's Collab Extra
Source:
Tags:Apis035 KimikaMyMommy HinaMommy PotatoDew KogumaX ponbot rrtyui bof2012 of fighters fa featured artist electronic english instrumental daybreak uk hardcore shade of mythology bms groundbreaking video game SOUND VOLTEX II -infinite infection- happy
BeatmapID:2719943
BeatmapSetID:1284506

[Difficulty]
HPDrainRate:6
CircleSize:4
OverallDifficulty:9
ApproachRate:9.4
SliderMultiplier:2.1
SliderTickRate:1

[Events]
//Background and Video events
0,0,"bg2.jpg",0,0
//Break Periods
//Storyboard Layer 0 (Background)
Sprite,Background,Centre,"bg2.jpg",320,240 F,0,0,,0
//Storyboard Layer 1 (Fail)
//Storyboard Layer 2 (Pass)
//Storyboard Layer 3 (Foreground)
Sprite,Foreground,CentreLeft,"sb\font\0042.png",421.5,425.5 S,0,3569,,0.5 F,0,3569,3669,0,1 F,0,6798,6998,1,0
Sprite,Foreground,CentreLeft,"sb\font\0065.png",432,425.5 S,0,3629,,0.5 F,0,3629,3729,0,1 F,0,6798,6998,1,0
Sprite,Foreground,CentreLeft,"sb\font\0061.png",438.5,425.5 S,0,3689,,0.5 F,0,3689,3789,0,1 F,0,6798,6998,1,0
Sprite,Foreground,CentreLeft,"sb\font\0074.png",447.5,425.5 S,0,3749,,0.5 F,0,3749,3849,0,1 F,0,6798,6998,1,0
Sprite,Foreground,CentreLeft,"sb\font\006d.png",454.5,425.5 S,0,3809,,0.5 F,0,3809,3909,0,1 F,0,6798,6998,1,0
Sprite,Foreground,CentreLeft,"sb\font\0061.png",466,425.5 S,0,3869,,0.5 F,0,3869,3969,0,1 F,0,6798,6998,1,0
Sprite,Foreground,CentreLeft,"sb\font\0070.png",475,425.5 S,0,3929,,0.5 F,0,3929,4029,0,1 F,0,6798,6998,1,0
Sprite,Foreground,CentreLeft,"sb\font\007c.png",488,425.5 S,0,4049,,0.5 F,0,4049,4149,0,1 F,0,6798,6998,1,0
Sprite,Foreground,CentreLeft,"sb\font\004b.png",500,425.5 S,0,4169,,0.5 F,0,4169,4269,0,1 F,0,6798,6998,1,0
Sprite,Foreground,CentreLeft,"sb\font\006f.png",510,425.5 S,0,4229,,0.5 F,0,4229,4329,0,1 F,0,6798,6998,1,0
Sprite,Foreground,CentreLeft,"sb\font\0067.png",517.5,425.5 S,0,4289,,0.5 F,0,4289,4389,0,1 F,0,6798,6998,1,0
Sprite,Foreground,CentreLeft,"sb\font\0075.png",525,425.5 S,0,4349,,0.5 F,0,4349,4449,0,1 F,0,6798,6998,1,0
Sprite,Foreground,CentreLeft,"sb\font\006d.png",532.5,425.5 S,0,4409,,0.5 F,0,4409,4509,0,1 F,0,6798,6998,1,0
Sprite,Foreground,CentreLeft,"sb\font\0061.png",544,425.5 S,0,4469,,0.5 F,0,4469,4569,0,1 F,0,6798,6998,1,0
Sprite,Foreground,CentreLeft,"sb\font\0058.png",553,425.5 S,0,4529,,0.5 F,0,4529,4629,0,1 F,0,6798,6998,1,0
Sprite,Foreground,CentreLeft,"sb\font\002c.png",563.5,425.5 S,0,4589,,0.5 F,0,4589,4689,0,1 F,0,6798,6998,1,0
Sprite,Foreground,CentreLeft,"sb\font\0070.png",572.5,425.5 S,0,4709,,0.5 F,0,4709,4809,0,1 F,0,6798,6998,1,0
Sprite,Foreground,CentreLeft,"sb\font\006f.png",580.5,425.5 S,0,4769,,0.5 F,0,4769,4869,0,1 F,0,6798,6998,1,0
Sprite,Foreground,CentreLeft,"sb\font\006e.png",588,425.5 S,0,4829,,0.5 F,0,4829,4929,0,1 F,0,6798,6998,1,0
Sprite,Foreground,CentreLeft,"sb\font\0062.png",597,425.5 S,0,4889,,0.5 F,0,4889,4989,0,1 F,0,6798,6998,1,0
Sprite,Foreground,CentreLeft,"sb\font\006f.png",606,425.5 S,0,4949,,0.5 F,0,4949,5049,0,1 F,0,6798,6998,1,0
Sprite,Foreground,CentreLeft,"sb\font\0074.png",613.5,425.5 S,0,5009,,0.5 F,0,5009,5109,0,1 F,0,6798,6998,1,0
Sprite,Foreground,CentreLeft,"sb\font\002c.png",620.5,425.5 S,0,5069,,0.5 F,0,5069,5169,0,1 F,0,6798,6998,1,0
Sprite,Foreground,CentreLeft,"sb\font\0072.png",629.5,425.5 S,0,5189,,0.5 F,0,5189,5289,0,1 F,0,6798,6998,1,0
Sprite,Foreground,CentreLeft,"sb\font\0072.png",637,425.5 S,0,5249,,0.5 F,0,5249,5349,0,1 F,0,6798,6998,1,0
Sprite,Foreground,CentreLeft,"sb\font\0074.png",644.5,425.5 S,0,5309,,0.5 F,0,5309,5409,0,1 F,0,6798,6998,1,0
Sprite,Foreground,CentreLeft,"sb\font\0079.png",651.5,425.5 S,0,5369,,0.5 F,0,5369,5469,0,1 F,0,6798,6998,1,0
Sprite,Foreground,CentreLeft,"sb\font\0075.png",658.5,425.5 S,0,5429,,0.5 F,0,5429,5529,0,1 F,0,6798,6998,1,0
Sprite,Foreground,CentreLeft,"sb\font\0069.png",666,425.5 S,0,5489,,0.5 F,0,5489,5589,0,1 F,0,6798,6998,1,0
Sprite,Foreground,Centre,"sb\ring.png",0,0 M,0,8369,,409,129 F,4,8369,9395,1,0 S,19,8369,9395,0.2,0.8 P,0,8369,9395,A M,0,9398,,309,364 F,4,9398,10424,1,0 S,19,9398,10424,0.2,0.8 P,0,9398,10424,A M,0,10426,,408,195 F,4,10426,11452,1,0 S,19,10426,11452,0.2,0.8 P,0,10426,11452,A M,0,27569,,435,101 F,4,27569,28595,1,0 S,19,27569,28595,0.2,0.8 P,0,27569,28595,A M,0,28940,,308,213 F,4,28940,29966,1,0 S,19,28940,29966,0.2,0.8 P,0,28940,29966,A M,0,30312,,141,278 F,4,30312,31338,1,0 S,19,30312,31338,0.2,0.8 P,0,30312,31338,A M,0,31683,,138,435 F,4,31683,32709,1,0 S,19,31683,32709,0.2,0.8 P,0,31683,32709,A M,0,32883,,527,145 F,4,32883,33909,1,0 S,19,32883,33909,0.2,0.8 P,0,32883,33909,A M,0,44026,,173,439 F,4,44026,45052,1,0 S,19,44026,45052,0.2,0.8 P,0,44026,45052,A M,0,52255,,303,328 F,4,52255,53281,1,0 S,19,52255,53281,0.2,0.8 P,0,52255,53281,A M,0,53626,,567,249 F,4,53626,54652,1,0 S,19,53626,54652,0.2,0.8 P,0,53626,54652,A M,0,54655,,326,206 F,4,54655,55681,1,0 S,19,54655,55681,0.2,0.8 P,0,54655,55681,A
Sprite,Foreground,Centre,"sb\ring.png",0,0 M,0,8883,,173,253 F,4,8883,9909,1,0 S,19,8883,9909,0.2,0.8 P,0,8883,9909,A M,0,10769,,419,115 F,4,10769,11795,1,0 S,19,10769,11795,0.2,0.8 P,0,10769,11795,A M,0,30998,,172,133 F,4,30998,32024,1,0 S,19,30998,32024,0.2,0.8 P,0,30998,32024,A M,0,32026,,342,287 F,4,32026,33052,1,0 S,19,32026,33052,0.2,0.8 P,0,32026,33052,A M,0,54312,,313,298 F,4,54312,55338,1,0 S,19,54312,55338,0.2,0.8 P,0,54312,55338,A
Sprite,Foreground,Centre,"sb\ring.png",0,0 M,0,32369,,539,430 F,4,32369,33395,1,0 S,19,32369,33395,0.2,0.8 P,0,32369,33395,A M,0,87912,,100,58 F,4,87912,88938,1,0 S,19,87912,88938,0.2,0.8 P,0,87912,88938,A M,0,90655,,518,105 F,4,90655,91681,1,0 S,19,90655,91681,0.2,0.8 P,0,90655,91681,A
Sprite,Foreground,Centre,"sb\ring.png",0,0 M,0,32626,,497,326 F,4,32626,33652,1,0 S,19,32626,33652,0.2,0.8 P,0,32626,33652,A M,0,76940,,172,275 F,4,76940,78992,1,0 S,19,76940,78992,0.2,1.2 P,0,76940,78992,A
Sprite,Foreground,Centre,"sb\ring.png",0,0 M,0,93398,,308,400 F,4,93398,94424,1,0 S,19,93398,94424,0.2,0.8 P,0,93398,94424,A M,0,94769,,471,178 F,4,94769,95795,1,0 S,19,94769,95795,0.2,0.8 P,0,94769,95795,A M,0,96140,,266,420 F,4,96140,97166,1,0 S,19,96140,97166,0.2,0.8 P,0,96140,97166,A M,0,97512,,233,112 F,4,97512,98538,1,0 S,19,97512,98538,0.2,0.8 P,0,97512,98538,A M,0,98712,,409,418 F,4,98712,99738,1,0 S,19,98712,99738,0.2,0.8 P,0,98712,99738,A M,0,112598,,441,179 F,4,112598,113624,1,0 S,19,112598,113624,0.2,0.8 P,0,112598,113624,A M,0,120826,,64,220 F,4,120826,121852,1,0 S,19,120826,121852,0.2,0.8 P,0,120826,121852,A M,0,122198,,437,361 F,4,122198,123224,1,0 S,19,122198,123224,0.2,0.8 P,0,122198,123224,A M,0,123226,,118,344 F,4,123226,124252,1,0 S,19,123226,124252,0.2,0.8 P,0,123226,124252,A M,0,145512,,411,148 F,4,145512,147564,1,0 S,19,145512,147564,0.2,1.2 P,0,145512,147564,A
Sprite,Foreground,Centre,"sb\ring.png",0,0 M,0,96826,,354,211 F,4,96826,97852,1,0 S,19,96826,97852,0.2,0.8 P,0,96826,97852,A M,0,98198,,530,56 F,4,98198,99224,1,0 S,19,98198,99224,0.2,0.8 P,0,98198,99224,A M,0,122883,,525,413 F,4,122883,123909,1,0 S,19,122883,123909,0.2,0.8 P,0,122883,123909,A
Sprite,Foreground,Centre,"sb\ring.png",0,0 M,0,98455,,445,268 F,4,98455,99481,1,0 S,19,98455,99481,0.2,0.8 P,0,98455,99481,A M,0,101626,,421,380 F,4,101626,103678,1,0 S,19,101626,103678,0.2,1.2 P,0,101626,103678,A M,0,123569,,167,408 F,4,123569,125621,1,0 S,19,123569,125621,0.2,1.2 P,0,123569,125621,A
Sprite,Foreground,Centre,"sb\ring.png",0,0 M,0,11455,,524,360 F,4,11455,13507,1,0 S,19,11455,13507,0.2,1.2 P,0,11455,13507,A M,0,22083,,318,138 F,4,22083,24135,1,0 S,19,22083,24135,0.2,1.2 P,0,22083,24135,A M,0,33055,,400,264 F,4,33055,35107,1,0 S,19,33055,35107,0.2,1.2 P,0,33055,35107,A M,0,54998,,288,114 F,4,54998,57050,1,0 S,19,54998,57050,0.2,1.2 P,0,54998,57050,A
Sprite,Foreground,Centre,"sb\particle.png",0,0 M,7,1683,2583,216,179,187.9877,83.00359 S,7,1683,2583,0.1,0 M,7,4426,5326,107,56,66.26788,142.9304 S,7,4426,5326,0.1,0 M,7,7169,8069,442,200,429.8864,288.1718 S,7,7169,8069,0.1,0 M,7,9741,10641,412,373,441.1257,450.7219 S,7,9741,10641,0.1,0 M,7,10769,11669,419,115,316.5406,137.9582 S,7,10769,11669,0.1,0
Sprite,Foreground,Centre,"sb\particle.png",0,0 M,7,1683,2583,216,179,97.67574,191.6637 S,7,1683,2583,0.1,0 M,7,4426,5326,107,56,156.8428,135.6975 S,7,4426,5326,0.1,0 M,7,7169,8069,442,200,386.5555,259.05 S,7,7169,8069,0.1,0 M,7,9741,10641,412,373,453.4681,289.757 S,7,9741,10641,0.1,0 M,7,10769,11669,419,115,505.2978,179.9361 S,7,10769,11669,0.1,0
Sprite,Foreground,Centre,"sb\particle.png",0,0 M,7,1683,2583,216,179,283.5454,225.4931 S,7,1683,2583,0.1,0 M,7,4426,5326,107,56,180.6041,136.3955 S,7,4426,5326,0.1,0 M,7,7169,8069,442,200,542.6293,208.646 S,7,7169,8069,0.1,0 M,7,9741,10641,412,373,326.9068,429.2419 S,7,9741,10641,0.1,0 M,7,10769,11669,419,115,438.8424,24.14143 S,7,10769,11669,0.1,0
Sprite,Foreground,Centre,"sb\particle.png",0,0 M,7,1683,2583,216,179,301.0886,205.0948 S,7,1683,2583,0.1,0 M,7,4426,5326,107,56,179.9935,132.8632 S,7,4426,5326,0.1,0 M,7,7169,8069,442,200,419.84,117.9395 S,7,7169,8069,0.1,0 M,7,9741,10641,412,373,439.6799,477.3926 S,7,9741,10641,0.1,0 M,7,10769,11669,419,115,425.2639,24.21584 S,7,10769,11669,0.1,0
Sprite,Foreground,Centre,"sb\particle.png",0,0 M,7,1683,2583,216,179,100.1657,162.5254 S,7,1683,2583,0.1,0 M,7,4426,5326,107,56,163.2783,-46.57562 S,7,4426,5326,0.1,0 M,7,7169,8069,442,200,503.3415,269.9015 S,7,7169,8069,0.1,0 M,7,9741,10641,412,373,492.4565,435.6957 S,7,9741,10641,0.1,0 M,7,10769,11669,419,115,377.7231,225.5451 S,7,10769,11669,0.1,0
Sprite,Foreground,Centre,"sb\particle.png",0,0 M,7,1683,2583,216,179,177.0693,271.1108 S,7,1683,2583,0.1,0 M,7,4426,5326,107,56,215.6994,82.98951 S,7,4426,5326,0.1,0 M,7,7169,8069,442,200,503.8121,115.1221 S,7,7169,8069,0.1,0 M,7,9741,10641,412,373,516.3965,341.6574 S,7,9741,10641,0.1,0 M,7,10769,11669,419,115,448.6825,13.24073 S,7,10769,11669,0.1,0
Sprite,Foreground,Centre,"sb\particle.png",0,0 M,7,1683,2583,216,179,298.1842,131.3475 S,7,1683,2583,0.1,0 M,7,4426,5326,107,56,187.322,142.4429 S,7,4426,5326,0.1,0 M,7,7169,8069,442,200,360.5907,166.5855 S,7,7169,8069,0.1,0 M,7,9741,10641,412,373,502.1963,337.3121 S,7,9741,10641,0.1,0 M,7,10769,11669,419,115,520.5219,56.84243 S,7,10769,11669,0.1,0
Sprite,Foreground,Centre,"sb\particle.png",0,0 M,7,1683,2583,216,179,179.5583,75.21172 S,7,1683,2583,0.1,0 M,7,4426,5326,107,56,65.36464,133.5274 S,7,4426,5326,0.1,0 M,7,7169,8069,442,200,522.8357,156.0729 S,7,7169,8069,0.1,0 M,7,9741,10641,412,373,368.8285,453.1075 S,7,9741,10641,0.1,0 M,7,10769,11669,419,115,323.6409,103.9255 S,7,10769,11669,0.1,0
Sprite,Foreground,Centre,"sb\particle.png",0,0 M,7,1855,2755,245,192,256.2412,298.4079 S,7,1855,2755,0.1,0 M,7,4769,5669,71,77,-15.39124,66.72604 S,7,4769,5669,0.1,0 M,7,7683,8583,442,200,370.7454,128.4194 S,7,7683,8583,0.1,0 M,7,9912,10812,517,330,609.7395,269.0051 S,7,9912,10812,0.1,0
Sprite,Foreground,Centre,"sb\particle.png",0,0 M,7,1855,2755,245,192,267.3094,76.12813 S,7,1855,2755,0.1,0 M,7,4769,5669,71,77,150.9774,78.9032 S,7,4769,5669,0.1,0 M,7,7683,8583,442,200,523.3871,210.0065 S,7,7683,8583,0.1,0 M,7,9912,10812,517,330,437.0147,331.5353 S,7,9912,10812,0.1,0
Sprite,Foreground,Centre,"sb\particle.png",0,0 M,7,1855,2755,245,192,267.1217,107.8595 S,7,1855,2755,0.1,0 M,7,4769,5669,71,77,151.3156,97.93826 S,7,4769,5669,0.1,0 M,7,7683,8583,442,200,491.7072,276.2246 S,7,7683,8583,0.1,0 M,7,9912,10812,517,330,572.0775,415.8514 S,7,9912,10812,0.1,0
Sprite,Foreground,Centre,"sb\particle.png",0,0 M,7,1855,2755,245,192,264.3376,111.2841 S,7,1855,2755,0.1,0 M,7,4769,5669,71,77,115.2074,5.573766 S,7,4769,5669,0.1,0 M,7,7683,8583,442,200,347.4247,208.9729 S,7,7683,8583,0.1,0 M,7,9912,10812,517,330,619.6666,303.6265 S,7,9912,10812,0.1,0
Sprite,Foreground,Centre,"sb\particle.png",0,0 M,7,1855,2755,245,192,270.7391,107.8484 S,7,1855,2755,0.1,0 M,7,4769,5669,71,77,145.6566,43.08248 S,7,4769,5669,0.1,0 M,7,7683,8583,442,200,491.6852,302.603 S,7,7683,8583,0.1,0 M,7,9912,10812,517,330,559.9199,434.5317 S,7,9912,10812,0.1,0
Sprite,Foreground,Centre,"sb\particle.png",0,0 M,7,1855,2755,245,192,270.3427,275.2271 S,7,1855,2755,0.1,0 M,7,4769,5669,71,77,148.933,147.3665 S,7,4769,5669,0.1,0 M,7,7683,8583,442,200,361.5011,208.996 S,7,7683,8583,0.1,0 M,7,9912,10812,517,330,451.8503,276.9762 S,7,9912,10812,0.1,0
Sprite,Foreground,Centre,"sb\particle.png",0,0 M,7,1855,2755,245,192,295.4816,124.8612 S,7,1855,2755,0.1,0 M,7,4769,5669,71,77,56.96387,-16.95737 S,7,4769,5669,0.1,0 M,7,7683,8583,442,200,506.1724,152.2307 S,7,7683,8583,0.1,0 M,7,9912,10812,517,330,602.238,358.8873 S,7,9912,10812,0.1,0
Sprite,Foreground,Centre,"sb\particle.png",0,0 M,7,1855,2755,245,192,204.5221,106.055 S,7,1855,2755,0.1,0 M,7,4769,5669,71,77,150.4094,39.077 S,7,4769,5669,0.1,0 M,7,7683,8583,442,200,512.7209,284.253 S,7,7683,8583,0.1,0 M,7,9912,10812,517,330,434.353,380.7787 S,7,9912,10812,0.1,0
Sprite,Foreground,Centre,"sb\particle.png",0,0 M,7,2198,3098,419,295,398.582,376.4807 S,7,2198,3098,0.1,0 M,7,4940,5840,105,159,103.578,263.9904 S,7,4940,5840,0.1,0 M,7,7855,8755,520,195,556.5759,113.863 S,7,7855,8755,0.1,0 M,7,10083,10983,360,295,392.1465,377.9916 S,7,10083,10983,0.1,0
Sprite,Foreground,Centre,"sb\particle.png",0,0 M,7,2198,3098,419,295,315.8386,333.1802 S,7,2198,3098,0.1,0 M,7,4940,5840,105,159,18.17869,115.7442 S,7,4940,5840,0.1,0 M,7,7855,8755,520,195,549.2454,105.6652 S,7,7855,8755,0.1,0 M,7,10083,10983,360,295,435.9902,204.7255 S,7,10083,10983,0.1,0
Sprite,Foreground,Centre,"sb\particle.png",0,0 M,7,2198,3098,419,295,442.3403,383.9901 S,7,2198,3098,0.1,0 M,7,4940,5840,105,159,74.58582,85.0069 S,7,4940,5840,0.1,0 M,7,7855,8755,520,195,607.7452,270.8734 S,7,7855,8755,0.1,0 M,7,10083,10983,360,295,458.7042,330.8118 S,7,10083,10983,0.1,0
Sprite,Foreground,Centre,"sb\particle.png",0,0 M,7,2198,3098,419,295,471.4379,225.5791 S,7,2198,3098,0.1,0 M,7,4940,5840,105,159,86.39708,258.272 S,7,4940,5840,0.1,0 M,7,7855,8755,520,195,431.8486,237.8174 S,7,7855,8755,0.1,0 M,7,10083,10983,360,295,324.8011,408.6752 S,7,10083,10983,0.1,0
Sprite,Foreground,Centre,"sb\particle.png",0,0 M,7,2198,3098,419,295,526.7474,335.1932 S,7,2198,3098,0.1,0 M,7,4940,5840,105,159,139.963,63.1794 S,7,4940,5840,0.1,0 M,7,7855,8755,520,195,594.1712,257.5111 S,7,7855,8755,0.1,0 M,7,10083,10983,360,295,326.5238,216.8697 S,7,10083,10983,0.1,0
Sprite,Foreground,Centre,"sb\particle.png",0,0 M,7,2198,3098,419,295,347.2736,240.6371 S,7,2198,3098,0.1,0 M,7,4940,5840,105,159,184.0203,146.5186 S,7,4940,5840,0.1,0 M,7,7855,8755,520,195,469.1734,259.3479 S,7,7855,8755,0.1,0 M,7,10083,10983,360,295,273.247,314.8727 S,7,10083,10983,0.1,0
Sprite,Foreground,Centre,"sb\particle.png",0,0 M,7,2198,3098,419,295,505.7381,270.9895 S,7,2198,3098,0.1,0 M,7,4940,5840,105,159,186.5415,86.6675 S,7,4940,5840,0.1,0 M,7,7855,8755,520,195,629.7222,229.439 S,7,7855,8755,0.1,0 M,7,10083,10983,360,295,382.3469,384.2447 S,7,10083,10983,0.1,0
Sprite,Foreground,Centre,"sb\particle.png",0,0 M,7,2198,3098,419,295,501.2885,220.5043 S,7,2198,3098,0.1,0 M,7,4940,5840,105,159,132.1018,48.26839 S,7,4940,5840,0.1,0 M,7,7855,8755,520,195,623.2407,163.2925 S,7,7855,8755,0.1,0 M,7,10083,10983,360,295,450.7273,315.4344 S,7,10083,10983,0.1,0
Sprite,Foreground,Centre,"sb\particle.png",0,0 M,7,2369,3269,390,282,486.2896,305.0069 S,7,2369,3269,0.1,0 M,7,5112,6012,87,231,69.82542,336.6127 S,7,5112,6012,0.1,0 M,7,8026,8926,542,119,431.9268,85.69981 S,7,8026,8926,0.1,0 M,7,10255,11155,543,242,490.6621,154.4514 S,7,10255,11155,0.1,0
Sprite,Foreground,Centre,"sb\particle.png",0,0 M,7,2369,3269,390,282,505.9805,266.588 S,7,2369,3269,0.1,0 M,7,5112,6012,87,231,20.01623,298.366 S,7,5112,6012,0.1,0 M,7,8026,8926,542,119,606.8015,40.22961 S,7,8026,8926,0.1,0 M,7,10255,11155,543,242,545.1211,331.975 S,7,10255,11155,0.1,0
Sprite,Foreground,Centre,"sb\particle.png",0,0 M,7,2369,3269,390,282,390.1705,386.9998 S,7,2369,3269,0.1,0 M,7,5112,6012,87,231,3.209165,225.0758 S,7,5112,6012,0.1,0 M,7,8026,8926,542,119,568.6337,37.22809 S,7,8026,8926,0.1,0 M,7,10255,11155,543,242,587.1562,319.2737 S,7,10255,11155,0.1,0
Sprite,Foreground,Centre,"sb\particle.png",0,0 M,7,2369,3269,390,282,370.2912,380.0386 S,7,2369,3269,0.1,0 M,7,5112,6012,87,231,-1.975861,228.9273 S,7,5112,6012,0.1,0 M,7,8026,8926,542,119,655.5995,154.4422 S,7,8026,8926,0.1,0 M,7,10255,11155,543,242,643.2913,214.4745 S,7,10255,11155,0.1,0
Sprite,Foreground,Centre,"sb\particle.png",0,0 M,7,2369,3269,390,282,380.63,187.4632 S,7,2369,3269,0.1,0 M,7,5112,6012,87,231,15.94035,192.1217 S,7,5112,6012,0.1,0 M,7,8026,8926,542,119,550.1456,0.2791119 S,7,8026,8926,0.1,0 M,7,10255,11155,543,242,601.8307,304.7291 S,7,10255,11155,0.1,0
Sprite,Foreground,Centre,"sb\particle.png",0,0 M,7,2369,3269,390,282,436.7519,387.0679 S,7,2369,3269,0.1,0 M,7,5112,6012,87,231,10.33241,260.0875 S,7,5112,6012,0.1,0 M,7,8026,8926,542,119,592.5643,49.43525 S,7,8026,8926,0.1,0 M,7,10255,11155,543,242,609.7104,320.4775 S,7,10255,11155,0.1,0
Sprite,Foreground,Centre,"sb\particle.png",0,0 M,7,2369,3269,390,282,455.1149,189.6471 S,7,2369,3269,0.1,0 M,7,5112,6012,87,231,12.93541,165.308 S,7,5112,6012,0.1,0 M,7,8026,8926,542,119,642.3334,153.1936 S,7,8026,8926,0.1,0 M,7,10255,11155,543,242,620.6276,212.6238 S,7,10255,11155,0.1,0
Sprite,Foreground,Centre,"sb\particle.png",0,0 M,7,2369,3269,390,282,320.5609,348.2889 S,7,2369,3269,0.1,0 M,7,5112,6012,87,231,174.8455,189.864 S,7,5112,6012,0.1,0 M,7,8026,8926,542,119,547.644,202.8102 S,7,8026,8926,0.1,0 M,7,10255,11155,543,242,489.3855,142.529 S,7,10255,11155,0.1,0
Sprite,Foreground,Centre,"sb\particle.png",0,0 M,7,2540,3440,490,414,476.3451,530.2004 S,7,2540,3440,0.1,0 M,7,5283,6183,118,318,229.9984,317.4036 S,7,5283,6183,0.1,0 M,7,10426,11326,408,195,470.492,273.0689 S,7,10426,11326,0.1,0
Sprite,Foreground,Centre,"sb\particle.png",0,0 M,7,2540,3440,490,414,516.2427,522.8821 S,7,2540,3440,0.1,0 M,7,5283,6183,118,318,27.8834,277.0122 S,7,5283,6183,0.1,0 M,7,10426,11326,408,195,302.8067,170.5383 S,7,10426,11326,0.1,0
Sprite,Foreground,Centre,"sb\particle.png",0,0 M,7,2540,3440,490,414,599.5953,375.9886 S,7,2540,3440,0.1,0 M,7,5283,6183,118,318,31.21675,393.4564 S,7,5283,6183,0.1,0 M,7,10426,11326,408,195,322.7684,155.3569 S,7,10426,11326,0.1,0
Sprite,Foreground,Centre,"sb\particle.png",0,0 M,7,2540,3440,490,414,378.8242,380.8951 S,7,2540,3440,0.1,0 M,7,5283,6183,118,318,18.78161,305.5216 S,7,5283,6183,0.1,0 M,7,10426,11326,408,195,411.4972,285.9328 S,7,10426,11326,0.1,0
Sprite,Foreground,Centre,"sb\particle.png",0,0 M,7,2540,3440,490,414,540.5009,323.0843 S,7,2540,3440,0.1,0 M,7,5283,6183,118,318,201.4751,266.6589 S,7,5283,6183,0.1,0 M,7,10426,11326,408,195,308.8158,207.7475 S,7,10426,11326,0.1,0
Sprite,Foreground,Centre,"sb\particle.png",0,0 M,7,2540,3440,490,414,585.5112,349.9484 S,7,2540,3440,0.1,0 M,7,5283,6183,118,318,138.6579,414.8207 S,7,5283,6183,0.1,0 M,7,10426,11326,408,195,374.7309,267.7542 S,7,10426,11326,0.1,0
Sprite,Foreground,Centre,"sb\particle.png",0,0 M,7,2540,3440,490,414,404.3286,362.4209 S,7,2540,3440,0.1,0 M,7,5283,6183,118,318,207.3934,385.4746 S,7,5283,6183,0.1,0 M,7,10426,11326,408,195,493.2588,261.2943 S,7,10426,11326,0.1,0
Sprite,Foreground,Centre,"sb\particle.png",0,0 M,7,2540,3440,490,414,555.8699,490.5647 S,7,2540,3440,0.1,0 M,7,5283,6183,118,318,129.2672,405.2757 S,7,5283,6183,0.1,0 M,7,10426,11326,408,195,301.5062,235.6824 S,7,10426,11326,0.1,0
Sprite,Foreground,Centre,"sb\particle.png",0,0 M,7,10598,11498,464,149,486.5204,60.83066 S,7,10598,11498,0.1,0
Sprite,Foreground,Centre,"sb\particle.png",0,0 M,7,10598,11498,464,149,367.744,176.1068 S,7,10598,11498,0.1,0
Sprite,Foreground,Centre,"sb\particle.png",0,0 M,7,10598,11498,464,149,547.6758,163.9453 S,7,10598,11498,0.1,0
Sprite,Foreground,Centre,"sb\particle.png",0,0 M,7,10598,11498,464,149,442.0648,264.9433 S,7,10598,11498,0.1,0
Sprite,Foreground,Centre,"sb\particle.png",0,0 M,7,10598,11498,464,149,445.9814,236.1569 S,7,10598,11498,0.1,0
Sprite,Foreground,Centre,"sb\particle.png",0,0 M,7,10598,11498,464,149,518.2708,47.61121 S,7,10598,11498,0.1,0
Sprite,Foreground,Centre,"sb\particle.png",0,0 M,7,10598,11498,464,149,356.2654,156.5661 S,7,10598,11498,0.1,0
Sprite,Foreground,Centre,"sb\particle.png",0,0 M,7,10598,11498,464,149,561.3024,182.7824 S,7,10598,11498,0.1,0
Sprite,Foreground,Centre,"sb\glow.png",0,0 M,0,54998,,288,114 C,0,54998,,191,255,223 P,0,54998,,A M,0,54998,55040,288,114,249.8888,104.7078 F,1,54998,55998,0.3,0 S,0,54998,55998,1,1.2 M,0,55040,55083,249.8888,104.7078,219.3499,80.43243 M,0,55083,55126,219.3499,80.43243,188.2451,56.89486 M,0,55126,55169,188.2451,56.89486,150.1572,47.39524 M,0,56198,,139,281 C,0,56198,,252,167,188 P,0,56198,,A F,1,56198,57198,0.3,0 S,0,56198,57198,1,1.2 M,0,57226,,317,235 C,0,57226,,200,200,255 P,0,57226,,A M,0,57226,57268,317,235,320.0251,253.239 F,1,57226,58226,0.3,0 S,0,57226,58226,1,1.2 M,0,57268,57311,320.0251,253.239,357.4594,245.3911 M,0,58426,,139,199 C,0,58426,,252,167,188 P,0,58426,,A F,1,58426,59426,0.3,0 S,0,58426,59426,1,1.2 M,0,59455,,432,313 C,0,59455,,200,200,255 P,0,59455,,A M,0,59455,59497,432,313,448.0324,361.371 F,1,59455,60455,0.3,0 S,0,59455,60455,1,1.2 M,0,59497,59540,448.0324,361.371,437.7768,383.296 M,0,59540,59583,437.7768,383.296,398.9767,416.6681 M,0,59583,59626,398.9767,416.6681,380.547,368.4465 M,0,59626,59669,380.547,368.4465,382.4118,345.0681 M,0,59669,59712,382.4118,345.0681,418.8757,309.2756 M,0,60483,,435,162 C,0,60483,,200,200,255 P,0,60483,,A F,1,60483,61483,0.3,0 S,0,60483,61483,1,1.2 M,0,61683,,294,84 C,0,61683,,252,167,188 P,0,61683,,A F,1,61683,62683,0.3,0 S,0,61683,62683,1,1.2 M,0,62712,,230,245 C,0,62712,,200,200,255 P,0,62712,,A F,1,62712,63712,0.3,0 S,0,62712,63712,1,1.2 M,0,63912,,106,314 C,0,63912,,191,255,223 P,0,63912,,A M,0,63912,63954,106,314,74.71872,315.6756 F,1,63912,64912,0.3,0 S,0,63912,64912,1,1.2 M,0,63954,63997,74.71872,315.6756,104.1,292.2496 M,0,63997,64040,104.1,292.2496,143.1202,290.7379 M,0,64040,64083,143.1202,290.7379,179.8762,304.2785 M,0,64083,64126,179.8762,304.2785,210.2601,329.0613 M,0,64126,64169,210.2601,329.0613,231.2474,362.1525 M,0,65112,,550,219 C,0,65112,,130,235,247 P,0,65112,,A F,1,65112,66112,0.3,0 S,0,65112,66112,1,1.2 M,0,66312,,267,56 C,0,66312,,191,255,223 P,0,66312,,A F,1,66312,67312,0.3,0 S,0,66312,67312,1,1.2 M,0,67340,,69,348 C,0,67340,,130,235,247 P,0,67340,,A M,0,67340,67382,69,348,65,373 F,1,67340,68340,0.3,0 S,0,67340,68340,1,1.2 M,0,68369,,468,155 C,0,68369,,200,200,255 P,0,68369,,A M,0,68369,68411,468,155,449.5864,123.897 F,1,68369,69369,0.3,0 S,0,68369,69369,1,1.2 M,0,68411,68454,449.5864,123.897,429.8617,90.03233 M,0,69398,,136,291 C,0,69398,,252,167,188 P,0,69398,,A F,1,69398,70398,0.3,0 S,0,69398,70398,1,1.2 M,0,70426,,353,221 C,0,70426,,252,167,188 P,0,70426,,A M,0,70426,70468,353,221,328.7319,175.8801 F,1,70426,71426,0.3,0 S,0,70426,71426,1,1.2 M,0,70468,70511,328.7319,175.8801,345.3364,127.916 M,0,70511,70554,345.3364,127.916,393.7774,115.8627 M,0,70554,70597,393.7774,115.8627,425.766,154.1958 M,0,70597,70640,425.766,154.1958,411.2927,202.8783 M,0,70640,70683,411.2927,202.8783,365.1561,224.9882 M,0,71455,,549,331 C,0,71455,,130,235,247 P,0,71455,,A F,1,71455,72455,0.3,0 S,0,71455,72455,1,1.2 M,0,72655,,398,341 C,0,72655,,191,255,223 P,0,72655,,A F,1,72655,73655,0.3,0 S,0,72655,73655,1,1.2 M,0,73683,,75,133 C,0,73683,,130,235,247 P,0,73683,,A F,1,73683,74683,0.3,0 S,0,73683,74683,1,1.2 M,0,74883,,531,77 C,0,74883,,200,200,255 P,0,74883,,A M,0,74883,74925,531,77,549.83,63.06358 F,1,74883,75883,0.3,0 S,0,74883,75883,1,1.2 M,0,74925,74968,549.83,63.06358,572.6105,50.3177 M,0,76083,,203,353 C,0,76083,,252,167,188 P,0,76083,,A F,1,76083,77083,0.3,0 S,0,76083,77083,1,1.2
Sprite,Foreground,Centre,"sb\glow.png",0,0 M,0,55340,,94,110 C,0,55340,,191,255,223 P,0,55340,,A F,1,55340,56340,0.3,0 S,0,55340,56340,1,1.2 M,0,56369,,273,351 C,0,56369,,130,235,247 P,0,56369,,A M,0,56369,56411,273,351,268.0428,376.7777 F,1,56369,57369,0.3,0 S,0,56369,57369,1,1.2 M,0,57398,,493,110 C,0,57398,,200,200,255 P,0,57398,,A M,0,57398,57440,493,110,475.0712,102.8247 F,1,57398,58398,0.3,0 S,0,57398,58398,1,1.2 M,0,57440,57483,475.0712,102.8247,462.9063,139.0867 M,0,58598,,338,100 C,0,58598,,252,167,188 P,0,58598,,A F,1,58598,59598,0.3,0 S,0,58598,59598,1,1.2 M,0,59798,,430,292 C,0,59798,,200,200,255 P,0,59798,,A M,0,59798,59840,430,292,433.5593,279.4431 F,1,59798,60798,0.3,0 S,0,59798,60798,1,1.2 M,0,60826,,278,387 C,0,60826,,191,255,223 P,0,60826,,A M,0,60826,60868,278,387,263.7142,350.6682 F,1,60826,61826,0.3,0 S,0,60826,61826,1,1.2 M,0,60868,60911,263.7142,350.6682,265.7424,311.6063 M,0,60911,60954,265.7424,311.6063,280.8879,275.3868 M,0,60954,60997,280.8879,275.3868,298.2093,240.0976 M,0,60997,61040,298.2093,240.0976,301.3995,201.2467 M,0,61040,61083,301.3995,201.2467,286.5853,165.1114 M,0,61083,61125,286.5853,165.1114,252.2142,148.6592 M,0,61125,61168,252.2142,148.6592,226,120 M,0,61855,,366,128 C,0,61855,,130,235,247 P,0,61855,,A F,1,61855,62855,0.3,0 S,0,61855,62855,1,1.2 M,0,63055,,303,222 C,0,63055,,200,200,255 P,0,63055,,A F,1,63055,64055,0.3,0 S,0,63055,64055,1,1.2 M,0,64255,,217,409 C,0,64255,,252,167,188 P,0,64255,,A F,1,64255,65255,0.3,0 S,0,64255,65255,1,1.2 M,0,65283,,566,141 C,0,65283,,130,235,247 P,0,65283,,A F,1,65283,66283,0.3,0 S,0,65283,66283,1,1.2 M,0,66397,,282,81 C,0,66397,,191,255,223 P,0,66397,,A F,1,66397,67397,0.3,0 S,0,66397,67397,1,1.2 M,0,67426,,86,338 C,0,67426,,130,235,247 P,0,67426,,A M,0,67426,67468,86,338,78,389 F,1,67426,68426,0.3,0 S,0,67426,68426,1,1.2 M,0,68540,,380,261 C,0,68540,,191,255,223 P,0,68540,,A F,1,68540,69540,0.3,0 S,0,68540,69540,1,1.2 M,0,69569,,216,419 C,0,69569,,130,235,247 P,0,69569,,A F,1,69569,70569,0.3,0 S,0,69569,70569,1,1.2 M,0,70769,,335,290 C,0,70769,,252,167,188 P,0,70769,,A M,0,70769,70811,335,290,331.3943,302.62 F,1,70769,71769,0.3,0 S,0,70769,71769,1,1.2 M,0,71798,,403,84 C,0,71798,,200,200,255 P,0,71798,,A M,0,71798,71840,403,84,426.3147,64.16749 F,1,71798,72798,0.3,0 S,0,71798,72798,1,1.2 M,0,71840,71883,426.3147,64.16749,464.7716,55.74066 M,0,71883,71926,464.7716,55.74066,503.6628,49.62634 M,0,71926,71969,503.6628,49.62634,542.8573,45.92873 M,0,71969,72012,542.8573,45.92873,582.2071,44.71949 M,0,72012,72055,582.2071,44.71949,578.9695,49.75896 M,0,72055,72097,578.9695,49.75896,543.7523,66.94519 M,0,72097,72140,543.7523,66.94519,517.195,95.68696 M,0,72826,,382,415 C,0,72826,,252,167,188 P,0,72826,,A F,1,72826,73826,0.3,0 S,0,72826,73826,1,1.2 M,0,74026,,106,58 C,0,74026,,130,235,247 P,0,74026,,A F,1,74026,75026,0.3,0 S,0,74026,75026,1,1.2 M,0,75055,,507,149 C,0,75055,,200,200,255 P,0,75055,,A M,0,75055,75097,507,149,529.8519,120.0357 F,1,75055,76055,0.3,0 S,0,75055,76055,1,1.2 M,0,75097,75140,529.8519,120.0357,553.8944,89.09738 M,0,76255,,127,340 C,0,76255,,252,167,188 P,0,76255,,A F,1,76255,77255,0.3,0 S,0,76255,77255,1,1.2
Sprite,Foreground,Centre,"sb\glow.png",0,0 M,0,55426,,87,137 C,0,55426,,191,255,223 P,0,55426,,A F,1,55426,56426,0.3,0 S,0,55426,56426,1,1.2 M,0,56455,,290,341 C,0,56455,,130,235,247 P,0,56455,,A M,0,56455,56497,290,341,280.0855,392.5553 F,1,56455,57455,0.3,0 S,0,56455,57455,1,1.2 M,0,57569,,433,250 C,0,57569,,191,255,223 P,0,57569,,A F,1,57569,58569,0.3,0 S,0,57569,58569,1,1.2 M,0,58683,,332,104 C,0,58683,,252,167,188 P,0,58683,,A M,0,58683,58725,332,104,305.5223,78.58331 F,1,58683,59683,0.3,0 S,0,58683,59683,1,1.2 M,0,58725,58768,305.5223,78.58331,273.4547,56.20266 M,0,59969,,322,420 C,0,59969,,200,200,255 P,0,59969,,A F,1,59969,60969,0.3,0 S,0,59969,60969,1,1.2 M,0,61340,,135,235 C,0,61340,,252,167,188 P,0,61340,,A F,1,61340,62340,0.3,0 S,0,61340,62340,1,1.2 M,0,62369,,530,204 C,0,62369,,130,235,247 P,0,62369,,A M,0,62369,62411,530,204,545.0804,237.8305 F,1,62369,63369,0.3,0 S,0,62369,63369,1,1.2 M,0,62411,62454,545.0804,237.8305,508.7234,230.839 M,0,62454,62497,508.7234,230.839,475.8695,209.3207 M,0,62497,62540,475.8695,209.3207,438,203 M,0,63398,,142,157 C,0,63398,,191,255,223 P,0,63398,,A M,0,63398,63440,142,157,177.9563,161.9989 F,1,63398,64398,0.3,0 S,0,63398,64398,1,1.2 M,0,63440,63483,177.9563,161.9989,211.5164,141.5808 M,0,63483,63526,211.5164,141.5808,248.9973,129.8399 M,0,63526,63569,248.9973,129.8399,288,127 M,0,63569,63612,288,127,248.9973,129.8399 M,0,63612,63655,248.9973,129.8399,211.5164,141.5808 M,0,63655,63697,211.5164,141.5808,177.9564,161.9989 M,0,63697,63740,177.9564,161.9989,142,157 M,0,64426,,346,360 C,0,64426,,252,167,188 P,0,64426,,A F,1,64426,65426,0.3,0 S,0,64426,65426,1,1.2 M,0,65455,,305,243 C,0,65455,,200,200,255 P,0,65455,,A F,1,65455,66455,0.3,0 S,0,65455,66455,1,1.2 M,0,66483,,280,110 C,0,66483,,191,255,223 P,0,66483,,A F,1,66483,67483,0.3,0 S,0,66483,67483,1,1.2 M,0,67512,,101,354 C,0,67512,,130,235,247 P,0,67512,,A M,0,67512,67554,101,354,97,379 F,1,67512,68512,0.3,0 S,0,67512,68512,1,1.2 M,0,68626,,431,277 C,0,68626,,191,255,223 P,0,68626,,A F,1,68626,69626,0.3,0 S,0,68626,69626,1,1.2 M,0,69655,,218,413 C,0,69655,,130,235,247 P,0,69655,,A M,0,69655,69697,218,413,216.9823,361.0028 F,1,69655,70655,0.3,0 S,0,69655,70655,1,1.2 M,0,69697,69740,216.9823,361.0028,212.8129,312.4912 M,0,70940,,571,221 C,0,70940,,252,167,188 P,0,70940,,A F,1,70940,71940,0.3,0 S,0,70940,71940,1,1.2 M,0,72312,,453,146 C,0,72312,,191,255,223 P,0,72312,,A F,1,72312,73312,0.3,0 S,0,72312,73312,1,1.2 M,0,73340,,422,265 C,0,73340,,252,167,188 P,0,73340,,A M,0,73340,73382,422,265,385.2698,254.0319 F,1,73340,74340,0.3,0 S,0,73340,74340,1,1.2 M,0,73382,73425,385.2698,254.0319,363.6342,221.6172 M,0,73425,73468,363.6342,221.6172,338.4146,192.3222 M,0,73468,73511,338.4146,192.3222,300.3685,184.848 M,0,74369,,346,64 C,0,74369,,200,200,255 P,0,74369,,A M,0,74369,74411,346,64,330.1144,99.98131 F,1,74369,75369,0.3,0 S,0,74369,75369,1,1.2 M,0,74411,74454,330.1144,99.98131,320.2929,138.0664 M,0,74454,74497,320.2929,138.0664,316.6154,177.2307 M,0,74497,74540,316.6154,177.2307,335,199 M,0,74540,74583,335,199,316.6154,177.2308 M,0,74583,74626,316.6154,177.2308,320.2929,138.0664 M,0,74626,74668,320.2929,138.0664,330.1144,99.98132 M,0,74668,74711,330.1144,99.98132,346,64 M,0,75398,,454,266 C,0,75398,,191,255,223 P,0,75398,,A F,1,75398,76398,0.3,0 S,0,75398,76398,1,1.2 M,0,76512,,141,107 C,0,76512,,130,235,247 P,0,76512,,A F,1,76512,77512,0.3,0 S,0,76512,77512,1,1.2
Sprite,Foreground,Centre,"sb\glow.png",0,0 M,0,55512,,104,160 C,0,55512,,191,255,223 P,0,55512,,A F,1,55512,56512,0.3,0 S,0,55512,56512,1,1.2 M,0,56540,,303,356 C,0,56540,,130,235,247 P,0,56540,,A M,0,56540,56582,303,356,298.0428,381.7777 F,1,56540,57540,0.3,0 S,0,56540,57540,1,1.2 M,0,57654,,467,216 C,0,57654,,191,255,223 P,0,57654,,A F,1,57654,58654,0.3,0 S,0,57654,58654,1,1.2 M,0,58940,,139,199 C,0,58940,,130,235,247 P,0,58940,,A F,1,58940,59940,0.3,0 S,0,58940,59940,1,1.2 M,0,60140,,509,312 C,0,60140,,200,200,255 P,0,60140,,A M,0,60140,60182,509,312,523.9904,284.5377 F,1,60140,61140,0.3,0 S,0,60140,61140,1,1.2 M,0,60182,60225,523.9904,284.5377,546.8276,263.1232 M,0,61426,,129,232 C,0,61426,,252,167,188 P,0,61426,,A M,0,61426,61468,129,232,116.4078,194.8848 F,1,61426,62426,0.3,0 S,0,61426,62426,1,1.2 M,0,61468,61511,116.4078,194.8848,114.8327,155.7272 M,0,62798,,224,248 C,0,62798,,200,200,255 P,0,62798,,A M,0,62798,62840,224,248,203.4094,287.4251 F,1,62798,63798,0.3,0 S,0,62798,63798,1,1.2 M,0,62840,62883,203.4094,287.4251,228,318 M,0,62883,62926,228,318,203.4094,287.4251 M,0,62926,62969,203.4094,287.4251,224,248 M,0,64340,,279,376 C,0,64340,,252,167,188 P,0,64340,,A F,1,64340,65340,0.3,0 S,0,64340,65340,1,1.2 M,0,65540,,308,249 C,0,65540,,200,200,255 P,0,65540,,A F,1,65540,66540,0.3,0 S,0,65540,66540,1,1.2 M,0,66655,,134,244 C,0,66655,,252,167,188 P,0,66655,,A M,0,66655,66697,134,244,87.57437,217.1366 F,1,66655,67655,0.3,0 S,0,66655,67655,1,1.2 M,0,66697,66740,87.57437,217.1366,53.25418,178.5134 M,0,66740,66783,53.25418,178.5134,78.04846,130.9321 M,0,66783,66826,78.04846,130.9321,115.3808,92.46674 M,0,66826,66869,115.3808,92.46674,162.7105,116.8344 M,0,66869,66912,162.7105,116.8344,202.3369,153.0357 M,0,66912,66954,202.3369,153.0357,181.9343,201.0875 M,0,66954,66997,181.9343,201.0875,148,240 M,0,67683,,203,389 C,0,67683,,130,235,247 P,0,67683,,A M,0,67683,67725,203,389,191,338 F,1,67683,68683,0.3,0 S,0,67683,68683,1,1.2 M,0,68712,,419,222 C,0,68712,,191,255,223 P,0,68712,,A F,1,68712,69712,0.3,0 S,0,68712,69712,1,1.2 M,0,69912,,81,130 C,0,69912,,200,200,255 P,0,69912,,A F,1,69912,70912,0.3,0 S,0,69912,70912,1,1.2 M,0,71112,,322,332 C,0,71112,,130,235,247 P,0,71112,,A M,0,71112,71154,322,332,309.8337,355.1736 F,1,71112,72112,0.3,0 S,0,71112,72112,1,1.2 M,0,71154,71197,309.8337,355.1736,293,374 M,0,72398,,451,152 C,0,72398,,191,255,223 P,0,72398,,A M,0,72398,72440,451,152,441.7208,186.1268 F,1,72398,73398,0.3,0 S,0,72398,73398,1,1.2 M,0,72440,72483,441.7208,186.1268,451,152 M,0,73769,,81,132 C,0,73769,,130,235,247 P,0,73769,,A M,0,73769,73811,81,132,119.9875,166.5293 F,1,73769,74769,0.3,0 S,0,73769,74769,1,1.2 M,0,73811,73854,119.9875,166.5293,126.0745,205.9752 M,0,73854,73897,126.0745,205.9752,119.9875,166.5293 M,0,73897,73940,119.9875,166.5293,81,132 M,0,75226,,545,218 C,0,75226,,191,255,223 P,0,75226,,A F,1,75226,76226,0.3,0 S,0,75226,76226,1,1.2 M,0,76598,,139,113 C,0,76598,,130,235,247 P,0,76598,,A M,0,76598,76640,139,113,163.0518,153.2552 F,1,76598,77598,0.3,0 S,0,76598,77598,1,1.2 M,0,76640,76683,163.0518,153.2552,184.6816,200.7052
Sprite,Foreground,Centre,"sb\glow.png",0,0 M,0,55683,,217,293 C,0,55683,,252,167,188 P,0,55683,,A M,0,55683,55725,217,293,207.6966,243.3806 F,1,55683,56683,0.3,0 S,0,55683,56683,1,1.2 M,0,55725,55768,207.6966,243.3806,171.5401,208.4403 M,0,55768,55811,171.5401,208.4403,121.5705,203.075 M,0,55811,55854,121.5705,203.075,78.82339,229.5137 M,0,55854,55897,78.82339,229.5137,60.27822,276.3843 M,0,55897,55940,60.27822,276.3843,76.03038,315.6668 M,0,55940,55982,76.03038,315.6668,126.0108,325.0217 M,0,55982,56025,126.0108,325.0217,166.547,355.45 M,0,56712,,404,394 C,0,56712,,130,235,247 P,0,56712,,A M,0,56712,56754,404,394,395.0466,342.2691 F,1,56712,57712,0.3,0 S,0,56712,57712,1,1.2 M,0,57740,,420,202 C,0,57740,,191,255,223 P,0,57740,,A F,1,57740,58740,0.3,0 S,0,57740,58740,1,1.2 M,0,59026,,142,205 C,0,59026,,130,235,247 P,0,59026,,A F,1,59026,60026,0.3,0 S,0,59026,60026,1,1.2 M,0,60312,,347,211 C,0,60312,,200,200,255 P,0,60312,,A F,1,60312,61312,0.3,0 S,0,60312,61312,1,1.2 M,0,61769,,310,79 C,0,61769,,252,167,188 P,0,61769,,A F,1,61769,62769,0.3,0 S,0,61769,62769,1,1.2 M,0,63141,,342,268 C,0,63141,,200,200,255 P,0,63141,,A F,1,63141,64141,0.3,0 S,0,63141,64141,1,1.2 M,0,64512,,415,360 C,0,64512,,252,167,188 P,0,64512,,A F,1,64512,65512,0.3,0 S,0,64512,65512,1,1.2 M,0,65626,,314,251 C,0,65626,,200,200,255 P,0,65626,,A M,0,65626,65668,314,251,351.7663,216.435 F,1,65626,66626,0.3,0 S,0,65626,66626,1,1.2 M,0,65668,65711,351.7663,216.435,395.6512,191.0422 M,0,67169,,125,149 C,0,67169,,252,167,188 P,0,67169,,A F,1,67169,68169,0.3,0 S,0,67169,68169,1,1.2 M,0,68198,,481,349 C,0,68198,,200,200,255 P,0,68198,,A M,0,68198,68240,481,349,500.6735,318.1664 F,1,68198,69198,0.3,0 S,0,68198,69198,1,1.2 M,0,68240,68283,500.6735,318.1664,521.8641,285.1553 M,0,69998,,77,113 C,0,69998,,200,200,255 P,0,69998,,A F,1,69998,70998,0.3,0 S,0,69998,70998,1,1.2 M,0,71283,,574,431 C,0,71283,,130,235,247 P,0,71283,,A F,1,71283,72283,0.3,0 S,0,71283,72283,1,1.2 M,0,72740,,414,346 C,0,72740,,191,255,223 P,0,72740,,A F,1,72740,73740,0.3,0 S,0,72740,73740,1,1.2 M,0,74112,,154,66 C,0,74112,,130,235,247 P,0,74112,,A F,1,74112,75112,0.3,0 S,0,74112,75112,1,1.2 M,0,75312,,497,235 C,0,75312,,191,255,223 P,0,75312,,A F,1,75312,76312,0.3,0 S,0,75312,76312,1,1.2 M,0,76769,,256,121 C,0,76769,,130,235,247 P,0,76769,,A M,0,76769,76811,256,121,253.4817,140.5019 F,1,76769,77769,0.3,0 S,0,76769,77769,1,1.2 M,0,76811,76854,253.4817,140.5019,248,159
Sprite,Foreground,Centre,"sb\glow.png",0,0 M,0,56626,,320,345 C,0,56626,,130,235,247 P,0,56626,,A M,0,56626,56668,320,345,310.0855,396.5553 F,1,56626,57626,0.3,0 S,0,56626,57626,1,1.2 M,0,57912,,312,400 C,0,57912,,252,167,188 P,0,57912,,A F,1,57912,58912,0.3,0 S,0,57912,58912,1,1.2 M,0,59112,,237,260 C,0,59112,,130,235,247 P,0,59112,,A M,0,59112,59154,237,260,222.8834,289.6104 F,1,59112,60112,0.3,0 S,0,59112,60112,1,1.2 M,0,59154,59197,222.8834,289.6104,190.317,309.4975 M,0,60398,,380,170 C,0,60398,,200,200,255 P,0,60398,,A F,1,60398,61398,0.3,0 S,0,60398,61398,1,1.2 M,0,62026,,237,254 C,0,62026,,130,235,247 P,0,62026,,A F,1,62026,63026,0.3,0 S,0,62026,63026,1,1.2 M,0,63226,,316,323 C,0,63226,,200,200,255 P,0,63226,,A F,1,63226,64226,0.3,0 S,0,63226,64226,1,1.2 M,0,64598,,477,415 C,0,64598,,130,235,247 P,0,64598,,A M,0,64598,64640,477,415,484.011,376.2765 F,1,64598,65598,0.3,0 S,0,64598,65598,1,1.2 M,0,64640,64683,484.011,376.2765,494.8514,338.445 M,0,65798,,473,180 C,0,65798,,200,200,255 P,0,65798,,A M,0,65798,65840,473,180,476.9561,160.7141 F,1,65798,66798,0.3,0 S,0,65798,66798,1,1.2 M,0,65840,65883,476.9561,160.7141,480.9122,141.4281 M,0,67598,,117,344 C,0,67598,,130,235,247 P,0,67598,,A M,0,67598,67640,117,344,109,395 F,1,67598,68598,0.3,0 S,0,67598,68598,1,1.2 M,0,68883,,377,370 C,0,68883,,252,167,188 P,0,68883,,A F,1,68883,69883,0.3,0 S,0,68883,69883,1,1.2 M,0,70083,,147,56 C,0,70083,,191,255,223 P,0,70083,,A M,0,70083,70125,147,56,133.2556,106.7291 F,1,70083,71083,0.3,0 S,0,70083,71083,1,1.2 M,0,70125,70168,133.2556,106.7291,83.35757,136.8956 M,0,71369,,550,383 C,0,71369,,130,235,247 P,0,71369,,A F,1,71369,72369,0.3,0 S,0,71369,72369,1,1.2 M,0,72998,,563,312 C,0,72998,,252,167,188 P,0,72998,,A F,1,72998,73998,0.3,0 S,0,72998,73998,1,1.2 M,0,74198,,190,98 C,0,74198,,130,235,247 P,0,74198,,A F,1,74198,75198,0.3,0 S,0,74198,75198,1,1.2 M,0,75483,,426,310 C,0,75483,,191,255,223 P,0,75483,,A F,1,75483,76483,0.3,0 S,0,75483,76483,1,1.2
Sprite,Foreground,Centre,"sb\glow.png",0,0 M,0,56798,,417,378 C,0,56798,,130,235,247 P,0,56798,,A M,0,56798,56840,417,378,412.2202,352.1888 F,1,56798,57798,0.3,0 S,0,56798,57798,1,1.2 M,0,58083,,312,400 C,0,58083,,252,167,188 P,0,58083,,A M,0,58083,58125,312,400,299.1762,378.411 F,1,58083,59083,0.3,0 S,0,58083,59083,1,1.2 M,0,58125,58168,299.1762,378.411,298.1901,346.9511 M,0,58168,58211,298.1901,346.9511,292.8724,315.9291 M,0,58211,58254,292.8724,315.9291,283.3622,285.924 M,0,59283,,322,182 C,0,59283,,130,235,247 P,0,59283,,A M,0,59283,59325,322,182,331.4705,215.1232 F,1,59283,60283,0.3,0 S,0,59283,60283,1,1.2 M,0,59325,59368,331.4705,215.1232,316.0275,250.6322 M,0,60655,,440,270 C,0,60655,,191,255,223 P,0,60655,,A F,1,60655,61655,0.3,0 S,0,60655,61655,1,1.2 M,0,62198,,366,128 C,0,62198,,130,235,247 P,0,62198,,A M,0,62198,62240,366,128,402.5959,134.6472 F,1,62198,63198,0.3,0 S,0,62198,63198,1,1.2 M,0,62240,62283,402.5959,134.6472,375.3539,161.2656 M,0,64769,,563,386 C,0,64769,,130,235,247 P,0,64769,,A M,0,64769,64811,563,386,528.4667,368.0244 F,1,64769,65769,0.3,0 S,0,64769,65769,1,1.2 M,0,64811,64854,528.4667,368.0244,506.0995,335.8588 M,0,64854,64897,506.0995,335.8588,485.3438,302.5297 M,0,64897,64940,485.3438,302.5297,452.1961,282.3266 M,0,65969,,471,126 C,0,65969,,191,255,223 P,0,65969,,A M,0,65969,66011,471,126,443.3451,110.8512 F,1,65969,66969,0.3,0 S,0,65969,66969,1,1.2 M,0,66011,66054,443.3451,110.8512,418.8057,89.17249 M,0,66054,66097,418.8057,89.17249,390.1228,73.36389 M,0,66097,66140,390.1228,73.36389,358.8982,63.42256 M,0,67769,,215,373 C,0,67769,,130,235,247 P,0,67769,,A M,0,67769,67811,215,373,209.0974,347.4222 F,1,67769,68769,0.3,0 S,0,67769,68769,1,1.2 M,0,69055,,377,370 C,0,69055,,252,167,188 P,0,69055,,A M,0,69055,69097,377,370,353.6457,401.1441 F,1,69055,70055,0.3,0 S,0,69055,70055,1,1.2 M,0,69097,69140,353.6457,401.1441,348.8094,438.1357 M,0,69140,69183,348.8094,438.1357,331.3933,403.3314 M,0,69183,69226,331.3933,403.3314,299,383 M,0,70255,,225,90 C,0,70255,,191,255,223 P,0,70255,,A M,0,70255,70297,225,90,232.3713,122.957 F,1,70255,71255,0.3,0 S,0,70255,71255,1,1.2 M,0,70297,70340,232.3713,122.957,215.0001,157.9999 M,0,71626,,422,265 C,0,71626,,200,200,255 P,0,71626,,A F,1,71626,72626,0.3,0 S,0,71626,72626,1,1.2 M,0,73169,,382,415 C,0,73169,,252,167,188 P,0,73169,,A M,0,73169,73211,382,415,343.6497,421.0974 F,1,73169,74169,0.3,0 S,0,73169,74169,1,1.2 M,0,73211,73254,343.6497,421.0974,336.4463,383.1362 M,0,75569,,449,393 C,0,75569,,252,167,188 P,0,75569,,A M,0,75569,75611,449,393,411.8708,380.3658 F,1,75569,76569,0.3,0 S,0,75569,76569,1,1.2 M,0,75611,75654,411.8708,380.3658,372.7188,377.9604
Sprite,Foreground,Centre,"sb\glow.png",0,0 M,0,56884,,433,387 C,0,56884,,130,235,247 P,0,56884,,A M,0,56884,56926,433,387,424.0466,335.2691 F,1,56884,57884,0.3,0 S,0,56884,57884,1,1.2 M,0,67855,,232,382 C,0,67855,,130,235,247 P,0,67855,,A M,0,67855,67897,232,382,220,331 F,1,67855,68855,0.3,0 S,0,67855,68855,1,1.2 M,0,75740,,316,437 C,0,75740,,252,167,188 P,0,75740,,A M,0,75740,75782,316,437,321.8649,398.3972 F,1,75740,76740,0.3,0 S,0,75740,76740,1,1.2 M,0,75782,75825,321.8649,398.3972,340.3057,363.6548 M,0,75825,75868,340.3057,363.6548,352.1812,326.5702 M,0,75868,75911,352.1812,326.5702,337.2787,291.2734
Sprite,Foreground,Centre,"sb\glow.png",0,0 M,0,56969,,445,373 C,0,56969,,130,235,247 P,0,56969,,A M,0,56969,57011,445,373,440.2202,347.1888 F,1,56969,57969,0.3,0 S,0,56969,57969,1,1.2 M,0,67940,,244,367 C,0,67940,,130,235,247 P,0,67940,,A M,0,67940,67982,244,367,238.0974,341.4222 F,1,67940,68940,0.3,0 S,0,67940,68940,1,1.2
Sprite,Foreground,Centre,"sb\glow.png",0,0 M,0,57055,,510,324 C,0,57055,,200,200,255 P,0,57055,,A M,0,57055,57097,510,324,523.9799,311.4503 F,1,57055,58055,0.3,0 S,0,57055,58055,1,1.2 M,0,57097,57140,523.9799,311.4503,498.2621,283.1192 M,0,68026,,298,290 C,0,68026,,200,200,255 P,0,68026,,A M,0,68026,68068,298,290,299.0544,250.7262 F,1,68026,69026,0.3,0 S,0,68026,69026,1,1.2 M,0,68068,68111,299.0544,250.7262,307.86,212.4339
Sprite,Foreground,Centre,"sb\glow.png",0,0 M,0,123569,,167,408 C,0,123569,,191,255,223 P,0,123569,,A M,0,123569,123611,167,408,205.5244,411.4496 F,1,123569,124569,0.3,0 S,0,123569,124569,1,1.2 M,0,123611,123654,205.5244,411.4496,228.3872,387.6941 M,0,123654,123697,228.3872,387.6941,261.4109,384.4738 M,0,123697,123740,261.4109,384.4738,237.664,402.6408 M,0,124769,,576,143 C,0,124769,,252,167,188 P,0,124769,,A F,1,124769,125769,0.3,0 S,0,124769,125769,1,1.2 M,0,125797,,347,392 C,0,125797,,200,200,255 P,0,125797,,A M,0,125797,125839,347,392,326.7655,374.965 F,1,125797,126797,0.3,0 S,0,125797,126797,1,1.2 M,0,125839,125882,326.7655,374.965,344.8413,355.9191 M,0,126998,,278,227 C,0,126998,,252,167,188 P,0,126998,,A F,1,126998,127998,0.3,0 S,0,126998,127998,1,1.2 M,0,128026,,355,232 C,0,128026,,200,200,255 P,0,128026,,A M,0,128026,128068,355,232,398.0493,216.5405 F,1,128026,129026,0.3,0 S,0,128026,129026,1,1.2 M,0,128068,128111,398.0493,216.5405,405.4319,276.8571 M,0,128111,128154,405.4319,276.8571,362.643,318.868 M,0,128154,128197,362.643,318.868,307.4337,295.3855 M,0,128197,128240,307.4337,295.3855,292.0648,236.6023 M,0,128240,128283,292.0648,236.6023,337.935,235.847 M,0,129054,,393,269 C,0,129054,,191,255,223 P,0,129054,,A F,1,129054,130054,0.3,0 S,0,129054,130054,1,1.2 M,0,130254,,528,76 C,0,130254,,130,235,247 P,0,130254,,A F,1,130254,131254,0.3,0 S,0,130254,131254,1,1.2 M,0,131283,,227,161 C,0,131283,,252,167,188 P,0,131283,,A F,1,131283,132283,0.3,0 S,0,131283,132283,1,1.2 M,0,132312,,187,372 C,0,132312,,130,235,247 P,0,132312,,A F,1,132312,133312,0.3,0 S,0,132312,133312,1,1.2 M,0,133340,,574,363 C,0,133340,,130,235,247 P,0,133340,,A M,0,133340,133382,574,363,522.7146,352.3311 F,1,133340,134340,0.3,0 S,0,133340,134340,1,1.2 M,0,133382,133425,522.7146,352.3311,470.4696,355.1892 M,0,133425,133468,470.4696,355.1892,421.1765,372.7464 M,0,133468,133511,421.1765,372.7464,410,417 M,0,134369,,440,280 C,0,134369,,200,200,255 P,0,134369,,A M,0,134369,134411,440,280,444.7071,249.3464 F,1,134369,135369,0.3,0 S,0,134369,135369,1,1.2 M,0,134411,134454,444.7071,249.3464,440.3391,279.5569 M,0,135740,,201,133 C,0,135740,,252,167,188 P,0,135740,,A F,1,135740,136740,0.3,0 S,0,135740,136740,1,1.2 M,0,136769,,319,376 C,0,136769,,200,200,255 P,0,136769,,A M,0,136769,136811,319,376,319.6112,337.9059 F,1,136769,137769,0.3,0 S,0,136769,137769,1,1.2 M,0,136811,136854,319.6112,337.9059,320.0112,300.0245 M,0,137969,,532,81 C,0,137969,,130,235,247 P,0,137969,,A F,1,137969,138969,0.3,0 S,0,137969,138969,1,1.2 M,0,138998,,509,361 C,0,138998,,191,255,223 P,0,138998,,A M,0,138998,139040,509,361,486.956,302.5914 F,1,138998,139998,0.3,0 S,0,138998,139998,1,1.2 M,0,139040,139083,486.956,302.5914,463.711,242.322 M,0,139083,139126,463.711,242.322,402.7973,231.3273 M,0,139126,139169,402.7973,231.3273,367.9188,282.1915 M,0,139169,139212,367.9188,282.1915,393.576,341.6985 M,0,139212,139255,393.576,341.6985,419,397 M,0,140026,,178,176 C,0,140026,,252,167,188 P,0,140026,,A F,1,140026,141026,0.3,0 S,0,140026,141026,1,1.2 M,0,141226,,285,433 C,0,141226,,200,200,255 P,0,141226,,A F,1,141226,142226,0.3,0 S,0,141226,142226,1,1.2 M,0,142255,,196,138 C,0,142255,,252,167,188 P,0,142255,,A M,0,142255,142297,196,138,197.3385,91.67149 F,1,142255,143255,0.3,0 S,0,142255,143255,1,1.2 M,0,142297,142340,197.3385,91.67149,215,53 M,0,143283,,102,383 C,0,143283,,200,200,255 P,0,143283,,A M,0,143283,143325,102,383,120.1865,345.6073 F,1,143283,144283,0.3,0 S,0,143283,144283,1,1.2 M,0,143325,143368,120.1865,345.6073,169,329 M,0,144312,,500,241 C,0,144312,,130,235,247 P,0,144312,,A F,1,144312,145312,0.3,0 S,0,144312,145312,1,1.2 M,0,145340,,314,375 C,0,145340,,252,167,188 P,0,145340,,A M,0,145340,145382,314,375,305.8448,350.1423 F,1,145340,146340,0.3,0 S,0,145340,146340,1,1.2 M,0,145382,145425,305.8448,350.1423,305,324
Sprite,Foreground,Centre,"sb\glow.png",0,0 M,0,123911,,271,206 C,0,123911,,191,255,223 P,0,123911,,A F,1,123911,124911,0.3,0 S,0,123911,124911,1,1.2 M,0,124940,,480,80 C,0,124940,,130,235,247 P,0,124940,,A M,0,124940,124982,480,80,453.768,80.97156 F,1,124940,125940,0.3,0 S,0,124940,125940,1,1.2 M,0,125969,,437,394 C,0,125969,,200,200,255 P,0,125969,,A M,0,125969,126011,437,394,431.5749,370.1274 F,1,125969,126969,0.3,0 S,0,125969,126969,1,1.2 M,0,126011,126054,431.5749,370.1274,437,394 M,0,127169,,205,297 C,0,127169,,252,167,188 P,0,127169,,A F,1,127169,128169,0.3,0 S,0,127169,128169,1,1.2 M,0,128369,,378,394 C,0,128369,,191,255,223 P,0,128369,,A M,0,128369,128411,378,394,380.8472,406.8125 F,1,128369,129369,0.3,0 S,0,128369,129369,1,1.2 M,0,129398,,531,400 C,0,129398,,252,167,188 P,0,129398,,A M,0,129398,129440,531,400,498.5915,378.8002 F,1,129398,130398,0.3,0 S,0,129398,130398,1,1.2 M,0,129440,129483,498.5915,378.8002,494.6932,344.2301 M,0,129483,129526,494.6932,344.2301,492.6352,367.3513 M,0,129526,129569,492.6352,367.3513,455.298,378.7342 M,0,129569,129612,455.298,378.7342,438.1445,407.0206 M,0,129612,129655,438.1445,407.0206,409,432 M,0,130426,,480,90 C,0,130426,,200,200,255 P,0,130426,,A M,0,130426,130468,480,90,440.6903,109.0507 F,1,130426,131426,0.3,0 S,0,130426,131426,1,1.2 M,0,130468,130511,440.6903,109.0507,405.24,137.7107 M,0,131455,,327,286 C,0,131455,,252,167,188 P,0,131455,,A F,1,131455,132455,0.3,0 S,0,131455,132455,1,1.2 M,0,132483,,383,372 C,0,132483,,200,200,255 P,0,132483,,A F,1,132483,133483,0.3,0 S,0,132483,133483,1,1.2 M,0,133683,,321,144 C,0,133683,,130,235,247 P,0,133683,,A F,1,133683,134683,0.3,0 S,0,133683,134683,1,1.2 M,0,134883,,126,122 C,0,134883,,191,255,223 P,0,134883,,A F,1,134883,135883,0.3,0 S,0,134883,135883,1,1.2 M,0,135912,,75,416 C,0,135912,,130,235,247 P,0,135912,,A M,0,135912,135954,75,416,100,421 F,1,135912,136912,0.3,0 S,0,135912,136912,1,1.2 M,0,136940,,501,309 C,0,136940,,200,200,255 P,0,136940,,A M,0,136940,136982,501,309,504.1519,274.3183 F,1,136940,137940,0.3,0 S,0,136940,137940,1,1.2 M,0,136982,137025,504.1519,274.3183,480,244 M,0,138140,,407,153 C,0,138140,,130,235,247 P,0,138140,,A M,0,138140,138182,407,153,374.1207,132.1343 F,1,138140,139140,0.3,0 S,0,138140,139140,1,1.2 M,0,138182,138225,374.1207,132.1343,357.0345,97.15906 M,0,138225,138268,357.0345,97.15906,352.0882,135.5273 M,0,138268,138311,352.0882,135.5273,329,166 M,0,139340,,485,426 C,0,139340,,252,167,188 P,0,139340,,A M,0,139340,139382,485,426,490.5886,437.8757 F,1,139340,140340,0.3,0 S,0,139340,140340,1,1.2 M,0,140369,,77,295 C,0,140369,,130,235,247 P,0,140369,,A M,0,140369,140411,77,295,70.39198,346.638 F,1,140369,141369,0.3,0 S,0,140369,141369,1,1.2 M,0,140411,140454,70.39198,346.638,88.42636,395.4276 M,0,140454,140497,88.42636,395.4276,135.0695,410.0721 M,0,140497,140540,135.0695,410.0721,178.5592,428.0954 M,0,140540,140583,178.5592,428.0954,195.8014,379.1063 M,0,140583,140626,195.8014,379.1063,186.3663,328.2246 M,0,140626,140668,186.3663,328.2246,146.7688,322.4218 M,0,140668,140711,146.7688,322.4218,162,369 M,0,141397,,348,413 C,0,141397,,191,255,223 P,0,141397,,A F,1,141397,142397,0.3,0 S,0,141397,142397,1,1.2 M,0,142426,,203,167 C,0,142426,,252,167,188 P,0,142426,,A M,0,142426,142468,203,167,148.1149,166.8706 F,1,142426,143426,0.3,0 S,0,142426,143426,1,1.2 M,0,142468,142511,148.1149,166.8706,92,169 M,0,143455,,238,361 C,0,143455,,200,200,255 P,0,143455,,A M,0,143455,143497,238,361,262.639,352.5776 F,1,143455,144455,0.3,0 S,0,143455,144455,1,1.2 M,0,143497,143540,262.639,352.5776,288.6691,351.9623 M,0,144483,,527,136 C,0,144483,,200,200,255 P,0,144483,,A F,1,144483,145483,0.3,0 S,0,144483,145483,1,1.2 M,0,145512,,411,148 C,0,145512,,130,235,247 P,0,145512,,A M,0,145512,145554,411,148,424.1157,147.5656 F,1,145512,146512,0.3,0 S,0,145512,146512,1,1.2 M,0,145554,145597,424.1157,147.5656,437.232,147.9612 M,0,145597,145640,437.232,147.9612,450.2866,149.2847 M,0,145640,145683,450.2866,149.2847,463.1949,151.637 M,0,145683,145726,463.1949,151.637,475.8412,155.1306 M,0,145726,145769,475.8412,155.1306,488.076,159.8642 M,0,145769,145811,488.076,159.8642,499.709,165.9254 M,0,145811,145854,499.709,165.9254,510.5046,173.3736 M,0,145854,145897,510.5046,173.3736,520.2054,182.1978 M,0,145897,145940,520.2054,182.1978,528.5427,192.3186 M,0,145940,145983,528.5427,192.3186,535.2786,203.5683 M,0,145983,146026,535.2786,203.5683,540.2308,215.7092 M,0,146026,146069,540.2308,215.7092,543.3214,228.4526 M,0,146069,146111,543.3214,228.4526,544.5398,241.51 M,0,146111,146154,544.5398,241.51,543.9611,254.6125 M,0,146154,146197,543.9611,254.6125,541.6998,267.5324 M,0,146197,146240,541.6998,267.5324,537.9023,280.0879 M,0,146240,146283,537.9023,280.0879,532.7151,292.1371 M,0,146283,146326,532.7151,292.1371,526.2783,303.5686 M,0,146326,146369,526.2783,303.5686,518.7324,314.3011 M,0,146369,146411,518.7324,314.3011,510.2028,324.2704 M,0,146411,146454,510.2028,324.2704,500.8031,333.4244 M,0,146454,146497,500.8031,333.4244,490.6449,341.729 M,0,146497,146540,490.6449,341.729,479.8215,349.1466 M,0,146540,146583,479.8215,349.1466,468.4279,355.6549 M,0,146583,146626,468.4279,355.6549,456.5506,361.2318 M,0,146626,146669,456.5506,361.2318,444.272,365.8592 M,0,146669,146711,444.272,365.8592,431.6707,369.5174 M,0,146711,146754,431.6707,369.5174,418.8258,372.1985 M,0,146754,146797,418.8258,372.1985,405.8131,373.8846 M,0,146797,146840,405.8131,373.8846,392.7094,374.568 M,0,146840,146883,392.7094,374.568,379.5921,374.2336 M,0,146883,146926,379.5921,374.2336,366.5413,372.8745 M,0,146926,146969,366.5413,372.8745,353.6412,370.4755 M,0,146969,147011,353.6412,370.4755,340.9805,367.0305 M,0,147011,147054,340.9805,367.0305,328.6578,362.5245 M,0,147054,147097,328.6578,362.5245,316.7797,356.952 M,0,147097,147140,316.7797,356.952,305.4684,350.3048 M,0,147140,147183,305.4684,350.3048,294.8643,342.5801 M,0,147183,147226,294.8643,342.5801,285.1299,333.7858 M,0,147226,147269,285.1299,333.7858,276.4541,323.9474 M,0,147269,147311,276.4541,323.9474,269.0513,313.1203 M,0,147311,147354,269.0513,313.1203,263.1568,301.4055 M,0,147354,147397,263.1568,301.4055,259.0088,288.9666 M,0,147397,147440,259.0088,288.9666,256.8153,276.0406 M,0,147440,147483,256.8153,276.0406,256.7068,262.9308 M,0,147483,147526,256.7068,262.9308,258.7023,249.9732 M,0,147526,147569,258.7023,249.9732,262.6788,237.4788 M,0,147569,147611,262.6788,237.4788,268.4322,225.6942 M,0,147611,147654,268.4322,225.6942,275.6801,214.763 M,0,147654,147697,275.6801,214.763,284.1505,204.7461 M,0,147697,147740,284.1505,204.7461,293.6115,195.6566 M,0,147740,147783,293.6115,195.6566,303.8449,187.4448 M,0,147783,147826,303.8449,187.4448,314.6929,180.062 M,0,147826,147869,314.6929,180.062,326.0233,173.4426 M,0,147869,147911,326.0233,173.4426,337.7307,167.5137
Sprite,Foreground,Centre,"sb\glow.png",0,0 M,0,123997,,285,181 C,0,123997,,191,255,223 P,0,123997,,A F,1,123997,124997,0.3,0 S,0,123997,124997,1,1.2 M,0,125026,,493,93 C,0,125026,,130,235,247 P,0,125026,,A M,0,125026,125068,493,93,440.5839,95.96695 F,1,125026,126026,0.3,0 S,0,125026,126026,1,1.2 M,0,126140,,435,290 C,0,126140,,191,255,223 P,0,126140,,A F,1,126140,127140,0.3,0 S,0,126140,127140,1,1.2 M,0,127255,,192,319 C,0,127255,,252,167,188 P,0,127255,,A F,1,127255,128255,0.3,0 S,0,127255,128255,1,1.2 M,0,128540,,461,150 C,0,128540,,191,255,223 P,0,128540,,A F,1,128540,129540,0.3,0 S,0,128540,129540,1,1.2 M,0,129740,,346,396 C,0,129740,,252,167,188 P,0,129740,,A M,0,129740,129782,346,396,353.2699,358.6343 F,1,129740,130740,0.3,0 S,0,129740,130740,1,1.2 M,0,129782,129825,353.2699,358.6343,384.7141,337.0787 M,0,130769,,131,99 C,0,130769,,191,255,223 P,0,130769,,A M,0,130769,130811,131,99,124.3772,73.84234 F,1,130769,131769,0.3,0 S,0,130769,131769,1,1.2 M,0,130811,130854,124.3772,73.84234,162.5929,108.2024 M,0,131797,,106,387 C,0,131797,,252,167,188 P,0,131797,,A F,1,131797,132797,0.3,0 S,0,131797,132797,1,1.2 M,0,132826,,454,326 C,0,132826,,191,255,223 P,0,132826,,A F,1,132826,133826,0.3,0 S,0,132826,133826,1,1.2 M,0,133854,,369,236 C,0,133854,,130,235,247 P,0,133854,,A F,1,133854,134854,0.3,0 S,0,133854,134854,1,1.2 M,0,134968,,126,150 C,0,134968,,191,255,223 P,0,134968,,A F,1,134968,135968,0.3,0 S,0,134968,135968,1,1.2 M,0,135998,,64,399 C,0,135998,,130,235,247 P,0,135998,,A M,0,135998,136040,64,399,115,409 F,1,135998,136998,0.3,0 S,0,135998,136998,1,1.2 M,0,137111,,323,186 C,0,137111,,191,255,223 P,0,137111,,A F,1,137111,138111,0.3,0 S,0,137111,138111,1,1.2 M,0,138483,,529,232 C,0,138483,,130,235,247 P,0,138483,,A F,1,138483,139483,0.3,0 S,0,138483,139483,1,1.2 M,0,139512,,418,270 C,0,139512,,252,167,188 P,0,139512,,A F,1,139512,140512,0.3,0 S,0,139512,140512,1,1.2 M,0,140883,,458,344 C,0,140883,,200,200,255 P,0,140883,,A F,1,140883,141883,0.3,0 S,0,140883,141883,1,1.2 M,0,141911,,528,190 C,0,141911,,191,255,223 P,0,141911,,A M,0,141911,141953,528,190,490.8313,199.9202 F,1,141911,142911,0.3,0 S,0,141911,142911,1,1.2 M,0,141953,141996,490.8313,199.9202,466.5235,230.322 M,0,141996,142039,466.5235,230.322,443.0159,261.3615 M,0,142039,142082,443.0159,261.3615,405.8581,271.133 M,0,142940,,359,308 C,0,142940,,130,235,247 P,0,142940,,A M,0,142940,142982,359,308,372.4943,319.0724 F,1,142940,143940,0.3,0 S,0,142940,143940,1,1.2 M,0,142982,143025,372.4943,319.0724,373.3187,301.9617 M,0,143969,,384,371 C,0,143969,,191,255,223 P,0,143969,,A M,0,143969,144011,384,371,369.8925,393.0052 F,1,143969,144969,0.3,0 S,0,143969,144969,1,1.2 M,0,144011,144054,369.8925,393.0052,356.3279,412.8542 M,0,145083,,362,66 C,0,145083,,252,167,188 P,0,145083,,A F,1,145083,146083,0.3,0 S,0,145083,146083,1,1.2
Sprite,Foreground,Centre,"sb\glow.png",0,0 M,0,124083,,309,168 C,0,124083,,191,255,223 P,0,124083,,A F,1,124083,125083,0.3,0 S,0,124083,125083,1,1.2 M,0,125112,,482,109 C,0,125112,,130,235,247 P,0,125112,,A M,0,125112,125154,482,109,455.768,109.9716 F,1,125112,126112,0.3,0 S,0,125112,126112,1,1.2 M,0,126225,,406,248 C,0,126225,,191,255,223 P,0,126225,,A F,1,126225,127225,0.3,0 S,0,126225,127225,1,1.2 M,0,127340,,188,277 C,0,127340,,252,167,188 P,0,127340,,A F,1,127340,128340,0.3,0 S,0,127340,128340,1,1.2 M,0,128712,,208,198 C,0,128712,,191,255,223 P,0,128712,,A F,1,128712,129712,0.3,0 S,0,128712,129712,1,1.2 M,0,129911,,552,204 C,0,129911,,130,235,247 P,0,129911,,A F,1,129911,130911,0.3,0 S,0,129911,130911,1,1.2 M,0,130940,,159,197 C,0,130940,,191,255,223 P,0,130940,,A M,0,130940,130982,159,197,165.93,217.9482 F,1,130940,131940,0.3,0 S,0,130940,131940,1,1.2 M,0,130982,131025,165.93,217.9482,140.0107,190.027 M,0,131969,,233,234 C,0,131969,,130,235,247 P,0,131969,,A F,1,131969,132969,0.3,0 S,0,131969,132969,1,1.2 M,0,132998,,526,333 C,0,132998,,191,255,223 P,0,132998,,A F,1,132998,133998,0.3,0 S,0,132998,133998,1,1.2 M,0,134026,,245,424 C,0,134026,,200,200,255 P,0,134026,,A F,1,134026,135026,0.3,0 S,0,134026,135026,1,1.2 M,0,135054,,139,176 C,0,135054,,191,255,223 P,0,135054,,A F,1,135054,136054,0.3,0 S,0,135054,136054,1,1.2 M,0,136083,,80,386 C,0,136083,,130,235,247 P,0,136083,,A M,0,136083,136125,80,386,105,391 F,1,136083,137083,0.3,0 S,0,136083,137083,1,1.2 M,0,137197,,295,229 C,0,137197,,191,255,223 P,0,137197,,A F,1,137197,138197,0.3,0 S,0,137197,138197,1,1.2 M,0,138569,,576,241 C,0,138569,,130,235,247 P,0,138569,,A F,1,138569,139569,0.3,0 S,0,138569,139569,1,1.2 M,0,139683,,280,151 C,0,139683,,252,167,188 P,0,139683,,A M,0,139683,139725,280,151,263.0348,170.8005 F,1,139683,140683,0.3,0 S,0,139683,140683,1,1.2 M,0,139725,139768,263.0348,170.8005,252.1581,194.496 M,0,140969,,385,327 C,0,140969,,200,200,255 P,0,140969,,A M,0,140969,141011,385,327,350.0207,317.9914 F,1,140969,141969,0.3,0 S,0,140969,141969,1,1.2 M,0,141011,141054,350.0207,317.9914,384.9619,326.9517 M,0,142598,,194,194 C,0,142598,,252,167,188 P,0,142598,,A M,0,142598,142640,194,194,190.5916,241.1215 F,1,142598,143598,0.3,0 S,0,142598,143598,1,1.2 M,0,142640,142683,190.5916,241.1215,172,279 M,0,143626,,175,405 C,0,143626,,200,200,255 P,0,143626,,A F,1,143626,144626,0.3,0 S,0,143626,144626,1,1.2 M,0,144655,,575,362 C,0,144655,,191,255,223 P,0,144655,,A F,1,144655,145655,0.3,0 S,0,144655,145655,1,1.2
Sprite,Foreground,Centre,"sb\glow.png",0,0 M,0,124255,,444,188 C,0,124255,,252,167,188 P,0,124255,,A M,0,124255,124297,444,188,473.6754,164.9741 F,1,124255,125255,0.3,0 S,0,124255,125255,1,1.2 M,0,124297,124340,473.6754,164.9741,537.3727,152.9956 M,0,124340,124383,537.3727,152.9956,513.9733,198.1202 M,0,124383,124426,513.9733,198.1202,452.2967,218.0632 M,0,124426,124469,452.2967,218.0632,435.5304,235.3649 M,0,124469,124512,435.5304,235.3649,409.822,232.3314 M,0,124512,124554,409.822,232.3314,412.5049,213.5242 M,0,124554,124597,412.5049,213.5242,420.9595,218.0692 M,0,125283,,462,212 C,0,125283,,130,235,247 P,0,125283,,A M,0,125283,125325,462,212,512.6271,198.1024 F,1,125283,126283,0.3,0 S,0,125283,126283,1,1.2 M,0,126311,,399,296 C,0,126311,,191,255,223 P,0,126311,,A F,1,126311,127311,0.3,0 S,0,126311,127311,1,1.2 M,0,127511,,79,177 C,0,127511,,130,235,247 P,0,127511,,A F,1,127511,128511,0.3,0 S,0,127511,128511,1,1.2 M,0,128883,,373,370 C,0,128883,,191,255,223 P,0,128883,,A F,1,128883,129883,0.3,0 S,0,128883,129883,1,1.2 M,0,129997,,480,194 C,0,129997,,130,235,247 P,0,129997,,A M,0,129997,130039,480,194,473.9203,219.5185 F,1,129997,130997,0.3,0 S,0,129997,130997,1,1.2 M,0,130039,130082,473.9203,219.5185,471,245 M,0,131112,,64,179 C,0,131112,,252,167,188 P,0,131112,,A F,1,131112,132112,0.3,0 S,0,131112,132112,1,1.2 M,0,132140,,291,426 C,0,132140,,130,235,247 P,0,132140,,A F,1,132140,133140,0.3,0 S,0,132140,133140,1,1.2 M,0,133169,,458,365 C,0,133169,,252,167,188 P,0,133169,,A M,0,133169,133211,458,365,485.6405,391.2245 F,1,133169,134169,0.3,0 S,0,133169,134169,1,1.2 M,0,133211,133254,485.6405,391.2245,517,372 M,0,134197,,298,376 C,0,134197,,200,200,255 P,0,134197,,A M,0,134197,134239,298,376,332.3173,337.4854 F,1,134197,135197,0.3,0 S,0,134197,135197,1,1.2 M,0,134239,134282,332.3173,337.4854,375.817,311.1657 M,0,135226,,251,195 C,0,135226,,252,167,188 P,0,135226,,A M,0,135226,135268,251,195,312.5807,209.6 F,1,135226,136226,0.3,0 S,0,135226,136226,1,1.2 M,0,135268,135311,312.5807,209.6,312.8769,223.6657 M,0,135311,135354,312.8769,223.6657,349.9431,171.7988 M,0,135354,135397,349.9431,171.7988,386.8058,133.0167 M,0,135397,135440,386.8058,133.0167,398.8413,76.35838 M,0,135440,135483,398.8413,76.35838,350.5092,48.29253 M,0,135483,135525,350.5092,48.29253,306.425,88.34041 M,0,135525,135568,306.425,88.34041,340.4837,138.7419 M,0,136255,,194,371 C,0,136255,,130,235,247 P,0,136255,,A M,0,136255,136297,194,371,243,353 F,1,136255,137255,0.3,0 S,0,136255,137255,1,1.2 M,0,137283,,346,230 C,0,137283,,191,255,223 P,0,137283,,A F,1,137283,138283,0.3,0 S,0,137283,138283,1,1.2 M,0,138655,,489,253 C,0,138655,,200,200,255 P,0,138655,,A M,0,138655,138697,489,253,488.1185,288.1626 F,1,138655,139655,0.3,0 S,0,138655,139655,1,1.2 M,0,138697,138740,488.1185,288.1626,452.0638,302.5768 M,0,138740,138783,452.0638,302.5768,444.7657,331.0258 M,0,139854,,133,240 C,0,139854,,252,167,188 P,0,139854,,A F,1,139854,140854,0.3,0 S,0,139854,140854,1,1.2 M,0,141311,,298,429 C,0,141311,,200,200,255 P,0,141311,,A F,1,141311,142311,0.3,0 S,0,141311,142311,1,1.2 M,0,142769,,184,169 C,0,142769,,130,235,247 P,0,142769,,A M,0,142769,142811,184,169,238.8851,168.8706 F,1,142769,143769,0.3,0 S,0,142769,143769,1,1.2 M,0,142811,142854,238.8851,168.8706,294,171 M,0,143798,,529,362 C,0,143798,,191,255,223 P,0,143798,,A M,0,143798,143840,529,362,481.7816,383.4882 F,1,143798,144798,0.3,0 S,0,143798,144798,1,1.2 M,0,143840,143883,481.7816,383.4882,444,417 M,0,144826,,86,307 C,0,144826,,191,255,223 P,0,144826,,A F,1,144826,145826,0.3,0 S,0,144826,145826,1,1.2
Sprite,Foreground,Centre,"sb\glow.png",0,0 M,0,125198,,498,122 C,0,125198,,130,235,247 P,0,125198,,A M,0,125198,125240,498,122,445.5839,124.9669 F,1,125198,126198,0.3,0 S,0,125198,126198,1,1.2 M,0,126483,,64,363 C,0,126483,,252,167,188 P,0,126483,,A F,1,126483,127483,0.3,0 S,0,126483,127483,1,1.2 M,0,127597,,100,215 C,0,127597,,130,235,247 P,0,127597,,A F,1,127597,128597,0.3,0 S,0,127597,128597,1,1.2 M,0,128969,,375,318 C,0,128969,,191,255,223 P,0,128969,,A F,1,128969,129969,0.3,0 S,0,128969,129969,1,1.2 M,0,130340,,569,94 C,0,130340,,130,235,247 P,0,130340,,A F,1,130340,131340,0.3,0 S,0,130340,131340,1,1.2 M,0,131626,,156,302 C,0,131626,,252,167,188 P,0,131626,,A F,1,131626,132626,0.3,0 S,0,131626,132626,1,1.2 M,0,132655,,542,223 C,0,132655,,191,255,223 P,0,132655,,A F,1,132655,133655,0.3,0 S,0,132655,133655,1,1.2 M,0,134111,,285,365 C,0,134111,,200,200,255 P,0,134111,,A F,1,134111,135111,0.3,0 S,0,134111,135111,1,1.2 M,0,136169,,70,370 C,0,136169,,130,235,247 P,0,136169,,A M,0,136169,136211,70,370,121,380 F,1,136169,137169,0.3,0 S,0,136169,137169,1,1.2 M,0,137454,,449,365 C,0,137454,,252,167,188 P,0,137454,,A F,1,137454,138454,0.3,0 S,0,137454,138454,1,1.2 M,0,138826,,358,307 C,0,138826,,200,200,255 P,0,138826,,A M,0,138826,138868,358,307,383.7528,330.7273 F,1,138826,139826,0.3,0 S,0,138826,139826,1,1.2 M,0,138868,138911,383.7528,330.7273,419.191,314.6196 M,0,138911,138954,419.191,314.6196,444.2957,330.2245 M,0,139940,,169,218 C,0,139940,,252,167,188 P,0,139940,,A F,1,139940,140940,0.3,0 S,0,139940,140940,1,1.2 M,0,141569,,458,169 C,0,141569,,191,255,223 P,0,141569,,A F,1,141569,142569,0.3,0 S,0,141569,142569,1,1.2 M,0,143112,,329,238 C,0,143112,,130,235,247 P,0,143112,,A F,1,143112,144112,0.3,0 S,0,143112,144112,1,1.2 M,0,144140,,450,311 C,0,144140,,252,167,188 P,0,144140,,A F,1,144140,145140,0.3,0 S,0,144140,145140,1,1.2 M,0,145169,,358,97 C,0,145169,,252,167,188 P,0,145169,,A F,1,145169,146169,0.3,0 S,0,145169,146169,1,1.2
Sprite,Foreground,Centre,"sb\glow.png",0,0 M,0,125369,,476,223 C,0,125369,,130,235,247 P,0,125369,,A M,0,125369,125411,476,223,501.0892,215.2802 F,1,125369,126369,0.3,0 S,0,125369,126369,1,1.2 M,0,126654,,111,440 C,0,126654,,252,167,188 P,0,126654,,A M,0,126654,126696,111,440,140.0236,428.5639 F,1,126654,127654,0.3,0 S,0,126654,127654,1,1.2 M,0,126696,126739,140.0236,428.5639,165.9749,411.0927 M,0,126739,126782,165.9749,411.0927,197.155,413.9578 M,0,126782,126825,197.155,413.9578,228.2207,410.6054 M,0,127683,,108,140 C,0,127683,,130,235,247 P,0,127683,,A M,0,127683,127725,108,140,139.6834,141.0767 F,1,127683,128683,0.3,0 S,0,127683,128683,1,1.2 M,0,127725,127768,139.6834,141.0767,175.1783,155.9925 M,0,129226,,552,204 C,0,129226,,252,167,188 P,0,129226,,A F,1,129226,130226,0.3,0 S,0,129226,130226,1,1.2 M,0,130598,,310,90 C,0,130598,,200,200,255 P,0,130598,,A M,0,130598,130640,310,90,277.2892,100.5532 F,1,130598,131598,0.3,0 S,0,130598,131598,1,1.2 M,0,130640,130683,277.2892,100.5532,246.1316,116.8923 M,0,131712,,115,337 C,0,131712,,252,167,188 P,0,131712,,A F,1,131712,132712,0.3,0 S,0,131712,132712,1,1.2 M,0,132740,,479,258 C,0,132740,,191,255,223 P,0,132740,,A F,1,132740,133740,0.3,0 S,0,132740,133740,1,1.2 M,0,134540,,558,198 C,0,134540,,191,255,223 P,0,134540,,A M,0,134540,134582,558,198,581.7155,222.4045 F,1,134540,135540,0.3,0 S,0,134540,135540,1,1.2 M,0,134582,134625,581.7155,222.4045,545.1725,213.3491 M,0,134625,134668,545.1725,213.3491,519.6987,183.6033 M,0,134668,134711,519.6987,183.6033,482.4396,172.9926 M,0,136340,,201,353 C,0,136340,,130,235,247 P,0,136340,,A M,0,136340,136382,201,353,225.6983,344.1086 F,1,136340,137340,0.3,0 S,0,136340,137340,1,1.2 M,0,137626,,449,365 C,0,137626,,252,167,188 P,0,137626,,A M,0,137626,137668,449,365,456.1686,402.3311 F,1,137626,138626,0.3,0 S,0,137626,138626,1,1.2 M,0,137668,137711,456.1686,402.3311,478.7796,434.3403 M,0,137711,137754,478.7796,434.3403,509.4216,411.4126 M,0,137754,137797,509.4216,411.4126,527,378 M,0,140197,,158,74 C,0,140197,,130,235,247 P,0,140197,,A F,1,140197,141197,0.3,0 S,0,140197,141197,1,1.2 M,0,141740,,539,262 C,0,141740,,191,255,223 P,0,141740,,A M,0,141740,141782,539,262,501.5611,266.5113 F,1,141740,142740,0.3,0 S,0,141740,142740,1,1.2 M,0,141782,141825,501.5611,266.5113,474.21,240.4578
Sprite,Foreground,Centre,"sb\glow.png",0,0 M,0,125455,,469,240 C,0,125455,,130,235,247 P,0,125455,,A M,0,125455,125497,469,240,519.3667,225.1863 F,1,125455,126455,0.3,0 S,0,125455,126455,1,1.2 M,0,127854,,306,129 C,0,127854,,130,235,247 P,0,127854,,A M,0,127854,127896,306,129,313.6657,115.5951 F,1,127854,128854,0.3,0 S,0,127854,128854,1,1.2 M,0,127896,127939,313.6657,115.5951,330,150 M,0,132912,,484,392 C,0,132912,,191,255,223 P,0,132912,,A F,1,132912,133912,0.3,0 S,0,132912,133912,1,1.2 M,0,136426,,184,343 C,0,136426,,130,235,247 P,0,136426,,A M,0,136426,136468,184,343,233,325 F,1,136426,137426,0.3,0 S,0,136426,137426,1,1.2
Sprite,Foreground,Centre,"sb\glow.png",0,0 M,0,125540,,484,251 C,0,125540,,130,235,247 P,0,125540,,A M,0,125540,125582,484,251,509.0892,243.2802 F,1,125540,126540,0.3,0 S,0,125540,126540,1,1.2 M,0,133083,,489,352 C,0,133083,,191,255,223 P,0,133083,,A F,1,133083,134083,0.3,0 S,0,133083,134083,1,1.2 M,0,136512,,191,325 C,0,136512,,130,235,247 P,0,136512,,A M,0,136512,136554,191,325,215.6983,316.1086 F,1,136512,137512,0.3,0 S,0,136512,137512,1,1.2
Sprite,Foreground,Centre,"sb\glow.png",0,0 M,0,125626,,505,325 C,0,125626,,200,200,255 P,0,125626,,A M,0,125626,125668,505,325,529.7885,332.434 F,1,125626,126626,0.3,0 S,0,125626,126626,1,1.2 M,0,125668,125711,529.7885,332.434,519,356 M,0,136598,,120,305 C,0,136598,,200,200,255 P,0,136598,,A M,0,136598,136640,120,305,123.109,269.6984 F,1,136598,137598,0.3,0 S,0,136598,137598,1,1.2 M,0,136640,136683,123.109,269.6984,150,242
//Storyboard Layer 4 (Overlay)
//Storyboard Sound Samples

[TimingPoints]
141,342.857142857,4,2,11,50,1,0
141,-166.666666666667,4,2,11,50,0,0
2540,-83.3333333333334,4,2,11,50,0,0
2883,-166.666666666667,4,2,11,50,0,0
5283,-83.3333333333334,4,2,11,50,0,0
5626,-166.666666666667,4,2,11,50,0,0
8369,-166.666666666667,4,2,11,60,0,0
9912,-125,4,2,11,60,0,0
10083,-100,4,2,11,60,0,0
10255,-83.3333333333334,4,2,11,60,0,0
10426,-100,4,2,11,60,0,0
10598,-125,4,2,11,60,0,0
10769,-166.666666666667,4,2,11,60,0,0
11112,-66.6666666666667,4,2,11,60,0,0
11455,-100,4,2,11,70,0,0
24140,-80,4,2,11,70,0,0
24655,-100,4,2,11,70,0,0
26883,-93.4579439252336,4,2,11,70,0,0
27226,-80,4,2,11,70,0,0
27398,-57.1428571428571,4,2,11,70,0,0
27569,-86.9565217391304,4,2,11,70,0,0
28083,-100,4,2,11,70,0,0
30826,-86.9565217391304,4,2,11,70,0,0
30998,-100,4,2,11,70,0,0
31855,-90.9090909090909,4,2,11,70,0,0
32026,-74.0740740740741,4,2,11,70,0,0
32369,-111.111111111111,4,2,11,75,0,0
32626,-80,4,2,11,80,0,0
32883,-80,4,2,11,85,0,0
33055,-66.6666666666667,4,2,11,70,0,0
33398,-100,4,2,11,70,0,0
33740,-66.6666666666667,4,2,11,70,0,0
33912,-200,4,2,11,70,0,0
34255,-100,4,2,11,70,0,0
34769,-66.6666666666667,4,2,11,70,0,0
38883,-100,4,2,11,70,0,0
39398,-83.3333333333333,4,2,11,70,0,0
41455,-66.6666666666667,4,2,11,70,0,0
42312,-83.3333333333333,4,2,11,70,0,0
42655,-66.6666666666667,4,2,11,70,0,0
44026,-57.1428571428571,4,2,11,70,0,0
44198,-66.6666666666667,4,2,11,70,0,0
44369,-100,4,2,11,70,0,0
44712,-66.6666666666667,4,2,11,70,0,0
44884,-200,4,2,11,70,0,0
45226,-133.333333333333,4,2,11,70,0,0
45741,-66.6666666666667,4,2,11,70,0,0
47626,-57.1428571428571,4,2,11,70,0,0
47969,-100,4,2,11,70,0,0
48312,-57.1428571428571,4,2,11,70,0,0
48826,-80,4,2,11,70,0,0
49683,-66.6666666666667,4,2,11,70,0,0
50326,-100,4,2,11,70,0,0
51055,-66.6666666666667,4,2,11,70,0,0
51483,-66.6666666666667,4,2,11,70,0,0
52940,-80,4,2,11,70,0,0
53112,-57.1428571428571,4,2,11,70,0,0
53626,-57.1428571428571,4,2,11,75,0,0
54312,-57.1428571428571,4,2,11,80,0,0
54655,-57.1428571428571,4,2,11,85,0,0
54998,-66.6666666666667,4,2,11,90,0,0
55683,-51.2820512820513,4,2,11,90,0,0
56369,-100,4,2,11,90,0,0
56412,-100,4,2,11,30,0,0
56455,-50,4,2,11,90,0,0
56498,-50,4,2,11,30,0,0
56540,-100,4,2,11,90,0,0
56541,-100,4,2,11,90,0,0
56583,-100,4,2,11,30,0,0
56626,-50,4,2,11,90,0,0
56669,-50,4,2,11,30,0,0
56712,-50,4,2,11,90,0,0
56755,-50,4,2,11,30,0,0
56798,-100,4,2,11,90,0,0
56841,-100,4,2,11,30,0,0
56883,-50,4,2,11,90,0,0
56926,-50,4,2,11,30,0,0
56969,-100,4,2,11,90,0,0
57012,-100,4,2,11,30,0,0
57055,-66.6666666666667,4,2,11,90,0,0
58083,-83.3333333333334,4,2,11,90,0,0
58598,-66.6666666666667,4,2,11,90,0,0
59455,-50,4,2,11,90,0,0
59798,-200,4,2,11,90,0,0
60140,-83.3333333333333,4,2,11,90,0,0
60826,-66.6666666666667,4,2,11,90,0,0
62712,-57.1428571428571,4,2,11,90,0,0
63398,-66.6666666666667,4,2,11,90,0,0
63912,-66.6666666666667,4,2,11,90,0,0
64083,-66.6666666666667,4,2,11,90,0,0
65626,-50,4,2,11,90,0,0
65798,-133.333333333333,4,2,11,90,0,0
65969,-80,4,2,11,90,0,0
66655,-48.780487804878,4,2,11,90,0,0
67340,-100,4,2,11,90,0,0
67383,-100,4,2,11,30,0,0
67426,-50,4,2,11,90,0,0
67469,-50,4,2,11,30,0,0
67512,-100,4,2,11,90,0,0
67555,-100,4,2,11,30,0,0
67598,-50,4,2,11,90,0,0
67641,-50,4,2,11,30,0,0
67683,-50,4,2,11,90,0,0
67726,-50,4,2,11,30,0,0
67769,-100,4,2,11,90,0,0
67812,-100,4,2,11,30,0,0
67855,-50,4,2,11,90,0,0
67898,-50,4,2,11,30,0,0
67940,-100,4,2,11,90,0,0
67941,-100,4,2,11,90,0,0
67983,-100,4,2,11,30,0,0
68026,-66.6666666666667,4,2,11,90,0,0
69569,-50,4,2,11,90,0,0
70083,-44.4444444444445,4,2,11,90,0,0
70255,-66.6666666666667,4,2,11,90,0,0
70426,-50,4,2,11,90,0,0
70769,-200,4,2,11,90,0,0
71112,-100,4,2,11,90,0,0
71798,-66.6666666666667,4,2,11,90,0,0
72398,-66.6666666666667,4,2,11,90,0,0
73683,-50,4,2,11,90,0,0
74369,-66.6666666666667,4,2,11,90,0,0
74883,-100,4,2,11,90,0,0
75055,-66.6666666666667,4,2,11,90,0,0
75740,-66.6666666666667,4,2,11,90,0,0
76598,-50,4,2,11,90,0,0
76769,-133.333333333333,4,2,11,90,0,0
76941,-133.333333333333,4,2,11,50,0,0
82426,-133.333333333333,4,2,11,55,0,0
86540,-80,4,2,11,55,0,0
87569,-133.333333333333,4,2,11,55,0,0
87912,-50,4,2,11,60,0,0
88083,-200,4,2,11,60,0,0
88255,-66.6666666666667,4,2,11,60,0,0
88769,-57.1428571428571,4,2,11,60,0,0
89026,-66.6666666666667,4,2,11,60,0,0
89112,-66.6666666666667,4,2,11,60,0,0
89283,-400,4,2,11,60,0,0
89626,-80,4,2,11,60,0,0
89798,-66.6666666666667,4,2,11,60,0,0
90055,-66.6666666666667,4,2,11,60,0,0
90140,-266.666666666667,4,2,11,60,0,0
90312,-200,4,2,11,60,0,0
90483,-66.6666666666667,4,2,11,60,0,0
90655,-50,4,2,11,60,0,0
90826,-66.6666666666667,4,2,11,60,0,0
90998,-200,4,2,11,60,0,0
91512,-66.6666666666667,4,2,11,60,0,0
91855,-66.6666666666667,4,2,11,60,0,0
92026,-400,4,2,11,60,0,0
92369,-80,4,2,11,60,0,0
92540,-66.6666666666667,4,2,11,60,0,0
92798,-100,4,2,11,60,0,0
93055,-263.157894736842,4,2,11,60,0,0
93398,-40,4,2,11,60,0,0
93740,-100,4,2,11,60,0,0
94255,-66.6666666666667,4,2,11,60,0,0
94769,-50,4,2,11,60,0,0
95112,-66.6666666666667,4,2,11,60,0,0
95455,-100,4,2,11,60,0,0
95626,-66.6666666666667,4,2,11,60,0,0
96141,-66.6666666666667,4,2,11,70,0,0
96483,-133.333333333333,4,2,11,70,0,0
96998,-50,4,2,11,70,0,0
97340,-40,4,2,11,70,0,0
97512,-50,4,2,11,80,0,0
98198,-50,4,2,11,85,0,0
98455,-66.6666666666667,4,2,11,90,0,0
98712,-100,4,2,11,95,0,0
98883,-100,4,2,11,30,0,0
98969,-100,4,2,11,30,0,0
99226,-100,4,2,11,40,0,0
99569,-100,4,2,11,50,0,0
99912,-100,4,2,11,60,0,0
100255,-100,4,2,11,70,0,0
100940,-200,4,2,11,70,0,0
101626,-66.6666666666667,4,2,11,85,0,0
102140,-100,4,2,11,85,0,0
102483,-66.6666666666667,4,2,11,85,0,0
108483,-66.6666666666667,4,2,11,85,0,0
108655,-66.6666666666667,4,2,11,85,0,0
108826,-50,4,2,11,85,0,0
108998,-66.6666666666667,4,2,11,85,0,0
109169,-50,4,2,11,85,0,0
109340,-66.6666666666667,4,2,11,85,0,0
109512,-100,4,2,11,85,0,0
109683,-50,4,2,11,85,0,0
109855,-100,4,2,11,85,0,0
112598,-66.6666666666667,4,2,11,85,0,0
115340,-66.6666666666667,4,2,11,85,0,0
116198,-100,4,2,11,85,0,0
116712,-80,4,2,11,85,0,0
117055,-66.6666666666667,4,2,11,85,0,0
118083,-66.6666666666667,4,2,11,85,0,0
118598,-66.6666666666667,4,2,11,85,0,0
120826,-66.6666666666667,4,2,11,90,0,0
120911,-66.6666666666667,4,2,11,85,0,0
120998,-200,4,2,11,90,0,0
121169,-200,4,2,11,85,0,0
121340,-66.6666666666667,4,2,11,90,0,0
121425,-66.6666666666667,4,2,11,85,0,0
121512,-200,4,2,11,90,0,0
121683,-200,4,2,11,85,0,0
121855,-66.6666666666667,4,2,11,90,0,0
121940,-66.6666666666667,4,2,11,85,0,0
122026,-66.6666666666667,4,2,11,90,0,0
122198,-66.6666666666667,4,2,11,85,0,0
122883,-200,4,2,11,90,0,0
123055,-111.111111111111,4,2,11,90,0,0
123226,-76.9230769230769,4,2,11,95,0,0
123569,-66.6666666666667,4,2,11,100,0,0
124255,-40,4,2,11,100,0,0
124940,-100,4,2,11,100,0,0
124983,-100,4,2,11,30,0,0
125026,-50,4,2,11,100,0,0
125069,-50,4,2,11,30,0,0
125112,-100,4,2,11,100,0,0
125155,-100,4,2,11,30,0,0
125198,-50,4,2,11,100,0,0
125241,-50,4,2,11,30,0,0
125283,-50,4,2,11,100,0,0
125326,-50,4,2,11,30,0,0
125369,-100,4,2,11,100,0,0
125412,-100,4,2,11,30,0,0
125455,-50,4,2,11,100,0,0
125498,-50,4,2,11,30,0,0
125540,-100,4,2,11,100,0,0
125541,-100,4,2,11,100,0,0
125583,-100,4,2,11,30,0,0
125626,-83.3333333333333,4,2,11,100,0,0
127169,-66.6666666666667,4,2,11,100,0,0
128026,-41.6666666666667,4,2,11,100,0,0
128369,-200,4,2,11,100,0,0
129398,-66.6666666666667,4,2,11,100,0,0
129912,-100,4,2,11,100,0,0
130255,-66.6666666666667,4,2,11,100,0,0
130426,-57.1428571428571,4,2,11,100,0,0
130598,-74.0740740740741,4,2,11,100,0,0
130769,-50,4,2,11,100,0,0
130940,-66.6666666666667,4,2,11,100,0,0
133340,-50,4,2,11,100,0,0
134369,-80,4,2,11,100,0,0
134540,-66.6666666666667,4,2,11,100,0,0
135226,-40,4,2,11,100,0,0
135912,-100,4,2,11,100,0,0
135955,-100,4,2,11,30,0,0
135998,-50,4,2,11,100,0,0
136041,-50,4,2,11,30,0,0
136083,-100,4,2,11,100,0,0
136126,-100,4,2,11,30,0,0
136169,-50,4,2,11,100,0,0
136212,-50,4,2,11,30,0,0
136255,-50,4,2,11,100,0,0
136298,-50,4,2,11,30,0,0
136340,-100,4,2,11,100,0,0
136341,-100,4,2,11,100,0,0
136383,-100,4,2,11,30,0,0
136426,-50,4,2,11,100,0,0
136469,-50,4,2,11,30,0,0
136512,-100,4,2,11,100,0,0
136555,-100,4,2,11,30,0,0
136598,-66.6666666666667,4,2,11,100,0,0
138998,-40,4,2,11,100,0,0
139340,-200,4,2,11,100,0,0
139683,-100,4,2,11,100,0,0
140369,-50,4,2,11,100,0,0
140712,-66.6666666666667,4,2,11,100,0,0
142255,-50,4,2,11,100,0,0
142426,-40,4,2,11,100,0,0
142598,-50,4,2,11,100,0,0
142769,-40,4,2,11,100,0,0
142940,-100,4,2,11,100,0,0
143283,-50,4,2,11,100,0,0
143455,-100,4,2,11,100,0,0
143798,-50,4,2,11,100,0,0
143969,-100,4,2,11,100,0,0
145512,-200,4,2,11,100,0,0
145598,-200,4,2,12,30,0,0
147912,-200,4,2,11,5,0,0

[Colours]
Combo1 : 191,255,223
Combo2 : 252,167,188
Combo3 : 130,235,247
Combo4 : 200,200,255

[HitObjects]
260,268,141,6,0,B|249:264|249:264|235:228|243:175|267:193|274:140|258:102|258:102|248:97,2,188.999994232178,6|2|2,3:2|0:0|0:0,0:0:0:0:
152,123,1683,5,2,0:0:0:0:
181,136,1854,1,2,0:0:0:0:
355,239,2198,5,2,0:0:0:0:
326,226,2369,1,2,0:0:0:0:
426,358,2540,6,0,P|431:263|443:169,1,188.999994232178,10|0,0:0|0:0,0:0:0:0:
499,74,2883,6,0,P|462:26|403:38,1,125.999996154785,2|0,3:2|0:0,0:0:0:0:
332,61,3398,2,0,P|273:73|235:25,1,125.999996154785,2|0,3:2|0:0,0:0:0:0:
171,72,3912,1,2,0:0:0:0:
43,0,4426,1,2,0:0:0:0:
7,21,4769,5,2,0:0:0:0:
41,103,4940,1,2,0:0:0:0:
23,175,5112,1,2,0:0:0:0:
54,262,5283,2,0,B|73:275|86:295|86:295|148:273|226:271,1,188.999994232178,10|0,0:0|0:0,0:0:0:0:
359,314,5626,6,0,P|421:306|483:293,1,125.999996154785,4|0,3:1|0:0,0:0:0:0:
486,277,6140,2,0,P|464:224|405:232,1,125.999996154785,2|0,3:2|0:0,0:0:0:0:
285,323,6655,1,2,3:2:0:0:
345,73,6998,5,0,0:0:0:0:
378,144,7168,1,2,3:2:0:0:
345,73,7512,5,2,3:2:0:0:
378,144,7682,1,2,3:2:0:0:
456,139,7855,1,2,3:2:0:0:
478,63,8026,5,10,3:2:0:0:
445,46,8112,1,8,3:2:0:0:
408,40,8198,1,2,3:2:0:0:
373,53,8283,1,0,3:2:0:0:
345,73,8369,5,6,3:2:0:0:
219,62,8540,1,2,0:0:0:0:
93,51,8712,1,2,0:0:0:0:
109,197,8883,5,6,3:2:0:0:
209,188,9054,1,2,0:0:0:0:
310,179,9226,1,2,0:0:0:0:
245,308,9398,5,6,3:2:0:0:
165,300,9569,1,2,0:0:0:0:
348,317,9740,6,0,L|382:314,1,31.4999990386963,2|0,3:2|0:0,0:0:0:0:
453,274,9912,6,0,L|410:277,1,42,2|0,3:2|0:0,0:0:0:0:
296,239,10083,6,0,L|347:234,1,52.5,2|0,3:2|0:0,0:0:0:0:
479,186,10255,6,0,L|416:191,1,62.9999980773926,2|0,3:2|0:0,0:0:0:0:
344,139,10426,6,0,L|293:144,1,52.5,6|0,0:0|0:0,0:0:0:0:
400,93,10598,2,0,L|443:90,1,42,2|0,3:2|3:2,0:0:0:0:
355,59,10769,2,0,L|324:62,3,31.4999990386963,6|2|2|2,3:2|3:2|3:2|3:2,0:0:0:0:
462,0,11112,6,0,P|478:116|487:234,1,236.250009012223,2|0,0:0|0:0,0:0:0:0:
460,304,11455,2,0,P|413:290|413:241,1,105,4|0,0:0|0:0,0:0:0:0:
222,116,11797,5,2,3:2:0:0:
303,139,11969,1,2,0:0:0:0:
241,200,12140,1,10,0:0:0:0:
246,204,12226,1,0,0:0:0:0:
250,210,12312,1,2,0:0:0:0:
320,238,12483,6,0,B|288:263|252:258|252:258|249:254|249:254|211:246|173:270,1,157.5,2|0,3:2|0:0,0:0:0:0:
109,306,12826,2,0,B|75:289|61:312|61:312|88:312|101:285,1,105,10|2,0:0|0:0,0:0:0:0:
105,56,13169,5,2,3:2:0:0:
83,132,13340,1,2,0:0:0:0:
17,75,13512,1,10,0:0:0:0:
17,81,13597,1,0,0:0:0:0:
19,87,13683,1,0,0:0:0:0:
200,135,13854,6,0,B|246:117|295:122|263:150|333:155|351:136,1,157.5,2|0,3:2|0:0,0:0:0:0:
301,44,14197,2,0,P|262:74|279:120,1,105,10|2,0:0|0:0,0:0:0:0:
483,14,14540,5,2,3:2:0:0:
466,91,14712,1,2,0:0:0:0:
392,64,14883,1,10,0:0:0:0:
390,70,14969,1,0,0:0:0:0:
391,77,15054,1,2,0:0:0:0:
424,322,15226,6,0,P|438:245|457:169,1,157.5,2|0,3:2|0:0,0:0:0:0:
477,208,15569,2,0,P|491:255|457:294,1,105,10|2,0:0|0:0,0:0:0:0:
276,223,15912,1,2,3:2:0:0:
371,205,16083,1,2,0:0:0:0:
294,298,16254,1,10,0:0:0:0:
300,315,16340,1,2,0:0:0:0:
301,332,16426,1,2,3:2:0:0:
186,374,16597,6,0,P|102:355|68:291,1,157.5,2|0,3:2|0:0,0:0:0:0:
105,233,16940,2,0,P|148:222|131:256,1,105,10|0,0:0|0:0,0:0:0:0:
83,97,17283,1,2,3:2:0:0:
30,154,17454,1,2,0:0:0:0:
158,81,17626,1,10,0:0:0:0:
160,75,17712,1,0,0:0:0:0:
161,69,17797,1,2,0:0:0:0:
270,162,17969,6,0,B|311:89|254:81|294:10,1,157.5,2|0,3:2|0:0,0:0:0:0:
374,67,18312,2,0,P|342:104|297:85,1,105,10|2,0:0|0:0,0:0:0:0:
417,2,18654,1,2,3:2:0:0:
510,33,18826,1,2,0:0:0:0:
436,120,18997,1,10,0:0:0:0:
432,126,19083,1,0,0:0:0:0:
431,132,19169,1,2,0:0:0:0:
475,287,19340,6,0,B|497:333|454:378|400:357|400:357|405:336,1,157.5,2|0,3:2|0:0,0:0:0:0:
405,262,19683,2,0,P|352:260|301:271,1,105,10|2,0:0|0:0,0:0:0:0:
91,252,20026,1,2,3:2:0:0:
169,268,20197,1,2,0:0:0:0:
219,330,20369,1,10,0:0:0:0:
218,346,20454,1,0,0:0:0:0:
213,360,20540,1,2,0:0:0:0:
26,384,20712,6,0,P|13:306|3:228,1,157.5,2|0,3:2|0:0,0:0:0:0:
29,145,21054,2,0,B|85:175|61:214|86:228,1,105,10|2,0:0|0:0,0:0:0:0:
107,17,21397,1,2,3:2:0:0:
35,46,21569,5,2,3:2:0:0:
138,103,21740,1,10,0:0:0:0:
163,98,21826,1,2,0:0:0:0:
187,88,21912,2,0,P|214:78|237:74,1,52.5,2|2,3:2|0:0,0:0:0:0:
254,82,22083,6,0,B|304:59|363:77|343:121|386:125|393:104,1,157.5,6|0,0:0|0:0,0:0:0:0:
417,181,22426,2,0,P|420:128|433:77,1,105,10|0,0:0|0:0,0:0:0:0:
293,157,22769,5,2,3:2:0:0:
218,177,22940,1,2,0:0:0:0:
166,233,23112,1,10,0:0:0:0:
161,238,23197,1,0,0:0:0:0:
159,245,23283,1,2,0:0:0:0:
86,382,23454,6,0,B|44:336|98:267|57:233,1,157.5,0|0,3:2|0:0,0:0:0:0:
33,165,23797,2,0,B|21:135|0:125|0:125|35:127|41:151,1,105,8|2,0:0|0:0,0:0:0:0:
155,285,24140,6,0,B|186:250|145:230|180:139|250:106|250:106|252:75|231:50,1,262.5,0|10,3:2|0:0,0:0:0:0:
456,33,24655,2,0,P|477:35|461:22,1,52.5,2|2,0:0|0:0,0:0:0:0:
447,23,24826,6,0,P|384:36|332:108,1,157.5,2|0,3:2|0:0,0:0:0:0:
355,181,25169,2,0,B|369:184|369:184|373:235|327:258,1,105,10|2,0:0|0:0,0:0:0:0:
184,270,25512,5,2,3:2:0:0:
202,382,25683,1,2,0:0:0:0:
257,322,25854,1,10,0:0:0:0:
258,315,25940,1,0,0:0:0:0:
255,310,26026,1,2,0:0:0:0:
119,342,26197,6,0,B|65:351|65:351|72:298|48:251,1,157.5,2|0,3:2|0:0,0:0:0:0:
29,181,26540,2,0,B|34:158|21:137|4:134|4:134|-2:150|5:166|17:173,1,105,10|2,0:0|0:0,0:0:0:0:
143,313,26883,6,0,B|162:300|162:300|169:224|213:166,1,168.524994857025,2|0,3:2|0:0,0:0:0:0:
258,94,27226,2,0,B|251:100|251:100|230:90|204:91|204:91|201:82,1,65.625,10|2,0:0|0:0,0:0:0:0:
204,3,27398,2,0,B|212:-6|212:-6|241:7|276:5|276:5|281:18,1,91.8750008761883,2|0,3:2|0:0,0:0:0:0:
371,45,27569,6,0,B|348:111|384:177|384:177|413:153|447:157|447:157|450:142|461:124,1,241.500004606247,6|10,3:2|0:0,0:0:0:0:
512,224,28083,1,0,0:0:0:0:
438,232,28254,1,2,3:2:0:0:
353,248,28426,1,2,0:0:0:0:
246,249,28597,1,10,0:0:0:0:
205,242,28683,1,0,0:0:0:0:
229,233,28769,2,0,P|222:258|219:291,1,52.5,2|0,3:2|0:0,0:0:0:0:
244,157,28940,6,0,B|250:79|211:25|211:25|192:31,1,157.5,6|0,3:2|0:0,0:0:0:0:
129,64,29283,2,0,B|81:67|98:97|49:97|49:97|50:81|65:75,1,105,10|2,0:0|0:0,0:0:0:0:
260,156,29626,2,0,B|285:174|269:198|290:219|290:219|296:200|289:186,1,105,2|2,3:2|0:0,0:0:0:0:
113,354,29969,5,10,0:0:0:0:
124,329,30054,1,0,0:0:0:0:
130,301,30140,1,2,3:2:0:0:
129,274,30226,1,0,0:0:0:0:
77,222,30312,6,0,P|74:196|88:175,1,52.5,6|0,3:2|0:0,0:0:0:0:
205,98,30483,2,0,B|210:55|264:68|256:13,1,105,2|10,0:0|0:0,0:0:0:0:
275,130,30826,6,0,B|270:147|283:157|283:157|289:141|275:130,1,60.3750011515618,2|0,0:0|0:0,0:0:0:0:
108,77,30998,2,0,B|114:34|58:32|80:-18,1,105,6|2,3:2|0:0,0:0:0:0:
206,177,31340,6,0,P|205:200|199:228,1,52.5,10|0,0:0|0:0,0:0:0:0:
82,291,31512,2,0,B|57:321|59:375|59:375|74:379,1,105,2|6,0:0|3:2,0:0:0:0:
96,153,31855,6,0,P|122:166|130:192,1,57.7500017623902,2|0,3:2|0:0,0:0:0:0:
278,231,32026,2,0,P|278:264|286:300,1,70.8750002703667,10|0,3:2|0:0,0:0:0:0:
344,346,32198,1,2,3:2:0:0:
475,374,32369,5,14,3:2:0:0:
480,371,32455,2,0,P|483:345|488:324,1,47.2499985580445,2|0,3:2|3:2,0:0:0:0:
433,270,32626,2,0,B|470:199|398:162,1,131.25,6|0,3:2|3:2,0:0:0:0:
463,89,32883,2,0,B|465:71|454:60|454:60|472:55|477:38,1,65.625,6|0,3:2|3:2,0:0:0:0:
336,208,33055,5,6,3:2:0:0:
168,88,33226,6,0,B|176:104|176:104|159:129|152:160,1,78.7500030040742
196,108,33398,2,0,B|208:84|241:84|241:84|197:111|170:158,1,157.5,10|0,0:0|0:0,0:0:0:0:
56,344,33740,6,0,B|68:340|68:340|72:305|86:276,1,78.7500030040742,2|0,3:2|0:0,0:0:0:0:
80,259,33912,2,0,P|72:251|58:243,2,26.25,2|0|10,0:0|0:0|0:0,0:0:0:0:
14,158,34255,6,0,P|41:160|65:168,1,52.5,2|0,0:0|0:0,0:0:0:0:
162,291,34426,1,0,3:2:0:0:
162,291,34598,1,0,0:0:0:0:
411,237,34769,6,0,B|405:221|389:212|389:212|361:224|329:226|329:226|297:274|336:320|303:362,1,236.250009012223,8|0,0:0|0:0,0:0:0:0:
243,242,35112,1,2,3:2:0:0:
290,370,35283,2,0,B|226:375|233:295|159:291,2,157.500006008148,2|8|0,0:0|0:0|0:0,0:0:0:0:
420,317,35798,5,2,3:2:0:0:
468,152,35969,2,0,B|481:193|463:224|408:242|411:208|381:203|323:249|338:305,1,236.250009012223
381,143,36312,5,2,0:0:0:0:
387,144,36483,2,0,P|404:221|416:299,1,157.500006008148,2|2,3:2|0:0,0:0:0:0:
195,200,36826,1,10,0:0:0:0:
270,179,36998,1,2,0:0:0:0:
168,160,37169,6,0,P|163:238|163:317,1,157.500006008148,0|0,3:2|0:0,0:0:0:0:
93,351,37512,1,8,0:0:0:0:
87,349,37683,2,0,P|74:311|66:272,1,78.7500030040742
222,288,37855,1,2,3:2:0:0:
217,284,38026,2,0,P|221:244|230:206,1,78.7500030040742,2|0,0:0|0:0,0:0:0:0:
381,275,38198,1,8,0:0:0:0:
379,269,38369,2,0,P|398:234|423:204,1,78.7500030040742,2|2,0:0|0:0,0:0:0:0:
504,384,38540,5,2,3:2:0:0:
310,343,38712,2,0,B|296:336|296:336|293:302|272:278,1,78.7500030040742
277,345,38883,2,0,B|269:373|235:380|235:380|268:335|262:287,1,157.5,10|0,0:0|0:0,0:0:0:0:
210,235,39226,5,2,3:2:0:0:
379,269,39398,2,0,B|389:256|389:256|372:206|377:147,1,125.999996154785,2|10,0:0|0:0,0:0:0:0:
450,109,39740,1,2,0:0:0:0:
307,34,39912,5,2,3:2:0:0:
301,32,40083,2,0,P|302:63|325:83,1,62.9999980773926,2|0,0:0|0:0,0:0:0:0:
161,72,40255,1,10,0:0:0:0:
154,72,40426,2,0,P|174:96|204:99,1,62.9999980773926,2|0,0:0|0:0,0:0:0:0:
68,205,40598,1,2,3:2:0:0:
64,209,40769,2,0,P|94:218|120:202,1,62.9999980773926,2|0,0:0|0:0,0:0:0:0:
87,375,40940,1,10,0:0:0:0:
89,380,41112,2,0,P|119:371|131:343,1,62.9999980773926,2|2,0:0|0:0,0:0:0:0:
23,332,41283,5,2,3:2:0:0:
245,297,41455,2,0,B|254:256|210:226|167:234|152:262|110:260|70:230|87:184,1,236.250009012223,2|0,0:0|0:0,0:0:0:0:
92,181,41798,1,2,0:0:0:0:
301,149,41969,5,2,3:2:0:0:
301,149,42140,1,2,0:0:0:0:
347,73,42312,2,0,B|362:106|357:129|313:143|328:191,1,125.999996154785,10|2,0:0|0:0,0:0:0:0:
437,323,42655,5,2,3:2:0:0:
440,317,42826,2,0,B|415:315|415:315|413:311|413:311|413:315|413:315|365:311,1,78.7500030040742,2|0,0:0|0:0,0:0:0:0:
256,233,42998,5,10,0:0:0:0:
259,227,43169,2,0,B|234:225|234:225|232:221|232:221|232:225|232:225|184:221,1,78.7500030040742,2|0,0:0|0:0,0:0:0:0:
448,164,43340,5,2,3:2:0:0:
451,158,43512,2,0,B|426:156|426:156|424:152|424:152|424:156|424:156|376:152,1,78.7500030040742,0|2,0:0|0:0,0:0:0:0:
304,364,43683,5,8,0:0:0:0:
307,358,43854,2,0,B|282:356|282:356|280:352|280:352|280:356|280:356|232:352,1,78.7500030040742,2|0,3:2|0:0,0:0:0:0:
109,383,44026,6,0,B|102:374|102:374|120:295,1,91.8750008761883,6|0,3:2|0:0,0:0:0:0:
197,65,44198,6,0,B|193:83|193:83|212:104|219:138,1,78.7500030040742,2|0,0:0|0:0,0:0:0:0:
176,73,44369,2,0,B|166:47|142:45|142:45|136:74|155:96|180:84|201:131,1,157.5,10|0,0:0|0:0,0:0:0:0:
282,361,44712,6,0,B|295:356|295:356|303:325|326:300,1,78.7500030040742,2|0,3:2|0:0,0:0:0:0:
344,296,44884,2,0,P|348:284|355:273,2,26.25,2|0|8,0:0|0:0|0:0,0:0:0:0:
463,330,45226,6,0,P|468:348|478:367,1,39.3750015020371,2|0,0:0|0:0,0:0:0:0:
375,296,45398,5,2,3:2:0:0:
375,296,45569,1,2,0:0:0:0:
485,132,45741,6,0,B|513:119|541:134|541:134|505:134|460:154|435:186|448:193|423:222|395:223,1,236.250009012223,10|0,0:0|0:0,0:0:0:0:
416,105,46084,1,2,3:2:0:0:
379,221,46255,2,0,B|387:167|318:143|347:72,2,157.500006008148,2|8|2,0:0|0:0|0:0,0:0:0:0:
218,110,46769,5,2,3:2:0:0:
113,297,46940,2,0,B|139:326|190:308|235:235|151:235|195:184|255:168|275:203,1,236.250009012223,2|2,0:0|0:0,0:0:0:0:
234,334,47284,2,0,P|226:295|213:258,1,78.7500030040742,2|0,0:0|0:0,0:0:0:0:
39,219,47455,6,0,B|42:206|42:206|17:183|-14:174,1,78.7500030040742,2|0,3:2|0:0,0:0:0:0:
44,181,47626,1,2,0:0:0:0:
41,176,47712,2,0,B|40:148|18:139|18:139|17:164|41:176,1,91.8750008761883,2|10,0:0|0:0,0:0:0:0:
55,344,47969,6,0,P|63:319|68:294,2,52.5,2|0|0,0:0|0:0|3:2,0:0:0:0:
80,325,48312,1,2,0:0:0:0:
209,69,48483,5,10,0:0:0:0:
203,66,48569,2,0,B|185:117|101:88|79:149|100:189,1,183.750001752377,2|0,0:0|0:0,0:0:0:0:
179,255,48826,6,0,P|203:232|232:216,1,65.625,2|0,3:2|0:0,0:0:0:0:
209,330,48998,1,2,0:0:0:0:
210,324,49083,2,0,P|241:313|274:311,2,65.625,2|8|0,0:0|0:0|0:0,0:0:0:0:
307,241,49340,5,2,0:0:0:0:
341,247,49426,1,2,0:0:0:0:
372,267,49512,1,2,3:2:0:0:
407,175,49683,6,0,B|449:151|383:94|473:39,1,157.500006008148,2|10,0:0|0:0,0:0:0:0:
476,43,49940,1,2,0:0:0:0:
323,62,50198,5,2,3:2:0:0:
258,0,50369,1,2,0:0:0:0:
252,2,50455,2,0,B|243:10|243:10|253:49,1,52.5,2|8,0:0|0:0,0:0:0:0:
15,9,50712,5,2,0:0:0:0:
64,26,50797,1,2,0:0:0:0:
99,63,50883,1,0,3:2:0:0:
37,152,51055,2,0,B|42:175|67:188|124:157|177:204,1,157.500006008148,2|10,0:0|0:0,0:0:0:0:
184,201,51312,1,2,0:0:0:0:
43,262,51569,5,2,3:2:0:0:
26,384,51740,1,2,0:0:0:0:
28,376,51826,2,0,B|39:370|39:370|50:338|84:324,1,78.7500030040742,2|10,0:0|0:0,0:0:0:0:
230,370,52083,1,2,0:0:0:0:
252,343,52169,1,2,0:0:0:0:
239,272,52255,6,0,P|243:232|253:194,1,78.7500030040742,6|0,3:2|0:0,0:0:0:0:
114,7,52426,2,0,B|127:15|127:15|142:76,1,78.7500030040742,2|0,0:0|0:0,0:0:0:0:
211,102,52598,1,10,0:0:0:0:
222,82,52683,1,2,0:0:0:0:
358,0,52940,6,0,B|360:8|360:8|388:11|411:33,1,65.625,2|0,3:2|0:0,0:0:0:0:
495,25,53112,1,0,0:0:0:0:
483,36,53198,2,0,B|512:64|522:105|522:105|533:108,1,91.8750008761883,2|10,0:0|0:0,0:0:0:0:
386,264,53455,5,2,3:2:0:0:
437,215,53540,1,2,0:0:0:0:
503,193,53626,1,4,3:2:0:0:
326,382,53798,5,2,3:2:0:0:
357,125,53969,5,10,3:2:0:0:
483,351,54140,5,2,3:2:0:0:
249,242,54312,5,4,3:2:0:0:
248,236,54397,1,0,3:2:0:0:
247,230,54483,1,2,3:2:0:0:
246,224,54569,1,0,3:2:0:0:
262,150,54655,5,14,3:2:0:0:
214,147,54740,1,2,3:2:0:0:
256,137,54826,1,2,3:2:0:0:
210,135,54911,1,2,3:2:0:0:
224,58,54998,6,0,B|137:48|176:2|83:-9,1,157.500006008148,4|2,0:0|0:0,0:0:0:0:
30,54,55340,1,10,0:0:0:0:
23,81,55426,1,2,0:0:0:0:
40,104,55512,1,2,0:0:0:0:
153,237,55683,6,2,B|158:185|128:135|70:120|11:139|-19:197|1:260|1:260|67:256|103:300,1,409.500001562119,2|10,3:2|0:0,2:1:0:0:
75,225,56198,1,2,0:0:0:0:
209,295,56369,6,0,L|204:321,1,26.25,2|0,3:2|0:0,0:0:0:0:
226,285,56455,2,0,L|216:337,1,52.5,2|0,0:0|0:0,0:0:0:0:
239,300,56540,2,0,L|234:326,1,26.25,2|0,0:0|0:0,0:0:0:0:
256,289,56626,2,0,L|246:341,1,52.5,2|0,0:0|0:0,0:0:0:0:
340,338,56712,2,0,L|331:286,1,52.5,10|0,0:0|0:0,0:0:0:0:
353,322,56798,2,0,L|348:295,1,26.25,2|0,0:0|0:0,0:0:0:0:
369,331,56884,2,0,L|360:279,1,52.5,2|0,0:0|0:0,0:0:0:0:
381,317,56969,2,0,L|376:290,1,26.25,2|0,0:0|0:0,0:0:0:0:
446,268,57055,6,0,B|451:284|468:284|468:260|457:237|434:227,1,78.7500030040742,2|0,3:2|0:0,0:0:0:0:
253,179,57226,2,0,B|236:175|228:190|248:202|274:204|294:189,1,78.7500030040742,2|0,0:0|0:0,0:0:0:0:
429,54,57398,2,0,B|440:41|431:26|411:38|396:59|399:84,1,78.7500030040742,10|0,0:0|0:0,0:0:0:0:
369,194,57569,5,2,0:0:0:0:
403,160,57654,1,0,0:0:0:0:
356,146,57740,1,0,3:2:0:0:
248,344,57912,5,2,0:0:0:0:
248,344,58083,2,0,B|234:339|234:339|240:282|219:229,1,125.999996154785,10|0,0:0|0:0,0:0:0:0:
75,143,58426,1,2,3:2:0:0:
274,44,58598,1,2,0:0:0:0:
268,48,58683,2,0,B|257:46|257:46|243:15|209:0,1,78.7500030040742,0|10,0:0|0:0,0:0:0:0:
75,143,58940,5,2,0:0:0:0:
78,149,59026,1,0,0:0:0:0:
173,204,59112,2,2,B|181:210|181:229|158:244|143:226|126:254,1,78.7500030040742,2|0,3:2|0:0,2:1:0:0:
258,126,59283,2,2,B|269:128|279:146|272:168|254:162|252:195,1,78.7500030040742,2|0,0:0|0:0,2:1:0:0:
368,257,59455,6,2,B|365:297|402:320|402:320|358:325|335:361|335:361|332:317|295:294|295:294|338:291|355:253,1,315,10|0,0:0|0:0,2:1:0:0:
366,236,59798,2,0,P|368:227|372:218,1,13.125,2|0,3:2|0:0,0:0:0:0:
258,364,59969,1,2,0:0:0:0:
445,256,60140,2,0,P|460:228|483:207,1,62.9999980773926,10|0,0:0|0:0,0:0:0:0:
283,155,60312,1,2,0:0:0:0:
316,114,60398,1,0,0:0:0:0:
371,106,60483,1,2,3:2:0:0:
376,214,60655,5,2,0:0:0:0:
214,331,60826,2,0,B|174:273|214:202|232:218|262:157|218:103|218:103|179:97|162:64,1,315.000012016297,10|2,0:0|3:2,0:0:0:0:
71,179,61340,5,2,0:0:0:0:
65,176,61426,2,0,P|52:138|51:98,1,78.7500030040742,0|10,0:0|0:0,0:0:0:0:
230,28,61683,1,2,0:0:0:0:
246,23,61769,1,0,0:0:0:0:
302,72,61855,5,2,3:2:0:0:
173,198,62026,1,2,0:0:0:0:
302,72,62198,2,0,B|322:64|339:79|339:79|319:89|311:106,1,78.7500030040742,8|0,0:0|0:0,0:0:0:0:
466,148,62369,2,0,B|483:157|481:183|481:183|436:190|436:145|374:147,1,157.500006008148,2|2,0:0|3:2,0:0:0:0:
166,189,62712,5,2,0:0:0:0:
160,192,62798,2,0,B|132:215|142:252|142:252|156:252|164:262,2,91.8750008761883,0|10|0,0:0|0:0|0:0,0:0:0:0:
239,166,63055,1,2,0:0:0:0:
278,212,63141,1,0,0:0:0:0:
252,267,63226,1,2,3:2:0:0:
78,101,63398,6,0,B|91:111|109:110|109:110|158:69|224:71,2,157.500006008148,2|10|2,0:0|0:0|0:0,0:0:0:0:
42,258,63912,2,0,B|11:286|-32:267|39:180|140:236|168:308,1,236.250009012223,2|0,3:2|0:0,0:0:0:0:
153,353,64255,5,10,0:0:0:0:
215,320,64340,1,2,0:0:0:0:
282,304,64426,1,2,0:0:0:0:
351,304,64512,1,0,0:0:0:0:
413,359,64598,6,0,P|420:320|431:282,1,78.7500030040742,2|0,3:2|0:0,0:0:0:0:
499,330,64769,2,0,B|430:313|451:243|387:226,1,157.500006008148,2|10,0:0|0:0,0:0:0:0:
486,163,65112,1,2,0:0:0:0:
502,85,65283,1,2,3:2:0:0:
241,187,65455,5,2,0:0:0:0:
244,193,65540,1,0,0:0:0:0:
250,195,65626,2,0,B|290:183|279:141|332:135,1,105,10|2,0:0|0:0,0:0:0:0:
409,124,65798,2,0,L|417:85,1,39.3750015020371,2|0,3:2|0:0,0:0:0:0:
407,70,65969,6,0,B|387:64|387:64|353:20|293:7,1,131.25,6|2,3:2|0:0,0:0:0:0:
203,0,66312,1,10,0:0:0:0:
218,25,66397,1,0,0:0:0:0:
216,54,66483,1,2,0:0:0:0:
70,188,66655,6,2,B|23:169|-12:126|-12:126|8:69|52:36|52:36|104:56|140:99|140:99|123:150|84:184,1,430.500006568909,2|10,3:2|0:0,2:1:0:0:
61,93,67169,1,2,0:0:0:0:
5,292,67340,6,0,L|1:317,1,26.25,2|0,3:2|0:0,0:0:0:0:
22,282,67426,2,0,L|14:333,1,52.5,2|0,0:0|0:0,0:0:0:0:
37,298,67512,2,0,L|33:323,1,26.25,2|0,0:0|0:0,0:0:0:0:
53,288,67598,2,0,L|45:339,1,52.5,2|0,0:0|0:0,0:0:0:0:
139,333,67683,2,0,L|127:282,1,52.5,10|0,0:0|0:0,0:0:0:0:
151,317,67769,2,0,L|145:291,1,26.25,2|0,0:0|0:0,0:0:0:0:
168,326,67855,2,0,L|156:275,1,52.5,2|0,0:0|0:0,0:0:0:0:
180,311,67940,2,0,L|174:285,1,26.25,2|0,0:0|0:0,0:0:0:0:
234,234,68026,6,0,P|235:194|244:156,1,78.7500030040742,2|0,3:2|0:0,0:0:0:0:
417,293,68198,2,0,B|428:288|428:288|436:254|458:229,1,78.7500030040742,2|0,0:0|0:0,0:0:0:0:
404,99,68369,2,0,B|392:93|392:93|387:59|365:33,1,78.7500030040742,10|0,0:0|0:0,0:0:0:0:
316,205,68540,5,2,0:0:0:0:
367,221,68626,1,0,0:0:0:0:
355,166,68712,1,2,3:2:0:0:
313,314,68883,5,2,0:0:0:0:
313,314,69055,2,0,B|281:340|285:383|285:383|276:341|235:327,1,157.500006008148,10|0,0:0|0:0,0:0:0:0:
72,235,69398,1,2,3:2:0:0:
152,363,69569,5,2,0:0:0:0:
154,357,69655,2,0,B|163:314|141:277|141:277|149:256,1,105,0|10,0:0|0:0,0:0:0:0:
17,74,69912,5,2,0:0:0:0:
13,57,69998,1,0,0:0:0:0:
83,0,70083,6,2,B|91:15|91:15|71:66|19:81,1,118.125004506111,2|0,3:2|0:0,2:1:0:0:
161,34,70255,2,2,B|171:39|171:39|173:73|151:102,1,78.7500030040742,2|0,0:0|0:0,2:1:0:0:
289,165,70426,6,2,B|234:118|258:30|342:14|404:70|377:164|301:169,1,315,10|2,0:0|0:0,2:1:0:0:
271,234,70769,2,0,L|267:248,1,13.125,2|0,3:2|0:0,0:0:0:0:
507,165,70940,1,2,0:0:0:0:
258,276,71112,6,0,P|246:299|229:318,1,52.5,10|0,0:0|0:0,0:0:0:0:
510,375,71283,1,2,0:0:0:0:
486,327,71369,1,0,0:0:0:0:
485,275,71455,1,2,3:2:0:0:
358,209,71626,5,2,0:0:0:0:
339,28,71798,2,0,B|337:15|337:15|437:-14|536:-11|536:-11|479:-2|453:40,1,315.000012016297,10|2,0:0|3:2,0:0:0:0:
389,90,72312,5,2,0:0:0:0:
387,96,72398,2,0,B|394:115|378:131|378:131|371:110|387:96,1,78.7500030040742,0|10,0:0|0:0,0:0:0:0:
334,285,72655,1,2,0:0:0:0:
350,290,72740,1,0,0:0:0:0:
318,359,72826,5,2,3:2:0:0:
499,256,72998,1,2,0:0:0:0:
318,359,73169,2,0,B|298:368|279:365|279:365|280:346|272:326,1,78.7500030040742,10|0,0:0|0:0,0:0:0:0:
358,209,73340,2,0,B|317:214|288:170|314:164|284:123|235:129,1,157.500006008148,2|2,0:0|3:2,0:0:0:0:
11,77,73683,5,2,0:0:0:0:
17,76,73769,2,0,B|58:99|74:146|74:146|62:150,2,105,0|10|0,0:0|0:0|0:0,0:0:0:0:
42,2,74026,1,2,0:0:0:0:
90,10,74112,1,0,0:0:0:0:
126,42,74198,1,2,3:2:0:0:
282,8,74369,6,0,B|249:69|253:142|253:142|271:143,2,157.500006008148,2|10|2,0:0|0:0|0:0,0:0:0:0:
467,21,74883,2,0,B|472:10|472:10|492:8|509:-6,1,52.5,2|0,3:2|0:0,0:0:0:0:
443,93,75055,2,0,B|457:86|457:86|466:55|490:33,1,78.7500030040742,2|0,0:0|0:0,0:0:0:0:
481,162,75226,5,10,0:0:0:0:
433,179,75312,1,2,0:0:0:0:
390,210,75398,1,2,0:0:0:0:
362,254,75483,1,2,0:0:0:0:
385,337,75569,6,0,P|347:324|308:322,1,78.7500030040742,2|0,3:2|0:0,0:0:0:0:
252,381,75740,2,0,B|248:319|296:308|300:261|273:235,1,157.500006008148,2|10,0:0|0:0,0:0:0:0:
139,297,76083,1,2,0:0:0:0:
63,284,76255,1,2,3:2:0:0:
77,51,76512,5,2,0:0:0:0:
75,57,76598,2,0,B|72:72|72:72|109:96|121:146,1,105,10|2,0:0|0:0,0:0:0:0:
192,65,76769,2,0,P|190:82|184:103,1,39.3750015020371,2|0,3:2|0:0,0:0:0:0:
108,219,76940,6,0,P|102:277|101:338,1,118.125004506111,6|0,0:0|0:0,0:0:0:0:
52,326,77283,2,0,P|61:308|78:299,1,39.3750015020371,2|0,0:0|0:0,0:0:0:0:
111,293,77626,6,0,B|141:297|154:318|154:318|184:308|219:307,2,118.125004506111,2|2|2,0:0|0:0|0:0,0:0:0:0:
377,278,78312,6,0,P|377:317|373:357,1,78.7500030040742,0|2,0:0|0:0,0:0:0:0:
320,347,78655,2,0,P|329:329|346:320,1,39.3750015020371,2|0,0:0|0:0,0:0:0:0:
377,314,78998,6,0,B|405:317|417:340|417:340|450:332|484:338,2,118.125004506111,2|2|2,0:0|0:0|0:0,0:0:0:0:
346,320,79598,2,0,P|329:329|321:347,1,39.3750015020371,2|0,0:0|0:0,0:0:0:0:
471,178,79855,6,0,B|486:160|508:151|508:151|507:130|495:113|495:113|465:127|426:122,1,157.500006008148,2|0,0:0|0:0,0:0:0:0:
426,122,80369,2,0,B|368:114|326:145|326:145|322:157,1,118.125004506111,2|2,0:0|0:0,0:0:0:0:
322,157,80712,2,0,B|296:138|273:150|270:168|276:180|288:181,1,78.7500030040742,0|2,0:0|0:0,0:0:0:0:
289,181,81226,6,0,B|301:181|307:194|304:212|281:223|255:205,1,78.7500030040742,2|2,0:0|0:0,0:0:0:0:
254,204,81483,2,0,B|250:216|250:216|208:246|149:238,1,118.125004506111,2|2,0:0|0:0,0:0:0:0:
150,238,81998,2,0,B|120:234|98:244|98:244|89:232|88:216|88:216|105:209|116:196,1,118.125004506111,2|2,0:0|0:0,0:0:0:0:
172,151,82340,1,2,0:0:0:0:
175,146,82426,6,0,B|178:135|178:135|154:72,1,78.7500030040742,2|2,0:0|0:0,0:0:0:0:
59,37,82769,2,0,P|35:113|25:191,2,157.500006008148,2|2|0,0:0|0:0|0:0,0:0:0:0:
161,143,83798,6,0,B|164:132|164:132|140:69,1,78.7500030040742,2|2,0:0|0:0,0:0:0:0:
47,33,84141,2,0,P|23:109|13:187,1,157.500006008148,2|2,0:0|0:0,0:0:0:0:
15,216,84569,6,0,B|27:224|27:224|50:215|78:215|78:215|84:204,2,78.7500030040742,0|2|0,0:0|0:0|0:0,0:0:0:0:
64,295,84998,2,0,P|54:309|45:328,1,39.3750015020371,2|2,0:0|0:0,0:0:0:0:
304,286,85340,2,0,B|373:285|436:315|436:315|457:311,3,157.500006008148,2|2|2|2,0:0|0:0|0:0|0:0,0:0:0:0:
375,183,86540,5,2,0:0:0:0:
257,357,86712,2,0,B|278:365|294:380|294:380|403:329|503:319,2,262.5,2|0|0,3:2|3:2|3:2,0:0:0:0:
87,220,87569,6,0,B|75:212|75:212|52:221|24:221|24:221|17:233,1,78.7500030040742,0|2,0:0|3:2,0:0:0:0:
36,2,87912,6,0,B|41:12|41:12|87:7|130:33,1,105,6|0,0:0|0:0,0:0:0:0:
148,26,88083,6,0,L|142:53,1,26.25,2|0,3:2|0:0,0:0:0:0:
248,84,88255,1,10,0:0:0:0:
203,101,88340,2,0,B|187:111|187:111|182:136|154:161,1,78.7500030040742,0|2,0:0|0:3,0:0:0:0:
206,218,88512,1,0,0:0:0:0:
192,222,88598,1,2,0:0:0:0:
186,230,88683,1,0,0:0:0:0:
158,308,88769,6,0,B|126:265|54:258|14:309|23:344|63:325,1,183.750001752377,8|2,0:3|0:3,0:0:0:0:
89,371,89026,1,0,0:0:0:0:
94,367,89112,2,0,B|105:361|105:361|108:324|129:300,1,78.7500030040742,10|0,0:0|0:0,0:0:0:0:
21,189,89283,6,0,L|16:157,1,26.25,8|2,0:3|0:0,0:0:0:0:
91,205,89540,1,0,0:0:0:0:
92,198,89626,6,0,P|95:165|104:133,1,65.625,10|0,0:0|0:0,0:0:0:0:
204,250,89798,2,0,B|231:176|275:204|307:151|280:125|254:162,1,157.500006008148,8|2,0:3|0:0,0:0:0:0:
220,84,90055,1,0,0:0:0:0:
227,86,90140,6,0,L|232:67,1,19.6875007510186,8|2,0:0|0:0,0:0:0:0:
311,71,90312,2,0,L|319:43,1,26.25,8|0,0:3|0:0,0:0:0:0:
461,45,90483,2,0,B|472:7,3,39.3750015020371,2|0|2|0,0:0|0:0|0:0|0:0,0:0:0:0:
454,49,90655,6,0,B|476:91|519:106|519:106|526:120,1,105,4|0,0:0|0:0,0:0:0:0:
465,179,90826,2,0,B|491:200|526:198|526:198|532:209,1,78.7500030040742,2|0,3:2|0:0,0:0:0:0:
310,383,90998,6,0,B|316:376|316:376|305:327,1,52.5,10|2,0:0|0:3,0:0:0:0:
382,336,91255,1,0,0:0:0:0:
384,326,91341,1,2,0:0:0:0:
396,314,91426,1,0,0:0:0:0:
473,305,91512,6,0,B|475:290|475:290|402:286|339:251,1,157.500006008148,8|2,0:3|0:3,0:0:0:0:
417,243,91769,1,0,0:0:0:0:
423,240,91855,2,0,B|435:227|435:227|433:196|446:167,1,78.7500030040742,2|0,0:0|0:0,0:0:0:0:
370,32,92026,6,0,L|361:6,1,26.25,8|2,0:3|0:0,0:0:0:0:
306,69,92283,1,0,0:0:0:0:
303,63,92369,6,0,P|285:36|260:13,1,65.625,10|0,0:0|0:0,0:0:0:0:
280,184,92541,2,0,B|277:201|277:201|214:173|140:174,1,157.500006008148,8|2,0:3|0:0,0:0:0:0:
70,219,92798,1,0,0:0:0:0:
76,218,92883,6,0,L|127:208,1,52.5,2|2,0:3|0:0,0:0:0:0:
107,291,93055,2,0,L|128:287,1,19.9499997564697,8|0,0:3|0:0,0:0:0:0:
423,232,93226,2,0,L|404:236,1,19.9499997564697,2|2,3:2|0:0,0:0:0:0:
244,344,93398,6,0,L|266:214,1,131.25,6|0,3:2|0:0,0:0:0:0:
267,208,93569,1,2,0:0:0:0:
100,8,93740,5,10,0:0:0:0:
64,27,93826,2,0,B|45:77|91:106|91:106|105:94,1,105
163,55,94083,2,0,B|171:50|171:50|176:27|192:7,1,52.5,2|0,0:0|0:0,0:0:0:0:
327,77,94255,2,0,B|318:96|318:96|248:93|187:127,2,157.500006008148,8|8|2,3:3|0:0|0:0,0:0:0:0:
402,127,94683,1,2,0:0:0:0:
407,122,94769,6,0,P|404:70|390:18,1,105,4|0,3:2|0:0,0:0:0:0:
384,16,94940,1,2,0:0:0:0:
456,219,95112,5,10,0:0:0:0:
413,248,95198,2,0,B|402:234|402:234|368:232|344:214,1,78.7500030040742,0|2,0:0|0:3,0:0:0:0:
459,332,95369,1,0,0:0:0:0:
454,326,95455,2,0,L|401:335,1,52.5,2|0,0:0|0:0,0:0:0:0:
276,375,95626,6,0,B|294:360|294:360|287:288|309:227,2,157.500006008148,0|8|2,3:2|0:0|3:2,0:0:0:0:
189,290,96055,1,2,0:0:0:0:
202,364,96140,5,4,0:0:0:0:
369,185,96312,1,2,3:2:0:0:
363,170,96483,1,10,0:0:0:0:
460,272,96655,6,0,B|458:280|458:280|467:312,1,39.3750015020371,2|0,3:2|0:0,0:0:0:0:
290,155,96826,1,6,0:0:0:0:
130,243,96998,2,0,B|82:226|28:251|66:280|7:318|-65:296|-16:249|15:260,1,210,0|8,3:2|3:2,0:0:0:0:
191,185,97340,5,2,3:2:0:0:
183,183,97426,6,0,P|187:150|199:119,1,65.625,2|8,0:0|0:3,0:0:0:0:
169,56,97512,5,4,3:2:0:0:
227,16,97597,1,0,3:2:0:0:
287,6,97683,1,2,3:2:0:0:
337,8,97769,1,0,3:2:0:0:
373,16,97854,1,2,3:2:0:0:
393,25,97940,1,2,3:2:0:0:
466,0,98026,5,0,3:2:0:0:
466,0,98111,1,0,3:2:0:0:
466,0,98198,2,0,B|455:5|455:5|427:99,1,105,6|0,3:2|3:2,0:0:0:0:
319,147,98369,1,0,3:2:0:0:
381,212,98455,2,0,B|369:206|369:206|354:173|322:162,1,78.7500030040742,6|0,3:2|3:2,0:0:0:0:
336,372,98626,1,0,3:2:0:0:
345,362,98712,2,0,L|338:309,1,52.5,6|2,3:2|3:2,0:0:0:0:
449,350,98883,5,0,0:0:0:0:
256,192,98969,12,0,100169,0:0:0:0:
134,158,100255,5,2,1:3:0:0:
127,88,100426,2,0,L|100:90,1,26.25,2|0,0:3|0:0,0:0:0:0:
120,18,100598,2,0,L|93:20,1,26.25,2|0,0:3|0:0,0:0:0:0:
143,252,100769,5,0,1:2:0:0:
52,213,100940,2,0,P|56:289|67:369,1,157.5,2|2,1:2|0:0,0:0:0:0:
357,324,101626,6,0,B|321:334|288:318|304:307|269:289|227:297|227:297|188:307|132:290|140:252|192:234|238:245|245:265,1,315.000012016297,4|10,3:2|0:0,0:0:0:0:
387,356,102140,2,0,P|385:303|377:251,1,105,0|2,0:0|3:2,0:0:0:0:
488,135,102483,2,0,B|479:128|479:128|448:147|454:186,1,78.7500030040742,2|0,0:0|0:0,0:0:0:0:
488,257,102655,1,8,0:0:0:0:
488,257,102826,1,2,0:0:0:0:
263,142,102998,6,0,B|272:167|257:194|223:191|188:131|202:55|245:8|282:21|285:52|274:63,1,236.250009012223,2|0,3:2|0:0,0:0:0:0:
375,121,103340,1,10,0:0:0:0:
335,110,103426,2,0,B|261:100|197:128|197:128|182:120,1,157.500006008148,2|0,0:0|0:0,0:0:0:0:
102,53,103683,2,0,B|75:41|47:70|88:83|102:53,1,78.7500030040742,2|0,3:2|0:0,0:0:0:0:
89,153,103855,2,0,B|62:141|34:170|75:183|89:153,1,78.7500030040742,2|0,0:0|0:0,0:0:0:0:
163,231,104026,6,0,B|136:219|108:248|149:261|163:231,1,78.7500030040742,8|0,0:0|0:0,0:0:0:0:
9,305,104198,2,0,B|36:317|64:288|23:275|9:305,1,78.7500030040742,2|2,0:0|0:0,0:0:0:0:
29,297,104369,2,0,B|36:259|82:251|151:290|102:308|178:349|220:331|224:299,1,236.250009012223,2|0,3:2|0:0,0:0:0:0:
279,237,104712,2,0,B|320:226|274:222|257:179|259:223,1,78.7500030040742,8|0,0:0|0:0,0:0:0:0:
323,159,104883,2,0,P|272:219|232:287,1,157.500006008148,2|2,0:0|3:2,0:0:0:0:
360,358,105226,5,2,0:0:0:0:
377,335,105312,2,0,B|384:328|384:328|372:299|375:267|375:267|367:264,1,78.7500030040742,2|10,0:0|0:0,0:0:0:0:
512,221,105483,1,0,0:0:0:0:
495,241,105569,2,0,B|487:247|487:247|499:276|496:308|496:308|504:311,1,78.7500030040742,2|0,0:0|0:0,0:0:0:0:
451,371,105740,5,2,3:2:0:0:
423,207,105912,1,2,0:0:0:0:
409,125,106083,1,10,0:0:0:0:
402,84,106255,1,2,0:0:0:0:
398,63,106426,5,2,3:2:0:0:
335,117,106598,1,2,0:0:0:0:
506,180,106769,1,10,0:0:0:0:
338,339,106940,1,2,0:0:0:0:
113,325,107112,6,0,B|117:288|103:262|86:271|72:217|94:229|85:173|85:173|102:227|117:206|131:260|113:260|110:289|130:320,1,315.000012016297,2|10,3:2|0:0,0:0:0:0:
65,105,107626,1,2,0:0:0:0:
176,187,107798,2,0,B|167:210|137:212|130:190|67:194|11:251|29:327,1,236.250009012223,2|0,3:2|0:0,0:0:0:0:
26,353,108140,6,0,B|13:355|1:351|1:351|13:368|36:371|49:357,1,78.7500030040742,10|0,0:0|0:0,0:0:0:0:
227,270,108312,2,0,B|239:267|251:271|251:271|239:254|216:251|203:265,1,78.7500030040742,2|0,0:0|0:0,0:0:0:0:
100,224,108483,6,0,P|106:180|118:147,1,78.7500030040742,2|0,3:2|0:0,0:0:0:0:
126,135,108655,2,0,B|101:128|111:69|146:115|125:135,1,78.7500030040742,2|0,0:0|0:0,0:0:0:0:
212,60,108826,6,0,B|200:58|200:58|211:8|259:-9,1,105,10|0,0:0|0:0,0:0:0:0:
297,54,108998,2,0,B|283:26|310:-3|323:35|297:54,1,78.7500030040742,2|0,0:0|0:0,0:0:0:0:
405,236,109169,6,0,P|434:263|428:223,1,105,2|0,3:2|0:0,0:0:0:0:
335,166,109340,2,0,P|363:173|342:153,1,78.7500030040742,2|0,0:0|0:0,0:0:0:0:
251,146,109512,2,0,P|267:136|248:138,1,52.5,10|0,0:0|0:0,0:0:0:0:
273,344,109683,6,0,P|326:335|378:331,1,105,2|2,0:0|0:0,0:0:0:0:
500,194,109855,5,2,3:2:0:0:
412,117,110026,1,2,0:0:0:0:
288,246,110198,1,10,0:0:0:0:
23,152,110369,5,2,0:0:0:0:
75,105,110540,1,2,3:2:0:0:
150,183,110712,1,2,0:0:0:0:
261,3,110883,6,0,P|268:53|271:107,1,105,10|2,0:0|0:0,0:0:0:0:
257,181,111226,5,2,3:2:0:0:
209,251,111397,5,2,0:0:0:0:
110,289,111569,5,10,0:0:0:0:
0,258,111740,5,2,0:0:0:0:
193,94,111912,5,0,3:2:0:0:
327,56,112083,1,2,0:0:0:0:
306,299,112255,5,10,3:2:0:0:
226,277,112426,1,2,3:2:0:0:
377,123,112598,6,0,B|403:100|446:115|468:180|452:188|436:194|455:252|505:271|523:250,1,236.250009012223,6|0,3:2|0:0,0:0:0:0:
490,144,112940,2,0,B|472:135|439:151|428:187|447:188|435:223|403:244|383:234,1,157.500006008148,10|2,3:2|0:0,0:0:0:0:
429,306,113198,1,2,0:0:0:0:
428,312,113283,1,2,3:2:0:0:
315,189,113455,1,2,0:0:0:0:
291,347,113626,2,0,B|280:334|280:334|303:194,1,157.500006008148,8|2,3:2|0:0,0:0:0:0:
72,141,113969,6,0,B|82:148|82:148|73:195|118:243|175:220,1,157.500006008148,0|2,3:2|0:0,0:0:0:0:
406,78,114312,2,0,B|404:63|404:63|328:67|279:124,1,157.500006008148,10|0,3:2|0:0,0:0:0:0:
209,134,114569,2,0,B|190:129|175:106|188:105|177:85|156:79,1,78.7500030040742,0|2,0:0|3:2,0:0:0:0:
57,283,114826,2,0,B|107:299|107:257|135:224|195:229,2,157.500006008148,2|8|2,0:0|3:2|0:0,0:0:0:0:
305,348,115340,6,0,B|297:339|297:339|314:262|285:197,1,157.500006008148,2|2,3:2|0:0,0:0:0:0:
366,209,115683,2,0,B|321:263|316:342|316:342|305:348,1,157.500006008148,10|2,3:2|0:0,0:0:0:0:
382,382,115940,1,0,0:0:0:0:
388,381,116026,1,2,3:2:0:0:
224,348,116198,2,0,P|217:322|214:296,1,52.5,2|2,0:0|0:0,0:0:0:0:
373,262,116369,2,0,P|377:235|376:210,1,52.5,8|0,3:2|0:0,0:0:0:0:
219,351,116540,2,0,P|206:330|197:301,1,52.5,2|0,0:0|0:0,0:0:0:0:
367,262,116712,6,0,P|364:197|376:133,1,131.25,0|2,3:2|0:0,0:0:0:0:
264,64,116969,1,0,0:0:0:0:
267,59,117055,2,0,B|278:39|261:14|217:6|180:39|181:94|220:138|301:116|275:68|328:43|417:81|383:117,1,315.000012016297,10|2,3:2|3:2,0:0:0:0:
458,58,117569,2,0,B|472:68|437:100|397:73|409:62,1,78.7500030040742
291,194,117740,2,0,B|305:184|270:152|230:179|242:189,1,78.7500030040742,10|0,3:2|0:0,0:0:0:0:
134,62,117912,2,0,B|148:72|113:104|73:77|85:66,1,78.7500030040742,2|2,0:0|0:0,0:0:0:0:
50,251,118083,6,0,B|39:253|32:260|32:260|-8:231|-8:165|33:126|96:127|138:163|136:216|114:211|116:254|142:268,1,315.000012016297,2|10,3:2|3:2,0:0:0:0:
268,306,118598,1,2,0:0:0:0:
264,311,118683,1,0,0:0:0:0:
260,316,118769,6,0,B|247:312|238:304|238:304|241:324|261:336|279:330,1,78.7500030040742,2|0,3:2|0:0,0:0:0:0:
414,187,118940,2,0,B|422:196|424:208|424:208|434:190|425:169|407:163,1,78.7500030040742,2|2,0:0|0:0,0:0:0:0:
213,200,119112,2,0,B|211:187|217:176|217:176|198:184|193:207|205:222,1,78.7500030040742,10|0,3:2|0:0,0:0:0:0:
384,308,119283,2,0,B|377:319|366:324|366:324|386:328|403:313|403:294,1,78.7500030040742,2|0,0:0|0:0,0:0:0:0:
309,119,119455,6,0,B|320:114|332:115|332:115|319:100|295:102|284:118,1,78.7500030040742,2|0,3:2|0:0,0:0:0:0:
252,332,119626,2,0,B|239:328|230:320|230:320|233:340|253:352|271:346,1,78.7500030040742,2|0,0:0|0:0,0:0:0:0:
432,184,119798,2,0,B|440:193|442:205|442:205|452:187|443:166|425:160,1,78.7500030040742,10|0,3:2|0:0,0:0:0:0:
196,196,119969,2,0,B|194:183|200:172|200:172|181:180|176:203|188:218,1,78.7500030040742,2|0,0:0|0:0,0:0:0:0:
400,320,120140,6,0,B|393:331|382:336|382:336|402:340|419:325|419:306,1,78.7500030040742,2|0,3:2|0:0,0:0:0:0:
300,200,120312,1,2,0:0:0:0:
184,148,120483,1,10,3:2:0:0:
93,145,120655,1,2,0:0:0:0:
0,164,120826,6,0,P|18:186|10:159,1,78.7500030040742,2|0,3:1|0:0,0:0:0:0:
25,314,120998,2,0,P|24:288|20:262,1,52.5,2|10,0:1|3:2,0:0:0:0:
184,148,121340,6,0,P|198:172|195:144,1,78.7500030040742,2|0,0:1|0:0,0:0:0:0:
196,299,121512,2,0,P|198:273|196:247,1,52.5,2|2,3:1|0:0,0:0:0:0:
388,153,121855,6,0,P|397:179|399:151,1,78.7500030040742,2|0,3:1|0:0,0:0:0:0:
373,305,122026,1,2,3:1:0:0:
373,305,122198,1,6,3:2:0:0:
298,340,122369,5,2,3:2:0:0:
478,194,122540,5,10,3:2:0:0:
315,177,122712,5,2,3:2:0:0:
461,357,122883,6,0,P|475:355|486:359,1,26.25,6|0,3:2|3:2,0:0:0:0:
262,273,123055,2,0,P|281:260|305:252,1,47.2499985580445,2|0,3:2|3:2,0:0:0:0:
54,288,123226,2,0,P|69:257|91:231,3,68.2499968757631,14|2|2|2,3:2|3:2|3:2|3:2,0:0:0:0:
103,352,123569,6,0,B|128:361|186:373|142:298|131:351|197:323|197:323|201:360|170:345,1,157.500006008148,6|2,3:2|0:0,0:0:0:0:
207,150,123911,1,10,3:2:0:0:
221,125,123997,1,2,0:0:0:0:
245,112,124083,1,2,0:0:0:0:
380,132,124255,6,2,B|368:156|363:149|395:86|483:98|483:98|452:180|368:156|377:164|361:166|361:166|367:172|372:167|380:185|380:185|367:173|362:183|355:168|355:168|352:177|358:180|343:192|343:192|351:177|340:176|351:164|351:164|342:163|341:171|325:160|325:160|342:163|340:152|354:160|354:160|352:151|345:152|350:133|350:133|353:150|363:145|356:165,1,525,2|10,3:2|3:2,2:1:0:0:
512,87,124769,1,2,0:0:0:0:
416,24,124940,6,0,L|389:25,1,26.25,2|0,3:2|0:0,0:0:0:0:
429,37,125026,2,0,L|376:40,1,52.5,2|0,0:0|0:0,0:0:0:0:
418,53,125112,2,0,L|391:54,1,26.25,2|0,0:0|0:0,0:0:0:0:
434,66,125198,2,0,L|381:69,1,52.5,2|0,0:0|0:0,0:0:0:0:
398,156,125283,2,0,L|449:142,1,52.5,10|0,3:2|0:0,0:0:0:0:
412,167,125369,2,0,L|438:159,1,26.25,2|0,0:0|0:0,0:0:0:0:
405,184,125455,2,0,L|456:169,1,52.5,2|0,0:0|0:0,0:0:0:0:
420,195,125540,2,0,L|446:187,1,26.25,2|0,0:0|0:0,0:0:0:0:
441,269,125626,6,0,P|467:275|455:300,1,62.9999980773926,2|0,3:2|0:0,0:0:0:0:
283,336,125797,2,0,P|261:317|284:300,1,62.9999980773926,2|0,0:0|0:0,0:0:0:0:
373,338,125969,2,0,B|389:316|365:298|349:324|373:338,1,62.9999980773926,10|0,3:2|0:0,0:0:0:0:
371,234,126140,5,2,0:0:0:0:
342,192,126225,1,2,0:0:0:0:
335,240,126311,1,2,3:2:0:0:
0,307,126483,5,2,0:0:0:0:
47,384,126654,2,0,B|99:377|94:324|114:373|166:354,1,125.999996154785,10|2,3:2|0:0,0:0:0:0:
214,171,126998,1,2,3:2:0:0:
141,241,127169,1,2,0:0:0:0:
128,263,127255,1,0,0:0:0:0:
124,221,127340,1,10,3:2:0:0:
15,121,127511,5,2,0:0:0:0:
36,159,127597,1,0,0:0:0:0:
44,84,127683,2,2,B|45:77|45:77|82:76|79:100|112:100,1,78.7500030040742,2|0,3:2|0:0,2:1:0:0:
242,73,127854,2,2,B|231:65|238:51|238:51|263:63|252:83|266:94,1,78.7500030040742,2|0,0:0|0:0,2:1:0:0:
291,176,128026,6,2,B|291:159|302:138|325:130|357:142|376:188|372:246|346:318|276:332|225:275|199:222|200:172|225:149|249:149|267:163|274:180,1,377.999988464356,10|2,3:2|0:0,2:1:0:0:
314,338,128369,6,0,L|318:356,1,13.125,2|0,3:2|0:0,0:0:0:0:
397,94,128540,1,2,0:0:0:0:
144,142,128712,1,10,3:2:0:0:
309,314,128883,1,2,0:0:0:0:
311,262,128969,1,0,0:0:0:0:
329,213,129054,1,2,3:2:0:0:
488,148,129226,5,2,0:0:0:0:
467,344,129398,2,0,B|439:336|426:309|426:309|425:303|425:303|425:296|425:296|427:291|427:291|431:288|431:288|436:287|436:287|439:288|439:288|442:292|442:292|442:298|442:298|438:306|438:306|424:314|424:314|412:321|380:324|380:324|381:344|372:364|345:376,1,236.250009012223,10|0,3:2|0:0,0:0:0:0:
282,340,129740,2,0,P|289:302|321:281,1,78.7500030040742,2|0,3:2|0:0,0:0:0:0:
488,148,129911,5,2,0:0:0:0:
416,138,129997,2,0,P|410:163|407:189,1,52.5,0|10,0:0|3:2,0:0:0:0:
464,20,130254,1,2,0:0:0:0:
505,38,130340,1,2,0:0:0:0:
416,34,130426,6,0,B|409:44|409:44|369:48|341:82,1,91.8750008761883,2|0,3:2|0:0,0:0:0:0:
246,34,130598,2,0,B|237:41|237:41|205:42|182:61,1,70.8750002703667,2|0,0:0|0:0,0:0:0:0:
67,43,130769,6,0,B|64:28|46:13|46:13|84:23|99:53,1,105,10|0,3:2|0:0,0:0:0:0:
95,141,130940,2,0,B|99:154|112:164|112:164|87:162|76:134,1,78.7500030040742,2|0,0:0|0:0,0:0:0:0:
0,123,131112,5,2,3:2:0:0:
163,105,131283,1,2,0:0:0:0:
263,230,131455,1,10,3:2:0:0:
92,246,131626,1,2,0:0:0:0:
51,281,131712,1,0,0:0:0:0:
42,331,131797,1,2,3:2:0:0:
169,178,131969,5,2,0:0:0:0:
227,370,132140,1,10,3:2:0:0:
123,316,132312,1,2,0:0:0:0:
319,316,132483,5,2,3:2:0:0:
478,167,132655,5,2,0:0:0:0:
415,202,132740,1,0,0:0:0:0:
390,270,132826,1,10,3:2:0:0:
420,336,132912,1,2,0:0:0:0:
462,277,132998,1,2,0:0:0:0:
425,296,133083,1,0,0:0:0:0:
394,309,133169,6,0,B|412:314|422:336|422:336|438:317|453:316,1,78.7500030040742,2|0,3:2|0:0,0:0:0:0:
510,307,133340,6,0,B|421:278|346:323|346:323|355:344|346:361,1,210,2|10,0:0|3:2,0:0:0:0:
257,88,133683,1,2,0:0:0:0:
305,180,133854,1,2,3:2:0:0:
181,368,134026,5,2,0:0:0:0:
221,309,134111,1,0,0:0:0:0:
234,320,134197,2,0,B|267:306|260:262|313:255,1,105,10|0,3:2|0:0,0:0:0:0:
376,224,134369,2,0,B|369:207|381:193|381:193|387:210|376:224,1,65.625,2|0,3:2|0:0,0:0:0:0:
494,142,134540,6,0,B|516:144|519:166|519:166|490:176|461:148|481:143|457:116|418:117,1,157.500006008148,6|2,3:2|0:0,0:0:0:0:
62,66,134883,1,10,3:2:0:0:
62,94,134968,1,2,0:0:0:0:
75,120,135054,1,2,0:0:0:0:
187,139,135226,6,2,B|215:133|244:140|265:160|268:184|259:188|259:188|249:189|239:166|247:135|277:160|292:130|286:89|286:89|329:75|329:75|343:46|343:46|329:2|329:2|300:-12|300:-12|256:2|256:2|242:31|242:31|255:72|255:72|279:84,1,525,2|10,3:2|3:2,2:1:0:0:
137,77,135740,1,2,0:0:0:0:
11,360,135912,6,0,L|36:365,1,26.25,2|0,3:2|0:0,0:0:0:0:
0,343,135998,2,0,L|51:353,1,52.5,2|0,0:0|0:0,0:0:0:0:
16,330,136083,2,0,L|41:335,1,26.25,2|0,0:0|0:0,0:0:0:0:
6,314,136169,2,0,L|57:324,1,52.5,2|0,0:0|0:0,0:0:0:0:
130,315,136255,2,0,L|179:297,1,52.5,10|0,3:2|0:0,0:0:0:0:
137,297,136340,2,0,L|162:288,1,26.25,2|0,0:0|0:0,0:0:0:0:
120,287,136426,2,0,L|169:269,1,52.5,2|0,0:0|0:0,0:0:0:0:
127,269,136512,2,0,L|152:260,1,26.25,2|0,0:0|0:0,0:0:0:0:
56,249,136598,6,0,B|49:237|49:237|58:205|86:186,1,78.7500030040742,2|0,3:2|0:0,0:0:0:0:
255,320,136769,2,0,B|240:284|272:278|256:244,1,78.7500030040742,2|0,0:0|0:0,0:0:0:0:
437,253,136940,2,0,B|447:241|447:241|441:207|416:188,1,78.7500030040742,10|0,3:2|0:0,0:0:0:0:
259,130,137111,5,2,0:0:0:0:
231,173,137197,1,2,0:0:0:0:
282,174,137283,1,0,3:2:0:0:
385,309,137454,5,2,0:0:0:0:
385,309,137626,2,0,B|376:344|408:357|415:379|415:379|429:360|461:358|463:322,1,157.500006008148,10|2,3:2|0:0,0:0:0:0:
468,25,137969,5,2,3:2:0:0:
343,97,138140,2,0,B|302:83|293:41|293:41|297:84|265:110,1,157.500006008148,2|10,0:0|3:2,0:0:0:0:
465,176,138483,1,2,0:0:0:0:
512,185,138569,1,2,0:0:0:0:
425,197,138655,6,2,B|433:216|433:216|429:236|404:242|404:242|384:243|371:264|371:264|402:299,1,118.125004506111,2|0,3:2|0:0,2:1:0:0:
294,251,138826,2,2,B|302:270|302:270|318:281|340:267|340:267|356:253|379:259|379:259|383:306,1,118.125004506111,2|0,0:0|0:0,2:1:0:0:
445,305,138998,6,2,B|467:262|376:234|407:267|481:190|369:160|432:150|315:102|252:213|301:190|254:280|354:289|355:242|304:323|355:341,1,393.75,10|2,3:2|0:0,2:1:0:0:
421,370,139340,6,0,L|429:387,1,13.125,2|0,3:2|0:0,0:0:0:0:
354,214,139512,1,2,0:0:0:0:
216,95,139683,2,0,P|199:114|188:139,1,52.5,10|0,3:2|0:0,0:0:0:0:
69,184,139854,1,2,0:0:0:0:
105,162,139940,1,0,0:0:0:0:
114,120,140026,1,2,3:2:0:0:
94,18,140197,5,2,0:0:0:0:
13,239,140369,2,0,B|-8:299|32:350|32:350|78:347|111:377|111:377|156:319|132:241|97:226|65:252|74:294|98:313,1,420,10|2,3:2|3:2,0:0:0:0:
394,288,140883,5,2,0:0:0:0:
321,271,140969,2,0,B|301:280|286:262|286:262|307:253|321:271,1,78.7500030040742,0|10,0:0|3:2,0:0:0:0:
221,377,141226,1,2,0:0:0:0:
234,373,141311,1,2,0:0:0:0:
284,357,141397,5,2,3:2:0:0:
394,113,141569,1,2,0:0:0:0:
475,206,141740,2,0,P|437:211|410:184,1,78.7500030040742,10|0,3:2|0:0,0:0:0:0:
464,134,141911,2,0,B|424:128|386:175|417:176|382:222|341:215,1,157.500006008148,2|2,0:0|3:2,0:0:0:0:
132,82,142255,6,0,B|121:68|121:68|138:36|137:0|137:0|151:-3,1,105,2|0,0:0|0:0,0:0:0:0:
139,111,142426,2,0,B|135:122|135:122|116:128|84:122|92:106|66:98|32:102|32:102|28:113,1,131.25,10|0,3:2|0:0,0:0:0:0:
130,138,142598,2,0,B|139:149|139:149|123:182|123:220|123:220|108:223,1,105,2|0,0:0|0:0,0:0:0:0:
120,113,142769,6,0,B|124:124|124:124|143:130|175:124|167:108|193:100|227:104|227:104|230:115,1,131.25,2|0,3:2|0:0,0:0:0:0:
295,252,142940,2,0,P|312:265|308:245,1,52.5,2|0,0:0|0:0,0:0:0:0:
265,182,143112,1,10,3:2:0:0:
38,327,143283,6,0,B|29:320|29:320|54:277|105:273,1,105,2|0,0:0|0:0,0:0:0:0:
174,305,143455,2,0,P|199:296|225:296,1,52.5,2|0,3:2|0:0,0:0:0:0:
111,349,143626,1,2,0:0:0:0:
465,306,143798,6,0,B|419:314|394:356|394:356|380:361,1,105,10|0,3:2|0:0,0:0:0:0:
320,315,143969,2,0,B|305:332|301:353|301:353|292:357,1,52.5,2|0,0:0|0:0,0:0:0:0:
386,255,144140,5,2,3:2:0:0:
436,185,144312,5,2,0:0:0:0:
463,80,144483,5,10,3:2:0:0:
511,306,144655,5,2,0:0:0:0:
22,251,144826,1,2,3:2:0:0:
298,10,145083,5,0,3:2:0:0:
294,41,145169,1,10,3:2:0:0:
250,319,145340,2,0,P|242:295|241:268,1,52.5,2|0,3:2|0:0,0:0:0:0:
347,92,145512,6,0,B|537:80|550:269|426:374|243:419|61:208|277:110,1,735,6|0,3:2|0:0,0:0:0:0:
