osu file format v14

[General]
AudioFilename: audio.mp3
AudioLeadIn: 2000
PreviewTime: 123483
Countdown: 0
SampleSet: Soft
StackLeniency: 0.4
Mode: 0
LetterboxInBreaks: 0
EpilepsyWarning: 1
WidescreenStoryboard: 1

[Editor]
Bookmarks: 141,11112,22083,33055,44026,54998,65969,76940,87912,98883,101626,112598,123569,134540,145512,147912
DistanceSpacing: 1.2
BeatDivisor: 4
GridSize: 32
TimelineZoom: 2.4

[Metadata]
Title:EOS
TitleUnicode:EOS
Artist:ginkiha
ArtistUnicode:ginkiha
Creator:too
Version:Hyper
Source:
Tags:Apis035 KimikaMyMommy HinaMommy PotatoDew KogumaX ponbot rrtyui bof2012 of fighters fa featured artist electronic english instrumental daybreak uk hardcore shade of mythology bms groundbreaking video game SOUND VOLTEX II -infinite infection- happy
BeatmapID:2792196
BeatmapSetID:1284506

[Difficulty]
HPDrainRate:5
CircleSize:3.6
OverallDifficulty:7
ApproachRate:8
SliderMultiplier:1.2
SliderTickRate:1

[Events]
//Background and Video events
0,0,"bg1.jpg",0,0
//Break Periods
2,77140,86840
//Storyboard Layer 0 (Background)
Sprite,Background,Centre,"bg1.jpg",320,240 F,0,0,,0
//Storyboard Layer 1 (Fail)
//Storyboard Layer 2 (Pass)
//Storyboard Layer 3 (Foreground)
Sprite,Foreground,CentreLeft,"sb\font\0042.png",569.5,425.5 S,0,3569,,0.5 F,0,3569,3669,0,1 F,0,6798,6998,1,0
Sprite,Foreground,CentreLeft,"sb\font\0065.png",580,425.5 S,0,3629,,0.5 F,0,3629,3729,0,1 F,0,6798,6998,1,0
Sprite,Foreground,CentreLeft,"sb\font\0061.png",586.5,425.5 S,0,3689,,0.5 F,0,3689,3789,0,1 F,0,6798,6998,1,0
Sprite,Foreground,CentreLeft,"sb\font\0074.png",595.5,425.5 S,0,3749,,0.5 F,0,3749,3849,0,1 F,0,6798,6998,1,0
Sprite,Foreground,CentreLeft,"sb\font\006d.png",602.5,425.5 S,0,3809,,0.5 F,0,3809,3909,0,1 F,0,6798,6998,1,0
Sprite,Foreground,CentreLeft,"sb\font\0061.png",614,425.5 S,0,3869,,0.5 F,0,3869,3969,0,1 F,0,6798,6998,1,0
Sprite,Foreground,CentreLeft,"sb\font\0070.png",623,425.5 S,0,3929,,0.5 F,0,3929,4029,0,1 F,0,6798,6998,1,0
Sprite,Foreground,CentreLeft,"sb\font\007c.png",636,425.5 S,0,4049,,0.5 F,0,4049,4149,0,1 F,0,6798,6998,1,0
Sprite,Foreground,CentreLeft,"sb\font\0074.png",648,425.5 S,0,4169,,0.5 F,0,4169,4269,0,1 F,0,6798,6998,1,0
Sprite,Foreground,CentreLeft,"sb\font\006f.png",655,425.5 S,0,4229,,0.5 F,0,4229,4329,0,1 F,0,6798,6998,1,0
Sprite,Foreground,CentreLeft,"sb\font\006f.png",662.5,425.5 S,0,4289,,0.5 F,0,4289,4389,0,1 F,0,6798,6998,1,0
Sprite,Foreground,Centre,"sb\ring.png",0,0 M,0,8369,,286,139 F,4,8369,9395,1,0 S,19,8369,9395,0.2,0.8 P,0,8369,9395,A M,0,9398,,500,118 F,4,9398,10424,1,0 S,19,9398,10424,0.2,0.8 P,0,9398,10424,A M,0,10426,,420,437 F,4,10426,11452,1,0 S,19,10426,11452,0.2,0.8 P,0,10426,11452,A M,0,27569,,199,63 F,4,27569,28595,1,0 S,19,27569,28595,0.2,0.8 P,0,27569,28595,A M,0,28940,,512,162 F,4,28940,29966,1,0 S,19,28940,29966,0.2,0.8 P,0,28940,29966,A M,0,30312,,209,415 F,4,30312,31338,1,0 S,19,30312,31338,0.2,0.8 P,0,30312,31338,A M,0,31683,,171,243 F,4,31683,32709,1,0 S,19,31683,32709,0.2,0.8 P,0,31683,32709,A M,0,32883,,358.1571,280.2437 F,4,32883,33909,1,0 S,19,32883,33909,0.2,0.8 P,0,32883,33909,A M,0,44026,,447,185 F,4,44026,45052,1,0 S,19,44026,45052,0.2,0.8 P,0,44026,45052,A M,0,52255,,554,121 F,4,52255,53281,1,0 S,19,52255,53281,0.2,0.8 P,0,52255,53281,A M,0,53626,,400,290 F,4,53626,54652,1,0 S,19,53626,54652,0.2,0.8 P,0,53626,54652,A M,0,54655,,177,103 F,4,54655,55681,1,0 S,19,54655,55681,0.2,0.8 P,0,54655,55681,A
Sprite,Foreground,Centre,"sb\ring.png",0,0 M,0,8883,,393,131 F,4,8883,9909,1,0 S,19,8883,9909,0.2,0.8 P,0,8883,9909,A M,0,10769,,420,437 F,4,10769,11795,1,0 S,19,10769,11795,0.2,0.8 P,0,10769,11795,A M,0,30998,,133,338 F,4,30998,32024,1,0 S,19,30998,32024,0.2,0.8 P,0,30998,32024,A M,0,32026,,214,132 F,4,32026,33052,1,0 S,19,32026,33052,0.2,0.8 P,0,32026,33052,A M,0,54312,,249,143 F,4,54312,55338,1,0 S,19,54312,55338,0.2,0.8 P,0,54312,55338,A
Sprite,Foreground,Centre,"sb\ring.png",0,0 M,0,32369,,252,268 F,4,32369,33395,1,0 S,19,32369,33395,0.2,0.8 P,0,32369,33395,A M,0,87912,,206,181 F,4,87912,88938,1,0 S,19,87912,88938,0.2,0.8 P,0,87912,88938,A M,0,90655,,441,306 F,4,90655,91681,1,0 S,19,90655,91681,0.2,0.8 P,0,90655,91681,A
Sprite,Foreground,Centre,"sb\ring.png",0,0 M,0,32626,,281.6838,272.344 F,4,32626,33652,1,0 S,19,32626,33652,0.2,0.8 P,0,32626,33652,A M,0,76940,,205,187 F,4,76940,78992,1,0 S,19,76940,78992,0.2,1.2 P,0,76940,78992,A
Sprite,Foreground,Centre,"sb\ring.png",0,0 M,0,93398,,218,102 F,4,93398,94424,1,0 S,19,93398,94424,0.2,0.8 P,0,93398,94424,A M,0,94769,,477,117 F,4,94769,95795,1,0 S,19,94769,95795,0.2,0.8 P,0,94769,95795,A M,0,96140,,443,217 F,4,96140,97166,1,0 S,19,96140,97166,0.2,0.8 P,0,96140,97166,A M,0,97512,,307,223 F,4,97512,98538,1,0 S,19,97512,98538,0.2,0.8 P,0,97512,98538,A M,0,98712,,533,157 F,4,98712,99738,1,0 S,19,98712,99738,0.2,0.8 P,0,98712,99738,A M,0,112598,,530,407 F,4,112598,113624,1,0 S,19,112598,113624,0.2,0.8 P,0,112598,113624,A M,0,120826,,183,435 F,4,120826,121852,1,0 S,19,120826,121852,0.2,0.8 P,0,120826,121852,A M,0,122198,,540,304 F,4,122198,123224,1,0 S,19,122198,123224,0.2,0.8 P,0,122198,123224,A M,0,123226,,370,122 F,4,123226,124252,1,0 S,19,123226,124252,0.2,0.8 P,0,123226,124252,A M,0,145512,,225,162 F,4,145512,147564,1,0 S,19,145512,147564,0.2,1.2 P,0,145512,147564,A
Sprite,Foreground,Centre,"sb\ring.png",0,0 M,0,96826,,386,236 F,4,96826,97852,1,0 S,19,96826,97852,0.2,0.8 P,0,96826,97852,A M,0,98198,,321,121 F,4,98198,99224,1,0 S,19,98198,99224,0.2,0.8 P,0,98198,99224,A M,0,122883,,419,87 F,4,122883,123909,1,0 S,19,122883,123909,0.2,0.8 P,0,122883,123909,A
Sprite,Foreground,Centre,"sb\ring.png",0,0 M,0,98455,,427,137 F,4,98455,99481,1,0 S,19,98455,99481,0.2,0.8 P,0,98455,99481,A M,0,101626,,290,136 F,4,101626,103678,1,0 S,19,101626,103678,0.2,1.2 P,0,101626,103678,A M,0,123569,,307,121 F,4,123569,125621,1,0 S,19,123569,125621,0.2,1.2 P,0,123569,125621,A
Sprite,Foreground,Centre,"sb\ring.png",0,0 M,0,11455,,281,402 F,4,11455,13507,1,0 S,19,11455,13507,0.2,1.2 P,0,11455,13507,A M,0,22083,,254,348 F,4,22083,24135,1,0 S,19,22083,24135,0.2,1.2 P,0,22083,24135,A M,0,33055,,345,196 F,4,33055,35107,1,0 S,19,33055,35107,0.2,1.2 P,0,33055,35107,A M,0,54998,,117,140 F,4,54998,57050,1,0 S,19,54998,57050,0.2,1.2 P,0,54998,57050,A
Sprite,Foreground,Centre,"sb\particle.png",0,0 M,7,1683,2583,407,282,378.9877,186.0036 S,7,1683,2583,0.1,0 M,7,4426,5326,102,132,61.26788,218.9304 S,7,4426,5326,0.1,0 M,7,7169,8069,202,236,130.7454,164.4194 S,7,7169,8069,0.1,0 M,7,9741,10641,517,203,609.7395,142.0051 S,7,9741,10641,0.1,0 M,7,10769,11669,420,437,408.025,347.8002 S,7,10769,11669,0.1,0
Sprite,Foreground,Centre,"sb\particle.png",0,0 M,7,1683,2583,407,282,288.6758,294.6638 S,7,1683,2583,0.1,0 M,7,4426,5326,102,132,151.8428,211.6975 S,7,4426,5326,0.1,0 M,7,7169,8069,202,236,283.3871,246.0065 S,7,7169,8069,0.1,0 M,7,9741,10641,517,203,437.0147,204.5353 S,7,9741,10641,0.1,0 M,7,10769,11669,420,437,447.7708,334.7025 S,7,10769,11669,0.1,0
Sprite,Foreground,Centre,"sb\particle.png",0,0 M,7,1683,2583,407,282,474.5454,328.4931 S,7,1683,2583,0.1,0 M,7,4426,5326,102,132,175.6041,212.3955 S,7,4426,5326,0.1,0 M,7,7169,8069,202,236,251.7072,312.2246 S,7,7169,8069,0.1,0 M,7,9741,10641,517,203,572.0775,288.8514 S,7,9741,10641,0.1,0 M,7,10769,11669,420,437,361.8738,373.6175 S,7,10769,11669,0.1,0
Sprite,Foreground,Centre,"sb\particle.png",0,0 M,7,1683,2583,407,282,492.0886,308.0948 S,7,1683,2583,0.1,0 M,7,4426,5326,102,132,174.9935,208.8632 S,7,4426,5326,0.1,0 M,7,7169,8069,202,236,107.4247,244.9729 S,7,7169,8069,0.1,0 M,7,9741,10641,517,203,619.6666,176.6265 S,7,9741,10641,0.1,0 M,7,10769,11669,420,437,446.0776,361.3696 S,7,10769,11669,0.1,0
Sprite,Foreground,Centre,"sb\particle.png",0,0 M,7,1683,2583,407,282,291.1657,265.5254 S,7,1683,2583,0.1,0 M,7,4426,5326,102,132,158.2783,29.42438 S,7,4426,5326,0.1,0 M,7,7169,8069,202,236,251.6852,338.603 S,7,7169,8069,0.1,0 M,7,9741,10641,517,203,559.9199,307.5317 S,7,9741,10641,0.1,0 M,7,10769,11669,420,437,435.0335,538.897 S,7,10769,11669,0.1,0
Sprite,Foreground,Centre,"sb\particle.png",0,0 M,7,1683,2583,407,282,368.0693,374.1108 S,7,1683,2583,0.1,0 M,7,4426,5326,102,132,210.6994,158.9895 S,7,4426,5326,0.1,0 M,7,7169,8069,202,236,121.5011,244.996 S,7,7169,8069,0.1,0 M,7,9741,10641,517,203,451.8503,149.9762 S,7,9741,10641,0.1,0 M,7,10769,11669,420,437,339.1379,482.9382 S,7,10769,11669,0.1,0
Sprite,Foreground,Centre,"sb\particle.png",0,0 M,7,1683,2583,407,282,489.1842,234.3475 S,7,1683,2583,0.1,0 M,7,4426,5326,102,132,182.322,218.4429 S,7,4426,5326,0.1,0 M,7,7169,8069,202,236,266.1724,188.2307 S,7,7169,8069,0.1,0 M,7,9741,10641,517,203,602.238,231.8873 S,7,9741,10641,0.1,0 M,7,10769,11669,420,437,329.274,412.4075 S,7,10769,11669,0.1,0
Sprite,Foreground,Centre,"sb\particle.png",0,0 M,7,1683,2583,407,282,370.5583,178.2117 S,7,1683,2583,0.1,0 M,7,4426,5326,102,132,60.36464,209.5274 S,7,4426,5326,0.1,0 M,7,7169,8069,202,236,272.7209,320.253 S,7,7169,8069,0.1,0 M,7,9741,10641,517,203,434.353,253.7787 S,7,9741,10641,0.1,0 M,7,10769,11669,420,437,448.5962,330.782 S,7,10769,11669,0.1,0
Sprite,Foreground,Centre,"sb\particle.png",0,0 M,7,1855,2755,407,282,418.2412,388.4079 S,7,1855,2755,0.1,0 M,7,4598,5498,96.80222,191.7744,10.41099,181.5005 S,7,4598,5498,0.1,0 M,7,7683,8583,145,133,181.5759,51.86304 S,7,7683,8583,0.1,0 M,7,9912,10812,526.864,262.1837,559.0104,345.1753 S,7,9912,10812,0.1,0
Sprite,Foreground,Centre,"sb\particle.png",0,0 M,7,1855,2755,407,282,429.3094,166.1281 S,7,1855,2755,0.1,0 M,7,4598,5498,96.80222,191.7744,176.7796,193.6776 S,7,4598,5498,0.1,0 M,7,7683,8583,145,133,174.2453,43.66518 S,7,7683,8583,0.1,0 M,7,9912,10812,526.864,262.1837,602.8542,171.9091 S,7,9912,10812,0.1,0
Sprite,Foreground,Centre,"sb\particle.png",0,0 M,7,1855,2755,407,282,429.1217,197.8595 S,7,1855,2755,0.1,0 M,7,4598,5498,96.80222,191.7744,177.1178,212.7127 S,7,4598,5498,0.1,0 M,7,7683,8583,145,133,232.7453,208.8734 S,7,7683,8583,0.1,0 M,7,9912,10812,526.864,262.1837,625.5681,297.9954 S,7,9912,10812,0.1,0
Sprite,Foreground,Centre,"sb\particle.png",0,0 M,7,1855,2755,407,282,426.3376,201.2841 S,7,1855,2755,0.1,0 M,7,4598,5498,96.80222,191.7744,141.0096,120.3482 S,7,4598,5498,0.1,0 M,7,7683,8583,145,133,56.8486,175.8174 S,7,7683,8583,0.1,0 M,7,9912,10812,526.864,262.1837,491.6651,375.8588 S,7,9912,10812,0.1,0
Sprite,Foreground,Centre,"sb\particle.png",0,0 M,7,1855,2755,407,282,432.7391,197.8484 S,7,1855,2755,0.1,0 M,7,4598,5498,96.80222,191.7744,171.4588,157.8569 S,7,4598,5498,0.1,0 M,7,7683,8583,145,133,219.1712,195.5111 S,7,7683,8583,0.1,0 M,7,9912,10812,526.864,262.1837,493.3878,184.0533 S,7,9912,10812,0.1,0
Sprite,Foreground,Centre,"sb\particle.png",0,0 M,7,1855,2755,407,282,432.3427,365.2271 S,7,1855,2755,0.1,0 M,7,4598,5498,96.80222,191.7744,174.7353,262.1409 S,7,4598,5498,0.1,0 M,7,7683,8583,145,133,94.17339,197.3479 S,7,7683,8583,0.1,0 M,7,9912,10812,526.864,262.1837,440.111,282.0564 S,7,9912,10812,0.1,0
Sprite,Foreground,Centre,"sb\particle.png",0,0 M,7,1855,2755,407,282,457.4816,214.8612 S,7,1855,2755,0.1,0 M,7,4598,5498,96.80222,191.7744,82.7661,97.81708 S,7,4598,5498,0.1,0 M,7,7683,8583,145,133,254.7222,167.439 S,7,7683,8583,0.1,0 M,7,9912,10812,526.864,262.1837,549.2109,351.4283 S,7,9912,10812,0.1,0
Sprite,Foreground,Centre,"sb\particle.png",0,0 M,7,1855,2755,407,282,366.5221,196.055 S,7,1855,2755,0.1,0 M,7,4598,5498,96.80222,191.7744,176.2116,153.8515 S,7,4598,5498,0.1,0 M,7,7683,8583,145,133,248.2407,101.2925 S,7,7683,8583,0.1,0 M,7,9912,10812,526.864,262.1837,617.5912,282.618 S,7,9912,10812,0.1,0
Sprite,Foreground,Centre,"sb\particle.png",0,0 M,7,2198,3098,307,215,286.582,296.4807 S,7,2198,3098,0.1,0 M,7,4769,5669,98,231,96.57797,335.9904 S,7,4769,5669,0.1,0 M,7,7855,8755,167.0315,79.45504,56.95838,46.15486 S,7,7855,8755,0.1,0 M,7,10083,10983,498,335,445.6621,247.4514 S,7,10083,10983,0.1,0
Sprite,Foreground,Centre,"sb\particle.png",0,0 M,7,2198,3098,307,215,203.8386,253.1802 S,7,2198,3098,0.1,0 M,7,4769,5669,98,231,11.17869,187.7442 S,7,4769,5669,0.1,0 M,7,7855,8755,167.0315,79.45504,231.8329,0.6846476 S,7,7855,8755,0.1,0 M,7,10083,10983,498,335,500.1211,424.975 S,7,10083,10983,0.1,0
Sprite,Foreground,Centre,"sb\particle.png",0,0 M,7,2198,3098,307,215,330.3403,303.9901 S,7,2198,3098,0.1,0 M,7,4769,5669,98,231,67.58582,157.0069 S,7,4769,5669,0.1,0 M,7,7855,8755,167.0315,79.45504,193.6653,-2.316866 S,7,7855,8755,0.1,0 M,7,10083,10983,498,335,542.1562,412.2737 S,7,10083,10983,0.1,0
Sprite,Foreground,Centre,"sb\particle.png",0,0 M,7,2198,3098,307,215,359.4379,145.5791 S,7,2198,3098,0.1,0 M,7,4769,5669,98,231,79.39708,330.272 S,7,4769,5669,0.1,0 M,7,7855,8755,167.0315,79.45504,280.631,114.8972 S,7,7855,8755,0.1,0 M,7,10083,10983,498,335,598.2913,307.4745 S,7,10083,10983,0.1,0
Sprite,Foreground,Centre,"sb\particle.png",0,0 M,7,2198,3098,307,215,414.7474,255.1932 S,7,2198,3098,0.1,0 M,7,4769,5669,98,231,132.963,135.1794 S,7,4769,5669,0.1,0 M,7,7855,8755,167.0315,79.45504,175.1771,-39.26585 S,7,7855,8755,0.1,0 M,7,10083,10983,498,335,556.8307,397.7291 S,7,10083,10983,0.1,0
Sprite,Foreground,Centre,"sb\particle.png",0,0 M,7,2198,3098,307,215,235.2736,160.6371 S,7,2198,3098,0.1,0 M,7,4769,5669,98,231,177.0203,218.5186 S,7,4769,5669,0.1,0 M,7,7855,8755,167.0315,79.45504,217.5958,9.890287 S,7,7855,8755,0.1,0 M,7,10083,10983,498,335,564.7104,413.4775 S,7,10083,10983,0.1,0
Sprite,Foreground,Centre,"sb\particle.png",0,0 M,7,2198,3098,307,215,393.7381,190.9895 S,7,2198,3098,0.1,0 M,7,4769,5669,98,231,179.5415,158.6675 S,7,4769,5669,0.1,0 M,7,7855,8755,167.0315,79.45504,267.365,113.6486 S,7,7855,8755,0.1,0 M,7,10083,10983,498,335,575.6276,305.6238 S,7,10083,10983,0.1,0
Sprite,Foreground,Centre,"sb\particle.png",0,0 M,7,2198,3098,307,215,389.2885,140.5043 S,7,2198,3098,0.1,0 M,7,4769,5669,98,231,125.1018,120.2684 S,7,4769,5669,0.1,0 M,7,7855,8755,167.0315,79.45504,172.6755,163.2652 S,7,7855,8755,0.1,0 M,7,10083,10983,498,335,444.3855,235.529 S,7,10083,10983,0.1,0
Sprite,Foreground,Centre,"sb\particle.png",0,0 M,7,2369,3269,252.4484,232.4404,348.738,255.4473 S,7,2369,3269,0.1,0 M,7,4940,5840,98,231,80.82542,336.6127 S,7,4940,5840,0.1,0 M,7,8026,8926,233,137,262.1257,214.7219 S,7,8026,8926,0.1,0 M,7,10255,11155,488.136,394.1836,550.6281,472.2525 S,7,10255,11155,0.1,0
Sprite,Foreground,Centre,"sb\particle.png",0,0 M,7,2369,3269,252.4484,232.4404,368.4289,217.0284 S,7,2369,3269,0.1,0 M,7,4940,5840,98,231,31.01623,298.366 S,7,4940,5840,0.1,0 M,7,8026,8926,233,137,274.4681,53.75702 S,7,8026,8926,0.1,0 M,7,10255,11155,488.136,394.1836,382.9428,369.7219 S,7,10255,11155,0.1,0
Sprite,Foreground,Centre,"sb\particle.png",0,0 M,7,2369,3269,252.4484,232.4404,252.6189,337.4402 S,7,2369,3269,0.1,0 M,7,4940,5840,98,231,14.20917,225.0758 S,7,4940,5840,0.1,0 M,7,8026,8926,233,137,147.9068,193.2419 S,7,8026,8926,0.1,0 M,7,10255,11155,488.136,394.1836,402.9044,354.5405 S,7,10255,11155,0.1,0
Sprite,Foreground,Centre,"sb\particle.png",0,0 M,7,2369,3269,252.4484,232.4404,232.7396,330.479 S,7,2369,3269,0.1,0 M,7,4940,5840,98,231,9.024139,228.9273 S,7,4940,5840,0.1,0 M,7,8026,8926,233,137,260.6799,241.3927 S,7,8026,8926,0.1,0 M,7,10255,11155,488.136,394.1836,491.6333,485.1164 S,7,10255,11155,0.1,0
Sprite,Foreground,Centre,"sb\particle.png",0,0 M,7,2369,3269,252.4484,232.4404,243.0784,137.9036 S,7,2369,3269,0.1,0 M,7,4940,5840,98,231,26.94035,192.1217 S,7,4940,5840,0.1,0 M,7,8026,8926,233,137,313.4565,199.6957 S,7,8026,8926,0.1,0 M,7,10255,11155,488.136,394.1836,388.9519,406.9311 S,7,10255,11155,0.1,0
Sprite,Foreground,Centre,"sb\particle.png",0,0 M,7,2369,3269,252.4484,232.4404,299.2003,337.5083 S,7,2369,3269,0.1,0 M,7,4940,5840,98,231,21.33241,260.0875 S,7,4940,5840,0.1,0 M,7,8026,8926,233,137,337.3965,105.6574 S,7,8026,8926,0.1,0 M,7,10255,11155,488.136,394.1836,454.8669,466.9378 S,7,10255,11155,0.1,0
Sprite,Foreground,Centre,"sb\particle.png",0,0 M,7,2369,3269,252.4484,232.4404,317.5633,140.0875 S,7,2369,3269,0.1,0 M,7,4940,5840,98,231,23.93542,165.308 S,7,4940,5840,0.1,0 M,7,8026,8926,233,137,323.1963,101.3121 S,7,8026,8926,0.1,0 M,7,10255,11155,488.136,394.1836,573.3948,460.4779 S,7,10255,11155,0.1,0
Sprite,Foreground,Centre,"sb\particle.png",0,0 M,7,2369,3269,252.4484,232.4404,183.0094,298.7293 S,7,2369,3269,0.1,0 M,7,4940,5840,98,231,185.8455,189.864 S,7,4940,5840,0.1,0 M,7,8026,8926,233,137,189.8284,217.1075 S,7,8026,8926,0.1,0 M,7,10255,11155,488.136,394.1836,381.6422,434.8661 S,7,10255,11155,0.1,0
Sprite,Foreground,Centre,"sb\particle.png",0,0 M,7,2540,3440,223,271,209.3451,387.2004 S,7,2540,3440,0.1,0 M,7,5112,6012,154.8641,244.0088,266.8625,243.4124 S,7,5112,6012,0.1,0 M,7,10426,11326,420,437,442.5204,348.8307 S,7,10426,11326,0.1,0
Sprite,Foreground,Centre,"sb\particle.png",0,0 M,7,2540,3440,223,271,249.2427,379.8821 S,7,2540,3440,0.1,0 M,7,5112,6012,154.8641,244.0088,64.74748,203.021 S,7,5112,6012,0.1,0 M,7,10426,11326,420,437,323.744,464.1068 S,7,10426,11326,0.1,0
Sprite,Foreground,Centre,"sb\particle.png",0,0 M,7,2540,3440,223,271,332.5953,232.9886 S,7,2540,3440,0.1,0 M,7,5112,6012,154.8641,244.0088,68.08083,319.4651 S,7,5112,6012,0.1,0 M,7,10426,11326,420,437,503.6758,451.9453 S,7,10426,11326,0.1,0
Sprite,Foreground,Centre,"sb\particle.png",0,0 M,7,2540,3440,223,271,111.8242,237.8951 S,7,2540,3440,0.1,0 M,7,5112,6012,154.8641,244.0088,55.64568,231.5303 S,7,5112,6012,0.1,0 M,7,10426,11326,420,437,398.0648,552.9433 S,7,10426,11326,0.1,0
Sprite,Foreground,Centre,"sb\particle.png",0,0 M,7,2540,3440,223,271,273.5009,180.0843 S,7,2540,3440,0.1,0 M,7,5112,6012,154.8641,244.0088,238.3392,192.6677 S,7,5112,6012,0.1,0 M,7,10426,11326,420,437,401.9814,524.1569 S,7,10426,11326,0.1,0
Sprite,Foreground,Centre,"sb\particle.png",0,0 M,7,2540,3440,223,271,318.5112,206.9484 S,7,2540,3440,0.1,0 M,7,5112,6012,154.8641,244.0088,175.522,340.8295 S,7,5112,6012,0.1,0 M,7,10426,11326,420,437,474.2707,335.6112 S,7,10426,11326,0.1,0
Sprite,Foreground,Centre,"sb\particle.png",0,0 M,7,2540,3440,223,271,137.3286,219.4209 S,7,2540,3440,0.1,0 M,7,5112,6012,154.8641,244.0088,244.2575,311.4834 S,7,5112,6012,0.1,0 M,7,10426,11326,420,437,312.2654,444.5661 S,7,10426,11326,0.1,0
Sprite,Foreground,Centre,"sb\particle.png",0,0 M,7,2540,3440,223,271,288.8699,347.5647 S,7,2540,3440,0.1,0 M,7,5112,6012,154.8641,244.0088,166.1312,331.2845 S,7,5112,6012,0.1,0 M,7,10426,11326,420,437,517.3024,470.7824 S,7,10426,11326,0.1,0
Sprite,Foreground,Centre,"sb\particle.png",0,0 M,7,5283,6183,202,236,189.8864,324.1718 S,7,5283,6183,0.1,0 M,7,10598,11498,420,437,317.5406,459.9582 S,7,10598,11498,0.1,0
Sprite,Foreground,Centre,"sb\particle.png",0,0 M,7,5283,6183,202,236,146.5555,295.05 S,7,5283,6183,0.1,0 M,7,10598,11498,420,437,506.2978,501.9361 S,7,10598,11498,0.1,0
Sprite,Foreground,Centre,"sb\particle.png",0,0 M,7,5283,6183,202,236,302.6292,244.646 S,7,5283,6183,0.1,0 M,7,10598,11498,420,437,439.8424,346.1414 S,7,10598,11498,0.1,0
Sprite,Foreground,Centre,"sb\particle.png",0,0 M,7,5283,6183,202,236,179.84,153.9395 S,7,5283,6183,0.1,0 M,7,10598,11498,420,437,426.2639,346.2159 S,7,10598,11498,0.1,0
Sprite,Foreground,Centre,"sb\particle.png",0,0 M,7,5283,6183,202,236,263.3415,305.9015 S,7,5283,6183,0.1,0 M,7,10598,11498,420,437,378.7231,547.5451 S,7,10598,11498,0.1,0
Sprite,Foreground,Centre,"sb\particle.png",0,0 M,7,5283,6183,202,236,263.8121,151.1221 S,7,5283,6183,0.1,0 M,7,10598,11498,420,437,449.6825,335.2407 S,7,10598,11498,0.1,0
Sprite,Foreground,Centre,"sb\particle.png",0,0 M,7,5283,6183,202,236,120.5907,202.5855 S,7,5283,6183,0.1,0 M,7,10598,11498,420,437,521.5219,378.8424 S,7,10598,11498,0.1,0
Sprite,Foreground,Centre,"sb\particle.png",0,0 M,7,5283,6183,202,236,282.8357,192.0729 S,7,5283,6183,0.1,0 M,7,10598,11498,420,437,324.6409,425.9255 S,7,10598,11498,0.1,0
Sprite,Foreground,Centre,"sb\glow.png",0,0 M,0,54998,,117,140 C,0,54998,,191,255,223 P,0,54998,,A M,0,54998,55040,117,140,123.293,158.4004 F,1,54998,55998,0.3,0 S,0,54998,55998,1,1.2 M,0,55040,55083,123.293,158.4004,124.1133,177.805 M,0,55083,55126,124.1133,177.805,120.0619,196.8544 M,0,55126,55169,120.0619,196.8544,115.1291,215.7133 M,0,55169,55212,115.1291,215.7133,114.1043,235.1091 M,0,55212,55255,114.1043,235.1091,119.281,253.8262 M,0,56026,,268,161 C,0,56026,,252,167,188 P,0,56026,,A M,0,56026,56068,268,161,249.1277,156.4461 F,1,56026,57026,0.3,0 S,0,56026,57026,1,1.2 M,0,56068,56111,249.1277,156.4461,231.7404,147.7886 M,0,57055,,102,366 C,0,57055,,130,235,247 P,0,57055,,A M,0,57055,57097,102,366,120.3732,372.5327 F,1,57055,58055,0.3,0 S,0,57055,58055,1,1.2 M,0,57097,57140,120.3732,372.5327,138.7464,379.0654 M,0,57140,57183,138.7464,379.0654,157.1196,385.5981 M,0,57183,57226,157.1196,385.5981,175.4927,392.1307 M,0,58083,,450,270 C,0,58083,,200,200,255 P,0,58083,,A M,0,58083,58125,450,270,439.7801,253.3927 F,1,58083,59083,0.3,0 S,0,58083,59083,1,1.2 M,0,58125,58168,439.7801,253.3927,432.9272,252.4031 M,0,58168,58211,432.9272,252.4031,430.4579,271.7462 M,0,58211,58254,430.4579,271.7462,427.9886,291.0892 M,0,58254,58297,427.9886,291.0892,425.5193,310.4322 M,0,58297,58340,425.5193,310.4322,423.05,329.7752 M,0,59112,,566,176 C,0,59112,,191,255,223 P,0,59112,,A M,0,59112,59154,566,176,560.7809,157.2114 F,1,59112,60112,0.3,0 S,0,59112,60112,1,1.2 M,0,59154,59197,560.7809,157.2114,555.5619,138.4228 M,0,60140,,315,89 C,0,60140,,191,255,223 P,0,60140,,A F,1,60140,61140,0.3,0 S,0,60140,61140,1,1.2 M,0,61169,,73,249 C,0,61169,,252,167,188 P,0,61169,,A F,1,61169,62169,0.3,0 S,0,61169,62169,1,1.2 M,0,62198,,336,219 C,0,62198,,130,235,247 P,0,62198,,A F,1,62198,63198,0.3,0 S,0,62198,63198,1,1.2 M,0,63226,,405,281 C,0,63226,,200,200,255 P,0,63226,,A F,1,63226,64226,0.3,0 S,0,63226,64226,1,1.2 M,0,64255,,549,317 C,0,64255,,200,200,255 P,0,64255,,A F,1,64255,65255,0.3,0 S,0,64255,65255,1,1.2 M,0,65455,,147,339 C,0,65455,,191,255,223 P,0,65455,,A F,1,65455,66455,0.3,0 S,0,65455,66455,1,1.2 M,0,66483,,445,184 C,0,66483,,252,167,188 P,0,66483,,A F,1,66483,67483,0.3,0 S,0,66483,67483,1,1.2 M,0,67683,,386,280 C,0,67683,,200,200,255 P,0,67683,,A M,0,67683,67725,386,280,383.3978,298.8582 F,1,67683,68683,0.3,0 S,0,67683,68683,1,1.2 M,0,67725,67768,383.3978,298.8582,371.406,313.4056 M,0,67768,67811,371.406,313.4056,383.3978,298.8582 M,0,67811,67854,383.3978,298.8582,386,280 M,0,67854,67897,386,280,383.3978,298.8582 M,0,67897,67940,383.3978,298.8582,371.406,313.4056 M,0,68712,,76,310 C,0,68712,,191,255,223 P,0,68712,,A F,1,68712,69712,0.3,0 S,0,68712,69712,1,1.2 M,0,69740,,244,63 C,0,69740,,191,255,223 P,0,69740,,A F,1,69740,70740,0.3,0 S,0,69740,70740,1,1.2 M,0,70769,,160,160 C,0,70769,,252,167,188 P,0,70769,,A M,0,70769,70811,160,160,179.1213,156.1757 F,1,70769,71769,0.3,0 S,0,70769,71769,1,1.2 M,0,70811,70854,179.1213,156.1757,198.2426,152.3515 M,0,70854,70897,198.2426,152.3515,217.364,148.5272 M,0,70897,70940,217.364,148.5272,236.4853,144.7029 M,0,71798,,413,220 C,0,71798,,130,235,247 P,0,71798,,A M,0,71798,71840,413,220,423.8402,235.8756 F,1,71798,72798,0.3,0 S,0,71798,72798,1,1.2 M,0,71840,71883,423.8402,235.8756,440.2234,245.7171 M,0,71883,71926,440.2234,245.7171,459.1569,247.8027 M,0,71926,71969,459.1569,247.8027,477.4164,242.2191 M,0,71969,72012,477.4164,242.2191,491.0724,228.8044 M,0,72012,72055,491.0724,228.8044,497.8452,210.9849 M,0,72826,,322,71 C,0,72826,,200,200,255 P,0,72826,,A M,0,72826,72868,322,71,318.9019,90.25232 F,1,72826,73826,0.3,0 S,0,72826,73826,1,1.2 M,0,72868,72911,318.9019,90.25232,315.8038,109.5046 M,0,72911,72954,315.8038,109.5046,312.7058,128.757 M,0,72954,72997,312.7058,128.757,309.6077,148.0093 M,0,73854,,154,296 C,0,73854,,200,200,255 P,0,73854,,A M,0,73854,73896,154,296,173.2614,299.0413 F,1,73854,74854,0.3,0 S,0,73854,74854,1,1.2 M,0,73896,73939,173.2614,299.0413,192.5228,302.0825 M,0,73939,73982,192.5228,302.0825,211.7841,305.1238 M,0,73982,74025,211.7841,305.1238,230,308 M,0,74883,,403,201 C,0,74883,,191,255,223 P,0,74883,,A M,0,74883,74925,403,201,383.6235,198.8584 F,1,74883,75883,0.3,0 S,0,74883,75883,1,1.2 M,0,74925,74968,383.6235,198.8584,364.1563,197.8686 M,0,74968,75011,364.1563,197.8686,344.6632,197.9588 M,0,75011,75054,344.6632,197.9588,325.22,199.3579 M,0,75912,,132,218 C,0,75912,,252,167,188 P,0,75912,,A F,1,75912,76912,0.3,0 S,0,75912,76912,1,1.2
Sprite,Foreground,Centre,"sb\glow.png",0,0 M,0,55340,,139,290 C,0,55340,,191,255,223 P,0,55340,,A F,1,55340,56340,0.3,0 S,0,55340,56340,1,1.2 M,0,56369,,141,219 C,0,56369,,130,235,247 P,0,56369,,A M,0,56369,56411,141,219,132.8503,236.5851 F,1,56369,57369,0.3,0 S,0,56369,57369,1,1.2 M,0,56411,56454,132.8503,236.5851,130.1256,255.7264 M,0,56454,56497,130.1256,255.7264,132.8503,236.5851 M,0,56497,56540,132.8503,236.5851,141,219 M,0,56540,56583,141,219,132.8503,236.5851 M,0,56583,56626,132.8503,236.5851,130.1256,255.7264 M,0,57398,,256,343 C,0,57398,,130,235,247 P,0,57398,,A F,1,57398,58398,0.3,0 S,0,57398,58398,1,1.2 M,0,58426,,458,371 C,0,58426,,200,200,255 P,0,58426,,A M,0,58426,58468,458,371,467.5139,387.8609 F,1,58426,59426,0.3,0 S,0,58426,59426,1,1.2 M,0,58468,58511,467.5139,387.8609,471.6217,406.7247 M,0,59455,,506,103 C,0,59455,,191,255,223 P,0,59455,,A M,0,59455,59497,506,103,519.6129,89.03799 F,1,59455,60455,0.3,0 S,0,59455,60455,1,1.2 M,0,59497,59540,519.6129,89.03799,533.2259,75.076 M,0,59540,59583,533.2259,75.076,519.6129,89.03799 M,0,59583,59626,519.6129,89.03799,506,103 M,0,59626,59669,506,103,519.6129,89.03799 M,0,59669,59712,519.6129,89.03799,533.2259,75.076 M,0,60483,,165,122 C,0,60483,,252,167,188 P,0,60483,,A F,1,60483,61483,0.3,0 S,0,60483,61483,1,1.2 M,0,61512,,119,344 C,0,61512,,252,167,188 P,0,61512,,A F,1,61512,62512,0.3,0 S,0,61512,62512,1,1.2 M,0,62540,,405,281 C,0,62540,,130,235,247 P,0,62540,,A M,0,62540,62582,405,281,424.2466,277.8668 F,1,62540,63540,0.3,0 S,0,62540,63540,1,1.2 M,0,62582,62625,424.2466,277.8668,443.4933,274.7336 M,0,62625,62668,443.4933,274.7336,462.7399,271.6005 M,0,62668,62711,462.7399,271.6005,481.9866,268.4673 M,0,63569,,488,175 C,0,63569,,200,200,255 P,0,63569,,A F,1,63569,64569,0.3,0 S,0,63569,64569,1,1.2 M,0,64598,,470,366 C,0,64598,,191,255,223 P,0,64598,,A M,0,64598,64640,470,366,450.892,362.1097 F,1,64598,65598,0.3,0 S,0,64598,65598,1,1.2 M,0,64640,64683,450.892,362.1097,431.784,358.2195 M,0,64683,64726,431.784,358.2195,412.676,354.3293 M,0,64726,64769,412.676,354.3293,393.568,350.439 M,0,64769,64812,393.568,350.439,374.46,346.5487 M,0,64812,64855,374.46,346.5487,355.352,342.6585 M,0,64855,64897,355.352,342.6585,336.244,338.7682 M,0,64897,64940,336.244,338.7682,317.136,334.878 M,0,65626,,232,344 C,0,65626,,191,255,223 P,0,65626,,A F,1,65626,66626,0.3,0 S,0,65626,66626,1,1.2 M,0,66655,,333,194 C,0,66655,,130,235,247 P,0,66655,,A M,0,66655,66697,333,194,313.684,193.2622 F,1,66655,67655,0.3,0 S,0,66655,67655,1,1.2 M,0,66697,66740,313.684,193.2622,296.1257,185.1733 M,0,68026,,343,334 C,0,68026,,200,200,255 P,0,68026,,A M,0,68026,68068,343,334,323.7653,330.7942 F,1,68026,69026,0.3,0 S,0,68026,69026,1,1.2 M,0,68068,68111,323.7653,330.7942,304.5306,327.5884 M,0,68111,68154,304.5306,327.5884,285.296,324.3827 M,0,68154,68197,285.296,324.3827,266.0613,321.1769 M,0,69055,,99,242 C,0,69055,,191,255,223 P,0,69055,,A M,0,69055,69097,99,242,109.6406,225.659 F,1,69055,70055,0.3,0 S,0,69055,70055,1,1.2 M,0,69097,69140,109.6406,225.659,120.2813,209.3181 M,0,69140,69183,120.2813,209.3181,134.0535,197.62 M,0,69183,69226,134.0535,197.62,153.1907,193.8757 M,0,69226,69269,153.1907,193.8757,172.3278,190.1315 M,0,69269,69312,172.3278,190.1315,191.465,186.3873 M,0,70083,,88,74 C,0,70083,,252,167,188 P,0,70083,,A M,0,70083,70125,88,74,93.17055,92.802 F,1,70083,71083,0.3,0 S,0,70083,71083,1,1.2 M,0,70125,70168,93.17055,92.802,98.3411,111.604 M,0,71112,,322,106 C,0,71112,,252,167,188 P,0,71112,,A F,1,71112,72112,0.3,0 S,0,71112,72112,1,1.2 M,0,72140,,529,191 C,0,72140,,130,235,247 P,0,72140,,A F,1,72140,73140,0.3,0 S,0,72140,73140,1,1.2 M,0,73169,,281,240 C,0,73169,,200,200,255 P,0,73169,,A F,1,73169,74169,0.3,0 S,0,73169,74169,1,1.2 M,0,74197,,294,359 C,0,74197,,191,255,223 P,0,74197,,A F,1,74197,75197,0.3,0 S,0,74197,75197,1,1.2 M,0,75226,,248,246 C,0,75226,,191,255,223 P,0,75226,,A F,1,75226,76226,0.3,0 S,0,75226,76226,1,1.2 M,0,76255,,222,282 C,0,76255,,252,167,188 P,0,76255,,A M,0,76255,76297,222,282,221.9402,301.4918 F,1,76255,77255,0.3,0 S,0,76255,77255,1,1.2 M,0,76297,76340,221.9402,301.4918,220.4861,320.9263 M,0,76340,76383,220.4861,320.9263,217.736,340.2216 M,0,76383,76426,217.736,340.2216,213.4286,359.2303 M,0,76426,76469,213.4286,359.2303,207.7728,377.8797 M,0,76469,76512,207.7728,377.8797,200.8508,396.0973 M,0,76512,76554,200.8508,396.0973,207.7728,377.8797 M,0,76554,76597,207.7728,377.8797,213.4286,359.2303 M,0,76597,76640,213.4286,359.2303,217.736,340.2216 M,0,76640,76683,217.736,340.2216,220.4861,320.9263 M,0,76683,76726,220.4861,320.9263,221.9402,301.4918 M,0,76726,76769,221.9402,301.4918,222,282
Sprite,Foreground,Centre,"sb\glow.png",0,0 M,0,55426,,139,290 C,0,55426,,191,255,223 P,0,55426,,A F,1,55426,56426,0.3,0 S,0,55426,56426,1,1.2 M,0,56712,,139,290 C,0,56712,,130,235,247 P,0,56712,,A M,0,56712,56754,139,290,135.9176,309.1556 F,1,56712,57712,0.3,0 S,0,56712,57712,1,1.2 M,0,56754,56797,135.9176,309.1556,127,326 M,0,56797,56840,127,326,135.9176,309.1556 M,0,56840,56883,135.9176,309.1556,139,290 M,0,56883,56926,139,290,135.9176,309.1556 M,0,56926,56969,135.9176,309.1556,127,326 M,0,57740,,396,322 C,0,57740,,200,200,255 P,0,57740,,A F,1,57740,58740,0.3,0 S,0,57740,58740,1,1.2 M,0,58769,,565,346 C,0,58769,,200,200,255 P,0,58769,,A F,1,58769,59769,0.3,0 S,0,58769,59769,1,1.2 M,0,59798,,483,98 C,0,59798,,191,255,223 P,0,59798,,A M,0,59798,59840,483,98,463.8463,101.6586 F,1,59798,60798,0.3,0 S,0,59798,60798,1,1.2 M,0,59840,59883,463.8463,101.6586,444.6926,105.3172 M,0,59883,59926,444.6926,105.3172,425.5388,108.9757 M,0,59926,59969,425.5388,108.9757,406.3851,112.6343 M,0,60826,,122,115 C,0,60826,,252,167,188 P,0,60826,,A M,0,60826,60868,122,115,109.1054,129.5367 F,1,60826,61826,0.3,0 S,0,60826,61826,1,1.2 M,0,60868,60911,109.1054,129.5367,99.55368,146.4276 M,0,60911,60954,99.55368,146.4276,93.38895,164.8572 M,0,60954,60997,93.38895,164.8572,91.84676,184.2262 M,0,60997,61040,91.84676,184.2262,94.39094,203.4624 M,0,61040,61083,94.39094,203.4624,100.5746,221.8832 M,0,61855,,282,379 C,0,61855,,130,235,247 P,0,61855,,A M,0,61855,61897,282,379,285.1332,359.7534 F,1,61855,62855,0.3,0 S,0,61855,62855,1,1.2 M,0,61897,61940,285.1332,359.7534,288.2664,340.5067 M,0,61940,61983,288.2664,340.5067,291.3995,321.2601 M,0,61983,62026,291.3995,321.2601,294.5327,302.0134 M,0,62883,,547,363 C,0,62883,,130,235,247 P,0,62883,,A M,0,62883,62925,547,363,527.7534,359.8668 F,1,62883,63883,0.3,0 S,0,62883,63883,1,1.2 M,0,62925,62968,527.7534,359.8668,508.5067,356.7336 M,0,62968,63011,508.5067,356.7336,489.2601,353.6005 M,0,63011,63054,489.2601,353.6005,470.0134,350.4673 M,0,63912,,563,172 C,0,63912,,200,200,255 P,0,63912,,A M,0,63912,63954,563,172,565.2509,191.3629 F,1,63912,64912,0.3,0 S,0,63912,64912,1,1.2 M,0,63954,63997,565.2509,191.3629,566.2441,210.8284 M,0,63997,64040,566.2441,210.8284,566.043,230.3187 M,0,64040,64083,566.043,230.3187,564.4246,249.7433 M,0,64083,64126,564.4246,249.7433,561.6628,269.0408 M,0,64126,64169,561.6628,269.0408,557.4613,288.0759 M,0,65112,,268,263 C,0,65112,,191,255,223 P,0,65112,,A M,0,65112,65154,268,263,249.0682,258.5494 F,1,65112,66112,0.3,0 S,0,65112,66112,1,1.2 M,0,65154,65197,249.0682,258.5494,229.6634,257.6021 M,0,65197,65240,229.6634,257.6021,210.3673,259.9479 M,0,65240,65283,210.3673,259.9479,191.9628,266.2072 M,0,66312,,445,184 C,0,66312,,252,167,188 P,0,66312,,A F,1,66312,67312,0.3,0 S,0,66312,67312,1,1.2 M,0,67340,,389,222 C,0,67340,,200,200,255 P,0,67340,,A M,0,67340,67382,389,222,390.7267,240.9 F,1,67340,68340,0.3,0 S,0,67340,68340,1,1.2 M,0,67382,67425,390.7267,240.9,402.6107,255.4256 M,0,67425,67468,402.6107,255.4256,390.7267,240.9 M,0,67468,67511,390.7267,240.9,389,222 M,0,67511,67554,389,222,390.7267,240.9001 M,0,67554,67597,390.7267,240.9001,402.6107,255.4256 M,0,68369,,180,281 C,0,68369,,200,200,255 P,0,68369,,A F,1,68369,69369,0.3,0 S,0,68369,69369,1,1.2 M,0,69398,,221,181 C,0,69398,,191,255,223 P,0,69398,,A M,0,69398,69440,221,181,230.8255,164.1563 F,1,69398,70398,0.3,0 S,0,69398,70398,1,1.2 M,0,69440,69483,230.8255,164.1563,240.651,147.3126 M,0,70426,,78,166 C,0,70426,,252,167,188 P,0,70426,,A M,0,70426,70468,78,166,96.91778,170.7294 F,1,70426,71426,0.3,0 S,0,70426,71426,1,1.2 M,0,70468,70511,96.91778,170.7294,115.8356,175.4589 M,0,70511,70554,115.8356,175.4589,96.91777,170.7294 M,0,70554,70597,96.91777,170.7294,78,166 M,0,70597,70640,78,166,96.91779,170.7294 M,0,70640,70683,96.91779,170.7294,115.8356,175.4589 M,0,71455,,399,166 C,0,71455,,130,235,247 P,0,71455,,A F,1,71455,72455,0.3,0 S,0,71455,72455,1,1.2 M,0,72483,,483,96 C,0,72483,,130,235,247 P,0,72483,,A F,1,72483,73483,0.3,0 S,0,72483,73483,1,1.2 M,0,73511,,206,178 C,0,73511,,200,200,255 P,0,73511,,A M,0,73511,73553,206,178,186.7326,181.0027 F,1,73511,74511,0.3,0 S,0,73511,74511,1,1.2 M,0,73553,73596,186.7326,181.0027,167.4651,184.0054 M,0,73596,73639,167.4651,184.0054,148.1977,187.0081 M,0,73639,73682,148.1977,187.0081,129,190 M,0,74540,,400,276 C,0,74540,,191,255,223 P,0,74540,,A F,1,74540,75540,0.3,0 S,0,74540,75540,1,1.2 M,0,75569,,222,282 C,0,75569,,252,167,188 P,0,75569,,A F,1,75569,76569,0.3,0 S,0,75569,76569,1,1.2
Sprite,Foreground,Centre,"sb\glow.png",0,0 M,0,55512,,139,290 C,0,55512,,191,255,223 P,0,55512,,A F,1,55512,56512,0.3,0 S,0,55512,56512,1,1.2 M,0,57569,,335,392 C,0,57569,,130,235,247 P,0,57569,,A F,1,57569,58569,0.3,0 S,0,57569,58569,1,1.2 M,0,58598,,527,401 C,0,58598,,200,200,255 P,0,58598,,A M,0,58598,58640,527,401,531.8939,382.265 F,1,58598,59598,0.3,0 S,0,58598,59598,1,1.2 M,0,58640,58683,531.8939,382.265,542.0118,365.8173 M,0,60311,,258,163 C,0,60311,,191,255,223 P,0,60311,,A F,1,60311,61311,0.3,0 S,0,60311,61311,1,1.2 M,0,61340,,83,294 C,0,61340,,252,167,188 P,0,61340,,A F,1,61340,62340,0.3,0 S,0,61340,62340,1,1.2 M,0,62369,,336,219 C,0,62369,,130,235,247 P,0,62369,,A F,1,62369,63369,0.3,0 S,0,62369,63369,1,1.2 M,0,63397,,438,211 C,0,63397,,200,200,255 P,0,63397,,A F,1,63397,64397,0.3,0 S,0,63397,64397,1,1.2 M,0,64426,,549,317 C,0,64426,,200,200,255 P,0,64426,,A F,1,64426,65426,0.3,0 S,0,64426,65426,1,1.2 M,0,65798,,317,334 C,0,65798,,191,255,223 P,0,65798,,A F,1,65798,66798,0.3,0 S,0,65798,66798,1,1.2 M,0,66826,,283,153 C,0,66826,,130,235,247 P,0,66826,,A M,0,66826,66868,283,153,283.7378,133.684 F,1,66826,67826,0.3,0 S,0,66826,67826,1,1.2 M,0,66868,66911,283.7378,133.684,291.8267,116.1257 M,0,68540,,149,369 C,0,68540,,200,200,255 P,0,68540,,A F,1,68540,69540,0.3,0 S,0,68540,69540,1,1.2 M,0,69569,,277,118 C,0,69569,,191,255,223 P,0,69569,,A M,0,69569,69611,277,118,267.1131,101.1923 F,1,69569,70569,0.3,0 S,0,69569,70569,1,1.2 M,0,69611,69654,267.1131,101.1923,257.2262,84.38457 M,0,71283,,309,198 C,0,71283,,252,167,188 P,0,71283,,A F,1,71283,72283,0.3,0 S,0,71283,72283,1,1.2 M,0,72311,,519,146 C,0,72311,,130,235,247 P,0,72311,,A F,1,72311,73311,0.3,0 S,0,72311,73311,1,1.2 M,0,73340,,281,240 C,0,73340,,200,200,255 P,0,73340,,A F,1,73340,74340,0.3,0 S,0,73340,74340,1,1.2 M,0,74368,,364,326 C,0,74368,,191,255,223 P,0,74368,,A F,1,74368,75368,0.3,0 S,0,74368,75368,1,1.2 M,0,75398,,236,266 C,0,75398,,191,255,223 P,0,75398,,A F,1,75398,76398,0.3,0 S,0,75398,76398,1,1.2
Sprite,Foreground,Centre,"sb\glow.png",0,0 M,0,55683,,205,232 C,0,55683,,252,167,188 P,0,55683,,A M,0,55683,55725,205,232,223.9966,235.9103 F,1,55683,56683,0.3,0 S,0,55683,56683,1,1.2 M,0,55725,55768,223.9966,235.9103,241.4692,244.3569 M,0,57912,,396,322 C,0,57912,,200,200,255 P,0,57912,,A M,0,57912,57954,396,322,398.8068,302.7031 F,1,57912,58912,0.3,0 S,0,57912,58912,1,1.2 M,0,57954,57997,398.8068,302.7031,401.6136,283.4061 M,0,58940,,533,264 C,0,58940,,200,200,255 P,0,58940,,A F,1,58940,59940,0.3,0 S,0,58940,59940,1,1.2 M,0,60655,,165,122 C,0,60655,,252,167,188 P,0,60655,,A M,0,60655,60697,165,122,147.1904,129.7485 F,1,60655,61655,0.3,0 S,0,60655,61655,1,1.2 M,0,60697,60740,147.1904,129.7485,131.8751,141.6956 M,0,61683,,189,377 C,0,61683,,252,167,188 P,0,61683,,A F,1,61683,62683,0.3,0 S,0,61683,62683,1,1.2 M,0,63740,,533,165 C,0,63740,,200,200,255 P,0,63740,,A F,1,63740,64740,0.3,0 S,0,63740,64740,1,1.2 M,0,65969,,396,301 C,0,65969,,252,167,188 P,0,65969,,A M,0,65969,66011,396,301,402.4418,282.5948 F,1,65969,66969,0.3,0 S,0,65969,66969,1,1.2 M,0,66011,66054,402.4418,282.5948,408.8837,264.1895 M,0,66054,66097,408.8837,264.1895,403.2114,246.3783 M,0,66097,66140,403.2114,246.3783,398.7173,228.5712 M,0,66140,66183,398.7173,228.5712,405.7671,210.3902 M,0,66183,66226,405.7671,210.3902,412.8169,192.2091 M,0,66998,,324,103 C,0,66998,,130,235,247 P,0,66998,,A M,0,66998,67040,324,103,343.316,103.7378 F,1,66998,67998,0.3,0 S,0,66998,67998,1,1.2 M,0,67040,67083,343.316,103.7378,360.8743,111.8267 M,0,68883,,76,310 C,0,68883,,191,255,223 P,0,68883,,A M,0,68883,68925,76,310,87.72938,294.5184 F,1,68883,69883,0.3,0 S,0,68883,69883,1,1.2 M,0,68925,68968,87.72938,294.5184,95.76311,276.8671 M,0,69912,,177,103 C,0,69912,,191,255,223 P,0,69912,,A F,1,69912,70912,0.3,0 S,0,69912,70912,1,1.2 M,0,71626,,399,166 C,0,71626,,130,235,247 P,0,71626,,A M,0,71626,71668,399,166,409.188,182.6026 F,1,71626,72626,0.3,0 S,0,71626,72626,1,1.2 M,0,71668,71711,409.188,182.6026,417.0864,200.4011 M,0,72654,,413,63 C,0,72654,,130,235,247 P,0,72654,,A F,1,72654,73654,0.3,0 S,0,72654,73654,1,1.2 M,0,74711,,410,231 C,0,74711,,191,255,223 P,0,74711,,A F,1,74711,75711,0.3,0 S,0,74711,75711,1,1.2 M,0,75740,,145,295 C,0,75740,,252,167,188 P,0,75740,,A F,1,75740,76740,0.3,0 S,0,75740,76740,1,1.2
Sprite,Foreground,Centre,"sb\glow.png",0,0 M,0,55855,,272,228 C,0,55855,,252,167,188 P,0,55855,,A M,0,55855,55897,272,228,275.6289,208.9684 F,1,55855,56855,0.3,0 S,0,55855,56855,1,1.2 M,0,55897,55940,275.6289,208.9684,284.2317,191.5928 M,0,59283,,527,152 C,0,59283,,191,255,223 P,0,59283,,A M,0,59283,59325,527,152,531.8102,133.1026 F,1,59283,60283,0.3,0 S,0,59283,60283,1,1.2 M,0,59325,59368,531.8102,133.1026,536.6205,114.2052 M,0,64340,,549,317 C,0,64340,,200,200,255 P,0,64340,,A F,1,64340,65340,0.3,0 S,0,64340,65340,1,1.2 M,0,66398,,445,184 C,0,66398,,252,167,188 P,0,66398,,A F,1,66398,67398,0.3,0 S,0,66398,67398,1,1.2 M,0,70255,,72,122 C,0,70255,,252,167,188 P,0,70255,,A M,0,70255,70297,72,122,85.78858,135.7886 F,1,70255,71255,0.3,0 S,0,70255,71255,1,1.2 M,0,70297,70340,85.78858,135.7886,99.57716,149.5772 M,0,75312,,248,261 C,0,75312,,191,255,223 P,0,75312,,A F,1,75312,76312,0.3,0 S,0,75312,76312,1,1.2
Sprite,Foreground,Centre,"sb\glow.png",0,0 M,0,56198,,198,172 C,0,56198,,252,167,188 P,0,56198,,A M,0,56198,56240,198,172,193.1418,190.8155 F,1,56198,57198,0.3,0 S,0,56198,57198,1,1.2 M,0,56240,56283,193.1418,190.8155,184.662,208.3087 M,0,67169,,373,152 C,0,67169,,130,235,247 P,0,67169,,A M,0,67169,67211,373,152,372.2622,171.316 F,1,67169,68169,0.3,0 S,0,67169,68169,1,1.2 M,0,67211,67254,372.2622,171.316,364.1733,188.8743 M,0,75484,,234,277 C,0,75484,,191,255,223 P,0,75484,,A F,1,75484,76484,0.3,0 S,0,75484,76484,1,1.2
Sprite,Foreground,Centre,"sb\glow.png",0,0 M,0,76083,,209,205 C,0,76083,,252,167,188 P,0,76083,,A F,1,76083,77083,0.3,0 S,0,76083,77083,1,1.2 M,0,123569,,307,121 C,0,123569,,191,255,223 P,0,123569,,A M,0,123569,123611,307,121,288.924,113.7816 F,1,123569,124569,0.3,0 S,0,123569,124569,1,1.2 M,0,123611,123654,288.924,113.7816,269.9755,109.394 M,0,123654,123697,269.9755,109.394,250.5885,107.6897 M,0,123697,123740,250.5885,107.6897,231.201,109.3834 M,0,123740,123783,231.201,109.3834,212.308,113.9975 M,0,123783,123826,212.308,113.9975,194.2453,121.2312 M,0,124598,,253,272 C,0,124598,,252,167,188 P,0,124598,,A M,0,124598,124640,253,272,233.756,268.851 F,1,124598,125598,0.3,0 S,0,124598,125598,1,1.2 M,0,124640,124683,233.756,268.851,214.5119,265.702 M,0,125626,,384,105 C,0,125626,,130,235,247 P,0,125626,,A M,0,125626,125668,384,105,396.2632,120.099 F,1,125626,126626,0.3,0 S,0,125626,126626,1,1.2 M,0,125668,125711,396.2632,120.099,405.6551,137.1111 M,0,125711,125754,405.6551,137.1111,411.8882,155.5065 M,0,125754,125797,411.8882,155.5065,414.8835,174.6964 M,0,126655,,542,267 C,0,126655,,200,200,255 P,0,126655,,A M,0,126655,126697,542,267,524.6534,258.0923 F,1,126655,127655,0.3,0 S,0,126655,127655,1,1.2 M,0,126697,126740,524.6534,258.0923,507.3069,249.1846 M,0,126740,126783,507.3069,249.1846,488.1213,248.9738 M,0,126783,126826,488.1213,248.9738,468.6537,250.0969 M,0,126826,126869,468.6537,250.0969,449.1861,251.22 M,0,126869,126912,449.1861,251.22,429.7184,252.3432 M,0,127683,,155,353 C,0,127683,,191,255,223 P,0,127683,,A M,0,127683,127725,155,353,148.8336,334.5007 F,1,127683,128683,0.3,0 S,0,127683,128683,1,1.2 M,0,127725,127768,148.8336,334.5007,142.6671,316.0013 M,0,128712,,119,62 C,0,128712,,191,255,223 P,0,128712,,A F,1,128712,129712,0.3,0 S,0,128712,129712,1,1.2 M,0,129740,,412,106 C,0,129740,,252,167,188 P,0,129740,,A F,1,129740,130740,0.3,0 S,0,129740,130740,1,1.2 M,0,130769,,512,407 C,0,130769,,130,235,247 P,0,130769,,A F,1,130769,131769,0.3,0 S,0,130769,131769,1,1.2 M,0,131797,,341,379 C,0,131797,,200,200,255 P,0,131797,,A F,1,131797,132797,0.3,0 S,0,131797,132797,1,1.2 M,0,132826,,168,215 C,0,132826,,200,200,255 P,0,132826,,A F,1,132826,133826,0.3,0 S,0,132826,133826,1,1.2 M,0,134026,,285,359 C,0,134026,,191,255,223 P,0,134026,,A F,1,134026,135026,0.3,0 S,0,134026,135026,1,1.2 M,0,135055,,339,436 C,0,135055,,252,167,188 P,0,135055,,A F,1,135055,136055,0.3,0 S,0,135055,136055,1,1.2
Sprite,Foreground,Centre,"sb\glow.png",0,0 M,0,123912,,196,159 C,0,123912,,191,255,223 P,0,123912,,A F,1,123912,124912,0.3,0 S,0,123912,124912,1,1.2 M,0,124940,,277,153 C,0,124940,,130,235,247 P,0,124940,,A M,0,124940,124982,277,153,296.3212,150.3653 F,1,124940,125940,0.3,0 S,0,124940,125940,1,1.2 M,0,124982,125025,296.3212,150.3653,315.6424,147.7306 M,0,125025,125068,315.6424,147.7306,296.3212,150.3653 M,0,125068,125111,296.3212,150.3653,277,153 M,0,125111,125154,277,153,296.3212,150.3653 M,0,125154,125197,296.3212,150.3653,315.6424,147.7306 M,0,125969,,394,265 C,0,125969,,130,235,247 P,0,125969,,A F,1,125969,126969,0.3,0 S,0,125969,126969,1,1.2 M,0,126998,,394,265 C,0,126998,,200,200,255 P,0,126998,,A M,0,126998,127040,394,265,376.8667,256.738 F,1,126998,127998,0.3,0 S,0,126998,127998,1,1.2 M,0,127040,127083,376.8667,256.738,358.2441,259.5352 M,0,128026,,111,293 C,0,128026,,191,255,223 P,0,128026,,A M,0,128026,128068,111,293,123.6606,278.169 F,1,128026,129026,0.3,0 S,0,128026,129026,1,1.2 M,0,128068,128111,123.6606,278.169,136.3212,263.338 M,0,128111,128154,136.3212,263.338,123.6606,278.169 M,0,128154,128197,123.6606,278.169,111,293 M,0,128197,128240,111,293,123.6606,278.169 M,0,128240,128283,123.6606,278.169,136.3212,263.338 M,0,129055,,316,84 C,0,129055,,252,167,188 P,0,129055,,A F,1,129055,130055,0.3,0 S,0,129055,130055,1,1.2 M,0,130083,,517,117 C,0,130083,,252,167,188 P,0,130083,,A F,1,130083,131083,0.3,0 S,0,130083,131083,1,1.2 M,0,131111,,418,391 C,0,131111,,130,235,247 P,0,131111,,A M,0,131111,131153,418,391,398.7326,387.9973 F,1,131111,132111,0.3,0 S,0,131111,132111,1,1.2 M,0,131153,131196,398.7326,387.9973,379.4651,384.9946 M,0,131196,131239,379.4651,384.9946,360.1977,381.9919 M,0,131239,131282,360.1977,381.9919,341,379 M,0,132140,,207,395 C,0,132140,,200,200,255 P,0,132140,,A F,1,132140,133140,0.3,0 S,0,132140,133140,1,1.2 M,0,133169,,64,242 C,0,133169,,191,255,223 P,0,133169,,A M,0,133169,133211,64,242,65.62976,261.4318 F,1,133169,134169,0.3,0 S,0,133169,134169,1,1.2 M,0,133211,133254,65.62976,261.4318,67.25952,280.8636 M,0,133254,133297,67.25952,280.8636,68.88928,300.2953 M,0,133297,133340,68.88928,300.2953,70.51904,319.7271 M,0,133340,133383,70.51904,319.7271,72.14881,339.1589 M,0,133383,133426,72.14881,339.1589,73.77857,358.5906 M,0,133426,133468,73.77857,358.5906,75.40833,378.0224 M,0,133468,133511,75.40833,378.0224,77,397 M,0,134197,,349,303 C,0,134197,,191,255,223 P,0,134197,,A F,1,134197,135197,0.3,0 S,0,134197,135197,1,1.2 M,0,135226,,285,359 C,0,135226,,130,235,247 P,0,135226,,A M,0,135226,135268,285,359,279.2072,340.3803 F,1,135226,136226,0.3,0 S,0,135226,136226,1,1.2 M,0,135268,135311,279.2072,340.3803,273.4144,321.7606 M,0,136255,,144,368 C,0,136255,,200,200,255 P,0,136255,,A M,0,136255,136297,144,368,129.5904,354.8618 F,1,136255,137255,0.3,0 S,0,136255,137255,1,1.2 M,0,136297,136340,129.5904,354.8618,115.1807,341.7236 M,0,136340,136383,115.1807,341.7236,129.5904,354.8618 M,0,136383,136426,129.5904,354.8618,144,368 M,0,136426,136469,144,368,129.5904,354.8618 M,0,136469,136512,129.5904,354.8618,115.1807,341.7236 M,0,137283,,78,119 C,0,137283,,191,255,223 P,0,137283,,A F,1,137283,138283,0.3,0 S,0,137283,138283,1,1.2 M,0,138312,,406,56 C,0,138312,,191,255,223 P,0,138312,,A F,1,138312,139312,0.3,0 S,0,138312,139312,1,1.2 M,0,139340,,433,200 C,0,139340,,252,167,188 P,0,139340,,A M,0,139340,139382,433,200,428.7484,219.0309 F,1,139340,140340,0.3,0 S,0,139340,140340,1,1.2 M,0,139382,139425,428.7484,219.0309,424.4969,238.0617 M,0,139425,139468,424.4969,238.0617,420.2453,257.0926 M,0,139468,139511,420.2453,257.0926,415.9937,276.1235 M,0,140369,,384,371 C,0,140369,,130,235,247 P,0,140369,,A M,0,140369,140411,384,371,364.7641,367.9485 F,1,140369,141369,0.3,0 S,0,140369,141369,1,1.2 M,0,140411,140454,364.7641,367.9485,345.309,367.2454 M,0,140454,140497,345.309,367.2454,325.9031,368.7985 M,0,140497,140540,325.9031,368.7985,306.8818,372.9563 M,0,140540,140583,306.8818,372.9563,288.4435,379.2252 M,0,140583,140626,288.4435,379.2252,271.0507,387.9845 M,0,141398,,117,199 C,0,141398,,200,200,255 P,0,141398,,A M,0,141398,141440,117,199,120.2058,179.7653 F,1,141398,142398,0.3,0 S,0,141398,142398,1,1.2 M,0,141440,141483,120.2058,179.7653,123.4116,160.5306 M,0,141483,141526,123.4116,160.5306,126.6173,141.296 M,0,141526,141569,126.6173,141.296,129.8231,122.0613 M,0,142426,,287,192 C,0,142426,,200,200,255 P,0,142426,,A M,0,142426,142468,287,192,267.6472,189.6081 F,1,142426,143426,0.3,0 S,0,142426,143426,1,1.2 M,0,142468,142511,267.6472,189.6081,248.2945,187.2162 M,0,142511,142554,248.2945,187.2162,228.9418,184.8243 M,0,142554,142597,228.9418,184.8243,209.589,182.4323 M,0,143455,,319,301 C,0,143455,,191,255,223 P,0,143455,,A M,0,143455,143497,319,301,337.8701,296.2408 F,1,143455,144455,0.3,0 S,0,143455,144455,1,1.2 M,0,143497,143540,337.8701,296.2408,357.2362,294.471 M,0,143540,143583,357.2362,294.471,376.6507,295.5977 M,0,143583,143626,376.6507,295.5977,395.58,300.0731 M,0,144483,,349,432 C,0,144483,,252,167,188 P,0,144483,,A F,1,144483,145483,0.3,0 S,0,144483,145483,1,1.2 M,0,145512,,225,162 C,0,145512,,252,167,188 P,0,145512,,A M,0,145512,145554,225,162,232.955,169.955 F,1,145512,146512,0.3,0 S,0,145512,146512,1,1.2 M,0,145554,145597,232.955,169.955,240.9099,177.9099 M,0,145597,145640,240.9099,177.9099,248.8649,185.8649 M,0,145640,145683,248.8649,185.8649,256.8198,193.8198 M,0,145683,145726,256.8198,193.8198,251.8258,203.7016 M,0,145726,145769,251.8258,203.7016,246.5317,213.6281 M,0,145769,145811,246.5317,213.6281,241.2376,223.5546 M,0,145811,145854,241.2376,223.5546,235.9435,233.481 M,0,145854,145897,235.9435,233.481,230.6493,243.4075 M,0,145897,145940,230.6493,243.4075,225.3552,253.334 M,0,145940,145983,225.3552,253.334,234.9412,250.6353 M,0,145983,146026,234.9412,250.6353,245.5974,247.0286 M,0,146026,146069,245.5974,247.0286,256.2535,243.4219 M,0,146069,146111,256.2535,243.4219,266.9097,239.8152 M,0,146111,146154,266.9097,239.8152,277.5659,236.2085 M,0,146154,146197,277.5659,236.2085,288.2221,232.6018 M,0,146197,146240,288.2221,232.6018,296.7018,238.5528 M,0,146240,146283,296.7018,238.5528,304.7456,246.4179 M,0,146283,146326,304.7456,246.4179,312.7894,254.283 M,0,146326,146369,312.7894,254.283,320.8333,262.1481 M,0,146369,146411,320.8333,262.1481,328.8771,270.0131 M,0,146411,146454,328.8771,270.0131,334.958,273.3138 M,0,146454,146497,334.958,273.3138,334.7823,262.0652 M,0,146497,146540,334.7823,262.0652,334.6065,250.8165 M,0,146540,146583,334.6065,250.8165,334.4308,239.5679 M,0,146583,146626,334.4308,239.5679,334.255,228.3193 M,0,146626,146669,334.255,228.3193,334.0792,217.0707 M,0,146669,146711,334.0792,217.0707,339.4677,209.1223 M,0,146711,146754,339.4677,209.1223,349.423,203.8826 M,0,146754,146797,349.423,203.8826,359.3783,198.643 M,0,146797,146840,359.3783,198.643,369.3336,193.4033 M,0,146840,146883,369.3336,193.4033,379.289,188.1637 M,0,146883,146926,379.289,188.1637,389.2443,182.924 M,0,146926,146969,389.2443,182.924,382.2675,178.9014 M,0,146969,147011,382.2675,178.9014,371.6652,175.1393 M,0,147011,147054,371.6652,175.1393,361.0629,171.3771 M,0,147054,147097,361.0629,171.3771,350.4605,167.615 M,0,147097,147140,350.4605,167.615,339.8582,163.8529 M,0,147140,147183,339.8582,163.8529,329.2559,160.0908 M,0,147183,147226,329.2559,160.0908,327.224,149.1662 M,0,147226,147269,327.224,149.1662,325.404,138.0643 M,0,147269,147311,325.404,138.0643,323.584,126.9625 M,0,147311,147354,323.584,126.9625,321.7641,115.8607 M,0,147354,147397,321.7641,115.8607,319.9441,104.7589 M,0,147397,147440,319.9441,104.7589,315.5888,103.2045 M,0,147440,147483,315.5888,103.2045,308.5009,111.9408 M,0,147483,147526,308.5009,111.9408,301.4129,120.6771 M,0,147526,147569,301.4129,120.6771,294.325,129.4134 M,0,147569,147611,294.325,129.4134,287.237,138.1497 M,0,147611,147654,287.237,138.1497,280.149,146.8861 M,0,147654,147697,280.149,146.8861,271.4464,150.9881 M,0,147697,147740,271.4464,150.9881,260.4643,148.5476 M,0,147740,147783,260.4643,148.5476,249.4822,146.1071 M,0,147783,147826,249.4822,146.1071,238.5001,143.6667 M,0,147826,147869,238.5001,143.6667,227.518,141.2262 M,0,147869,147912,227.518,141.2262,216.5359,138.7858
Sprite,Foreground,Centre,"sb\glow.png",0,0 M,0,123998,,196,159 C,0,123998,,191,255,223 P,0,123998,,A F,1,123998,124998,0.3,0 S,0,123998,124998,1,1.2 M,0,125283,,307,122 C,0,125283,,130,235,247 P,0,125283,,A M,0,125283,125325,307,122,325.1658,129.0891 F,1,125283,126283,0.3,0 S,0,125283,126283,1,1.2 M,0,125325,125368,325.1658,129.0891,343.3315,136.1782 M,0,125368,125411,343.3315,136.1782,325.1658,129.0891 M,0,125411,125454,325.1658,129.0891,307,122 M,0,125454,125497,307,122,325.1658,129.0891 M,0,125497,125540,325.1658,129.0891,343.3315,136.1782 M,0,126312,,546,355 C,0,126312,,200,200,255 P,0,126312,,A F,1,126312,127312,0.3,0 S,0,126312,127312,1,1.2 M,0,127340,,234,280 C,0,127340,,200,200,255 P,0,127340,,A F,1,127340,128340,0.3,0 S,0,127340,128340,1,1.2 M,0,128369,,98,241 C,0,128369,,191,255,223 P,0,128369,,A M,0,128369,128411,98,241,100.3606,221.6434 F,1,128369,129369,0.3,0 S,0,128369,129369,1,1.2 M,0,128411,128454,100.3606,221.6434,102.7211,202.2868 M,0,128454,128497,102.7211,202.2868,105.0817,182.9302 M,0,128497,128540,105.0817,182.9302,107.4422,163.5736 M,0,129398,,317,157 C,0,129398,,252,167,188 P,0,129398,,A M,0,129398,129440,317,157,327.8402,172.8756 F,1,129398,130398,0.3,0 S,0,129398,130398,1,1.2 M,0,129440,129483,327.8402,172.8756,344.2234,182.717 M,0,129483,129526,344.2234,182.717,363.1569,184.8027 M,0,129526,129569,363.1569,184.8027,381.4164,179.2191 M,0,129569,129612,381.4164,179.2191,395.0724,165.8044 M,0,129612,129655,395.0724,165.8044,401.8452,147.9849 M,0,130426,,575,264 C,0,130426,,130,235,247 P,0,130426,,A M,0,130426,130468,575,264,572.8466,283.3807 F,1,130426,131426,0.3,0 S,0,130426,131426,1,1.2 M,0,130468,130511,572.8466,283.3807,570.6932,302.7615 M,0,130511,130554,570.6932,302.7615,568.5398,322.1422 M,0,130554,130597,568.5398,322.1422,566.3864,341.5229 M,0,131454,,311,290 C,0,131454,,130,235,247 P,0,131454,,A M,0,131454,131496,311,290,330.2614,293.0413 F,1,131454,132454,0.3,0 S,0,131454,132454,1,1.2 M,0,131496,131539,330.2614,293.0413,349.5228,296.0825 M,0,131539,131582,349.5228,296.0825,368.7841,299.1238 M,0,131582,131625,368.7841,299.1238,387,302 M,0,132483,,152,344 C,0,132483,,200,200,255 P,0,132483,,A M,0,132483,132525,152,344,149.23,324.7275 F,1,132483,133483,0.3,0 S,0,132483,133483,1,1.2 M,0,132525,132568,149.23,324.7275,149.1069,305.2685 M,0,132568,132611,149.1069,305.2685,151.4734,285.9496 M,0,132611,132654,151.4734,285.9496,156.7786,267.2216 M,0,132654,132697,156.7786,267.2216,164.5783,249.3966 M,0,132697,132740,164.5783,249.3966,174.6602,232.7573 M,0,133683,,156,430 C,0,133683,,191,255,223 P,0,133683,,A M,0,133683,133725,156,430,174.9318,434.4505 F,1,133683,134683,0.3,0 S,0,133683,134683,1,1.2 M,0,133725,133768,174.9318,434.4505,194.3366,435.3979 M,0,133768,133811,194.3366,435.3979,213.6327,433.0521 M,0,133811,133854,213.6327,433.0521,232.0372,426.7928 M,0,134883,,339,436 C,0,134883,,252,167,188 P,0,134883,,A F,1,134883,135883,0.3,0 S,0,134883,135883,1,1.2 M,0,135912,,190,361 C,0,135912,,200,200,255 P,0,135912,,A M,0,135912,135954,190,361,170.9849,356.6784 F,1,135912,136912,0.3,0 S,0,135912,136912,1,1.2 M,0,135954,135997,170.9849,356.6784,151.9698,352.3568 M,0,135997,136040,151.9698,352.3568,170.9849,356.6784 M,0,136040,136083,170.9849,356.6784,190,361 M,0,136083,136126,190,361,170.9849,356.6784 M,0,136126,136169,170.9849,356.6784,151.9698,352.3568 M,0,136940,,162,203 C,0,136940,,200,200,255 P,0,136940,,A F,1,136940,137940,0.3,0 S,0,136940,137940,1,1.2 M,0,137969,,299,146 C,0,137969,,191,255,223 P,0,137969,,A M,0,137969,138011,299,146,308.966,129.7203 F,1,137969,138969,0.3,0 S,0,137969,138969,1,1.2 M,0,138011,138054,308.966,129.7203,309.4523,110.804 M,0,138998,,470,204 C,0,138998,,252,167,188 P,0,138998,,A M,0,138998,139040,470,204,458.1425,188.5194 F,1,138998,139998,0.3,0 S,0,138998,139998,1,1.2 M,0,139040,139083,458.1425,188.5194,446.285,173.0388 M,0,139083,139126,446.285,173.0388,458.1425,188.5194 M,0,139126,139169,458.1425,188.5194,470,204 M,0,139169,139212,470,204,458.1425,188.5194 M,0,139212,139255,458.1425,188.5194,446.285,173.0388 M,0,140026,,430,417 C,0,140026,,130,235,247 P,0,140026,,A F,1,140026,141026,0.3,0 S,0,140026,141026,1,1.2 M,0,141054,,159,359 C,0,141054,,130,235,247 P,0,141054,,A F,1,141054,142054,0.3,0 S,0,141054,142054,1,1.2 M,0,142083,,283,110 C,0,142083,,200,200,255 P,0,142083,,A M,0,142083,142125,283,110,302.3528,107.6081 F,1,142083,143083,0.3,0 S,0,142083,143083,1,1.2 M,0,142125,142168,302.3528,107.6081,321.7055,105.2162 M,0,142168,142211,321.7055,105.2162,341.0582,102.8243 M,0,142211,142254,341.0582,102.8243,360.411,100.4324 M,0,143112,,230,298 C,0,143112,,191,255,223 P,0,143112,,A F,1,143112,144112,0.3,0 S,0,143112,144112,1,1.2 M,0,144140,,506,383 C,0,144140,,252,167,188 P,0,144140,,A F,1,144140,145140,0.3,0 S,0,144140,145140,1,1.2 M,0,145340,,92,189 C,0,145340,,191,255,223 P,0,145340,,A F,1,145340,146340,0.3,0 S,0,145340,146340,1,1.2
Sprite,Foreground,Centre,"sb\glow.png",0,0 M,0,124083,,196,159 C,0,124083,,191,255,223 P,0,124083,,A F,1,124083,125083,0.3,0 S,0,124083,125083,1,1.2 M,0,126141,,455,336 C,0,126141,,130,235,247 P,0,126141,,A F,1,126141,127141,0.3,0 S,0,126141,127141,1,1.2 M,0,127169,,319,258 C,0,127169,,200,200,255 P,0,127169,,A M,0,127169,127211,319,258,300.2351,255.4916 F,1,127169,128169,0.3,0 S,0,127169,128169,1,1.2 M,0,127211,127254,300.2351,255.4916,282.8861,263.2988 M,0,128883,,219,68 C,0,128883,,191,255,223 P,0,128883,,A F,1,128883,129883,0.3,0 S,0,128883,129883,1,1.2 M,0,129911,,458,100 C,0,129911,,252,167,188 P,0,129911,,A F,1,129911,130911,0.3,0 S,0,129911,130911,1,1.2 M,0,130940,,512,407 C,0,130940,,130,235,247 P,0,130940,,A F,1,130940,131940,0.3,0 S,0,130940,131940,1,1.2 M,0,131968,,268,405 C,0,131968,,200,200,255 P,0,131968,,A F,1,131968,132968,0.3,0 S,0,131968,132968,1,1.2 M,0,132998,,168,215 C,0,132998,,200,200,255 P,0,132998,,A F,1,132998,133998,0.3,0 S,0,132998,133998,1,1.2 M,0,134369,,435,315 C,0,134369,,191,255,223 P,0,134369,,A F,1,134369,135369,0.3,0 S,0,134369,135369,1,1.2 M,0,135398,,317,292 C,0,135398,,130,235,247 P,0,135398,,A M,0,135398,135440,317,292,298.2661,297.412 F,1,135398,136398,0.3,0 S,0,135398,136398,1,1.2 M,0,135440,135483,298.2661,297.412,279.5322,302.824 M,0,136598,,104,353 C,0,136598,,200,200,255 P,0,136598,,A M,0,136598,136640,104,353,101.7802,333.6268 F,1,136598,137598,0.3,0 S,0,136598,137598,1,1.2 M,0,136640,136683,101.7802,333.6268,99.5603,314.2535 M,0,136683,136726,99.5603,314.2535,97.34045,294.8803 M,0,136726,136769,97.34045,294.8803,95.12061,275.507 M,0,137626,,172,110 C,0,137626,,191,255,223 P,0,137626,,A M,0,137626,137668,172,110,191.264,112.3366 F,1,137626,138626,0.3,0 S,0,137626,138626,1,1.2 M,0,137668,137711,191.264,112.3366,208.4091,121.403 M,0,137711,137754,208.4091,121.403,222.797,134.5408 M,0,137754,137797,222.797,134.5408,237.0112,147.8762 M,0,137797,137840,237.0112,147.8762,253.5704,158.0449 M,0,137840,137883,253.5704,158.0449,272.4216,162.7231 M,0,138655,,542,162 C,0,138655,,252,167,188 P,0,138655,,A M,0,138655,138697,542,162,522.6405,164.3365 F,1,138655,139655,0.3,0 S,0,138655,139655,1,1.2 M,0,138697,138740,522.6405,164.3365,503.281,166.673 M,0,139683,,504,312 C,0,139683,,252,167,188 P,0,139683,,A F,1,139683,140683,0.3,0 S,0,139683,140683,1,1.2 M,0,140711,,254,405 C,0,140711,,130,235,247 P,0,140711,,A F,1,140711,141711,0.3,0 S,0,140711,141711,1,1.2 M,0,141740,,203,64 C,0,141740,,200,200,255 P,0,141740,,A F,1,141740,142740,0.3,0 S,0,141740,142740,1,1.2 M,0,142769,,117,199 C,0,142769,,191,255,223 P,0,142769,,A F,1,142769,143769,0.3,0 S,0,142769,143769,1,1.2 M,0,143798,,472,341 C,0,143798,,191,255,223 P,0,143798,,A F,1,143798,144798,0.3,0 S,0,143798,144798,1,1.2 M,0,144826,,148,350 C,0,144826,,130,235,247 P,0,144826,,A F,1,144826,145826,0.3,0 S,0,144826,145826,1,1.2
Sprite,Foreground,Centre,"sb\glow.png",0,0 M,0,124255,,287,226 C,0,124255,,252,167,188 P,0,124255,,A M,0,124255,124297,287,226,306.4138,227.8315 F,1,124255,125255,0.3,0 S,0,124255,125255,1,1.2 M,0,124297,124340,306.4138,227.8315,325.8276,229.663 M,0,126483,,546,355 C,0,126483,,200,200,255 P,0,126483,,A M,0,126483,126525,546,355,541.2706,336.0822 F,1,126483,127483,0.3,0 S,0,126483,127483,1,1.2 M,0,126525,126568,541.2706,336.0822,536.5411,317.1644 M,0,127512,,247,372 C,0,127512,,200,200,255 P,0,127512,,A F,1,127512,128512,0.3,0 S,0,127512,128512,1,1.2 M,0,129226,,316,84 C,0,129226,,252,167,188 P,0,129226,,A M,0,129226,129268,316,84,305.812,100.6026 F,1,129226,130226,0.3,0 S,0,129226,130226,1,1.2 M,0,129268,129311,305.812,100.6026,297.9136,118.4011 M,0,130254,,572,171 C,0,130254,,252,167,188 P,0,130254,,A F,1,130254,131254,0.3,0 S,0,130254,131254,1,1.2 M,0,132311,,168,370 C,0,132311,,200,200,255 P,0,132311,,A F,1,132311,133311,0.3,0 S,0,132311,133311,1,1.2 M,0,134540,,473,391 C,0,134540,,252,167,188 P,0,134540,,A M,0,134540,134582,473,391,453.7952,394.38 F,1,134540,135540,0.3,0 S,0,134540,135540,1,1.2 M,0,134582,134625,453.7952,394.38,434.5904,397.7601 M,0,134625,134668,434.5904,397.7601,415.3855,401.1401 M,0,134668,134711,415.3855,401.1401,396.1807,404.5202 M,0,134711,134754,396.1807,404.5202,376.9759,407.9002 M,0,134754,134797,376.9759,407.9002,357.7711,411.2803 M,0,135569,,250,260 C,0,135569,,130,235,247 P,0,135569,,A M,0,135569,135611,250,260,255.412,278.7339 F,1,135569,136569,0.3,0 S,0,135569,136569,1,1.2 M,0,135611,135654,255.412,278.7339,260.824,297.4678 M,0,137111,,172,110 C,0,137111,,200,200,255 P,0,137111,,A F,1,137111,138111,0.3,0 S,0,137111,138111,1,1.2 M,0,138140,,354,91 C,0,138140,,191,255,223 P,0,138140,,A M,0,138140,138182,354,91,355.2021,72.28085 F,1,138140,139140,0.3,0 S,0,138140,139140,1,1.2 M,0,138182,138225,355.2021,72.28085,364.8213,56.18097 M,0,139855,,523,404 C,0,139855,,252,167,188 P,0,139855,,A F,1,139855,140855,0.3,0 S,0,139855,140855,1,1.2 M,0,140882,,209,395 C,0,140882,,130,235,247 P,0,140882,,A F,1,140882,141882,0.3,0 S,0,140882,141882,1,1.2 M,0,141912,,203,64 C,0,141912,,200,200,255 P,0,141912,,A F,1,141912,142912,0.3,0 S,0,141912,142912,1,1.2 M,0,142940,,168,267 C,0,142940,,191,255,223 P,0,142940,,A F,1,142940,143940,0.3,0 S,0,142940,143940,1,1.2 M,0,143969,,486,360 C,0,143969,,191,255,223 P,0,143969,,A F,1,143969,144969,0.3,0 S,0,143969,144969,1,1.2 M,0,145083,,226,254 C,0,145083,,200,200,255 P,0,145083,,A F,1,145083,146083,0.3,0 S,0,145083,146083,1,1.2
Sprite,Foreground,Centre,"sb\glow.png",0,0 M,0,124426,,285,265 C,0,124426,,252,167,188 P,0,124426,,A M,0,124426,124468,285,265,281.7354,284.2248 F,1,124426,125426,0.3,0 S,0,124426,125426,1,1.2 M,0,124468,124511,281.7354,284.2248,278.4708,303.4496 M,0,127855,,125,329 C,0,127855,,191,255,223 P,0,127855,,A M,0,127855,127897,125,329,128.6154,309.8381 F,1,127855,128855,0.3,0 S,0,127855,128855,1,1.2 M,0,127897,127940,128.6154,309.8381,132.2309,290.6762 M,0,132912,,168,215 C,0,132912,,200,200,255 P,0,132912,,A F,1,132912,133912,0.3,0 S,0,132912,133912,1,1.2 M,0,134969,,339,436 C,0,134969,,252,167,188 P,0,134969,,A F,1,134969,135969,0.3,0 S,0,134969,135969,1,1.2 M,0,137455,,78,119 C,0,137455,,191,255,223 P,0,137455,,A M,0,137455,137497,78,119,87.18842,135.6463 F,1,137455,138455,0.3,0 S,0,137455,138455,1,1.2 M,0,137497,137540,87.18842,135.6463,103.693,145.1843 M,0,138483,,495,82 C,0,138483,,191,255,223 P,0,138483,,A F,1,138483,139483,0.3,0 S,0,138483,139483,1,1.2 M,0,140197,,430,417 C,0,140197,,130,235,247 P,0,140197,,A M,0,140197,140239,430,417,421.761,399.3763 F,1,140197,141197,0.3,0 S,0,140197,141197,1,1.2 M,0,140239,140282,421.761,399.3763,411.5687,382.8061 M,0,141225,,126,289 C,0,141225,,130,235,247 P,0,141225,,A F,1,141225,142225,0.3,0 S,0,141225,142225,1,1.2 M,0,143283,,282,312 C,0,143283,,191,255,223 P,0,143283,,A F,1,143283,144283,0.3,0 S,0,143283,144283,1,1.2 M,0,144312,,440,421 C,0,144312,,252,167,188 P,0,144312,,A F,1,144312,145312,0.3,0 S,0,144312,145312,1,1.2
Sprite,Foreground,Centre,"sb\glow.png",0,0 M,0,124769,,239,231 C,0,124769,,252,167,188 P,0,124769,,A M,0,124769,124811,239,231,241.462,211.656 F,1,124769,125769,0.3,0 S,0,124769,125769,1,1.2 M,0,124811,124854,241.462,211.656,243.9239,192.3121 M,0,135740,,218,326 C,0,135740,,130,235,247 P,0,135740,,A M,0,135740,135782,218,326,236.6197,320.2072 F,1,135740,136740,0.3,0 S,0,135740,136740,1,1.2 M,0,135782,135825,236.6197,320.2072,255.2394,314.4144 M,0,138826,,512,193 C,0,138826,,252,167,188 P,0,138826,,A M,0,138826,138868,512,193,494.0595,185.3587 F,1,138826,139826,0.3,0 S,0,138826,139826,1,1.2 M,0,138868,138911,494.0595,185.3587,476.1191,177.7174 M,0,143883,,486,345 C,0,143883,,191,255,223 P,0,143883,,A F,1,143883,144883,0.3,0 S,0,143883,144883,1,1.2
Sprite,Foreground,Centre,"sb\glow.png",0,0 M,0,144054,,499,367 C,0,144054,,191,255,223 P,0,144054,,A F,1,144054,145054,0.3,0 S,0,144054,145054,1,1.2
Sprite,Foreground,Centre,"sb\glow.png",0,0 M,0,144655,,243,413 C,0,144655,,252,167,188 P,0,144655,,A F,1,144655,145655,0.3,0 S,0,144655,145655,1,1.2
//Storyboard Layer 4 (Overlay)
//Storyboard Sound Samples

[TimingPoints]
141,342.857142857,4,2,11,50,1,0
8369,-100,4,2,11,60,0,0
11455,-100,4,2,11,70,0,0
32369,-100,4,2,11,75,0,0
32626,-100,4,2,11,80,0,0
32883,-100,4,2,11,85,0,0
33055,-100,4,2,11,70,0,0
53626,-90.9090909090909,4,2,11,75,0,0
54312,-90.9090909090909,4,2,11,80,0,0
54655,-90.9090909090909,4,2,11,85,0,0
54998,-76.9230769230769,4,2,11,90,0,0
59112,-76.9230769230769,4,2,11,90,0,0
59540,-76.9230769230769,4,2,11,90,0,0
59712,-76.9230769230769,4,2,11,90,0,0
59798,-76.9230769230769,4,2,11,90,0,0
70083,-76.9230769230769,4,2,11,90,0,0
70511,-76.9230769230769,4,2,11,90,0,0
70683,-76.9230769230769,4,2,11,90,0,0
70769,-76.9230769230769,4,2,11,90,0,0
76940,-100,4,2,11,50,0,0
76941,-100,4,2,11,50,0,0
82426,-100,4,2,11,55,0,0
87226,-100,4,2,11,55,0,0
87740,-100,4,2,11,55,0,0
87912,-100,4,2,11,60,0,0
96141,-100,4,2,11,70,0,0
97512,-100,4,2,11,80,0,0
98198,-100,4,2,11,85,0,0
98455,-100,4,2,11,90,0,0
98712,-100,4,2,11,95,0,0
98883,-100,4,2,11,30,0,0
99226,-100,4,2,11,40,0,0
99569,-100,4,2,11,50,0,0
99912,-100,4,2,11,60,0,0
100255,-100,4,2,11,70,0,0
101626,-100,4,2,11,85,0,0
122883,-100,4,2,11,90,0,0
123226,-100,4,2,11,95,0,0
123569,-76.9230769230769,4,2,11,100,0,0
127683,-76.9230769230769,4,2,11,100,0,0
128111,-76.9230769230769,4,2,11,100,0,0
128283,-76.9230769230769,4,2,11,100,0,0
128369,-76.9230769230769,4,2,11,100,0,0
138655,-76.9230769230769,4,2,11,100,0,0
139083,-76.9230769230769,4,2,11,100,0,0
139255,-76.9230769230769,4,2,11,100,0,0
139340,-76.9230769230769,4,2,11,100,0,0
145512,-133.333333333333,4,2,11,100,0,0
145598,-133.333333333333,4,2,12,30,0,0
147912,-133.333333333333,4,2,11,5,0,0

[Colours]
Combo1 : 191,255,223
Combo2 : 252,167,188
Combo3 : 130,235,247
Combo4 : 200,200,255

[HitObjects]
321,311,141,6,0,B|415:324|405:253|514:269,2,180,6|2|2,3:2|0:0|0:0,0:0:0:0:
343,226,1683,1,2,0:0:0:0:
343,226,1855,1,2,0:0:0:0:
243,159,2198,2,0,P|209:162|186:179,1,60,2|2,0:0|0:0,0:0:0:0:
159,215,2540,1,10,0:0:0:0:
219,71,2883,6,0,B|313:58|303:129|412:113,2,180,2|2|2,3:2|3:2|0:0,0:0:0:0:
38,76,4426,2,0,L|32:145,1,60,2|0,0:0|0:0,0:0:0:0:
34,175,4769,1,2,0:0:0:0:
34,175,4940,2,0,P|64:188|96:187,1,60,2|2,0:0|0:0,0:0:0:0:
138,180,5283,1,10,0:0:0:0:
109,321,5626,6,0,P|194:356|204:272,2,180,4|2|2,3:1|3:2|3:2,0:0:0:0:
138,180,7169,1,2,3:2:0:0:
81,77,7512,1,2,3:2:0:0:
81,77,7683,2,0,P|87:45|125:9,1,60,2|2,3:2|3:2,0:0:0:0:
169,81,8026,2,0,L|202:88,3,30,10|8|2|0,3:2|3:2|3:2|3:2,0:0:0:0:
222,83,8369,5,6,3:2:0:0:
329,75,8883,5,6,3:2:0:0:
436,62,9398,5,6,3:2:0:0:
453,147,9740,6,0,L|464:213,1,60,2|2,3:2|3:2,0:0:0:0:
434,279,10083,2,0,L|423:345,1,60,2|2,3:2|3:2,0:0:0:0:
356,381,10426,1,6,0:0:0:0:
356,381,10598,1,2,3:2:0:0:
356,381,10769,2,0,P|346:363|342:338,3,30,6|2|2|2,3:2|3:2|3:2|3:2,0:0:0:0:
334,312,11112,5,2,0:0:0:0:
217,346,11455,2,0,P|179:355|145:343,1,60,4|0,0:0|0:0,0:0:0:0:
84,311,11798,1,2,3:2:0:0:
210,242,12140,2,0,P|172:251|138:239,1,60,10|2,0:0|0:0,0:0:0:0:
77,207,12483,5,2,3:2:0:0:
202,136,12826,2,0,P|164:145|130:133,1,60,10|2,0:0|0:0,0:0:0:0:
84,88,13169,1,2,3:2:0:0:
84,88,13340,1,2,0:0:0:0:
165,60,13512,2,0,L|263:38,1,90,10|0,0:0|0:0,0:0:0:0:
297,55,13855,5,2,3:2:0:0:
297,55,14026,2,0,P|349:86|360:149,1,120,2|2,0:0|0:0,0:0:0:0:
327,210,14540,2,0,L|314:286,1,60,2|2,3:2|0:0,0:0:0:0:
389,298,14883,2,0,L|402:374,1,60,10|2,0:0|0:0,0:0:0:0:
314,360,15226,5,2,3:2:0:0:
236,325,15398,1,2,0:0:0:0:
233,241,15569,2,0,L|230:201,3,30,10|2|2|2,0:0|0:0|0:0|0:0,0:0:0:0:
205,197,15912,2,0,P|157:193|100:215,1,90,2|0,3:2|0:0,0:0:0:0:
105,230,16255,1,10,0:0:0:0:
22,247,16426,1,2,3:2:0:0:
41,167,16598,5,2,3:2:0:0:
131,79,16940,2,0,P|145:53|169:37,1,60,10|0,0:0|0:0,0:0:0:0:
250,28,17283,2,0,L|309:35,1,60,2|2,3:2|0:0,0:0:0:0:
268,108,17626,2,0,L|208:115,1,60,10|2,0:0|0:0,0:0:0:0:
173,191,17969,5,2,3:2:0:0:
173,191,18140,1,2,0:0:0:0:
259,211,18312,1,10,0:0:0:0:
259,211,18483,1,2,0:0:0:0:
340,231,18655,2,0,L|415:221,1,60,2|2,3:2|0:0,0:0:0:0:
438,148,18998,2,0,L|363:138,1,60,10|2,0:0|0:0,0:0:0:0:
300,109,19340,6,0,P|339:63|411:68,1,120,2|10,3:2|0:0,0:0:0:0:
476,29,19855,1,2,0:0:0:0:
476,29,20026,2,0,L|492:112,1,60,2|2,3:2|0:0,0:0:0:0:
439,157,20369,2,0,L|423:240,1,60,10|2,0:0|0:0,0:0:0:0:
423,300,20712,5,2,3:2:0:0:
397,380,20883,1,2,0:0:0:0:
313,380,21055,1,10,0:0:0:0:
287,300,21226,1,2,0:0:0:0:
355,251,21398,2,0,L|343:192,1,60,2|2,3:2|3:2,0:0:0:0:
271,149,21740,2,0,L|259:207,1,60,10|2,0:0|3:2,0:0:0:0:
190,292,22083,6,0,B|160:320|113:309|113:309|55:293,1,120,6|10,0:0|0:0,0:0:0:0:
4,171,22769,2,0,L|64:153,1,60,2|2,3:2|0:0,0:0:0:0:
120,93,23112,2,0,L|180:111,1,60,10|2,0:0|0:0,0:0:0:0:
254,71,23455,5,0,3:2:0:0:
254,71,23626,1,2,0:0:0:0:
323,118,23798,2,0,P|384:103|412:69,1,60,8|2,0:0|0:0,0:0:0:0:
430,38,24140,2,0,B|464:61|462:110|462:110|457:170,1,120,0|10,3:2|0:0,0:0:0:0:
402,209,24655,1,2,0:0:0:0:
402,209,24740,1,2,0:0:0:0:
402,209,24826,6,0,P|452:233|517:205,1,120,2|10,3:2|0:0,0:0:0:0:
431,348,25512,2,0,L|361:328,1,60,2|2,3:2|0:0,0:0:0:0:
302,288,25855,2,0,L|232:308,1,60,10|2,0:0|0:0,0:0:0:0:
180,257,26198,1,2,3:2:0:0:
180,257,26369,1,2,0:0:0:0:
134,328,26540,6,0,L|90:337,3,30,10|2|2|2,0:0|0:0|0:0|0:0,0:0:0:0:
79,311,26883,1,2,3:2:0:0:
62,227,27055,1,2,0:0:0:0:
91,148,27226,1,10,0:0:0:0:
74,65,27398,1,2,3:2:0:0:
135,7,27569,6,0,L|268:23,1,120,6|10,3:2|0:0,0:0:0:0:
384,47,28255,1,2,3:2:0:0:
384,47,28426,1,2,0:0:0:0:
468,25,28598,1,10,0:0:0:0:
468,25,28769,1,2,3:2:0:0:
448,106,28940,6,0,L|434:182,1,60,6|2,3:2|0:0,0:0:0:0:
491,229,29283,2,0,L|505:305,1,60,10|2,0:0|0:0,0:0:0:0:
477,368,29626,1,2,3:2:0:0:
393,356,29798,1,2,0:0:0:0:
309,344,29969,1,10,0:0:0:0:
225,333,30140,1,2,3:2:0:0:
145,359,30312,6,0,L|77:372,1,60,6|2,3:2|0:0,0:0:0:0:
7,339,30655,1,10,0:0:0:0:
7,339,30826,1,2,0:0:0:0:
69,282,30998,2,0,L|137:269,1,60,6|2,3:2|0:0,0:0:0:0:
188,212,31341,1,10,0:0:0:0:
188,212,31512,1,2,0:0:0:0:
107,187,31683,6,0,P|87:143|95:112,1,60,6|2,3:2|3:2,0:0:0:0:
150,76,32026,2,0,P|169:119|161:150,1,60,10|2,3:2|3:2,0:0:0:0:
188,212,32369,2,0,L|229:218,3,30,14|2|0|6,3:2|3:2|3:2|3:2,0:0:0:0:
236,239,32712,2,0,L|303:222,1,60,2|6,3:2|3:2,0:0:0:0:
281,140,33055,5,6,3:2:0:0:
354,294,33398,2,0,P|403:315|456:296,1,90,10|0,0:0|0:0,0:0:0:0:
457,286,33740,1,2,3:2:0:0:
405,218,33912,2,0,P|347:202|280:237,1,120,2|2,0:0|0:0,0:0:0:0:
274,308,34426,5,0,3:2:0:0:
274,308,34598,1,0,0:0:0:0:
191,323,34769,2,0,L|105:338,1,60,8|0,0:0|0:0,0:0:0:0:
50,312,35112,1,2,3:2:0:0:
109,253,35283,2,0,P|118:196|87:141,1,120,2|0,0:0|0:0,0:0:0:0:
74,132,35712,1,2,0:0:0:0:
67,114,35798,6,0,L|70:39,1,60,2|0,3:2|0:0,0:0:0:0:
155,46,36140,1,10,0:0:0:0:
155,46,36312,2,0,P|215:66|281:38,1,120,2|2,0:0|0:0,0:0:0:0:
338,3,36826,1,10,0:0:0:0:
338,3,36998,6,0,P|350:57|310:121,1,120,2|0,0:0|0:0,0:0:0:0:
246,150,37512,2,0,L|256:216,1,60,8|0,0:0|0:0,0:0:0:0:
237,294,37855,1,2,3:2:0:0:
237,294,38026,1,2,0:0:0:0:
291,364,38198,1,8,0:0:0:0:
291,364,38369,1,2,0:0:0:0:
356,312,38540,6,0,P|411:306|433:317,1,60,2|0,3:2|0:0,0:0:0:0:
485,351,38883,1,10,0:0:0:0:
505,269,39055,2,0,P|500:237|484:216,1,60,2|2,0:0|3:2,0:0:0:0:
411,171,39398,2,0,P|416:139|432:118,1,60,2|10,0:0|0:0,0:0:0:0:
500,68,39740,1,2,0:0:0:0:
415,25,39912,1,2,3:2:0:0:
415,25,40083,1,2,0:0:0:0:
334,34,40255,1,10,0:0:0:0:
334,34,40426,1,2,0:0:0:0:
250,45,40598,5,2,3:2:0:0:
250,45,40769,2,0,B|238:94|238:94|227:143|258:174,1,120,2|2,0:0|0:0,0:0:0:0:
281,178,41198,1,2,0:0:0:0:
281,178,41283,6,0,L|292:253,1,60,2|2,3:2|0:0,0:0:0:0:
224,291,41626,2,0,L|213:366,1,60,10|2,0:0|0:0,0:0:0:0:
307,364,41969,1,2,3:2:0:0:
429,248,42312,2,0,P|454:245|488:258,1,60,10|2,0:0|0:0,0:0:0:0:
495,340,42655,5,2,3:2:0:0:
495,340,42826,2,0,P|432:343|369:304,2,120,2|2|0,0:0|0:0|0:0,0:0:0:0:
485,257,43683,1,8,0:0:0:0:
451,179,43855,1,2,3:2:0:0:
383,129,44026,6,0,P|314:126|262:144,1,120,6|10,3:2|0:0,0:0:0:0:
230,218,44540,2,0,L|219:303,1,60,2|2,0:0|3:2,0:0:0:0:
149,220,44883,2,0,L|228:187,1,60,2|8,0:0|0:0,0:0:0:0:
222,277,45226,2,0,L|94:330,1,120,2|2,0:0|0:0,0:0:0:0:
32,354,45740,1,10,0:0:0:0:
22,189,46083,5,2,3:2:0:0:
22,189,46255,2,0,B|60:177|60:177|69:146|69:146|120:128,1,120,2|2,0:0|0:0,0:0:0:0:
137,112,46683,1,2,0:0:0:0:
137,112,46769,6,0,P|136:48|192:0,1,120,2|10,3:2|0:0,0:0:0:0:
216,79,47283,2,0,L|350:59,1,120,2|2,0:0|0:0,0:0:0:0:
418,46,47798,1,10,0:0:0:0:
418,46,47969,1,2,0:0:0:0:
430,128,48140,6,0,L|440:195,1,60,0|2,3:2|0:0,0:0:0:0:
455,269,48483,1,10,0:0:0:0:
455,269,48569,1,2,0:0:0:0:
284,301,48826,1,2,3:2:0:0:
271,217,48997,1,2,0:0:0:0:
355,204,49168,1,8,0:0:0:0:
368,288,49340,1,2,0:0:0:0:
284,301,49512,6,0,L|198:290,1,60,2|2,3:2|0:0,0:0:0:0:
140,284,49855,1,10,0:0:0:0:
140,284,49940,1,2,0:0:0:0:
171,109,50198,1,2,3:2:0:0:
87,96,50370,1,2,0:0:0:0:
74,180,50541,1,8,0:0:0:0:
158,193,50712,1,2,0:0:0:0:
171,109,50883,6,0,P|194:78|231:65,1,60,0|2,3:2|0:0,0:0:0:0:
248,150,51226,1,10,0:0:0:0:
248,150,51312,1,2,0:0:0:0:
370,121,51569,1,2,3:2:0:0:
355,40,51740,2,0,B|388:5|451:17|449:57|486:45,1,120,2|2,0:0|0:0,0:0:0:0:
490,65,52169,1,2,0:0:0:0:
490,65,52255,6,0,B|502:120|471:106|481:154,1,90,6|0,3:2|0:0,0:0:0:0:
491,176,52598,1,10,0:0:0:0:
474,258,52769,1,2,0:0:0:0:
394,231,52940,2,0,P|338:234|324:247,1,60,2|0,3:2|0:0,0:0:0:0:
291,305,53283,1,10,0:0:0:0:
375,310,53455,1,2,3:2:0:0:
336,234,53626,6,0,P|322:180|332:151,1,66.0000020141602,4|2,3:2|3:2,0:0:0:0:
330,78,53969,1,10,3:2:0:0:
254,25,54140,1,2,3:2:0:0:
185,87,54312,1,4,3:2:0:0:
113,47,54483,1,2,3:2:0:0:
113,47,54569,1,0,3:2:0:0:
113,47,54655,2,0,L|66:60,3,33.0000010070801,14|2|2|2,3:2|3:2|3:2|3:2,0:0:0:0:
53,84,54998,6,0,B|78:136|30:156|60:207,1,116.999994644165,4|0,0:0|0:0,0:0:0:0:
75,234,55340,1,10,0:0:0:0:
75,234,55426,1,2,0:0:0:0:
75,234,55512,1,2,0:0:0:0:
141,176,55683,6,0,P|158:179|180:190,1,38.9999982147218,2|0,3:2|0:0,0:0:0:0:
208,172,55855,2,0,P|211:154|222:133,1,38.9999982147218,2|0,0:0|0:0,0:0:0:0:
204,105,56026,2,0,P|186:101|165:90,1,38.9999982147218,10|0,0:0|0:0,0:0:0:0:
134,116,56198,2,0,P|130:133|119:155,1,38.9999982147218,2|0,0:0|0:0,0:0:0:0:
77,163,56369,6,0,P|67:187|73:230,3,38.9999982147218,2|2|2|2,3:2|0:0|0:0|0:0,0:0:0:0:
75,234,56712,2,0,P|72:253|63:270,3,38.9999982147218,10|2|2|2,0:0|0:0|0:0|0:0,0:0:0:0:
38,310,57055,2,0,L|128:342,1,77.9999964294435,2|2,3:2|0:0,0:0:0:0:
192,287,57398,1,10,0:0:0:0:
271,336,57569,1,2,0:0:0:0:
332,266,57740,5,0,3:2:0:0:
332,266,57912,2,0,L|340:211,1,38.9999982147218,2|0,0:0|0:0,0:0:0:0:
386,214,58083,2,0,B|370:188|370:188|358:282,1,116.999994644165,10|0,0:0|0:0,0:0:0:0:
394,315,58426,2,0,P|405:335|408:361,1,38.9999982147218,2|0,3:2|0:0,0:0:0:0:
463,345,58598,2,0,P|469:323|485:302,1,38.9999982147218,2|0,0:0|0:0,0:0:0:0:
501,290,58769,1,10,0:0:0:0:
469,208,58940,1,2,0:0:0:0:
502,120,59112,6,2,L|487:66,1,38.9999982147218,2|0,3:2|0:0,0:1:0:0:
463,96,59283,2,2,L|477:41,1,38.9999982147218,2|0,0:0|0:0,0:1:0:0:
442,47,59455,2,2,L|481:7,3,38.9999982147218,10|0|2|0,0:0|0:0|0:0|0:0,0:1:0:0:
419,42,59798,2,0,L|330:59,1,77.9999964294435,2|2,3:2|0:0,0:0:0:0:
251,33,60140,1,10,0:0:0:0:
194,107,60311,1,2,0:0:0:0:
101,66,60483,5,2,3:2:0:0:
101,66,60655,2,0,P|74:80|63:91,1,38.9999982147218,2|0,0:0|0:0,0:0:0:0:
58,59,60826,2,0,P|30:106|45:180,1,116.999994644165,10|0,0:0|0:0,0:0:0:0:
9,193,61169,1,2,3:2:0:0:
19,238,61340,1,2,0:0:0:0:
55,288,61512,1,10,0:0:0:0:
125,321,61683,1,2,0:0:0:0:
218,323,61855,6,0,L|232:237,1,77.9999964294435,2|2,3:2|0:0,0:0:0:0:
272,163,62198,1,8,0:0:0:0:
272,163,62369,1,2,0:0:0:0:
341,225,62540,2,0,L|427:211,1,77.9999964294435,2|2,3:2|0:0,0:0:0:0:
483,307,62883,2,0,L|397:293,1,77.9999964294435,10|2,0:0|0:0,0:0:0:0:
341,225,63226,5,2,3:2:0:0:
374,155,63397,1,2,0:0:0:0:
424,119,63569,1,10,0:0:0:0:
469,109,63740,1,2,0:0:0:0:
499,116,63912,2,0,P|502:176|485:260,1,116.999994644165,2|0,3:2|0:0,0:0:0:0:
485,261,64255,1,10,0:0:0:0:
485,261,64340,1,2,0:0:0:0:
485,261,64426,1,2,0:0:0:0:
406,310,64598,6,0,L|239:276,1,155.999992858887,2|10,3:2|0:0,0:0:0:0:
204,207,65112,2,0,P|157:202|110:220,1,77.9999964294435,2|2,0:0|3:2,0:0:0:0:
83,283,65455,1,2,0:0:0:0:
168,288,65626,1,10,0:0:0:0:
253,278,65798,1,2,3:2:0:0:
332,245,65969,6,0,B|346:205|346:205|333:177|333:177|352:128,1,116.999994644165,6|0,3:2|0:0,0:0:0:0:
381,128,66312,1,10,0:0:0:0:
381,128,66398,1,0,0:0:0:0:
381,128,66483,1,2,0:0:0:0:
269,138,66655,6,0,P|240:134|226:124,1,38.9999982147218,2|0,3:2|0:0,0:0:0:0:
219,97,66826,2,0,P|223:68|233:54,1,38.9999982147218
260,47,66998,2,0,P|289:51|303:61,1,38.9999982147218,10|0,0:0|0:0,0:0:0:0:
309,96,67169,2,0,P|305:125|295:139,1,38.9999982147218,2|0,0:0|0:0,0:0:0:0:
325,166,67340,6,0,P|328:189|349:205,3,38.9999982147218,2|2|2|2,3:2|0:0|0:0|0:0,0:0:0:0:
322,224,67683,2,0,P|318:247|298:263,3,38.9999982147218,10|2|2|2,0:0|0:0|0:0|0:0,0:0:0:0:
279,278,68026,2,0,L|189:263,1,77.9999964294435,2|2,3:2|0:0,0:0:0:0:
116,225,68369,1,10,0:0:0:0:
85,313,68540,1,2,0:0:0:0:
12,254,68712,5,2,3:2:0:0:
12,254,68883,2,0,P|29:229|36:203,1,38.9999982147218,2|0,0:0|0:0,0:0:0:0:
35,186,69055,2,0,B|63:143|63:143|155:125,1,116.999994644165,10|0,0:0|0:0,0:0:0:0:
157,125,69398,2,0,L|185:77,1,38.9999982147218,2|0,3:2|0:0,0:0:0:0:
213,62,69569,2,0,L|193:28,1,38.9999982147218,2|0,0:0|0:0,0:0:0:0:
180,7,69740,1,10,0:0:0:0:
113,47,69912,1,2,0:0:0:0:
24,18,70083,6,2,L|35:58,1,38.9999982147218,2|0,3:2|0:0,0:1:0:0:
8,66,70255,2,2,L|37:95,1,38.9999982147218,2|0,0:0|0:0,0:1:0:0:
14,110,70426,2,2,L|54:120,3,38.9999982147218,10|2|2|0,0:0|0:0|0:0|0:0,0:1:0:0:
96,104,70769,2,0,L|176:88,1,77.9999964294435,2|2,3:2|0:0,0:0:0:0:
258,50,71112,1,10,0:0:0:0:
245,142,71283,1,2,0:0:0:0:
335,110,71455,5,2,3:2:0:0:
335,110,71626,2,0,P|347:130|358:160,1,38.9999982147218,2|0,0:0|0:0,0:0:0:0:
349,164,71798,2,0,P|378:191|435:145,1,116.999994644165,10|0,0:0|0:0,0:0:0:0:
465,135,72140,1,2,3:2:0:0:
455,90,72311,1,2,0:0:0:0:
419,40,72483,1,10,0:0:0:0:
349,7,72654,1,2,0:0:0:0:
258,15,72826,6,0,L|244:102,1,77.9999964294435,2|2,3:2|0:0,0:0:0:0:
217,184,73169,1,10,0:0:0:0:
217,184,73340,1,2,0:0:0:0:
142,122,73511,2,0,L|65:134,1,77.9999964294435,2|2,3:2|0:0,0:0:0:0:
90,240,73854,2,0,L|166:252,1,77.9999964294435,10|2,0:0|0:0,0:0:0:0:
230,303,74197,5,2,3:2:0:0:
300,270,74368,1,2,0:0:0:0:
336,220,74540,1,10,0:0:0:0:
346,175,74711,1,2,0:0:0:0:
339,145,74883,2,0,P|279:142|225:149,1,77.9999964294435,2|2,3:2|0:0,0:0:0:0:
184,190,75226,1,10,0:0:0:0:
184,205,75312,1,2,0:0:0:0:
172,210,75398,1,2,0:0:0:0:
170,221,75484,1,2,0:0:0:0:
158,226,75569,5,2,3:2:0:0:
81,239,75740,1,2,0:0:0:0:
68,162,75912,1,10,0:0:0:0:
145,149,76083,1,2,0:0:0:0:
158,226,76255,2,0,P|156:270|131:353,2,116.999994644165,2|2|2,3:2|0:0|3:2,0:0:0:0:
141,131,76940,1,6,0:0:0:0:
142,125,87740,5,2,3:2:0:0:
142,125,87912,2,0,L|127:210,1,60,6|2,0:0|3:2,0:0:0:0:
213,203,88255,2,0,L|223:143,1,60,10|2,0:0|0:3,0:0:0:0:
238,60,88598,1,2,0:0:0:0:
238,60,88769,1,8,0:3:0:0:
325,69,88940,1,2,0:3:0:0:
325,69,89111,1,10,0:0:0:0:
408,81,89283,6,0,L|479:92,1,60,8|2,0:3|0:0,0:0:0:0:
453,173,89626,2,0,L|393:163,1,60,10|8,0:0|0:3,0:0:0:0:
309,154,89969,1,2,0:0:0:0:
309,154,90140,1,8,0:0:0:0:
294,239,90312,1,8,0:3:0:0:
294,239,90483,1,2,0:0:0:0:
377,250,90655,6,0,L|436:259,1,60,4|2,0:0|3:2,0:0:0:0:
423,342,90998,2,0,L|363:332,1,60,10|2,0:0|0:3,0:0:0:0:
284,325,91340,1,2,0:0:0:0:
284,325,91511,1,8,0:3:0:0:
199,310,91683,1,2,0:3:0:0:
199,310,91854,1,2,0:0:0:0:
115,298,92026,6,0,L|55:288,1,60,8|2,0:3|0:0,0:0:0:0:
66,205,92369,2,0,L|125:214,1,60,10|8,0:0|0:3,0:0:0:0:
138,130,92712,1,2,0:0:0:0:
54,119,92883,1,2,0:3:0:0:
63,35,93055,1,8,0:3:0:0:
154,46,93226,1,2,3:2:0:0:
154,46,93312,1,2,0:0:0:0:
154,46,93398,5,6,3:2:0:0:
294,38,93740,2,0,P|325:64|326:154,1,120,10|2,0:0|0:0,0:0:0:0:
257,115,94255,1,8,3:3:0:0:
257,115,94426,1,8,0:0:0:0:
413,61,94769,5,4,3:2:0:0:
413,61,95112,2,0,P|453:57|517:120,1,120,10|2,0:0|0:0,0:0:0:0:
512,192,95626,1,0,3:2:0:0:
512,192,95798,1,8,0:0:0:0:
379,161,96140,6,0,L|435:141,1,60,4|2,0:0|3:2,0:0:0:0:
444,262,96483,2,0,L|387:242,1,60,10|2,0:0|3:2,0:0:0:0:
322,180,96826,2,0,L|378:160,1,60,6|0,0:0|3:2,0:0:0:0:
387,242,97169,2,0,L|330:222,1,60,8|2,3:2|3:2,0:0:0:0:
243,167,97512,6,0,L|253:139,3,30,4|0|2|0,3:2|3:2|3:2|3:2,0:0:0:0:
234,115,97855,2,0,L|256:95,3,30,2|2|0|0,3:2|3:2|3:2|3:2,0:0:0:0:
257,65,98198,5,6,3:2:0:0:
363,81,98455,5,6,3:2:0:0:
469,101,98712,5,6,3:2:0:0:
256,192,98883,12,2,100255,1:3:0:0:
204,133,100940,6,0,L|208:103,7,30,2|0|0|2|0|0|2|0,1:2|0:0|0:0|0:0|0:0|0:0|0:0|0:0,0:0:0:0:
226,80,101626,5,4,3:2:0:0:
118,176,101969,2,0,P|131:244|172:275,1,120,10|2,0:0|3:2,0:0:0:0:
219,340,102483,2,0,P|165:357|145:349,1,60,2|8,0:0|0:0,0:0:0:0:
81,341,102826,1,2,0:0:0:0:
37,268,102998,6,0,L|26:200,1,60,2|2,3:2|0:0,0:0:0:0:
46,127,103340,1,10,0:0:0:0:
46,127,103426,1,2,0:0:0:0:
46,127,103512,1,2,0:0:0:0:
122,92,103683,2,0,L|132:54,1,30,2|0,3:2|0:0,0:0:0:0:
122,44,103855,2,0,B|200:37|153:92|256:75,1,120,2|2,0:0|0:0,0:0:0:0:
258,64,104283,1,2,0:0:0:0:
258,64,104369,6,0,P|294:47|336:51,1,60,2|2,3:2|0:0,0:0:0:0:
390,93,104712,1,8,0:0:0:0:
312,138,104883,2,0,L|293:256,1,120,2|2,0:0|0:0,0:0:0:0:
329,339,105398,1,10,0:0:0:0:
329,339,105569,1,2,0:0:0:0:
418,335,105740,6,0,P|433:313|435:271,1,60,2|2,3:2|0:0,0:0:0:0:
511,229,106083,2,0,P|496:207|494:165,1,60,10|2,0:0|0:0,0:0:0:0:
469,98,106426,1,2,3:2:0:0:
469,98,106598,1,2,0:0:0:0:
390,93,106769,1,10,0:0:0:0:
390,93,106941,1,2,0:0:0:0:
311,121,107112,6,0,P|271:117|240:77,1,90,2|0,3:2|0:0,0:0:0:0:
224,61,107455,2,0,L|137:68,1,60,10|2,0:0|0:0,0:0:0:0:
117,135,107798,2,0,L|30:128,1,60,2|2,3:2|0:0,0:0:0:0:
26,52,108140,1,10,0:0:0:0:
26,52,108312,1,2,0:0:0:0:
57,130,108483,5,2,3:2:0:0:
45,176,108655,1,2,0:0:0:0:
102,236,108826,1,10,0:0:0:0:
114,282,108998,1,2,0:0:0:0:
81,357,109169,6,0,L|157:365,1,60,2|2,3:2|0:0,0:0:0:0:
223,370,109512,1,10,0:0:0:0:
309,375,109683,1,2,0:0:0:0:
381,332,109855,6,0,L|372:264,1,60,2|2,3:2|0:0,0:0:0:0:
359,195,110198,1,10,0:0:0:0:
286,166,110369,2,0,L|295:98,1,60,2|2,0:0|3:2,0:0:0:0:
308,29,110712,1,2,0:0:0:0:
364,82,110883,2,0,L|434:77,1,60,10|2,0:0|0:0,0:0:0:0:
497,45,111226,5,2,3:2:0:0:
497,45,111398,1,2,0:0:0:0:
489,122,111569,2,0,L|483:196,1,60,10|2,0:0|0:0,0:0:0:0:
412,213,111912,5,0,3:2:0:0:
403,235,112083,1,2,0:0:0:0:
401,270,112255,1,10,3:2:0:0:
418,315,112426,1,2,3:2:0:0:
466,351,112598,6,0,B|486:360|486:360|368:386,1,120,6|10,3:2|3:2,0:0:0:0:
304,345,113112,2,0,P|291:299|299:277,1,60,2|2,0:0|3:2,0:0:0:0:
209,274,113455,2,0,P|232:232|253:222,1,60,2|8,0:0|3:2,0:0:0:0:
201,151,113798,1,2,0:0:0:0:
127,192,113969,5,0,3:2:0:0:
127,192,114140,1,2,0:0:0:0:
54,133,114312,1,10,3:2:0:0:
54,133,114483,1,2,0:0:0:0:
37,223,114655,2,0,L|48:261,1,30,2|0,3:2|0:0,0:0:0:0:
29,248,114826,2,0,L|66:373,1,120,2|2,0:0|0:0,0:0:0:0:
87,367,115255,1,2,0:0:0:0:
87,367,115340,6,0,P|100:324|93:291,1,60,2|2,3:2|0:0,0:0:0:0:
45,251,115683,1,10,3:2:0:0:
126,232,115855,2,0,P|157:250|175:333,1,120,2|2,0:0|0:0,0:0:0:0:
260,335,116369,2,0,P|297:334|325:352,1,60,8|2,3:2|0:0,0:0:0:0:
396,372,116712,6,0,B|418:343|413:289|413:289|379:251|379:251|363:212|374:179,1,210,0|0,3:2|0:0,0:0:0:0:
404,159,117398,2,0,P|405:109|300:148,1,210,2|2,3:2|0:0,0:0:0:0:
298,165,118083,6,0,L|226:166,1,60,2|2,3:2|0:0,0:0:0:0:
165,111,118426,1,10,3:2:0:0:
167,26,118598,2,0,P|201:16|224:25,1,60,2|2,0:0|3:2,0:0:0:0:
293,57,118940,2,0,P|258:66|235:57,1,60,2|10,0:0|3:2,0:0:0:0:
167,26,119283,1,2,0:0:0:0:
90,60,119455,5,2,3:2:0:0:
90,60,119626,1,2,0:0:0:0:
71,151,119798,1,10,3:2:0:0:
71,151,119969,1,2,0:0:0:0:
121,224,120140,2,0,L|133:301,1,60,2|2,3:2|0:0,0:0:0:0:
41,297,120483,2,0,L|29:374,1,60,10|2,3:2|0:0,0:0:0:0:
119,379,120826,5,6,3:2:0:0:
204,349,120998,1,2,0:0:0:0:
204,349,121169,1,10,3:2:0:0:
204,349,121340,1,2,0:0:0:0:
264,281,121512,2,0,P|295:279|327:292,1,60,2|2,3:2|0:0,0:0:0:0:
377,359,121855,1,10,3:2:0:0:
464,338,122026,1,2,3:2:0:0:
476,248,122198,6,0,L|461:181,1,60,6|2,3:2|3:2,0:0:0:0:
418,111,122540,2,0,L|433:44,1,60,10|2,3:2|3:2,0:0:0:0:
355,31,122883,2,0,L|316:38,3,30,6|0|2|0,3:2|3:2|3:2|3:2,0:0:0:0:
306,66,123226,2,0,L|268:52,3,30,14|2|2|2,3:2|3:2|3:2|3:2,0:0:0:0:
243,65,123569,6,0,P|196:52|110:78,1,116.999994644165,6|0,3:2|0:0,0:0:0:0:
132,103,123912,1,10,3:2:0:0:
132,103,123998,1,2,0:0:0:0:
132,103,124083,1,2,0:0:0:0:
223,170,124255,6,0,L|276:175,1,38.9999982147218,2|0,3:2|0:0,0:0:0:0:
221,209,124426,2,0,L|212:262,1,38.9999982147218,2|0,0:0|0:0,0:0:0:0:
189,216,124598,2,0,L|134:207,1,38.9999982147218,10|0,3:2|0:0,0:0:0:0:
175,175,124769,2,0,L|182:120,1,38.9999982147218,2|0,0:0|0:0,0:0:0:0:
213,97,124940,6,0,L|257:91,3,38.9999982147218,2|2|2|2,3:2|0:0|0:0|0:0,0:0:0:0:
243,66,125283,2,0,L|284:82,3,38.9999982147218,10|2|2|2,3:2|0:0|0:0|0:0,0:0:0:0:
320,49,125626,2,0,P|344:86|350:141,1,77.9999964294435,2|2,3:2|0:0,0:0:0:0:
330,209,125969,1,10,3:2:0:0:
391,280,126141,1,2,0:0:0:0:
482,299,126312,5,2,3:2:0:0:
482,299,126483,2,0,L|471:255,1,38.9999982147218,2|0,0:0|0:0,0:0:0:0:
478,211,126655,2,0,B|441:192|441:192|337:198,1,116.999994644165,10|0,3:2|0:0,0:0:0:0:
330,209,126998,2,0,P|290:205|278:219,1,38.9999982147218,2|0,3:2|0:0,0:0:0:0:
255,202,127169,2,0,P|235:199|218:208,1,38.9999982147218,2|0,0:0|0:0,0:0:0:0:
170,224,127340,1,10,3:2:0:0:
183,316,127512,1,2,0:0:0:0:
91,297,127683,6,2,L|74:246,1,38.9999982147218,2|0,3:2|0:0,0:1:0:0:
61,273,127855,2,2,L|71:220,1,38.9999982147218,2|0,0:0|0:0,0:1:0:0:
47,237,128026,2,2,L|82:196,3,38.9999982147218,10|0|2|0,0:0|0:0|0:0|0:0,0:1:0:0:
34,185,128369,2,0,L|44:103,1,77.9999964294435,2|2,3:2|0:0,0:0:0:0:
55,6,128712,1,10,3:2:0:0:
155,12,128883,1,2,0:0:0:0:
252,28,129055,5,2,3:2:0:0:
252,28,129226,2,0,P|240:48|229:78,1,38.9999982147218,2|0,0:0|0:0,0:0:0:0:
253,101,129398,2,0,P|282:128|339:82,1,116.999994644165,10|0,3:2|0:0,0:0:0:0:
348,50,129740,1,2,3:2:0:0:
394,44,129911,1,2,0:0:0:0:
453,61,130083,1,10,3:2:0:0:
508,115,130254,1,2,0:0:0:0:
511,208,130426,6,0,L|502:289,1,77.9999964294435,2|2,3:2|0:0,0:0:0:0:
448,351,130769,1,10,3:2:0:0:
448,351,130940,1,2,0:0:0:0:
354,335,131111,2,0,L|277:323,1,77.9999964294435,2|2,3:2|0:0,0:0:0:0:
247,234,131454,2,0,L|323:246,1,77.9999964294435,10|2,3:2|0:0,0:0:0:0:
277,323,131797,5,2,3:2:0:0:
204,349,131968,1,2,0:0:0:0:
143,339,132140,1,10,3:2:0:0:
104,314,132311,1,2,0:0:0:0:
88,288,132483,2,0,P|87:232|119:166,1,116.999994644165,2|0,3:2|0:0,0:0:0:0:
104,159,132826,1,10,3:2:0:0:
104,159,132912,1,2,0:0:0:0:
104,159,132998,1,2,0:0:0:0:
0,186,133169,6,0,L|13:341,1,155.999992858887,2|10,3:2|3:2,0:0:0:0:
92,374,133683,2,0,P|139:379|186:361,1,77.9999964294435,2|2,0:0|3:2,0:0:0:0:
221,303,134026,1,2,0:0:0:0:
285,247,134197,1,10,3:2:0:0:
371,259,134369,1,2,3:2:0:0:
409,335,134540,6,0,L|284:357,1,116.999994644165,6|0,3:2|0:0,0:0:0:0:
275,380,134883,1,10,3:2:0:0:
275,380,134969,1,2,0:0:0:0:
275,380,135055,1,2,0:0:0:0:
221,303,135226,6,0,L|207:258,1,38.9999982147218,2|0,3:2|0:0,0:0:0:0:
253,236,135398,2,0,L|208:249,1,38.9999982147218,2|0,0:0|0:0,0:0:0:0:
186,204,135569,2,0,L|199:249,1,38.9999982147218,10|0,3:2|0:0,0:0:0:0:
154,270,135740,2,0,L|199:256,1,38.9999982147218,2|0,0:0|0:0,0:0:0:0:
126,305,135912,6,0,L|82:295,3,38.9999982147218,2|2|2|2,3:2|0:0|0:0|0:0,0:0:0:0:
80,312,136255,2,0,L|46:281,3,38.9999982147218,10|2|2|2,3:2|0:0|0:0|0:0,0:0:0:0:
40,297,136598,2,0,L|29:201,1,77.9999964294435,2|2,3:2|0:0,0:0:0:0:
98,147,136940,1,10,3:2:0:0:
108,54,137111,1,2,0:0:0:0:
14,63,137283,5,0,3:2:0:0:
14,63,137455,2,0,P|21:78|43:90,1,38.9999982147218,2|0,0:0|0:0,0:0:0:0:
108,54,137626,2,0,B|161:52|159:110|221:107,1,116.999994644165,10|0,3:2|0:0,0:0:0:0:
235,90,137969,2,0,P|246:72|242:44,1,38.9999982147218,2|0,3:2|0:0,0:0:0:0:
290,35,138140,2,0,P|290:15|301:0,1,38.9999982147218,2|0,0:0|0:0,0:0:0:0:
342,0,138312,1,10,3:2:0:0:
431,26,138483,1,2,0:0:0:0:
478,106,138655,6,2,L|420:113,1,38.9999982147218,2|0,3:2|0:0,0:1:0:0:
448,137,138826,2,2,L|394:114,1,38.9999982147218,2|0,0:0|0:0,0:1:0:0:
406,148,138998,2,2,L|370:101,3,38.9999982147218,10|0|2|0,0:0|0:0|0:0|0:0,0:1:0:0:
369,144,139340,2,0,L|348:238,1,77.9999964294435,2|2,3:2|0:0,0:0:0:0:
440,256,139683,1,10,3:2:0:0:
459,348,139855,1,2,0:0:0:0:
366,361,140026,5,2,3:2:0:0:
366,361,140197,2,0,P|358:343|347:326,1,38.9999982147218,2|0,0:0|0:0,0:0:0:0:
320,315,140369,2,0,P|260:313|184:348,1,116.999994644165,10|0,3:2|0:0,0:0:0:0:
190,349,140711,1,2,3:2:0:0:
145,339,140882,1,2,0:0:0:0:
95,303,141054,1,10,3:2:0:0:
62,233,141225,1,2,0:0:0:0:
53,143,141398,6,0,L|68:53,1,77.9999964294435,2|2,3:2|0:0,0:0:0:0:
139,8,141740,1,10,3:2:0:0:
139,8,141912,1,2,0:0:0:0:
219,54,142083,2,0,L|308:43,1,77.9999964294435,2|2,3:2|0:0,0:0:0:0:
223,136,142426,2,0,L|134:125,1,77.9999964294435,10|2,3:2|0:0,0:0:0:0:
53,143,142769,5,2,3:2:0:0:
104,211,142940,1,2,0:0:0:0:
166,242,143112,1,10,3:2:0:0:
218,256,143283,1,2,0:0:0:0:
255,245,143455,2,0,P|309:239|363:259,1,77.9999964294435,2|2,3:2|0:0,0:0:0:0:
408,285,143798,1,10,3:2:0:0:
422,289,143883,1,0,0:0:0:0:
422,304,143969,1,2,0:0:0:0:
435,311,144054,1,0,0:0:0:0:
442,327,144140,5,2,3:2:0:0:
376,365,144312,1,2,0:0:0:0:
285,376,144483,1,10,3:2:0:0:
179,357,144655,1,2,0:0:0:0:
84,294,144826,5,2,3:2:0:0:
162,198,145083,5,0,3:2:0:0:
28,133,145340,5,2,3:2:0:0:
161,106,145512,6,0,B|193:138|193:138|161:198|161:198|226:176|226:176|271:220|271:220|270:156|270:156|327:126|327:126|265:104|265:104|255:43|255:43|212:96|212:96|149:82,1,630.000024032594,6|0,3:2|0:0,0:0:0:0:
