osu file format v14

[General]
AudioFilename: audio.mp3
AudioLeadIn: 2000
PreviewTime: 123483
Countdown: 0
SampleSet: Soft
StackLeniency: 0.4
Mode: 0
LetterboxInBreaks: 0
EpilepsyWarning: 1
WidescreenStoryboard: 1

[Editor]
Bookmarks: 141,11112,22083,33055,44026,54998,65969,76940,87912,98883,101626,112598,123569,134540,145512,147912
DistanceSpacing: 1.2
BeatDivisor: 4
GridSize: 32
TimelineZoom: 3.099999

[Metadata]
Title:EOS
TitleUnicode:EOS
Artist:ginkiha
ArtistUnicode:ginkiha
Creator:too
Version:Another
Source:
Tags:Apis035 KimikaMyMommy HinaMommy PotatoDew KogumaX ponbot rrtyui bof2012 of fighters fa featured artist electronic english instrumental daybreak uk hardcore shade of mythology bms groundbreaking video game SOUND VOLTEX II -infinite infection- happy
BeatmapID:2719942
BeatmapSetID:1284506

[Difficulty]
HPDrainRate:5.5
CircleSize:4
OverallDifficulty:8
ApproachRate:9
SliderMultiplier:1.6
SliderTickRate:1

[Events]
//Background and Video events
0,0,"bg1.jpg",0,0
//Break Periods
2,77140,86112
//Storyboard Layer 0 (Background)
Sprite,Background,Centre,"bg1.jpg",320,240 F,0,0,,0
//Storyboard Layer 1 (Fail)
//Storyboard Layer 2 (Pass)
//Storyboard Layer 3 (Foreground)
Sprite,Foreground,CentreLeft,"sb/font/0042.png",569.5,425.5 S,0,3569,,0.5 F,0,3569,3669,0,1 F,0,6798,6998,1,0
Sprite,Foreground,CentreLeft,"sb/font/0065.png",580,425.5 S,0,3629,,0.5 F,0,3629,3729,0,1 F,0,6798,6998,1,0
Sprite,Foreground,CentreLeft,"sb/font/0061.png",586.5,425.5 S,0,3689,,0.5 F,0,3689,3789,0,1 F,0,6798,6998,1,0
Sprite,Foreground,CentreLeft,"sb/font/0074.png",595.5,425.5 S,0,3749,,0.5 F,0,3749,3849,0,1 F,0,6798,6998,1,0
Sprite,Foreground,CentreLeft,"sb/font/006d.png",602.5,425.5 S,0,3809,,0.5 F,0,3809,3909,0,1 F,0,6798,6998,1,0
Sprite,Foreground,CentreLeft,"sb/font/0061.png",614,425.5 S,0,3869,,0.5 F,0,3869,3969,0,1 F,0,6798,6998,1,0
Sprite,Foreground,CentreLeft,"sb/font/0070.png",623,425.5 S,0,3929,,0.5 F,0,3929,4029,0,1 F,0,6798,6998,1,0
Sprite,Foreground,CentreLeft,"sb/font/007c.png",636,425.5 S,0,4049,,0.5 F,0,4049,4149,0,1 F,0,6798,6998,1,0
Sprite,Foreground,CentreLeft,"sb/font/0074.png",648,425.5 S,0,4169,,0.5 F,0,4169,4269,0,1 F,0,6798,6998,1,0
Sprite,Foreground,CentreLeft,"sb/font/006f.png",655,425.5 S,0,4229,,0.5 F,0,4229,4329,0,1 F,0,6798,6998,1,0
Sprite,Foreground,CentreLeft,"sb/font/006f.png",662.5,425.5 S,0,4289,,0.5 F,0,4289,4389,0,1 F,0,6798,6998,1,0
Sprite,Foreground,Centre,"sb/ring.png",0,0 M,0,8369,,463,288 S,19,8369,9395,0.2,0.8 F,4,8369,9395,1,0 P,0,8369,9395,A M,0,9398,,558,432 S,19,9398,10424,0.2,0.8 F,4,9398,10424,1,0 P,0,9398,10424,A M,0,10426,,424,118 S,19,10426,11452,0.2,0.8 F,4,10426,11452,1,0 P,0,10426,11452,A M,0,27569,,221,293 S,19,27569,28595,0.2,0.8 F,4,27569,28595,1,0 P,0,27569,28595,A M,0,28940,,134,60 S,19,28940,29966,0.2,0.8 F,4,28940,29966,1,0 P,0,28940,29966,A M,0,30312,,276,84 S,19,30312,31338,0.2,0.8 F,4,30312,31338,1,0 P,0,30312,31338,A M,0,31683,,532,60 S,19,31683,32709,0.2,0.8 F,4,31683,32709,1,0 P,0,31683,32709,A M,0,32884,,221,245 S,19,32884,33910,0.2,0.8 F,4,32884,33910,1,0 P,0,32884,33910,A M,0,44026,,167,153 S,19,44026,45052,0.2,0.8 F,4,44026,45052,1,0 P,0,44026,45052,A M,0,52255,,395,384 S,19,52255,53281,0.2,0.8 F,4,52255,53281,1,0 P,0,52255,53281,A M,0,53626,,398,151 S,19,53626,54652,0.2,0.8 F,4,53626,54652,1,0 P,0,53626,54652,A M,0,54655,,192,132 S,19,54655,55681,0.2,0.8 F,4,54655,55681,1,0 P,0,54655,55681,A
Sprite,Foreground,Centre,"sb/ring.png",0,0 M,0,8883,,540,331 S,19,8883,9909,0.2,0.8 F,4,8883,9909,1,0 P,0,8883,9909,A M,0,10769,,334,240 S,19,10769,11795,0.2,0.8 F,4,10769,11795,1,0 P,0,10769,11795,A M,0,30998,,448,56 S,19,30998,32024,0.2,0.8 F,4,30998,32024,1,0 P,0,30998,32024,A M,0,32026,,408,213 S,19,32026,33052,0.2,0.8 F,4,32026,33052,1,0 P,0,32026,33052,A M,0,54312,,260,274 S,19,54312,55338,0.2,0.8 F,4,54312,55338,1,0 P,0,54312,55338,A
Sprite,Foreground,Centre,"sb/ring.png",0,0 M,0,32369,,414,406 S,19,32369,33395,0.2,0.8 F,4,32369,33395,1,0 P,0,32369,33395,A M,0,87912,,147,346 S,19,87912,88938,0.2,0.8 F,4,87912,88938,1,0 P,0,87912,88938,A M,0,90655,,530,337 S,19,90655,91681,0.2,0.8 F,4,90655,91681,1,0 P,0,90655,91681,A
Sprite,Foreground,Centre,"sb/ring.png",0,0 M,0,32626,,309,318 S,19,32626,33652,0.2,0.8 F,4,32626,33652,1,0 P,0,32626,33652,A M,0,76940,,264,71 S,19,76940,78992,0.2,1.2 F,4,76940,78992,1,0 P,0,76940,78992,A
Sprite,Foreground,Centre,"sb/ring.png",0,0 M,0,93398,,83,410 S,19,93398,94424,0.2,0.8 F,4,93398,94424,1,0 P,0,93398,94424,A M,0,94769,,364,298 S,19,94769,95795,0.2,0.8 F,4,94769,95795,1,0 P,0,94769,95795,A M,0,96140,,355,105 S,19,96140,97166,0.2,0.8 F,4,96140,97166,1,0 P,0,96140,97166,A M,0,97512,,139,362 S,19,97512,98538,0.2,0.8 F,4,97512,98538,1,0 P,0,97512,98538,A M,0,98712,,152,189 S,19,98712,99738,0.2,0.8 F,4,98712,99738,1,0 P,0,98712,99738,A M,0,112598,,149,192 S,19,112598,113624,0.2,0.8 F,4,112598,113624,1,0 P,0,112598,113624,A M,0,120826,,544,72 S,19,120826,121852,0.2,0.8 F,4,120826,121852,1,0 P,0,120826,121852,A M,0,122198,,508,224 S,19,122198,123224,0.2,0.8 F,4,122198,123224,1,0 P,0,122198,123224,A M,0,123226,,126,273 S,19,123226,124252,0.2,0.8 F,4,123226,124252,1,0 P,0,123226,124252,A M,0,145512,,315,295 S,19,145512,147564,0.2,1.2 F,4,145512,147564,1,0 P,0,145512,147564,A
Sprite,Foreground,Centre,"sb/ring.png",0,0 M,0,96826,,367,440 S,19,96826,97852,0.2,0.8 F,4,96826,97852,1,0 P,0,96826,97852,A M,0,98198,,143,321 S,19,98198,99224,0.2,0.8 F,4,98198,99224,1,0 P,0,98198,99224,A M,0,122883,,260,386 S,19,122883,123909,0.2,0.8 F,4,122883,123909,1,0 P,0,122883,123909,A
Sprite,Foreground,Centre,"sb/ring.png",0,0 M,0,98455,,253,276 S,19,98455,99481,0.2,0.8 F,4,98455,99481,1,0 P,0,98455,99481,A M,0,101626,,396,334 S,19,101626,103678,0.2,1.2 F,4,101626,103678,1,0 P,0,101626,103678,A M,0,123569,,252,229 S,19,123569,125621,0.2,1.2 F,4,123569,125621,1,0 P,0,123569,125621,A
Sprite,Foreground,Centre,"sb/ring.png",0,0 M,0,11455,,146,188 S,19,11455,13507,0.2,1.2 F,4,11455,13507,1,0 P,0,11455,13507,A M,0,22083,,457,89 S,19,22083,24135,0.2,1.2 F,4,22083,24135,1,0 P,0,22083,24135,A M,0,33055,,284,134 S,19,33055,35107,0.2,1.2 F,4,33055,35107,1,0 P,0,33055,35107,A M,0,54998,,109,246 S,19,54998,57050,0.2,1.2 F,4,54998,57050,1,0 P,0,54998,57050,A
Sprite,Foreground,Centre,"sb/particle.png",0,0 M,7,1683,2583,239,269,210.9877,173.0036 S,7,1683,2583,0.1,0 M,7,4426,5326,493,327,452.2679,413.9304 S,7,4426,5326,0.1,0 M,7,7169,8069,576,88,504.7454,16.4194 S,7,7169,8069,0.1,0 M,7,9741,10641,561,440,593.1464,522.9916 S,7,9741,10641,0.1,0 M,7,10769,11669,334,240,231.68,274.5631 S,7,10769,11669,0.1,0
Sprite,Foreground,Centre,"sb/particle.png",0,0 M,7,1683,2583,239,269,120.6757,281.6638 S,7,1683,2583,0.1,0 M,7,4426,5326,493,327,542.8428,406.6975 S,7,4426,5326,0.1,0 M,7,7169,8069,576,88,657.3871,98.00652 S,7,7169,8069,0.1,0 M,7,9741,10641,561,440,636.9902,349.7255 S,7,9741,10641,0.1,0 M,7,10769,11669,334,240,242.4492,205.0365 S,7,10769,11669,0.1,0
Sprite,Foreground,Centre,"sb/particle.png",0,0 M,7,1683,2583,239,269,306.5454,315.4931 S,7,1683,2583,0.1,0 M,7,4426,5326,493,327,566.6041,407.3955 S,7,4426,5326,0.1,0 M,7,7169,8069,576,88,625.7072,164.2246 S,7,7169,8069,0.1,0 M,7,9741,10641,561,440,659.7042,475.8118 S,7,9741,10641,0.1,0 M,7,10769,11669,334,240,250.9296,169.4287 S,7,10769,11669,0.1,0
Sprite,Foreground,Centre,"sb/particle.png",0,0 M,7,1683,2583,239,269,324.0886,295.0948 S,7,1683,2583,0.1,0 M,7,4426,5326,493,327,565.9935,403.8632 S,7,4426,5326,0.1,0 M,7,7169,8069,576,88,481.4247,96.97285 S,7,7169,8069,0.1,0 M,7,9741,10641,561,440,525.8011,553.6752 S,7,9741,10641,0.1,0 M,7,10769,11669,334,240,418.9151,288.9227 S,7,10769,11669,0.1,0
Sprite,Foreground,Centre,"sb/particle.png",0,0 M,7,1683,2583,239,269,123.1657,252.5254 S,7,1683,2583,0.1,0 M,7,4426,5326,493,327,549.2783,224.4244 S,7,4426,5326,0.1,0 M,7,7169,8069,576,88,625.6852,190.603 S,7,7169,8069,0.1,0 M,7,9741,10641,561,440,527.5238,361.8697 S,7,9741,10641,0.1,0 M,7,10769,11669,334,240,248.5199,230.5581 S,7,10769,11669,0.1,0
Sprite,Foreground,Centre,"sb/particle.png",0,0 M,7,1683,2583,239,269,200.0693,361.1108 S,7,1683,2583,0.1,0 M,7,4426,5326,493,327,601.6994,353.9895 S,7,4426,5326,0.1,0 M,7,7169,8069,576,88,495.5011,96.99602 S,7,7169,8069,0.1,0 M,7,9741,10641,561,440,474.247,459.8727 S,7,9741,10641,0.1,0 M,7,10769,11669,334,240,362.0815,317.0417 S,7,10769,11669,0.1,0
Sprite,Foreground,Centre,"sb/particle.png",0,0 M,7,1683,2583,239,269,321.1842,221.3475 S,7,1683,2583,0.1,0 M,7,4426,5326,493,327,573.322,413.4429 S,7,4426,5326,0.1,0 M,7,7169,8069,576,88,640.1724,40.23073 S,7,7169,8069,0.1,0 M,7,9741,10641,561,440,583.3469,529.2447 S,7,9741,10641,0.1,0 M,7,10769,11669,334,240,277.0022,326.99 S,7,10769,11669,0.1,0
Sprite,Foreground,Centre,"sb/particle.png",0,0 M,7,1683,2583,239,269,202.5583,165.2117 S,7,1683,2583,0.1,0 M,7,4426,5326,493,327,451.3647,404.5274 S,7,4426,5326,0.1,0 M,7,7169,8069,576,88,646.7209,172.2529 S,7,7169,8069,0.1,0 M,7,9741,10641,561,440,651.7272,460.4344 S,7,9741,10641,0.1,0 M,7,10769,11669,334,240,424.29,262.2872 S,7,10769,11669,0.1,0
Sprite,Foreground,Centre,"sb/particle.png",0,0 M,7,1855,2755,239,269,250.2413,375.4079 S,7,1855,2755,0.1,0 M,7,4598,5498,501.1068,267.5502,414.7155,257.2762 S,7,4598,5498,0.1,0 M,7,7341,8241,493,174,529.5759,92.86304 S,7,7341,8241,0.1,0 M,7,9912,10812,536,296,483.6621,208.4514 S,7,9912,10812,0.1,0
Sprite,Foreground,Centre,"sb/particle.png",0,0 M,7,1855,2755,239,269,261.3094,153.1281 S,7,1855,2755,0.1,0 M,7,4598,5498,501.1068,267.5502,581.0842,269.4534 S,7,4598,5498,0.1,0 M,7,7341,8241,493,174,522.2454,84.66518 S,7,7341,8241,0.1,0 M,7,9912,10812,536,296,538.1211,385.975 S,7,9912,10812,0.1,0
Sprite,Foreground,Centre,"sb/particle.png",0,0 M,7,1855,2755,239,269,261.1217,184.8595 S,7,1855,2755,0.1,0 M,7,4598,5498,501.1068,267.5502,581.4224,288.4884 S,7,4598,5498,0.1,0 M,7,7341,8241,493,174,580.7452,249.8734 S,7,7341,8241,0.1,0 M,7,9912,10812,536,296,580.1562,373.2737 S,7,9912,10812,0.1,0
Sprite,Foreground,Centre,"sb/particle.png",0,0 M,7,1855,2755,239,269,258.3376,188.2841 S,7,1855,2755,0.1,0 M,7,4598,5498,501.1068,267.5502,545.3141,196.1239 S,7,4598,5498,0.1,0 M,7,7341,8241,493,174,404.8486,216.8174 S,7,7341,8241,0.1,0 M,7,9912,10812,536,296,636.2913,268.4745 S,7,9912,10812,0.1,0
Sprite,Foreground,Centre,"sb/particle.png",0,0 M,7,1855,2755,239,269,264.7391,184.8484 S,7,1855,2755,0.1,0 M,7,4598,5498,501.1068,267.5502,575.7634,233.6327 S,7,4598,5498,0.1,0 M,7,7341,8241,493,174,567.1712,236.5111 S,7,7341,8241,0.1,0 M,7,9912,10812,536,296,594.8307,358.7291 S,7,9912,10812,0.1,0
Sprite,Foreground,Centre,"sb/particle.png",0,0 M,7,1855,2755,239,269,264.3427,352.2271 S,7,1855,2755,0.1,0 M,7,4598,5498,501.1068,267.5502,579.0398,337.9167 S,7,4598,5498,0.1,0 M,7,7341,8241,493,174,442.1734,238.3479 S,7,7341,8241,0.1,0 M,7,9912,10812,536,296,602.7104,374.4775 S,7,9912,10812,0.1,0
Sprite,Foreground,Centre,"sb/particle.png",0,0 M,7,1855,2755,239,269,289.4816,201.8612 S,7,1855,2755,0.1,0 M,7,4598,5498,501.1068,267.5502,487.0706,173.5928 S,7,4598,5498,0.1,0 M,7,7341,8241,493,174,602.7222,208.439 S,7,7341,8241,0.1,0 M,7,9912,10812,536,296,613.6276,266.6238 S,7,9912,10812,0.1,0
Sprite,Foreground,Centre,"sb/particle.png",0,0 M,7,1855,2755,239,269,198.5221,183.055 S,7,1855,2755,0.1,0 M,7,4598,5498,501.1068,267.5502,580.5161,229.6272 S,7,4598,5498,0.1,0 M,7,7341,8241,493,174,596.2407,142.2925 S,7,7341,8241,0.1,0 M,7,9912,10812,536,296,482.3855,196.529 S,7,9912,10812,0.1,0
Sprite,Foreground,Centre,"sb/particle.png",0,0 M,7,2198,3098,171,418,150.582,499.4807 S,7,2198,3098,0.1,0 M,7,4769,5669,493,327,491.578,431.9904 S,7,4769,5669,0.1,0 M,7,7683,8583,503,182,392.9268,148.6998 S,7,7683,8583,0.1,0 M,7,10083,10983,437,291,499.492,369.0689 S,7,10083,10983,0.1,0
Sprite,Foreground,Centre,"sb/particle.png",0,0 M,7,2198,3098,171,418,67.83862,456.1802 S,7,2198,3098,0.1,0 M,7,4769,5669,493,327,406.1787,283.7442 S,7,4769,5669,0.1,0 M,7,7683,8583,503,182,567.8015,103.2296 S,7,7683,8583,0.1,0 M,7,10083,10983,437,291,331.8067,266.5383 S,7,10083,10983,0.1,0
Sprite,Foreground,Centre,"sb/particle.png",0,0 M,7,2198,3098,171,418,194.3403,506.9901 S,7,2198,3098,0.1,0 M,7,4769,5669,493,327,462.5858,253.0069 S,7,4769,5669,0.1,0 M,7,7683,8583,503,182,529.6337,100.2281 S,7,7683,8583,0.1,0 M,7,10083,10983,437,291,351.7684,251.3569 S,7,10083,10983,0.1,0
Sprite,Foreground,Centre,"sb/particle.png",0,0 M,7,2198,3098,171,418,223.4379,348.5791 S,7,2198,3098,0.1,0 M,7,4769,5669,493,327,474.3971,426.272 S,7,4769,5669,0.1,0 M,7,7683,8583,503,182,616.5995,217.4422 S,7,7683,8583,0.1,0 M,7,10083,10983,437,291,440.4972,381.9328 S,7,10083,10983,0.1,0
Sprite,Foreground,Centre,"sb/particle.png",0,0 M,7,2198,3098,171,418,278.7474,458.1932 S,7,2198,3098,0.1,0 M,7,4769,5669,493,327,527.963,231.1794 S,7,4769,5669,0.1,0 M,7,7683,8583,503,182,511.1456,63.27911 S,7,7683,8583,0.1,0 M,7,10083,10983,437,291,337.8158,303.7474 S,7,10083,10983,0.1,0
Sprite,Foreground,Centre,"sb/particle.png",0,0 M,7,2198,3098,171,418,99.27358,363.6371 S,7,2198,3098,0.1,0 M,7,4769,5669,493,327,572.0203,314.5186 S,7,4769,5669,0.1,0 M,7,7683,8583,503,182,553.5643,112.4352 S,7,7683,8583,0.1,0 M,7,10083,10983,437,291,403.7309,363.7542 S,7,10083,10983,0.1,0
Sprite,Foreground,Centre,"sb/particle.png",0,0 M,7,2198,3098,171,418,257.7381,393.9895 S,7,2198,3098,0.1,0 M,7,4769,5669,493,327,574.5414,254.6675 S,7,4769,5669,0.1,0 M,7,7683,8583,503,182,603.3334,216.1936 S,7,7683,8583,0.1,0 M,7,10083,10983,437,291,522.2588,357.2943 S,7,10083,10983,0.1,0
Sprite,Foreground,Centre,"sb/particle.png",0,0 M,7,2198,3098,171,418,253.2885,343.5043 S,7,2198,3098,0.1,0 M,7,4769,5669,493,327,520.1019,216.2684 S,7,4769,5669,0.1,0 M,7,7683,8583,503,182,508.644,265.8102 S,7,7683,8583,0.1,0 M,7,10083,10983,437,291,330.5062,331.6825 S,7,10083,10983,0.1,0
Sprite,Foreground,Centre,"sb/particle.png",0,0 M,7,2369,3269,171,418,267.2896,441.0069 S,7,2369,3269,0.1,0 M,7,4940,5840,487,243,469.8254,348.6127 S,7,4940,5840,0.1,0 M,7,7855,8755,376,295,405.1257,372.7219 S,7,7855,8755,0.1,0 M,7,10255,11155,348,152,370.5204,63.83066 S,7,10255,11155,0.1,0
Sprite,Foreground,Centre,"sb/particle.png",0,0 M,7,2369,3269,171,418,286.9805,402.588 S,7,2369,3269,0.1,0 M,7,4940,5840,487,243,420.0162,310.366 S,7,4940,5840,0.1,0 M,7,7855,8755,376,295,417.4681,211.757 S,7,7855,8755,0.1,0 M,7,10255,11155,348,152,251.744,179.1068 S,7,10255,11155,0.1,0
Sprite,Foreground,Centre,"sb/particle.png",0,0 M,7,2369,3269,171,418,171.1705,522.9999 S,7,2369,3269,0.1,0 M,7,4940,5840,487,243,403.2092,237.0758 S,7,4940,5840,0.1,0 M,7,7855,8755,376,295,290.9068,351.2419 S,7,7855,8755,0.1,0 M,7,10255,11155,348,152,431.6758,166.9453 S,7,10255,11155,0.1,0
Sprite,Foreground,Centre,"sb/particle.png",0,0 M,7,2369,3269,171,418,151.2912,516.0386 S,7,2369,3269,0.1,0 M,7,4940,5840,487,243,398.0241,240.9273 S,7,4940,5840,0.1,0 M,7,7855,8755,376,295,403.6799,399.3926 S,7,7855,8755,0.1,0 M,7,10255,11155,348,152,326.0648,267.9433 S,7,10255,11155,0.1,0
Sprite,Foreground,Centre,"sb/particle.png",0,0 M,7,2369,3269,171,418,161.63,323.4632 S,7,2369,3269,0.1,0 M,7,4940,5840,487,243,415.9403,204.1217 S,7,4940,5840,0.1,0 M,7,7855,8755,376,295,456.4565,357.6957 S,7,7855,8755,0.1,0 M,7,10255,11155,348,152,329.9814,239.1569 S,7,10255,11155,0.1,0
Sprite,Foreground,Centre,"sb/particle.png",0,0 M,7,2369,3269,171,418,217.7519,523.0679 S,7,2369,3269,0.1,0 M,7,4940,5840,487,243,410.3324,272.0875 S,7,4940,5840,0.1,0 M,7,7855,8755,376,295,480.3965,263.6574 S,7,7855,8755,0.1,0 M,7,10255,11155,348,152,402.2707,50.61121 S,7,10255,11155,0.1,0
Sprite,Foreground,Centre,"sb/particle.png",0,0 M,7,2369,3269,171,418,236.1149,325.6471 S,7,2369,3269,0.1,0 M,7,4940,5840,487,243,412.9354,177.308 S,7,4940,5840,0.1,0 M,7,7855,8755,376,295,466.1963,259.3121 S,7,7855,8755,0.1,0 M,7,10255,11155,348,152,240.2654,159.5661 S,7,10255,11155,0.1,0
Sprite,Foreground,Centre,"sb/particle.png",0,0 M,7,2369,3269,171,418,101.561,484.2889 S,7,2369,3269,0.1,0 M,7,4940,5840,487,243,574.8455,201.864 S,7,4940,5840,0.1,0 M,7,7855,8755,376,295,332.8285,375.1075 S,7,7855,8755,0.1,0 M,7,10255,11155,348,152,445.3024,185.7824 S,7,10255,11155,0.1,0
Sprite,Foreground,Centre,"sb/particle.png",0,0 M,7,2540,3440,202,306,188.3451,422.2004 S,7,2540,3440,0.1,0 M,7,5112,6012,447,221,558.9984,220.4036 S,7,5112,6012,0.1,0 M,7,8026,8926,352,208,444.7395,147.0051 S,7,8026,8926,0.1,0 M,7,10426,11326,424,118,321.5406,140.9582 S,7,10426,11326,0.1,0
Sprite,Foreground,Centre,"sb/particle.png",0,0 M,7,2540,3440,202,306,228.2427,414.8821 S,7,2540,3440,0.1,0 M,7,5112,6012,447,221,356.8834,180.0122 S,7,5112,6012,0.1,0 M,7,8026,8926,352,208,272.0147,209.5353 S,7,8026,8926,0.1,0 M,7,10426,11326,424,118,510.2978,182.9361 S,7,10426,11326,0.1,0
Sprite,Foreground,Centre,"sb/particle.png",0,0 M,7,2540,3440,202,306,311.5953,267.9886 S,7,2540,3440,0.1,0 M,7,5112,6012,447,221,360.2167,296.4564 S,7,5112,6012,0.1,0 M,7,8026,8926,352,208,407.0775,293.8514 S,7,8026,8926,0.1,0 M,7,10426,11326,424,118,443.8424,27.14143 S,7,10426,11326,0.1,0
Sprite,Foreground,Centre,"sb/particle.png",0,0 M,7,2540,3440,202,306,90.82417,272.8951 S,7,2540,3440,0.1,0 M,7,5112,6012,447,221,347.7816,208.5216 S,7,5112,6012,0.1,0 M,7,8026,8926,352,208,454.6667,181.6265 S,7,8026,8926,0.1,0 M,7,10426,11326,424,118,430.2639,27.21584 S,7,10426,11326,0.1,0
Sprite,Foreground,Centre,"sb/particle.png",0,0 M,7,2540,3440,202,306,252.5008,215.0843 S,7,2540,3440,0.1,0 M,7,5112,6012,447,221,530.4751,169.6589 S,7,5112,6012,0.1,0 M,7,8026,8926,352,208,394.9199,312.5317 S,7,8026,8926,0.1,0 M,7,10426,11326,424,118,382.7231,228.5451 S,7,10426,11326,0.1,0
Sprite,Foreground,Centre,"sb/particle.png",0,0 M,7,2540,3440,202,306,297.5112,241.9484 S,7,2540,3440,0.1,0 M,7,5112,6012,447,221,467.6579,317.8207 S,7,5112,6012,0.1,0 M,7,8026,8926,352,208,286.8503,154.9762 S,7,8026,8926,0.1,0 M,7,10426,11326,424,118,453.6825,16.24073 S,7,10426,11326,0.1,0
Sprite,Foreground,Centre,"sb/particle.png",0,0 M,7,2540,3440,202,306,116.3286,254.4209 S,7,2540,3440,0.1,0 M,7,5112,6012,447,221,536.3934,288.4746 S,7,5112,6012,0.1,0 M,7,8026,8926,352,208,437.2381,236.8873 S,7,8026,8926,0.1,0 M,7,10426,11326,424,118,525.5219,59.84243 S,7,10426,11326,0.1,0
Sprite,Foreground,Centre,"sb/particle.png",0,0 M,7,2540,3440,202,306,267.8699,382.5647 S,7,2540,3440,0.1,0 M,7,5112,6012,447,221,458.2672,308.2757 S,7,5112,6012,0.1,0 M,7,8026,8926,352,208,269.353,258.7787 S,7,8026,8926,0.1,0 M,7,10426,11326,424,118,328.6409,106.9255 S,7,10426,11326,0.1,0
Sprite,Foreground,Centre,"sb/particle.png",0,0 M,7,5283,6183,363,236,350.8864,324.1718 S,7,5283,6183,0.1,0 M,7,10598,11498,334,240,322.025,150.8002 S,7,10598,11498,0.1,0
Sprite,Foreground,Centre,"sb/particle.png",0,0 M,7,5283,6183,363,236,307.5555,295.05 S,7,5283,6183,0.1,0 M,7,10598,11498,334,240,361.7708,137.7025 S,7,10598,11498,0.1,0
Sprite,Foreground,Centre,"sb/particle.png",0,0 M,7,5283,6183,363,236,463.6292,244.646 S,7,5283,6183,0.1,0 M,7,10598,11498,334,240,275.8738,176.6175 S,7,10598,11498,0.1,0
Sprite,Foreground,Centre,"sb/particle.png",0,0 M,7,5283,6183,363,236,340.84,153.9395 S,7,5283,6183,0.1,0 M,7,10598,11498,334,240,360.0776,164.3696 S,7,10598,11498,0.1,0
Sprite,Foreground,Centre,"sb/particle.png",0,0 M,7,5283,6183,363,236,424.3415,305.9015 S,7,5283,6183,0.1,0 M,7,10598,11498,334,240,349.0335,341.897 S,7,10598,11498,0.1,0
Sprite,Foreground,Centre,"sb/particle.png",0,0 M,7,5283,6183,363,236,424.8121,151.1221 S,7,5283,6183,0.1,0 M,7,10598,11498,334,240,253.1379,285.9382 S,7,10598,11498,0.1,0
Sprite,Foreground,Centre,"sb/particle.png",0,0 M,7,5283,6183,363,236,281.5907,202.5855 S,7,5283,6183,0.1,0 M,7,10598,11498,334,240,243.274,215.4075 S,7,10598,11498,0.1,0
Sprite,Foreground,Centre,"sb/particle.png",0,0 M,7,5283,6183,363,236,443.8357,192.0729 S,7,5283,6183,0.1,0 M,7,10598,11498,334,240,362.5962,133.782 S,7,10598,11498,0.1,0
Sprite,Foreground,Centre,"sb/glow.png",0,0 M,0,54998,,109,246 S,0,54998,55998,1,1.2 F,1,54998,55998,0.3,0 C,0,54998,,130,235,247 P,0,54998,,A M,0,54998,55040,109,246,113.9221,273.564 M,0,55040,55083,113.9221,273.564,118.8443,301.1279 M,0,56026,,404,364 S,0,56026,57026,1,1.2 F,1,56026,57026,0.3,0 C,0,56026,,200,200,255 P,0,56026,,A M,0,56026,56068,404,364,398.8526,391.4653 M,0,56068,56111,398.8526,391.4653,388,417 M,0,57055,,528,413 S,0,57055,58055,1,1.2 F,1,57055,58055,0.3,0 C,0,57055,,130,235,247 P,0,57055,,A M,0,58083,,422,215 S,0,58083,59083,1,1.2 F,1,58083,59083,0.3,0 C,0,58083,,200,200,255 P,0,58083,,A M,0,58083,58125,422,215,396.2496,211.3208 M,0,58125,58168,396.2496,211.3208,381.5414,232.1317 M,0,58168,58211,381.5414,232.1317,393.0587,254.7872 M,0,58211,58254,393.0587,254.7872,418.5783,253.5914 M,0,59112,,368,222 S,0,59112,60112,1,1.2 F,1,59112,60112,0.3,0 C,0,59112,,252,167,188 P,0,59112,,A M,0,59112,59154,368,222,362.7241,194.59 M,0,59154,59197,362.7241,194.59,350.5972,175.7875 M,0,60140,,457,240 S,0,60140,61140,1,1.2 F,1,60140,61140,0.3,0 C,0,60140,,130,235,247 P,0,60140,,A M,0,61169,,530,417 S,0,61169,62169,1,1.2 F,1,61169,62169,0.3,0 C,0,61169,,191,255,223 P,0,61169,,A M,0,61169,61211,530,417,548.7959,410.1651 M,0,61211,61254,548.7959,410.1651,567.5917,403.3303 M,0,62369,,374,297 S,0,62369,63369,1,1.2 F,1,62369,63369,0.3,0 C,0,62369,,252,167,188 P,0,62369,,A M,0,63398,,242,309 S,0,63398,64398,1,1.2 F,1,63398,64398,0.3,0 C,0,63398,,130,235,247 P,0,63398,,A M,0,64426,,64,250 S,0,64426,65426,1,1.2 F,1,64426,65426,0.3,0 C,0,64426,,200,200,255 P,0,64426,,A M,0,65455,,172,237 S,0,65455,66455,1,1.2 F,1,65455,66455,0.3,0 C,0,65455,,191,255,223 P,0,65455,,A M,0,65455,65497,172,237,191.3859,232.6055 M,0,65497,65540,191.3859,232.6055,211.1902,233.6392 M,0,66483,,227,56 S,0,66483,67483,1,1.2 F,1,66483,67483,0.3,0 C,0,66483,,252,167,188 P,0,66483,,A M,0,67511,,547,141 S,0,67511,68511,1,1.2 F,1,67511,68511,0.3,0 C,0,67511,,200,200,255 P,0,67511,,A M,0,68540,,354,303 S,0,68540,69540,1,1.2 F,1,68540,69540,0.3,0 C,0,68540,,252,167,188 P,0,68540,,A M,0,69569,,288,399 S,0,69569,70569,1,1.2 F,1,69569,70569,0.3,0 C,0,69569,,200,200,255 P,0,69569,,A M,0,69569,69611,288,399,271.6309,389.4715 M,0,69611,69654,271.6309,389.4715,290.5856,387.4579 M,0,70769,,462,178 S,0,70769,71769,1,1.2 F,1,70769,71769,0.3,0 C,0,70769,,130,235,247 P,0,70769,,A M,0,70769,70811,462,178,434.6712,173.218 M,0,70811,70854,434.6712,173.218,407.7158,179.4743 M,0,71798,,535,141 S,0,71798,72798,1,1.2 F,1,71798,72798,0.3,0 C,0,71798,,191,255,223 P,0,71798,,A M,0,71798,71840,535,141,507.124,140.2556 M,0,71840,71883,507.124,140.2556,482.2852,128.072 M,0,71883,71926,482.2852,128.072,465.2577,105.9944 M,0,71926,71969,465.2577,105.9944,450.6317,82.13654 M,0,71969,72012,450.6317,82.13654,429.3198,64.53775 M,0,72012,72055,429.3198,64.53775,401.8202,60.86285 M,0,72826,,146,149 S,0,72826,73826,1,1.2 F,1,72826,73826,0.3,0 C,0,72826,,130,235,247 P,0,72826,,A M,0,73855,,192,402 S,0,73855,74855,1,1.2 F,1,73855,74855,0.3,0 C,0,73855,,252,167,188 P,0,73855,,A M,0,74883,,467,265 S,0,74883,75883,1,1.2 F,1,74883,75883,0.3,0 C,0,74883,,200,200,255 P,0,74883,,A M,0,74883,74925,467,265,471.1169,237.3043 M,0,74925,74968,471.1169,237.3043,475.2339,209.6086 M,0,75912,,462,96 S,0,75912,76912,1,1.2 F,1,75912,76912,0.3,0 C,0,75912,,252,167,188 P,0,75912,,A M,0,75912,75954,462,96,485.548,83.16597 M,0,75954,75997,485.548,83.16597,490.8965,57.2244
Sprite,Foreground,Centre,"sb/glow.png",0,0 M,0,55169,,103,350 S,0,55169,56169,1,1.2 F,1,55169,56169,0.3,0 C,0,55169,,130,235,247 P,0,55169,,A M,0,55169,55211,103,350,98.07787,322.436 M,0,55211,55254,98.07787,322.436,93.15572,294.8721 M,0,56198,,399,421 S,0,56198,57198,1,1.2 F,1,56198,57198,0.3,0 C,0,56198,,200,200,255 P,0,56198,,A M,0,56198,56240,399,421,410.1706,395.3798 M,0,56240,56283,410.1706,395.3798,416,369 M,0,57226,,569,339 S,0,57226,58226,1,1.2 F,1,57226,58226,0.3,0 C,0,57226,,130,235,247 P,0,57226,,A M,0,58426,,534,246 S,0,58426,59426,1,1.2 F,1,58426,59426,0.3,0 C,0,58426,,191,255,223 P,0,58426,,A M,0,58426,58468,534,246,517.9005,266.6263 M,0,58468,58511,517.9005,266.6263,492.6309,262.2301 M,0,59455,,319,177 S,0,59455,60455,1,1.2 F,1,59455,60455,0.3,0 C,0,59455,,252,167,188 P,0,59455,,A M,0,59455,59497,319,177,346.9667,177.9118 M,0,59497,59540,346.9667,177.9118,374.8315,175.2837 M,0,59540,59583,374.8315,175.2837,402.7072,172.8072 M,0,59583,59626,402.7072,172.8072,430.5957,174.8243 M,0,59626,59669,430.5957,174.8243,458.2386,179.2426 M,0,59669,59712,458.2386,179.2426,486.1362,178.3117 M,0,60483,,509,294 S,0,60483,61483,1,1.2 F,1,60483,61483,0.3,0 C,0,60483,,200,200,255 P,0,60483,,A M,0,61512,,539,306 S,0,61512,62512,1,1.2 F,1,61512,62512,0.3,0 C,0,61512,,191,255,223 P,0,61512,,A M,0,61512,61554,539,306,557.7959,299.1652 M,0,61554,61597,557.7959,299.1652,576.5917,292.3303 M,0,62540,,372,398 S,0,62540,63540,1,1.2 F,1,62540,63540,0.3,0 C,0,62540,,252,167,188 P,0,62540,,A M,0,63569,,177,347 S,0,63569,64569,1,1.2 F,1,63569,64569,0.3,0 C,0,63569,,130,235,247 P,0,63569,,A M,0,64598,,81,321 S,0,64598,65598,1,1.2 F,1,64598,65598,0.3,0 C,0,64598,,200,200,255 P,0,64598,,A M,0,64598,64640,81,321,99.53295,313.8004 M,0,64640,64683,99.53295,313.8004,115.4766,301.9925 M,0,64683,64726,115.4766,301.9925,127.8708,286.5093 M,0,64726,64769,127.8708,286.5093,135.2202,268.0715 M,0,64769,64812,135.2202,268.0715,137.7289,248.3755 M,0,64812,64855,137.7289,248.3755,134.2761,228.8182 M,0,64855,64897,134.2761,228.8182,126.1374,210.6771 M,0,64897,64940,126.1374,210.6771,113.0463,195.667 M,0,65626,,241,263 S,0,65626,66626,1,1.2 F,1,65626,66626,0.3,0 C,0,65626,,191,255,223 P,0,65626,,A M,0,66655,,335,104 S,0,66655,67655,1,1.2 F,1,66655,67655,0.3,0 C,0,66655,,130,235,247 P,0,66655,,A M,0,66655,66697,335,104,360.1347,91.66115 M,0,66697,66740,360.1347,91.66115,385.2694,79.3223 M,0,66740,66783,385.2694,79.3223,370.2409,65.76446 M,0,66783,66826,370.2409,65.76446,345.9008,51.924 M,0,66826,66869,345.9008,51.924,337.518,68.00673 M,0,66869,66912,337.518,68.00673,335.4496,95.93022 M,0,67683,,552,157 S,0,67683,68683,1,1.2 F,1,67683,68683,0.3,0 C,0,67683,,191,255,223 P,0,67683,,A M,0,68712,,488,231 S,0,68712,69712,1,1.2 F,1,68712,69712,0.3,0 C,0,68712,,130,235,247 P,0,68712,,A M,0,69740,,374,434 S,0,69740,70740,1,1.2 F,1,69740,70740,0.3,0 C,0,69740,,191,255,223 P,0,69740,,A M,0,69740,69782,374,434,401.0436,428.3274 M,0,69782,69825,401.0436,428.3274,422.4074,410.9671 M,0,70940,,535,141 S,0,70940,71940,1,1.2 F,1,70940,71940,0.3,0 C,0,70940,,130,235,247 P,0,70940,,A M,0,70940,70982,535,141,518.668,118.5111 M,0,70982,71025,518.668,118.5111,495.4915,103.2755 M,0,72140,,301,81 S,0,72140,73140,1,1.2 F,1,72140,73140,0.3,0 C,0,72140,,252,167,188 P,0,72140,,A M,0,72140,72182,301,81,298.5099,108.8891 M,0,72182,72225,298.5099,108.8891,296.0198,136.7781 M,0,73169,,212,233 S,0,73169,74169,1,1.2 F,1,73169,74169,0.3,0 C,0,73169,,200,200,255 P,0,73169,,A M,0,74198,,378,424 S,0,74198,75198,1,1.2 F,1,74198,75198,0.3,0 C,0,74198,,130,235,247 P,0,74198,,A M,0,74198,74240,378,424,350.7658,417.4963 M,0,74240,74283,350.7658,417.4963,323.5316,410.9926 M,0,75226,,546,186 S,0,75226,76226,1,1.2 F,1,75226,76226,0.3,0 C,0,75226,,191,255,223 P,0,75226,,A M,0,76255,,294,157 S,0,76255,77255,1,1.2 F,1,76255,77255,0.3,0 C,0,76255,,252,167,188 P,0,76255,,A M,0,76255,76297,294,157,321.0193,149.7757 M,0,76297,76340,321.0193,149.7757,348.8375,146.8169 M,0,76340,76383,348.8375,146.8169,376.809,147.5983 M,0,76383,76426,376.809,147.5983,400.9464,135.0349 M,0,76426,76469,400.9464,135.0349,376.809,147.5983 M,0,76469,76512,376.809,147.5983,348.8375,146.8169 M,0,76512,76554,348.8375,146.8169,321.0193,149.7757 M,0,76554,76597,321.0193,149.7757,294,157
Sprite,Foreground,Centre,"sb/glow.png",0,0 M,0,55340,,194,349 S,0,55340,56340,1,1.2 F,1,55340,56340,0.3,0 C,0,55340,,130,235,247 P,0,55340,,A M,0,56369,,498,411 S,0,56369,57369,1,1.2 F,1,56369,57369,0.3,0 C,0,56369,,191,255,223 P,0,56369,,A M,0,57398,,534,246 S,0,57398,58398,1,1.2 F,1,57398,58398,0.3,0 C,0,57398,,130,235,247 P,0,57398,,A M,0,58598,,422,215 S,0,58598,59598,1,1.2 F,1,58598,59598,0.3,0 C,0,58598,,191,255,223 P,0,58598,,A M,0,58598,58640,422,215,395.7568,210.7017 M,0,58640,58683,395.7568,210.7017,380,232 M,0,59798,,507,172 S,0,59798,60798,1,1.2 F,1,59798,60798,0.3,0 C,0,59798,,130,235,247 P,0,59798,,A M,0,60826,,482,410 S,0,60826,61826,1,1.2 F,1,60826,61826,0.3,0 C,0,60826,,200,200,255 P,0,60826,,A M,0,61855,,365,308 S,0,61855,62855,1,1.2 F,1,61855,62855,0.3,0 C,0,61855,,252,167,188 P,0,61855,,A M,0,61855,61897,365,308,356.4423,325.9543 M,0,61897,61940,356.4423,325.9543,352.902,345.4816 M,0,61940,61983,352.902,345.4816,354.6087,365.2314 M,0,61983,62026,354.6087,365.2314,361.2715,383.901 M,0,62026,62069,361.2715,383.901,354.6087,365.2314 M,0,62069,62112,354.6087,365.2314,352.902,345.4816 M,0,62112,62154,352.902,345.4816,356.4423,325.9543 M,0,62154,62197,356.4423,325.9543,365,308 M,0,62883,,242,394 S,0,62883,63883,1,1.2 F,1,62883,63883,0.3,0 C,0,62883,,252,167,188 P,0,62883,,A M,0,63912,,71,407 S,0,63912,64912,1,1.2 F,1,63912,64912,0.3,0 C,0,63912,,200,200,255 P,0,63912,,A M,0,63912,63954,71,407,78.12868,420.6498 M,0,63954,63997,78.12868,420.6498,80.70117,401.0345 M,0,63997,64040,80.70117,401.0345,79.37766,381.0814 M,0,64040,64083,79.37766,381.0814,77.85699,361.1402 M,0,64083,64126,77.85699,361.1402,77.7931,341.1524 M,0,64126,64169,77.7931,341.1524,81.3104,321.5225 M,0,65112,,78,169 S,0,65112,66112,1,1.2 F,1,65112,66112,0.3,0 C,0,65112,,191,255,223 P,0,65112,,A M,0,65112,65154,78,169,86.38116,150.8408 M,0,65154,65197,86.38116,150.8408,95,153 M,0,66140,,332,213 S,0,66140,67140,1,1.2 F,1,66140,67140,0.3,0 C,0,66140,,252,167,188 P,0,66140,,A M,0,66140,66182,332,213,305.4369,204.1456 M,0,66182,66225,305.4369,204.1456,278.8737,195.2912 M,0,67169,,466,124 S,0,67169,68169,1,1.2 F,1,67169,68169,0.3,0 C,0,67169,,130,235,247 P,0,67169,,A M,0,67169,67211,466,124,477.9592,98.92498 M,0,67211,67254,477.9592,98.92498,479,72 M,0,68198,,562,245 S,0,68198,69198,1,1.2 F,1,68198,69198,0.3,0 C,0,68198,,252,167,188 P,0,68198,,A M,0,69398,,354,303 S,0,69398,70398,1,1.2 F,1,69398,70398,0.3,0 C,0,69398,,200,200,255 P,0,69398,,A M,0,69398,69440,354,303,349.1577,329.4408 M,0,69440,69483,349.1577,329.4408,364.88,350.8865 M,0,70426,,569,401 S,0,70426,71426,1,1.2 F,1,70426,71426,0.3,0 C,0,70426,,252,167,188 P,0,70426,,A M,0,70426,70468,569,401,557.5516,375.7005 M,0,70468,70511,557.5516,375.7005,557.6539,347.829 M,0,70511,70554,557.6539,347.829,562.4484,320.2447 M,0,70554,70597,562.4484,320.2447,566.0228,292.4871 M,0,70597,70640,566.0228,292.4871,565.8044,264.518 M,0,70640,70683,565.8044,264.518,561.0519,236.9567 M,0,71455,,569,341 S,0,71455,72455,1,1.2 F,1,71455,72455,0.3,0 C,0,71455,,191,255,223 P,0,71455,,A M,0,72483,,151,93 S,0,72483,73483,1,1.2 F,1,72483,73483,0.3,0 C,0,72483,,252,167,188 P,0,72483,,A M,0,72483,72525,151,93,148.5099,120.8891 M,0,72525,72568,148.5099,120.8891,146.0198,148.7781 M,0,73512,,238,333 S,0,73512,74512,1,1.2 F,1,73512,74512,0.3,0 C,0,73512,,191,255,223 P,0,73512,,A M,0,74712,,549,409 S,0,74712,75712,1,1.2 F,1,74712,75712,0.3,0 C,0,74712,,130,235,247 P,0,74712,,A M,0,74712,74754,549,409,525.4008,394.2368 M,0,74754,74797,525.4008,394.2368,507.9349,372.5651 M,0,76083,,353,74 S,0,76083,77083,1,1.2 F,1,76083,77083,0.3,0 C,0,76083,,252,167,188 P,0,76083,,A
Sprite,Foreground,Centre,"sb/glow.png",0,0 M,0,55426,,192,358 S,0,55426,56426,1,1.2 F,1,55426,56426,0.3,0 C,0,55426,,130,235,247 P,0,55426,,A M,0,56455,,493,388 S,0,56455,57455,1,1.2 F,1,56455,57455,0.3,0 C,0,56455,,191,255,223 P,0,56455,,A M,0,57569,,422,215 S,0,57569,58569,1,1.2 F,1,57569,58569,0.3,0 C,0,57569,,130,235,247 P,0,57569,,A M,0,58769,,320,292 S,0,58769,59769,1,1.2 F,1,58769,59769,0.3,0 C,0,58769,,191,255,223 P,0,58769,,A M,0,59969,,469,89 S,0,59969,60969,1,1.2 F,1,59969,60969,0.3,0 C,0,59969,,130,235,247 P,0,59969,,A M,0,60998,,512,423 S,0,60998,61998,1,1.2 F,1,60998,61998,0.3,0 C,0,60998,,200,200,255 P,0,60998,,A M,0,62712,,307,432 S,0,62712,63712,1,1.2 F,1,62712,63712,0.3,0 C,0,62712,,252,167,188 P,0,62712,,A M,0,63741,,111,313 S,0,63741,64741,1,1.2 F,1,63741,64741,0.3,0 C,0,63741,,130,235,247 P,0,63741,,A M,0,65283,,64,250 S,0,65283,66283,1,1.2 F,1,65283,66283,0.3,0 C,0,65283,,191,255,223 P,0,65283,,A M,0,66312,,231,80 S,0,66312,67312,1,1.2 F,1,66312,67312,0.3,0 C,0,66312,,252,167,188 P,0,66312,,A M,0,67340,,547,141 S,0,67340,68340,1,1.2 F,1,67340,68340,0.3,0 C,0,67340,,200,200,255 P,0,67340,,A M,0,68369,,485,313 S,0,68369,69369,1,1.2 F,1,68369,69369,0.3,0 C,0,68369,,252,167,188 P,0,68369,,A M,0,69912,,436,335 S,0,69912,70912,1,1.2 F,1,69912,70912,0.3,0 C,0,69912,,191,255,223 P,0,69912,,A M,0,69912,69954,436,335,457.0232,317.0121 M,0,69954,69997,457.0232,317.0121,484,312 M,0,71112,,432,256 S,0,71112,72112,1,1.2 F,1,71112,72112,0.3,0 C,0,71112,,200,200,255 P,0,71112,,A M,0,71112,71154,432,256,409.2273,271.8887 M,0,71154,71197,409.2273,271.8887,394.0127,295.0387 M,0,72312,,226,87 S,0,72312,73312,1,1.2 F,1,72312,73312,0.3,0 C,0,72312,,252,167,188 P,0,72312,,A M,0,72312,72354,226,87,223.5099,114.8891 M,0,72354,72397,223.5099,114.8891,221.0198,142.7781 M,0,73340,,125,266 S,0,73340,74340,1,1.2 F,1,73340,74340,0.3,0 C,0,73340,,200,200,255 P,0,73340,,A M,0,74369,,410,353 S,0,74369,75369,1,1.2 F,1,74369,75369,0.3,0 C,0,74369,,130,235,247 P,0,74369,,A M,0,74369,74411,410,353,437.6561,348.625 M,0,74411,74454,437.6561,348.625,465.3122,344.2501 M,0,74454,74497,465.3122,344.2501,492.9683,339.8751 M,0,74497,74540,492.9683,339.8751,520.6244,335.5001 M,0,74540,74583,520.6244,335.5001,548.2805,331.1251 M,0,74583,74626,548.2805,331.1251,575.9365,326.7502 M,0,75398,,547,167 S,0,75398,76398,1,1.2 F,1,75398,76398,0.3,0 C,0,75398,,191,255,223 P,0,75398,,A M,0,76683,,280,171 S,0,76683,77683,1,1.2 F,1,76683,77683,0.3,0 C,0,76683,,130,235,247 P,0,76683,,A
Sprite,Foreground,Centre,"sb/glow.png",0,0 M,0,55512,,190,367 S,0,55512,56512,1,1.2 F,1,55512,56512,0.3,0 C,0,55512,,130,235,247 P,0,55512,,A M,0,56540,,498,411 S,0,56540,57540,1,1.2 F,1,56540,57540,0.3,0 C,0,56540,,191,255,223 P,0,56540,,A M,0,57740,,556,168 S,0,57740,58740,1,1.2 F,1,57740,58740,0.3,0 C,0,57740,,200,200,255 P,0,57740,,A M,0,58940,,402,317 S,0,58940,59940,1,1.2 F,1,58940,59940,0.3,0 C,0,58940,,191,255,223 P,0,58940,,A M,0,60311,,495,157 S,0,60311,61311,1,1.2 F,1,60311,61311,0.3,0 C,0,60311,,130,235,247 P,0,60311,,A M,0,61340,,467,363 S,0,61340,62340,1,1.2 F,1,61340,62340,0.3,0 C,0,61340,,191,255,223 P,0,61340,,A M,0,61340,61382,467,363,448.2041,356.1651 M,0,61382,61425,448.2041,356.1651,429.4083,349.3303 M,0,63055,,176,428 S,0,63055,64055,1,1.2 F,1,63055,64055,0.3,0 C,0,63055,,252,167,188 P,0,63055,,A M,0,64255,,64,250 S,0,64255,65255,1,1.2 F,1,64255,65255,0.3,0 C,0,64255,,200,200,255 P,0,64255,,A M,0,65798,,153,227 S,0,65798,66798,1,1.2 F,1,65798,66798,0.3,0 C,0,65798,,191,255,223 P,0,65798,,A M,0,66998,,463,67 S,0,66998,67998,1,1.2 F,1,66998,67998,0.3,0 C,0,66998,,130,235,247 P,0,66998,,A M,0,66998,67040,463,67,463.469,94.63419 M,0,67040,67083,463.469,94.63419,452.0968,119.8606 M,0,68026,,569,168 S,0,68026,69026,1,1.2 F,1,68026,69026,0.3,0 C,0,68026,,252,167,188 P,0,68026,,A M,0,69055,,383,171 S,0,69055,70055,1,1.2 F,1,69055,70055,0.3,0 C,0,69055,,130,235,247 P,0,69055,,A M,0,69055,69097,383,171,388.7362,143.5939 M,0,69097,69140,388.7362,143.5939,396.995,117.1135 M,0,69140,69183,396.995,117.1135,408.766,122.6512 M,0,69183,69226,408.766,122.6512,386.3,139.0749 M,0,70083,,576,340 S,0,70083,71083,1,1.2 F,1,70083,71083,0.3,0 C,0,70083,,252,167,188 P,0,70083,,A M,0,70083,70125,576,340,569.314,367.19 M,0,70125,70168,569.314,367.19,562.6279,394.38 M,0,71284,,469,329 S,0,71284,72284,1,1.2 F,1,71284,72284,0.3,0 C,0,71284,,200,200,255 P,0,71284,,A M,0,71284,71326,469,329,464.218,356.3288 M,0,71326,71369,464.218,356.3288,470.4743,383.2842 M,0,72655,,69,154 S,0,72655,73655,1,1.2 F,1,72655,73655,0.3,0 C,0,72655,,252,167,188 P,0,72655,,A M,0,72655,72697,69,154,72.03653,126.1651 M,0,72697,72740,72.03653,126.1651,75,99 M,0,73683,,122,307 S,0,73683,74683,1,1.2 F,1,73683,74683,0.3,0 C,0,73683,,191,255,223 P,0,73683,,A M,0,75055,,475,265 S,0,75055,76055,1,1.2 F,1,75055,76055,0.3,0 C,0,75055,,200,200,255 P,0,75055,,A M,0,75055,75097,475,265,470.8831,237.3043 M,0,75097,75140,470.8831,237.3043,466.7661,209.6086 M,0,76769,,280,171 S,0,76769,77769,1,1.2 F,1,76769,77769,0.3,0 C,0,76769,,130,235,247 P,0,76769,,A M,0,76769,76811,280,171,284.3467,198.6606 M,0,76811,76854,284.3467,198.6606,288.6933,226.3211
Sprite,Foreground,Centre,"sb/glow.png",0,0 M,0,55683,,306,388 S,0,55683,56683,1,1.2 F,1,55683,56683,0.3,0 C,0,55683,,200,200,255 P,0,55683,,A M,0,55683,55725,306,388,328.123,373.5795 M,0,55725,55768,328.123,373.5795,328.2744,347.6125 M,0,55768,55811,328.2744,347.6125,306.9506,332.6126 M,0,55811,55854,306.9506,332.6126,283.1875,343.5191 M,0,55854,55897,283.1875,343.5191,278.1675,369.4687 M,0,55897,55940,278.1675,369.4687,298.2681,387.0375 M,0,56712,,512,412 S,0,56712,57712,1,1.2 F,1,56712,57712,0.3,0 C,0,56712,,252,167,188 P,0,56712,,A M,0,57912,,534,246 S,0,57912,58912,1,1.2 F,1,57912,58912,0.3,0 C,0,57912,,200,200,255 P,0,57912,,A M,0,57912,57954,534,246,517.9005,266.6263 M,0,57954,57997,517.9005,266.6263,492.6309,262.2301 M,0,59283,,368,129 S,0,59283,60283,1,1.2 F,1,59283,60283,0.3,0 C,0,59283,,252,167,188 P,0,59283,,A M,0,59283,59325,368,129,362.7241,156.41 M,0,59325,59368,362.7241,156.41,350.5972,175.2125 M,0,60655,,467,363 S,0,60655,61655,1,1.2 F,1,60655,61655,0.3,0 C,0,60655,,200,200,255 P,0,60655,,A M,0,61683,,444,264 S,0,61683,62683,1,1.2 F,1,61683,62683,0.3,0 C,0,61683,,191,255,223 P,0,61683,,A M,0,63226,,307,343 S,0,63226,64226,1,1.2 F,1,63226,64226,0.3,0 C,0,63226,,130,235,247 P,0,63226,,A M,0,64340,,64,250 S,0,64340,65340,1,1.2 F,1,64340,65340,0.3,0 C,0,64340,,200,200,255 P,0,64340,,A M,0,65969,,251,152 S,0,65969,66969,1,1.2 F,1,65969,66969,0.3,0 C,0,65969,,252,167,188 P,0,65969,,A M,0,65969,66011,251,152,277.7003,160.4317 M,0,66011,66054,277.7003,160.4317,304.4006,168.8634 M,0,67426,,570,136 S,0,67426,68426,1,1.2 F,1,67426,68426,0.3,0 C,0,67426,,200,200,255 P,0,67426,,A M,0,68883,,482,235 S,0,68883,69883,1,1.2 F,1,68883,69883,0.3,0 C,0,68883,,130,235,247 P,0,68883,,A M,0,68883,68925,482,235,474.7617,207.9518 M,0,68925,68968,474.7617,207.9518,467.5235,180.9035 M,0,70255,,569,341 S,0,70255,71255,1,1.2 F,1,70255,71255,0.3,0 C,0,70255,,252,167,188 P,0,70255,,A M,0,70255,70297,569,341,563.2096,368.3119 M,0,70297,70340,563.2096,368.3119,563.53,396.23 M,0,71626,,561,236 S,0,71626,72626,1,1.2 F,1,71626,72626,0.3,0 C,0,71626,,191,255,223 P,0,71626,,A M,0,72998,,112,222 S,0,72998,73998,1,1.2 F,1,72998,73998,0.3,0 C,0,72998,,130,235,247 P,0,72998,,A M,0,74026,,313,380 S,0,74026,75026,1,1.2 F,1,74026,75026,0.3,0 C,0,74026,,252,167,188 P,0,74026,,A M,0,75312,,569,181 S,0,75312,76312,1,1.2 F,1,75312,76312,0.3,0 C,0,75312,,191,255,223 P,0,75312,,A
Sprite,Foreground,Centre,"sb/glow.png",0,0 M,0,56626,,493,388 S,0,56626,57626,1,1.2 F,1,56626,57626,0.3,0 C,0,56626,,191,255,223 P,0,56626,,A M,0,66398,,229,68 S,0,66398,67398,1,1.2 F,1,66398,67398,0.3,0 C,0,66398,,252,167,188 P,0,66398,,A M,0,67597,,570,136 S,0,67597,68597,1,1.2 F,1,67597,68597,0.3,0 C,0,67597,,200,200,255 P,0,67597,,A M,0,75484,,570,162 S,0,75484,76484,1,1.2 F,1,75484,76484,0.3,0 C,0,75484,,191,255,223 P,0,75484,,A
Sprite,Foreground,Centre,"sb/glow.png",0,0 M,0,56798,,507,389 S,0,56798,57798,1,1.2 F,1,56798,57798,0.3,0 C,0,56798,,252,167,188 P,0,56798,,A M,0,67769,,575,152 S,0,67769,68769,1,1.2 F,1,67769,68769,0.3,0 C,0,67769,,191,255,223 P,0,67769,,A M,0,75569,,545,126 S,0,75569,76569,1,1.2 F,1,75569,76569,0.3,0 C,0,75569,,252,167,188 P,0,75569,,A M,0,75569,75611,545,126,552.4899,99.65258 M,0,75611,75654,552.4899,99.65258,543.8101,73.84637 M,0,75654,75697,543.8101,73.84637,522.2185,57.26484 M,0,75697,75740,522.2185,57.26484,494.9622,56.67402 M,0,75740,75783,494.9622,56.67402,471.8835,71.2504 M,0,75783,75826,471.8835,71.2504,462.0653,96.73434
Sprite,Foreground,Centre,"sb/glow.png",0,0 M,0,56883,,512,412 S,0,56883,57883,1,1.2 F,1,56883,57883,0.3,0 C,0,56883,,252,167,188 P,0,56883,,A M,0,67854,,552,157 S,0,67854,68854,1,1.2 F,1,67854,68854,0.3,0 C,0,67854,,191,255,223 P,0,67854,,A
Sprite,Foreground,Centre,"sb/glow.png",0,0 M,0,56969,,507,389 S,0,56969,57969,1,1.2 F,1,56969,57969,0.3,0 C,0,56969,,252,167,188 P,0,56969,,A M,0,67940,,575,152 S,0,67940,68940,1,1.2 F,1,67940,68940,0.3,0 C,0,67940,,191,255,223 P,0,67940,,A
Sprite,Foreground,Centre,"sb/glow.png",0,0 M,0,123569,,252,229 S,0,123569,124569,1,1.2 F,1,123569,124569,0.3,0 C,0,123569,,191,255,223 P,0,123569,,A M,0,123569,123611,252,229,258.2432,199.6568 M,0,123611,123654,258.2432,199.6568,269.3817,172.6051 M,0,123654,123697,269.3817,172.6051,275.7886,144.0181 M,0,123697,123740,275.7886,144.0181,274.5677,114.7032 M,0,123740,123783,274.5677,114.7032,276.8079,85.24886 M,0,123783,123826,276.8079,85.24886,281.3696,55.5977 M,0,124598,,195,144 S,0,124598,125598,1,1.2 F,1,124598,125598,0.3,0 C,0,124598,,130,235,247 P,0,124598,,A M,0,124598,124640,195,144,167.9515,156.1181 M,0,124640,124683,167.9515,156.1181,138.31,155.9942 M,0,125626,,328,56 S,0,125626,126626,1,1.2 F,1,125626,126626,0.3,0 C,0,125626,,252,167,188 P,0,125626,,A M,0,126655,,576,238 S,0,126655,127655,1,1.2 F,1,126655,127655,0.3,0 C,0,126655,,130,235,247 P,0,126655,,A M,0,126655,126697,576,238,561.7176,262.15 M,0,126697,126740,561.7176,262.15,534.3191,257.1724 M,0,126740,126783,534.3191,257.1724,528.1531,228.5893 M,0,126783,126826,528.1531,228.5893,534.4454,199.3087 M,0,127683,,495,276 S,0,127683,128683,1,1.2 F,1,127683,128683,0.3,0 C,0,127683,,200,200,255 P,0,127683,,A M,0,127683,127725,495,276,485.5132,304.4605 M,0,127725,127768,485.5132,304.4605,481.254,332.8963 M,0,128712,,162,409 S,0,128712,129712,1,1.2 F,1,128712,129712,0.3,0 C,0,128712,,191,255,223 P,0,128712,,A M,0,129740,,118,285 S,0,129740,130740,1,1.2 F,1,129740,130740,0.3,0 C,0,129740,,252,167,188 P,0,129740,,A M,0,130769,,207,154 S,0,130769,131769,1,1.2 F,1,130769,131769,0.3,0 C,0,130769,,130,235,247 P,0,130769,,A M,0,131798,,431,246 S,0,131798,132798,1,1.2 F,1,131798,132798,0.3,0 C,0,131798,,252,167,188 P,0,131798,,A M,0,132826,,530,84 S,0,132826,133826,1,1.2 F,1,132826,133826,0.3,0 C,0,132826,,252,167,188 P,0,132826,,A M,0,134026,,391,214 S,0,134026,135026,1,1.2 F,1,134026,135026,0.3,0 C,0,134026,,130,235,247 P,0,134026,,A M,0,134026,134068,391,214,381.2178,185.7603 M,0,134068,134111,381.2178,185.7603,365.0583,160.6191 M,0,135055,,217,202 S,0,135055,136055,1,1.2 F,1,135055,136055,0.3,0 C,0,135055,,200,200,255 P,0,135055,,A M,0,136083,,477,253 S,0,136083,137083,1,1.2 F,1,136083,137083,0.3,0 C,0,136083,,252,167,188 P,0,136083,,A M,0,137112,,116,260 S,0,137112,138112,1,1.2 F,1,137112,138112,0.3,0 C,0,137112,,200,200,255 P,0,137112,,A M,0,138140,,354,140 S,0,138140,139140,1,1.2 F,1,138140,139140,0.3,0 C,0,138140,,130,235,247 P,0,138140,,A M,0,138140,138182,354,140,358.7054,110.49 M,0,138182,138225,358.7054,110.49,356.1838,80.72018 M,0,139340,,471,65 S,0,139340,140340,1,1.2 F,1,139340,140340,0.3,0 C,0,139340,,200,200,255 P,0,139340,,A M,0,140369,,303,152 S,0,140369,141369,1,1.2 F,1,140369,141369,0.3,0 C,0,140369,,191,255,223 P,0,140369,,A M,0,140369,140411,303,152,276.7129,165.9592 M,0,140411,140454,276.7129,165.9592,256.7116,187.9786 M,0,140454,140497,256.7116,187.9786,246.2856,215.8301 M,0,140497,140540,246.2856,215.8301,246.0574,245.5398 M,0,140540,140583,246.0574,245.5398,256.7017,273.2905 M,0,140583,140626,256.7017,273.2905,276.1842,295.764 M,0,141398,,69,290 S,0,141398,142398,1,1.2 F,1,141398,142398,0.3,0 C,0,141398,,252,167,188 P,0,141398,,A M,0,141398,141440,69,290,81.99531,263.1656 M,0,141440,141483,81.99531,263.1656,86.32071,233.6826 M,0,142426,,251,209 S,0,142426,143426,1,1.2 F,1,142426,143426,0.3,0 C,0,142426,,130,235,247 P,0,142426,,A M,0,143455,,345,293 S,0,143455,144455,1,1.2 F,1,143455,144455,0.3,0 C,0,143455,,200,200,255 P,0,143455,,A M,0,143455,143497,345,293,356.4084,313.5909 M,0,143497,143540,356.4084,313.5909,334.7029,314.9616 M,0,144655,,356,398 S,0,144655,145655,1,1.2 F,1,144655,145655,0.3,0 C,0,144655,,252,167,188 P,0,144655,,A M,0,144655,144697,356,398,349.0759,420.7062 M,0,144697,144740,349.0759,420.7062,332.492,406.2556
Sprite,Foreground,Centre,"sb/glow.png",0,0 M,0,123912,,371,104 S,0,123912,124912,1,1.2 F,1,123912,124912,0.3,0 C,0,123912,,191,255,223 P,0,123912,,A M,0,124940,,281,56 S,0,124940,125940,1,1.2 F,1,124940,125940,0.3,0 C,0,124940,,200,200,255 P,0,124940,,A M,0,125969,,379,221 S,0,125969,126969,1,1.2 F,1,125969,126969,0.3,0 C,0,125969,,252,167,188 P,0,125969,,A M,0,126998,,576,56 S,0,126998,127998,1,1.2 F,1,126998,127998,0.3,0 C,0,126998,,130,235,247 P,0,126998,,A M,0,128026,,576,398 S,0,128026,129026,1,1.2 F,1,128026,129026,0.3,0 C,0,128026,,200,200,255 P,0,128026,,A M,0,128026,128068,576,398,546.9043,404.0215 M,0,128068,128111,546.9043,404.0215,517.6278,398.211 M,0,128111,128154,517.6278,398.211,489.6877,408.7684 M,0,128154,128197,489.6877,408.7684,460.0012,407.2671 M,0,129055,,196,337 S,0,129055,130055,1,1.2 F,1,129055,130055,0.3,0 C,0,129055,,252,167,188 P,0,129055,,A M,0,129055,129097,196,337,176.2949,359.3296 M,0,129097,129140,176.2949,359.3296,164.9491,386.8514 M,0,130083,,134,295 S,0,130083,131083,1,1.2 F,1,130083,131083,0.3,0 C,0,130083,,252,167,188 P,0,130083,,A M,0,131112,,296,104 S,0,131112,132112,1,1.2 F,1,131112,132112,0.3,0 C,0,131112,,200,200,255 P,0,131112,,A M,0,132140,,479,243 S,0,132140,133140,1,1.2 F,1,132140,133140,0.3,0 C,0,132140,,252,167,188 P,0,132140,,A M,0,133169,,461,134 S,0,133169,134169,1,1.2 F,1,133169,134169,0.3,0 C,0,133169,,252,167,188 P,0,133169,,A M,0,134198,,261,95 S,0,134198,135198,1,1.2 F,1,134198,135198,0.3,0 C,0,134198,,130,235,247 P,0,134198,,A M,0,135226,,281,347 S,0,135226,136226,1,1.2 F,1,135226,136226,0.3,0 C,0,135226,,191,255,223 P,0,135226,,A M,0,135226,135268,281,347,309.8531,354.8245 M,0,135268,135311,309.8531,354.8245,339.3922,351.3368 M,0,135311,135354,339.3922,351.3368,366.2383,338.0362 M,0,135354,135397,366.2383,338.0362,393.7474,326.2931 M,0,135397,135440,393.7474,326.2931,423.527,324.7298 M,0,135440,135483,423.527,324.7298,452.5002,332.248 M,0,136255,,448,255 S,0,136255,137255,1,1.2 F,1,136255,137255,0.3,0 C,0,136255,,130,235,247 P,0,136255,,A M,0,137283,,121,113 S,0,137283,138283,1,1.2 F,1,137283,138283,0.3,0 C,0,137283,,191,255,223 P,0,137283,,A M,0,137283,137325,121,113,109.4658,85.73059 M,0,137325,137368,109.4658,85.73059,87.29749,66.20206 M,0,138312,,368,214 S,0,138312,139312,1,1.2 F,1,138312,139312,0.3,0 C,0,138312,,130,235,247 P,0,138312,,A M,0,139512,,356,80 S,0,139512,140512,1,1.2 F,1,139512,140512,0.3,0 C,0,139512,,200,200,255 P,0,139512,,A M,0,140712,,282,313 S,0,140712,141712,1,1.2 F,1,140712,141712,0.3,0 C,0,140712,,191,255,223 P,0,140712,,A M,0,140712,140754,282,313,253.191,305.1754 M,0,140754,140797,253.191,305.1754,223.3693,305.4858 M,0,141740,,87,112 S,0,141740,142740,1,1.2 F,1,141740,142740,0.3,0 C,0,141740,,252,167,188 P,0,141740,,A M,0,142769,,94,344 S,0,142769,143769,1,1.2 F,1,142769,143769,0.3,0 C,0,142769,,200,200,255 P,0,142769,,A M,0,143798,,239,387 S,0,143798,144798,1,1.2 F,1,143798,144798,0.3,0 C,0,143798,,191,255,223 P,0,143798,,A M,0,144826,,394,331 S,0,144826,145826,1,1.2 F,1,144826,145826,0.3,0 C,0,144826,,130,235,247 P,0,144826,,A
Sprite,Foreground,Centre,"sb/glow.png",0,0 M,0,123998,,352,87 S,0,123998,124998,1,1.2 F,1,123998,124998,0.3,0 C,0,123998,,191,255,223 P,0,123998,,A M,0,125026,,284,73 S,0,125026,126026,1,1.2 F,1,125026,126026,0.3,0 C,0,125026,,200,200,255 P,0,125026,,A M,0,126140,,492,266 S,0,126140,127140,1,1.2 F,1,126140,127140,0.3,0 C,0,126140,,252,167,188 P,0,126140,,A M,0,127169,,548,126 S,0,127169,128169,1,1.2 F,1,127169,128169,0.3,0 C,0,127169,,130,235,247 P,0,127169,,A M,0,128369,,331,415 S,0,128369,129369,1,1.2 F,1,128369,129369,0.3,0 C,0,128369,,191,255,223 P,0,128369,,A M,0,128369,128411,331,415,314.8744,390.0789 M,0,128411,128454,314.8744,390.0789,314.8074,360.5801 M,0,129398,,88,368 S,0,129398,130398,1,1.2 F,1,129398,130398,0.3,0 C,0,129398,,252,167,188 P,0,129398,,A M,0,129398,129440,88,368,60.52558,361.1146 M,0,129440,129483,60.52558,361.1146,38.75062,378.9785 M,0,129483,129526,38.75062,378.9785,42.43074,406.8626 M,0,129526,129569,42.43074,406.8626,67.03546,420.0024 M,0,129569,129612,67.03546,420.0024,92.26084,406.9191 M,0,129612,129655,92.26084,406.9191,94.8526,378.3778 M,0,130426,,234,221 S,0,130426,131426,1,1.2 F,1,130426,131426,0.3,0 C,0,130426,,130,235,247 P,0,130426,,A M,0,131455,,234,221 S,0,131455,132455,1,1.2 F,1,131455,132455,0.3,0 C,0,131455,,191,255,223 P,0,131455,,A M,0,132483,,576,228 S,0,132483,133483,1,1.2 F,1,132483,133483,0.3,0 C,0,132483,,252,167,188 P,0,132483,,A M,0,132483,132525,576,228,566.5457,256.1743 M,0,132525,132568,566.5457,256.1743,556.7214,279.9292 M,0,132568,132611,556.7214,279.9292,553.3592,250.121 M,0,132611,132654,553.3592,250.121,551.9515,220.1631 M,0,132654,132697,551.9515,220.1631,553.6586,190.2304 M,0,132697,132740,553.6586,190.2304,559.3903,160.8103 M,0,133512,,464,142 S,0,133512,134512,1,1.2 F,1,133512,134512,0.3,0 C,0,133512,,130,235,247 P,0,133512,,A M,0,134540,,305,219 S,0,134540,135540,1,1.2 F,1,134540,135540,0.3,0 C,0,134540,,200,200,255 P,0,134540,,A M,0,134540,134582,305,219,307.1606,248.2797 M,0,134582,134625,307.1606,248.2797,293.199,274.0685 M,0,135569,,461,416 S,0,135569,136569,1,1.2 F,1,135569,136569,0.3,0 C,0,135569,,252,167,188 P,0,135569,,A M,0,135569,135611,461,416,433.6823,422.91 M,0,135611,135654,433.6823,422.91,412.7265,404.3194 M,0,136598,,368,214 S,0,136598,137598,1,1.2 F,1,136598,137598,0.3,0 C,0,136598,,200,200,255 P,0,136598,,A M,0,137626,,277,84 S,0,137626,138626,1,1.2 F,1,137626,138626,0.3,0 C,0,137626,,252,167,188 P,0,137626,,A M,0,137626,137668,277,84,275.2566,98.89834 M,0,137668,137711,275.2566,98.89834,273.5132,113.7967 M,0,137711,137754,273.5132,113.7967,271.7697,128.695 M,0,137754,137797,271.7697,128.695,270.0263,143.5934 M,0,137797,137840,270.0263,143.5934,268.2829,158.4917 M,0,137840,137883,268.2829,158.4917,266.5395,173.39 M,0,138655,,435,148 S,0,138655,139655,1,1.2 F,1,138655,139655,0.3,0 C,0,138655,,130,235,247 P,0,138655,,A M,0,138655,138697,435,148,451.9723,172.4021 M,0,138697,138740,451.9723,172.4021,458.9019,201.2974 M,0,139683,,303,152 S,0,139683,140683,1,1.2 F,1,139683,140683,0.3,0 C,0,139683,,200,200,255 P,0,139683,,A M,0,140883,,277,320 S,0,140883,141883,1,1.2 F,1,140883,141883,0.3,0 C,0,140883,,191,255,223 P,0,140883,,A M,0,140883,140925,277,320,252.2166,304.2837 M,0,140925,140968,252.2166,304.2837,223.0788,305.5206 M,0,141912,,170,79 S,0,141912,142912,1,1.2 F,1,141912,142912,0.3,0 C,0,141912,,252,167,188 P,0,141912,,A M,0,142940,,104,304 S,0,142940,143940,1,1.2 F,1,142940,143940,0.3,0 C,0,142940,,200,200,255 P,0,142940,,A M,0,143969,,229,387 S,0,143969,144969,1,1.2 F,1,143969,144969,0.3,0 C,0,143969,,191,255,223 P,0,143969,,A M,0,145083,,236,240 S,0,145083,146083,1,1.2 F,1,145083,146083,0.3,0 C,0,145083,,200,200,255 P,0,145083,,A
Sprite,Foreground,Centre,"sb/glow.png",0,0 M,0,124083,,359,101 S,0,124083,125083,1,1.2 F,1,124083,125083,0.3,0 C,0,124083,,191,255,223 P,0,124083,,A M,0,125112,,288,56 S,0,125112,126112,1,1.2 F,1,125112,126112,0.3,0 C,0,125112,,200,200,255 P,0,125112,,A M,0,126312,,472,117 S,0,126312,127312,1,1.2 F,1,126312,127312,0.3,0 C,0,126312,,130,235,247 P,0,126312,,A M,0,127340,,520,196 S,0,127340,128340,1,1.2 F,1,127340,128340,0.3,0 C,0,127340,,130,235,247 P,0,127340,,A M,0,128540,,266,284 S,0,128540,129540,1,1.2 F,1,128540,129540,0.3,0 C,0,128540,,191,255,223 P,0,128540,,A M,0,128540,128582,266,284,271.9644,254.9257 M,0,128582,128625,271.9644,254.9257,292.3328,233.5155 M,0,129912,,126,290 S,0,129912,130912,1,1.2 F,1,129912,130912,0.3,0 C,0,129912,,252,167,188 P,0,129912,,A M,0,130940,,77,137 S,0,130940,131940,1,1.2 F,1,130940,131940,0.3,0 C,0,130940,,130,235,247 P,0,130940,,A M,0,131969,,337,252 S,0,131969,132969,1,1.2 F,1,131969,132969,0.3,0 C,0,131969,,252,167,188 P,0,131969,,A M,0,132998,,576,82 S,0,132998,133998,1,1.2 F,1,132998,133998,0.3,0 C,0,132998,,252,167,188 P,0,132998,,A M,0,134283,,263,115 S,0,134283,135283,1,1.2 F,1,134283,135283,0.3,0 C,0,134283,,130,235,247 P,0,134283,,A M,0,135740,,527,352 S,0,135740,136740,1,1.2 F,1,135740,136740,0.3,0 C,0,135740,,252,167,188 P,0,135740,,A M,0,135740,135782,527,352,554.2471,345.0653 M,0,135782,135825,554.2471,345.0653,575,363 M,0,136769,,330,278 S,0,136769,137769,1,1.2 F,1,136769,137769,0.3,0 C,0,136769,,200,200,255 P,0,136769,,A M,0,137969,,259,197 S,0,137969,138969,1,1.2 F,1,137969,138969,0.3,0 C,0,137969,,130,235,247 P,0,137969,,A M,0,137969,138011,259,197,254.2946,226.51 M,0,138011,138054,254.2946,226.51,256.8162,256.2798 M,0,138998,,517,108 S,0,138998,139998,1,1.2 F,1,138998,139998,0.3,0 C,0,138998,,130,235,247 P,0,138998,,A M,0,138998,139040,517,108,515.0055,79.63705 M,0,139040,139083,515.0055,79.63705,535.9567,60.91363 M,0,139083,139126,535.9567,60.91363,563.676,66.96825 M,0,139126,139169,563.676,66.96825,574.0899,93.26952 M,0,139169,139212,574.0899,93.26952,559.4624,117.1063 M,0,139212,139255,559.4624,117.1063,531.4279,119.2693 M,0,140026,,327,230 S,0,140026,141026,1,1.2 F,1,140026,141026,0.3,0 C,0,140026,,191,255,223 P,0,140026,,A M,0,140026,140068,327,230,355.4034,223.0164 M,0,140068,140111,355.4034,223.0164,374.3861,200.8912 M,0,141055,,172,257 S,0,141055,142055,1,1.2 F,1,141055,142055,0.3,0 C,0,141055,,191,255,223 P,0,141055,,A M,0,142083,,248,115 S,0,142083,143083,1,1.2 F,1,142083,143083,0.3,0 C,0,142083,,130,235,247 P,0,142083,,A M,0,143112,,156,252 S,0,143112,144112,1,1.2 F,1,143112,144112,0.3,0 C,0,143112,,200,200,255 P,0,143112,,A M,0,144140,,207,389 S,0,144140,145140,1,1.2 F,1,144140,145140,0.3,0 C,0,144140,,191,255,223 P,0,144140,,A M,0,144140,144182,207,389,181.5372,404.7579 M,0,144182,144225,181.5372,404.7579,152.7991,412.9028 M,0,144225,144268,152.7991,412.9028,122.8387,413.2704 M,0,144268,144311,122.8387,413.2704,92.86269,412.9381 M,0,144311,144354,92.86269,412.9381,69.24873,412.4811 M,0,144354,144397,69.24873,412.4811,71.59164,382.6361 M,0,144397,144439,71.59164,382.6361,92.40105,365.4334 M,0,144439,144482,92.40105,365.4334,118.8625,378.9407 M,0,145340,,340,92 S,0,145340,146340,1,1.2 F,1,145340,146340,0.3,0 C,0,145340,,191,255,223 P,0,145340,,A
Sprite,Foreground,Centre,"sb/glow.png",0,0 M,0,124255,,252,229 S,0,124255,125255,1,1.2 F,1,124255,125255,0.3,0 C,0,124255,,252,167,188 P,0,124255,,A M,0,124255,124297,252,229,224.6062,239.7955 M,0,124297,124340,224.6062,239.7955,195.6613,235.0581 M,0,124340,124383,195.6613,235.0581,173.5213,215.6452 M,0,124383,124426,173.5213,215.6452,165.6901,187.3059 M,0,124426,124469,165.6901,187.3059,173.6481,159.122 M,0,124469,124512,173.6481,159.122,195.294,139.1602 M,0,125283,,300,56 S,0,125283,126283,1,1.2 F,1,125283,126283,0.3,0 C,0,125283,,191,255,223 P,0,125283,,A M,0,126483,,477,126 S,0,126483,127483,1,1.2 F,1,126483,127483,0.3,0 C,0,126483,,130,235,247 P,0,126483,,A M,0,126483,126525,477,126,506.4469,123.4802 M,0,126525,126568,506.4469,123.4802,534.756,120.8047 M,0,127512,,492,266 S,0,127512,128512,1,1.2 F,1,127512,128512,0.3,0 C,0,127512,,130,235,247 P,0,127512,,A M,0,128883,,243,400 S,0,128883,129883,1,1.2 F,1,128883,129883,0.3,0 C,0,128883,,191,255,223 P,0,128883,,A M,0,130255,,127,225 S,0,130255,131255,1,1.2 F,1,130255,131255,0.3,0 C,0,130255,,252,167,188 P,0,130255,,A M,0,130255,130297,127,225,122.4947,254.6598 M,0,130297,130340,122.4947,254.6598,117.9894,284.3195 M,0,131283,,302,119 S,0,131283,132283,1,1.2 F,1,131283,132283,0.3,0 C,0,131283,,200,200,255 P,0,131283,,A M,0,132312,,384,249 S,0,132312,133312,1,1.2 F,1,132312,133312,0.3,0 C,0,132312,,252,167,188 P,0,132312,,A M,0,133683,,391,89 S,0,133683,134683,1,1.2 F,1,133683,134683,0.3,0 C,0,133683,,130,235,247 P,0,133683,,A M,0,133683,133725,391,89,384.9373,118.381 M,0,133725,133768,384.9373,118.381,378.8745,147.762 M,0,133768,133811,378.8745,147.762,391.2843,173.9308 M,0,133811,133854,391.2843,173.9308,401.8239,201.9682 M,0,134712,,218,295 S,0,134712,135712,1,1.2 F,1,134712,135712,0.3,0 C,0,134712,,200,200,255 P,0,134712,,A M,0,134712,134754,218,295,203.488,320.4389 M,0,134754,134797,203.488,320.4389,205.892,349.6887 M,0,135912,,503,266 S,0,135912,136912,1,1.2 F,1,135912,136912,0.3,0 C,0,135912,,252,167,188 P,0,135912,,A M,0,136940,,230,304 S,0,136940,137940,1,1.2 F,1,136940,137940,0.3,0 C,0,136940,,200,200,255 P,0,136940,,A M,0,138483,,434,137 S,0,138483,139483,1,1.2 F,1,138483,139483,0.3,0 C,0,138483,,130,235,247 P,0,138483,,A M,0,139855,,307,202 S,0,139855,140855,1,1.2 F,1,139855,140855,0.3,0 C,0,139855,,200,200,255 P,0,139855,,A M,0,141226,,107,320 S,0,141226,142226,1,1.2 F,1,141226,142226,0.3,0 C,0,141226,,191,255,223 P,0,141226,,A M,0,142255,,254,150 S,0,142255,143255,1,1.2 F,1,142255,143255,0.3,0 C,0,142255,,130,235,247 P,0,142255,,A M,0,143283,,249,243 S,0,143283,144283,1,1.2 F,1,143283,144283,0.3,0 C,0,143283,,200,200,255 P,0,143283,,A M,0,145512,,315,295 S,0,145512,146512,1,1.2 F,1,145512,146512,0.3,0 C,0,145512,,252,167,188 P,0,145512,,A M,0,145512,145554,315,295,314.9578,303.9946 M,0,145554,145597,314.9578,303.9946,313.8195,312.9159 M,0,145597,145640,313.8195,312.9159,311.527,321.6116 M,0,145640,145683,311.527,321.6116,308.0632,329.91 M,0,145683,145726,308.0632,329.91,303.4549,337.6313 M,0,145726,145769,303.4549,337.6313,297.7807,344.6069 M,0,145769,145811,297.7807,344.6069,291.1516,350.6823 M,0,145811,145854,291.1516,350.6823,283.7173,355.7406 M,0,145854,145897,283.7173,355.7406,275.6353,359.6828 M,0,145897,145940,275.6353,359.6828,267.0782,362.4464 M,0,145940,145983,267.0782,362.4464,258.2186,363.9871 M,0,145983,146026,258.2186,363.9871,249.2309,364.2834 M,0,146026,146069,249.2309,364.2834,240.2886,363.3336 M,0,146069,146111,240.2886,363.3336,231.5638,361.1558 M,0,146111,146154,231.5638,361.1558,223.2253,357.789 M,0,146154,146197,223.2253,357.789,215.4395,353.2897 M,0,146197,146240,215.4395,353.2897,208.3615,347.7432 M,0,146240,146283,208.3615,347.7432,202.1409,341.2496 M,0,146283,146326,202.1409,341.2496,196.9077,333.9373 M,0,146326,146369,196.9077,333.9373,192.7745,325.9514 M,0,146369,146411,192.7745,325.9514,189.8378,317.4525 M,0,146411,146454,189.8378,317.4525,188.1641,308.6177 M,0,146454,146497,188.1641,308.6177,187.7971,299.6335 M,0,146497,146540,187.7971,299.6335,188.7446,290.6919 M,0,146540,146583,188.7446,290.6919,190.9875,281.9844 M,0,146583,146626,190.9875,281.9844,194.4659,273.6923 M,0,146626,146669,194.4659,273.6923,199.0909,265.9803 M,0,146669,146711,199.0909,265.9803,204.7396,258.983 M,0,146711,146754,204.7396,258.983,211.2662,252.7956 M,0,146754,146797,211.2662,252.7956,218.5202,247.4782 M,0,146797,146840,218.5202,247.4782,226.3492,243.0491 M,0,146840,146883,226.3492,243.0491,234.6151,239.4997 M,0,146883,146926,234.6151,239.4997,231.7294,245.1964 M,0,146926,146969,231.7294,245.1964,225.9331,252.075 M,0,146969,147011,225.9331,252.075,219.3675,258.2219 M,0,147011,147054,219.3675,258.2219,212.0447,263.4409 M,0,147054,147097,212.0447,263.4409,204.0276,267.5095 M,0,147097,147140,204.0276,267.5095,195.4496,270.1938 M,0,147140,147183,195.4496,270.1938,186.5282,271.2715 M,0,147183,147226,186.5282,271.2715,177.5711,270.5744 M,0,147226,147269,177.5711,270.5744,168.9559,268.0318 M,0,147269,147311,168.9559,268.0318,161.0873,263.7004 M,0,147311,147354,161.0873,263.7004,154.3414,257.7699 M,0,147354,147397,154.3414,257.7699,149.0099,250.5401 M,0,147397,147440,149.0099,250.5401,145.2766,242.3679 M,0,147440,147483,145.2766,242.3679,143.2104,233.6226 M,0,147483,147526,143.2104,233.6226,142.795,224.6445 M,0,147526,147569,142.795,224.6445,143.9591,215.7314 M,0,147569,147611,143.9591,215.7314,146.5987,207.1379 M,0,147611,147654,146.5987,207.1379,150.6024,199.0886 M,0,147654,147697,150.6024,199.0886,155.851,191.79 M,0,147697,147740,155.851,191.79,162.2224,185.4485 M,0,147740,147783,162.2224,185.4485,169.5765,180.2808 M,0,147783,147826,169.5765,180.2808,177.7363,176.5151 M,0,147826,147869,177.7363,176.5151,186.4625,174.3728 M,0,147869,147911,186.4625,174.3728,195,174
Sprite,Foreground,Centre,"sb/glow.png",0,0 M,0,124769,,97,92 S,0,124769,125769,1,1.2 F,1,124769,125769,0.3,0 C,0,124769,,130,235,247 P,0,124769,,A M,0,124769,124811,97,92,124.0485,79.88187 M,0,124811,124854,124.0485,79.88187,153.69,80.00576 M,0,125798,,323,122 S,0,125798,126798,1,1.2 F,1,125798,126798,0.3,0 C,0,125798,,252,167,188 P,0,125798,,A M,0,127598,,494,271 S,0,127598,128598,1,1.2 F,1,127598,128598,0.3,0 C,0,127598,,130,235,247 P,0,127598,,A M,0,129226,,126,290 S,0,129226,130226,1,1.2 F,1,129226,130226,0.3,0 C,0,129226,,252,167,188 P,0,129226,,A M,0,129226,129268,126,290,148.3296,270.2949 M,0,129268,129311,148.3296,270.2949,175.8514,258.9491 M,0,130598,,145,118 S,0,130598,131598,1,1.2 F,1,130598,131598,0.3,0 C,0,130598,,130,235,247 P,0,130598,,A M,0,131626,,226,235 S,0,131626,132626,1,1.2 F,1,131626,132626,0.3,0 C,0,131626,,191,255,223 P,0,131626,,A M,0,131626,131668,226,235,230.2882,263.7351 M,0,131668,131711,230.2882,263.7351,253.8645,281.387 M,0,132912,,553,77 S,0,132912,133912,1,1.2 F,1,132912,133912,0.3,0 C,0,132912,,252,167,188 P,0,132912,,A M,0,134369,,276,85 S,0,134369,135369,1,1.2 F,1,134369,135369,0.3,0 C,0,134369,,130,235,247 P,0,134369,,A M,0,135998,,499,252 S,0,135998,136998,1,1.2 F,1,135998,136998,0.3,0 C,0,135998,,252,167,188 P,0,135998,,A M,0,137455,,201,89 S,0,137455,138455,1,1.2 F,1,137455,138455,0.3,0 C,0,137455,,191,255,223 P,0,137455,,A M,0,137455,137497,201,89,197.3353,118.7753 M,0,137497,137540,197.3353,118.7753,193.6707,148.5507 M,0,138569,,435,142 S,0,138569,139569,1,1.2 F,1,138569,139569,0.3,0 C,0,138569,,130,235,247 P,0,138569,,A M,0,140198,,396,169 S,0,140198,141198,1,1.2 F,1,140198,141198,0.3,0 C,0,140198,,191,255,223 P,0,140198,,A M,0,140198,140240,396,169,403.2846,188.8456 M,0,140240,140283,403.2846,188.8456,412.2492,169.4344 M,0,141569,,109,197 S,0,141569,142569,1,1.2 F,1,141569,142569,0.3,0 C,0,141569,,252,167,188 P,0,141569,,A M,0,141569,141611,109,197,97.2452,169.7453 M,0,141611,141654,97.2452,169.7453,97.02308,140.068 M,0,142598,,201,285 S,0,142598,143598,1,1.2 F,1,142598,143598,0.3,0 C,0,142598,,130,235,247 P,0,142598,,A M,0,143626,,356,398 S,0,143626,144626,1,1.2 F,1,143626,144626,0.3,0 C,0,143626,,200,200,255 P,0,143626,,A M,0,143626,143668,356,398,349.0759,420.7062 M,0,143668,143711,349.0759,420.7062,332.492,406.2556
Sprite,Foreground,Centre,"sb/glow.png",0,0 M,0,125198,,291,73 S,0,125198,126198,1,1.2 F,1,125198,126198,0.3,0 C,0,125198,,200,200,255 P,0,125198,,A M,0,127855,,398,359 S,0,127855,128855,1,1.2 F,1,127855,128855,0.3,0 C,0,127855,,200,200,255 P,0,127855,,A M,0,127855,127897,398,359,407.7797,330.6388 M,0,127897,127940,407.7797,330.6388,411,303 M,0,134883,,225,213 S,0,134883,135883,1,1.2 F,1,134883,135883,0.3,0 C,0,134883,,200,200,255 P,0,134883,,A M,0,136169,,461,243 S,0,136169,137169,1,1.2 F,1,136169,137169,0.3,0 C,0,136169,,252,167,188 P,0,136169,,A M,0,138826,,510,258 S,0,138826,139826,1,1.2 F,1,138826,139826,0.3,0 C,0,138826,,130,235,247 P,0,138826,,A M,0,138826,138868,510,258,525.6871,232.7662 M,0,138868,138911,525.6871,232.7662,531,204 M,0,143883,,235,359 S,0,143883,144883,1,1.2 F,1,143883,144883,0.3,0 C,0,143883,,191,255,223 P,0,143883,,A
Sprite,Foreground,Centre,"sb/glow.png",0,0 M,0,125369,,304,83 S,0,125369,126369,1,1.2 F,1,125369,126369,0.3,0 C,0,125369,,191,255,223 P,0,125369,,A M,0,134969,,222,207 S,0,134969,135969,1,1.2 F,1,134969,135969,0.3,0 C,0,134969,,200,200,255 P,0,134969,,A M,0,136340,,424,265 S,0,136340,137340,1,1.2 F,1,136340,137340,0.3,0 C,0,136340,,130,235,247 P,0,136340,,A M,0,144054,,225,359 S,0,144054,145054,1,1.2 F,1,144054,145054,0.3,0 C,0,144054,,191,255,223 P,0,144054,,A
Sprite,Foreground,Centre,"sb/glow.png",0,0 M,0,125455,,312,56 S,0,125455,126455,1,1.2 F,1,125455,126455,0.3,0 C,0,125455,,191,255,223 P,0,125455,,A M,0,136426,,397,249 S,0,136426,137426,1,1.2 F,1,136426,137426,0.3,0 C,0,136426,,130,235,247 P,0,136426,,A
Sprite,Foreground,Centre,"sb/glow.png",0,0 M,0,125541,,316,83 S,0,125541,126541,1,1.2 F,1,125541,126541,0.3,0 C,0,125541,,191,255,223 P,0,125541,,A M,0,136512,,368,241 S,0,136512,137512,1,1.2 F,1,136512,137512,0.3,0 C,0,136512,,130,235,247 P,0,136512,,A
//Storyboard Sound Samples

[TimingPoints]
141,342.857142857,4,2,11,50,1,0
141,-133.333333333333,4,2,11,50,0,0
2540,-100,4,2,11,50,0,0
2883,-133.333333333333,4,2,11,50,0,0
5283,-100,4,2,11,50,0,0
5626,-133.333333333333,4,2,11,50,0,0
8369,-133.333333333333,4,2,11,60,0,0
10426,-100,4,2,11,60,0,0
11112,-83.3333333333333,4,2,11,60,0,0
11455,-83.3333333333333,4,2,11,70,0,0
22083,-71.4285714285714,4,2,11,70,0,0
22940,-83.3333333333333,4,2,11,70,0,0
32369,-83.3333333333333,4,2,11,75,0,0
32626,-83.3333333333333,4,2,11,80,0,0
32883,-83.3333333333333,4,2,11,85,0,0
33055,-133.333333333333,4,2,11,70,0,0
33398,-83.3333333333333,4,2,11,70,0,0
38026,-133.333333333333,4,2,11,70,0,0
38369,-83.3333333333333,4,2,11,70,0,0
48826,-71.4285714285714,4,2,11,70,0,0
51569,-83.3333333333333,4,2,11,70,0,0
52083,-71.4285714285714,4,2,11,70,0,0
52598,-133.333333333333,4,2,11,70,0,0
53626,-133.333333333333,4,2,11,75,0,0
54312,-83.3333333333333,4,2,11,80,0,0
54655,-83.3333333333333,4,2,11,85,0,0
54998,-71.4285714285714,4,2,11,90,0,0
55683,-71.4285714285714,4,2,11,90,0,0
56026,-71.4285714285714,4,2,11,90,0,0
59112,-71.4285714285714,4,2,11,90,0,0
59798,-71.4285714285714,4,2,11,90,0,0
60483,-100,4,2,11,90,0,0
65969,-71.4285714285714,4,2,11,90,0,0
66655,-71.4285714285714,4,2,11,90,0,0
66998,-71.4285714285714,4,2,11,90,0,0
70083,-71.4285714285714,4,2,11,90,0,0
70769,-71.4285714285714,4,2,11,90,0,0
76941,-71.4285714285714,4,2,11,50,0,0
82426,-71.4285714285714,4,2,11,55,0,0
85169,-71.4285714285714,4,2,11,55,0,0
85340,-133.333333333333,4,2,11,55,0,0
86712,-100,4,2,11,55,0,0
87912,-71.4285714285714,4,2,11,60,0,0
93569,-100,4,2,11,60,0,0
96141,-100,4,2,11,70,0,0
97512,-100,4,2,11,80,0,0
98198,-71.4285714285714,4,2,11,85,0,0
98455,-71.4285714285714,4,2,11,90,0,0
98712,-71.4285714285714,4,2,11,95,0,0
98883,-71.4285714285714,4,2,11,30,0,0
99226,-71.4285714285714,4,2,11,40,0,0
99569,-71.4285714285714,4,2,11,50,0,0
99912,-71.4285714285714,4,2,11,60,0,0
100255,-100,4,2,11,70,0,0
100940,-133.333333333333,4,2,11,70,0,0
101626,-83.3333333333333,4,2,11,85,0,0
120826,-71.4285714285714,4,2,11,85,0,0
122883,-71.4285714285714,4,2,11,90,0,0
123226,-71.4285714285714,4,2,11,95,0,0
123569,-66.6666666666666,4,2,11,100,0,0
124255,-66.6666666666666,4,2,11,100,0,0
124598,-66.6666666666666,4,2,11,100,0,0
127683,-66.6666666666666,4,2,11,100,0,0
128197,-66.6666666666666,4,2,11,100,0,0
135226,-66.6666666666666,4,2,11,100,0,0
135569,-66.6666666666666,4,2,11,100,0,0
137626,-133.333333333333,4,2,11,100,0,0
137969,-66.6666666666667,4,2,11,100,0,0
138655,-66.6666666666667,4,2,11,100,0,0
139340,-66.6666666666667,4,2,11,100,0,0
145512,-222.222222222222,4,2,11,100,0,0
145598,-222.222222222222,4,2,12,30,0,0
147912,-222.222222222222,4,2,11,5,0,0

[Colours]
Combo1 : 191,255,223
Combo2 : 252,167,188
Combo3 : 130,235,247
Combo4 : 200,200,255

[HitObjects]
47,302,141,6,0,B|126:249|148:323|221:278,2,180.000006866455,6|2|2,3:2|0:0|0:0,0:0:0:0:
175,213,1683,1,2,0:0:0:0:
175,213,1855,1,2,0:0:0:0:
107,362,2198,1,2,0:0:0:0:
107,362,2370,1,2,0:0:0:0:
138,250,2540,2,0,L|151:329,1,80,10|0,0:0|0:0,0:0:0:0:
281,361,2883,6,0,P|336:324|294:216,2,180.000006866455,2|2|2,3:2|3:2|0:0,0:0:0:0:
429,271,4426,2,0,L|438:205,1,60.0000022888184,2|0,0:0|0:0,0:0:0:0:
429,271,4769,1,2,0:0:0:0:
423,187,4940,1,2,0:0:0:0:
383,165,5112,1,2,0:0:0:0:
299,180,5283,2,0,L|218:209,1,80,10|2,0:0|0:0,0:0:0:0:
324,80,5626,6,0,L|506:111,2,180.000006866455,4|2|2,3:1|3:2|3:2,0:0:0:0:
512,32,7169,1,2,3:2:0:0:
429,118,7340,1,2,0:0:0:0:
391,0,7512,1,2,3:2:0:0:
439,126,7683,5,2,3:2:0:0:
312,239,7855,1,2,3:2:0:0:
288,152,8026,1,10,3:2:0:0:
327,151,8112,1,8,3:2:0:0:
365,166,8198,1,2,3:2:0:0:
391,194,8283,1,0,3:2:0:0:
399,232,8369,5,6,3:2:0:0:
372,337,8540,1,2,0:0:0:0:
360,326,8712,1,2,0:0:0:0:
476,275,8883,5,6,3:2:0:0:
372,337,9055,1,2,0:0:0:0:
360,326,9227,1,2,0:0:0:0:
494,376,9398,5,6,3:2:0:0:
497,384,9740,5,2,3:2:0:0:
472,240,9912,1,2,3:2:0:0:
373,235,10083,5,2,3:2:0:0:
284,96,10255,1,2,3:2:0:0:
360,62,10426,6,0,L|376:137,1,40,6|0,0:0|0:0,0:0:0:0:
270,184,10598,1,2,3:2:0:0:
270,184,10683,1,0,3:2:0:0:
270,184,10769,2,0,L|254:259,3,40,6|2|2|2,3:2|3:2|3:2|3:2,0:0:0:0:
284,96,11112,6,0,B|197:93|210:158|126:157,1,143.999995605469,2|0,0:0|0:0,0:0:0:0:
82,132,11455,2,0,B|67:87|99:60|129:79,1,95.9999970703126,4|0,0:0|0:0,0:0:0:0:
0,162,11798,1,2,3:2:0:0:
20,39,11969,1,2,0:0:0:0:
104,209,12140,2,0,B|119:254|87:281|57:262,1,95.9999970703126,10|2,0:0|0:0,0:0:0:0:
82,132,12483,5,2,3:2:0:0:
229,135,12655,1,2,0:0:0:0:
257,205,12826,5,10,0:0:0:0:
127,78,12998,1,2,0:0:0:0:
183,193,13169,5,2,3:2:0:0:
205,63,13340,1,2,0:0:0:0:
303,146,13512,6,0,P|327:126|293:138,1,95.9999970703126,10|0,0:0|0:0,0:0:0:0:
353,9,13855,6,0,P|380:16|404:38,1,47.9999985351563,2|0,3:2|0:0,0:0:0:0:
399,144,14026,2,0,B|397:156|391:174|391:174|420:155|404:107,1,95.9999970703126,2|10,0:0|0:0,0:0:0:0:
280,44,14369,2,0,P|307:36|339:44,1,47.9999985351563,2|0,0:0|0:0,0:0:0:0:
399,144,14540,6,0,L|408:196,1,47.9999985351563,2|0,3:2|0:0,0:0:0:0:
413,227,14712,2,0,L|422:279,1,47.9999985351563,2|0,0:0|0:0,0:0:0:0:
330,242,14883,6,0,L|321:294,1,47.9999985351563,10|0,0:0|0:0,0:0:0:0:
316,325,15055,2,0,L|307:377,1,47.9999985351563,2|0,0:0|0:0,0:0:0:0:
344,383,15226,1,2,3:2:0:0:
240,289,15398,1,2,0:0:0:0:
118,366,15569,5,10,0:0:0:0:
134,376,15655,1,2,0:0:0:0:
125,356,15740,1,2,0:0:0:0:
146,371,15826,1,2,0:0:0:0:
131,347,15912,2,0,P|69:346|23:375,1,95.9999970703126,2|2,3:2|0:0,0:0:0:0:
177,285,16255,6,0,P|188:257|187:226,1,47.9999985351563,10|2,0:0|0:0,0:0:0:0:
112,221,16426,2,0,P|101:249|102:280,1,47.9999985351563,2|2,3:2|0:0,0:0:0:0:
218,347,16598,6,0,P|252:294|251:197,1,143.999995605469,2|0,3:2|0:0,0:0:0:0:
205,158,16940,2,0,P|221:118|260:150,1,95.9999970703126,10|0,0:0|0:0,0:0:0:0:
188,167,17283,2,0,P|156:160|130:143,1,47.9999985351563,2|0,3:2|0:0,0:0:0:0:
102,112,17455,2,0,P|70:119|44:136,1,47.9999985351563,2|0,0:0|0:0,0:0:0:0:
24,160,17626,1,10,0:0:0:0:
81,36,17798,1,2,0:0:0:0:
186,72,17969,5,2,3:2:0:0:
213,80,18140,1,2,0:0:0:0:
299,0,18312,5,10,0:0:0:0:
272,8,18483,1,2,0:0:0:0:
162,93,18655,5,2,3:2:0:0:
218,110,18826,1,2,0:0:0:0:
323,17,18998,5,10,0:0:0:0:
267,34,19169,1,2,0:0:0:0:
324,119,19340,5,2,3:2:0:0:
308,174,19512,1,2,0:0:0:0:
292,229,19683,1,10,0:0:0:0:
404,202,19855,5,2,0:0:0:0:
364,160,20027,1,2,3:2:0:0:
324,119,20198,1,2,0:0:0:0:
293,230,20369,5,10,0:0:0:0:
348,216,20541,1,2,0:0:0:0:
471,155,20712,5,2,3:2:0:0:
483,234,20883,1,2,0:0:0:0:
440,270,21055,5,10,0:0:0:0:
428,349,21226,1,2,0:0:0:0:
258,376,21398,6,0,L|243:330,1,47.9999985351563,2|0,3:2|0:0,0:0:0:0:
335,314,21569,2,0,L|349:268,1,47.9999985351563,2|0,3:2|0:0,0:0:0:0:
225,261,21740,2,0,L|210:215,1,47.9999985351563,10|2,0:0|0:0,0:0:0:0:
372,192,21912,2,0,L|386:146,1,47.9999985351563,2|2,3:2|0:0,0:0:0:0:
393,33,22083,6,0,B|269:19|239:89|310:131|377:56|251:9,2,223.999993164063,6|10|2,0:0|0:0|3:2,0:0:0:0:
490,45,22940,2,0,P|504:21|503:-2,1,47.9999985351563,2|0,0:0|0:0,0:0:0:0:
429,117,23112,1,10,0:0:0:0:
493,215,23283,1,2,0:0:0:0:
363,185,23455,5,0,3:2:0:0:
306,200,23626,1,2,0:0:0:0:
150,263,23798,5,8,0:0:0:0:
207,278,23969,1,2,0:0:0:0:
208,121,24140,5,0,3:2:0:0:
151,136,24311,1,2,0:0:0:0:
94,151,24483,1,10,0:0:0:0:
37,166,24655,1,2,0:0:0:0:
143,16,24826,6,0,B|174:7|226:45|205:132,1,143.999995605469,2|0,3:2|0:0,0:0:0:0:
91,66,25169,2,0,P|94:38|116:16,1,47.9999985351563,10|0,0:0|0:0,0:0:0:0:
143,16,25340,5,2,0:0:0:0:
230,29,25512,1,2,3:2:0:0:
316,46,25683,1,2,0:0:0:0:
299,179,25855,2,0,P|254:196|266:258,1,95.9999970703126,10|2,0:0|0:0,0:0:0:0:
336,280,26198,6,0,B|234:276|234:276|183:325,1,143.999995605469,2|0,3:2|0:0,0:0:0:0:
109,357,26540,1,10,0:0:0:0:
89,330,26626,1,2,0:0:0:0:
119,339,26712,1,2,0:0:0:0:
89,350,26798,1,2,0:0:0:0:
109,324,26883,5,2,3:2:0:0:
0,370,27055,1,2,0:0:0:0:
63,234,27226,2,0,B|69:203|69:203|66:174,1,47.9999985351563,10|2,0:0|0:0,0:0:0:0:
9,289,27398,1,2,3:2:0:0:
157,237,27569,5,6,3:2:0:0:
150,159,27740,2,0,L|141:212,1,47.9999985351563,2|0,0:0|0:0,0:0:0:0:
157,237,27912,2,0,L|174:132,1,95.9999970703126,10|0,0:0|0:0,0:0:0:0:
137,62,28255,5,2,3:2:0:0:
215,43,28426,1,2,0:0:0:0:
123,71,28598,5,10,0:0:0:0:
227,60,28769,1,2,3:2:0:0:
70,4,28940,5,6,3:2:0:0:
19,123,29112,1,2,0:0:0:0:
33,150,29283,1,10,0:0:0:0:
74,175,29455,1,2,0:0:0:0:
150,169,29626,5,2,3:2:0:0:
123,266,29798,1,2,0:0:0:0:
196,303,29969,6,0,B|199:276|202:260|223:250,1,47.9999985351563,10|0,0:0|0:0,0:0:0:0:
161,168,30140,2,0,B|166:143|184:129|208:137,1,47.9999985351563,2|0,3:2|0:0,0:0:0:0:
212,28,30312,1,6,3:2:0:0:
279,70,30483,6,0,B|281:114|260:120|261:164,2,95.9999970703126,2|10|2,0:0|0:0|0:0,0:0:0:0:
384,0,30998,2,0,P|391:46|426:78,1,95.9999970703126,6|2,3:2|0:0,0:0:0:0:
303,235,31340,2,0,P|337:203|344:157,1,95.9999970703126,10|2,0:0|0:0,0:0:0:0:
468,4,31683,5,6,3:2:0:0:
425,78,31855,1,2,3:2:0:0:
344,157,32026,5,10,3:2:0:0:
387,231,32198,1,2,3:2:0:0:
350,350,32369,6,0,B|346:317|346:317|356:272,1,47.9999985351563,14|2,3:2|3:2,0:0:0:0:
258,295,32540,1,0,3:2:0:0:
245,262,32626,2,0,B|252:229|252:229|277:190,1,47.9999985351563,6|2,3:2|3:2,0:0:0:0:
158,225,32798,1,0,3:2:0:0:
157,189,32884,2,0,B|175:161|175:161|211:133,1,47.9999985351563,6|0,3:2|3:2,0:0:0:0:
220,78,33055,6,0,P|264:121|268:157,1,90.0000034332277,6|0,3:2|0:0,0:0:0:0:
315,56,33398,6,0,L|142:70,1,143.999995605469,10|0,0:0|0:0,0:0:0:0:
98,8,33740,6,0,B|96:26|91:39|91:39|94:58,1,47.9999985351563,2|0,3:2|0:0,0:0:0:0:
88,15,33912,2,0,B|86:33|81:46|81:46|84:65,1,47.9999985351563,2|0,0:0|0:0,0:0:0:0:
6,104,34083,1,10,0:0:0:0:
1,28,34255,2,0,B|9:34|9:34|15:80,1,47.9999985351563,2|0,0:0|0:0,0:0:0:0:
81,138,34426,5,0,3:2:0:0:
17,185,34598,1,0,0:0:0:0:
137,190,34769,2,0,B|146:244|146:244|141:249|141:249|151:307,1,95.9999970703126,8|0,0:0|0:0,0:0:0:0:
60,300,35112,2,0,P|49:282|62:286,1,47.9999985351563,2|0,3:2|0:0,0:0:0:0:
63,180,35283,2,0,B|47:240|47:240|51:245|51:245|22:306|22:306|27:311|27:311|11:364,1,191.999994140625,2|0,0:0|0:0,0:0:0:0:
30,377,35712,5,0,0:0:0:0:
30,377,35798,2,0,B|121:339|107:382|202:371,1,143.999995605469,2|0,3:2|0:0,0:0:0:0:
243,352,36140,2,0,B|254:350|263:360|263:360|255:373|244:375,1,47.9999985351563,10|0,0:0|0:0,0:0:0:0:
175,380,36312,1,2,0:0:0:0:
257,274,36483,5,2,3:2:0:0:
298,265,36655,1,2,0:0:0:0:
375,305,36826,5,10,0:0:0:0:
416,314,36998,1,2,0:0:0:0:
293,254,37169,5,0,3:2:0:0:
372,318,37341,1,0,0:0:0:0:
504,306,37512,2,0,P|490:260|452:233,1,95.9999970703126,8|0,0:0|0:0,0:0:0:0:
288,172,37855,6,0,B|302:151|281:140|302:150|306:130,1,47.9999985351563,2|0,3:2|0:0,0:0:0:0:
422,105,38026,2,0,P|403:67|376:98,1,90.0000034332277,2|0,0:0|0:0,0:0:0:0:
306,130,38369,2,0,B|302:150|281:140|302:151|288:172,1,47.9999985351563,2|2,0:0|0:0,0:0:0:0:
373,180,38540,6,0,B|383:178|395:212|461:211|466:176|476:180,1,95.9999970703126,2|0,3:2|0:0,0:0:0:0:
512,105,38798,1,0,0:0:0:0:
507,98,38883,2,0,B|504:47|465:43|490:-6|512:23,1,95.9999970703126,10|2,0:0|0:0,0:0:0:0:
352,49,39226,6,0,P|357:72|375:89,1,47.9999985351563,2|0,3:2|0:0,0:0:0:0:
308,34,39398,2,0,P|300:56|307:79,1,47.9999985351563,2|0,0:0|0:0,0:0:0:0:
273,2,39569,2,0,P|255:17|250:40,1,47.9999985351563,10|0,0:0|0:0,0:0:0:0:
217,69,39740,6,0,B|131:103|137:2|36:35,1,191.999994140625,2|2,0:0|0:0,0:0:0:0:
73,115,40255,2,0,P|58:49|23:26,1,95.9999970703126,10|2,0:0|0:0,0:0:0:0:
0,98,40598,2,0,P|-1:127|14:160,1,47.9999985351563,2|0,3:2|0:0,0:0:0:0:
19,226,40769,2,0,B|-22:236|-30:184|22:143|118:234,1,191.999994140625,2|2,0:0|0:0,0:0:0:0:
147,313,41198,5,2,0:0:0:0:
147,313,41283,2,0,B|197:300|179:265|298:304,1,143.999995605469,2|0,3:2|0:0,0:0:0:0:
294,310,41626,2,0,B|305:335|304:341|291:364,1,47.9999985351563,10|0,0:0|0:0,0:0:0:0:
223,363,41798,1,2,0:0:0:0:
147,313,41969,5,2,3:2:0:0:
106,320,42140,1,2,0:0:0:0:
45,384,42312,5,10,0:0:0:0:
4,377,42483,1,2,0:0:0:0:
100,311,42655,6,0,L|153:298,1,47.9999985351563,2|0,3:2|0:0,0:0:0:0:
175,270,42826,2,0,L|190:213,2,47.9999985351563,2|0|10,0:0|0:0|0:0,0:0:0:0:
106,234,43169,2,0,L|118:187,2,47.9999985351563,2|0|2,0:0|0:0|3:2,0:0:0:0:
35,201,43512,2,0,L|50:144,1,47.9999985351563,0|2,0:0|0:0,0:0:0:0:
88,79,43683,2,0,P|75:52|51:35,1,47.9999985351563,8|0,0:0|0:0,0:0:0:0:
110,70,43855,2,0,P|123:43|147:26,1,47.9999985351563,2|0,3:2|0:0,0:0:0:0:
103,97,44026,6,0,B|108:120|193:142|259:78,1,143.999995605469,6|0,3:2|0:0,0:0:0:0:
247,84,44369,1,10,0:0:0:0:
363,129,44540,6,0,L|375:75,1,47.9999985351563,2|0,0:0|0:0,0:0:0:0:
448,148,44712,1,2,3:2:0:0:
345,193,44883,2,0,L|333:139,1,47.9999985351563,2|0,0:0|0:0,0:0:0:0:
262,218,45055,1,8,0:0:0:0:
367,262,45226,2,0,L|379:208,1,47.9999985351563,2|0,0:0|0:0,0:0:0:0:
463,283,45398,5,2,3:2:0:0:
398,349,45569,1,2,0:0:0:0:
241,311,45740,2,0,L|263:208,1,95.9999970703126,10|0,0:0|0:0,0:0:0:0:
134,118,46083,6,0,P|152:132|155:155,1,47.9999985351563,2|0,3:2|0:0,0:0:0:0:
132,184,46255,2,0,B|215:186|188:127|271:135,1,143.999995605469,2|0,0:0|0:0,0:0:0:0:
134,118,46598,2,0,P|136:141|155:155,1,47.9999985351563,2|2,0:0|0:0,0:0:0:0:
187,60,46769,6,0,P|104:43|57:96,1,143.999995605469,2|0,3:2|0:0,0:0:0:0:
27,55,47112,2,0,L|44:127,1,47.9999985351563,10|2,0:0|0:0,0:0:0:0:
23,33,47283,1,2,0:0:0:0:
40,125,47455,6,0,P|22:156|2:163,1,47.9999985351563,2|0,3:2|0:0,0:0:0:0:
48,157,47626,2,0,P|16:175|-3:171,1,47.9999985351563,2|2,0:0|0:0,0:0:0:0:
46,191,47798,2,0,P|9:191|-6:177,1,47.9999985351563,10|0,0:0|0:0,0:0:0:0:
35,216,47969,1,2,0:0:0:0:
69,363,48140,6,0,L|124:351,1,47.9999985351563,0|0,3:2|0:0,0:0:0:0:
182,291,48312,2,0,L|127:279,1,47.9999985351563,2|0,0:0|0:0,0:0:0:0:
25,296,48483,1,10,0:0:0:0:
25,296,48569,1,2,0:0:0:0:
25,296,48655,1,0,0:0:0:0:
182,291,48826,6,0,B|215:291|239:284|239:284|210:285|183:267,1,111.999996582031,2|2,3:2|0:0,0:0:0:0:
234,211,49083,1,2,0:0:0:0:
234,211,49169,2,0,P|264:212|294:242,1,55.9999982910157,8|0,0:0|0:0,0:0:0:0:
148,205,49340,1,2,0:0:0:0:
148,205,49426,1,2,0:0:0:0:
148,205,49512,6,0,L|163:143,1,55.9999982910157,2|0,3:2|0:0,0:0:0:0:
220,75,49683,2,0,L|233:129,1,55.9999982910157,2|0,0:0|0:0,0:0:0:0:
117,71,49855,1,10,0:0:0:0:
117,71,49940,1,2,0:0:0:0:
117,71,50026,1,2,0:0:0:0:
228,1,50198,6,0,P|260:10|291:92,1,111.999996582031,2|2,3:2|0:0,0:0:0:0:
362,28,50455,1,2,0:0:0:0:
362,28,50540,2,0,P|331:40|312:64,1,55.9999982910157,8|0,0:0|0:0,0:0:0:0:
385,107,50712,1,2,0:0:0:0:
385,107,50798,1,2,0:0:0:0:
385,107,50883,6,0,L|448:90,1,55.9999982910157,0|0,3:2|0:0,0:0:0:0:
512,37,51055,2,0,L|449:20,1,55.9999982910157,2|0,0:0|0:0,0:0:0:0:
504,154,51226,1,10,0:0:0:0:
504,154,51312,1,2,0:0:0:0:
504,154,51398,1,0,0:0:0:0:
384,184,51569,6,0,B|348:172|313:220|270:184,1,95.9999970703126,2|2,3:2|0:0,0:0:0:0:
224,230,51826,1,2,0:0:0:0:
224,230,51912,2,0,B|248:283|295:260,1,47.9999985351563,10|0,0:0|0:0,0:0:0:0:
331,328,52083,1,2,0:0:0:0:
331,328,52169,1,2,0:0:0:0:
331,328,52255,6,0,B|335:314|351:341|350:313|359:367|471:337|430:247,1,167.999994873047,6|0,3:2|0:0,0:0:0:0:
448,242,52598,2,0,L|457:294,1,30.0000011444092,10|2,0:0|0:0,0:0:0:0:
502,328,52769,1,2,0:0:0:0:
482,216,52940,6,0,L|492:171,1,30.0000011444092,2|0,3:2|0:0,0:0:0:0:
494,165,53112,2,0,L|504:120,1,30.0000011444092,0|2,0:0|0:0,0:0:0:0:
504,116,53283,1,10,0:0:0:0:
405,143,53455,1,2,3:2:0:0:
334,95,53626,5,4,3:2:0:0:
199,134,53798,1,2,3:2:0:0:
261,40,53969,1,10,3:2:0:0:
272,184,54140,1,2,3:2:0:0:
196,218,54312,6,0,P|163:209|142:186,1,47.9999985351563,4|0,3:2|3:2,0:0:0:0:
129,96,54483,1,2,3:2:0:0:
129,86,54569,1,0,3:2:0:0:
128,76,54655,2,0,P|95:76|62:101,1,47.9999985351563,14|2,3:2|3:2,0:0:0:0:
45,172,54826,1,2,3:2:0:0:
45,181,54912,1,2,3:2:0:0:
45,190,54998,6,0,L|55:246,1,55.9999982910157,4|0,0:0|0:0,0:0:0:0:
39,294,55169,2,0,L|29:238,1,55.9999982910157,2|0,0:0|0:0,0:0:0:0:
130,293,55340,1,10,0:0:0:0:
128,302,55426,1,2,0:0:0:0:
126,311,55512,1,2,0:0:0:0:
242,332,55683,6,2,P|261:285|239:332,1,167.999994873047,2|0,3:2|0:0,2:1:0:0:
340,308,56026,2,0,P|335:335|324:361,1,55.9999982910157,10|0,0:0|0:0,0:0:0:0:
335,365,56198,2,0,P|346:340|352:313,1,55.9999982910157,2|0,0:0|0:0,0:0:0:0:
434,355,56369,5,2,3:2:0:0:
429,332,56455,1,2,0:0:0:0:
434,355,56540,1,2,0:0:0:0:
429,332,56626,1,2,0:0:0:0:
448,356,56712,5,10,0:0:0:0:
443,333,56798,1,2,0:0:0:0:
448,356,56883,1,2,0:0:0:0:
443,333,56969,1,2,0:0:0:0:
464,357,57055,5,2,3:2:0:0:
505,283,57226,1,2,0:0:0:0:
470,190,57398,1,10,0:0:0:0:
358,159,57569,1,2,0:0:0:0:
492,112,57740,5,0,3:2:0:0:
470,190,57912,2,0,P|432:210|421:198,1,55.9999982910157,2|0,0:0|0:0,0:0:0:0:
358,159,58083,2,0,P|321:163|362:192,1,111.999996582031,10|0,0:0|0:0,0:0:0:0:
470,190,58426,6,0,P|432:210|421:198,1,55.9999982910157,2|0,3:2|0:0,0:0:0:0:
358,159,58598,2,0,P|331:155|316:176,1,55.9999982910157,2|0,0:0|0:0,0:0:0:0:
256,236,58769,1,10,0:0:0:0:
338,261,58940,1,2,0:0:0:0:
304,166,59112,6,2,B|295:137|296:117|313:133|285:119,1,55.9999982910157,2|0,3:2|0:0,0:1:0:0:
304,73,59283,2,2,B|295:102|296:122|313:106|285:120,1,55.9999982910157,2|0,0:0|0:0,0:1:0:0:
255,121,59455,2,2,B|311:126|315:114|373:106|374:133|429:121,1,167.999994873047,10|0,0:0|0:0,0:1:0:0:
443,116,59798,5,2,3:2:0:0:
405,33,59969,1,2,0:0:0:0:
393,184,60140,1,10,0:0:0:0:
431,101,60311,1,2,0:0:0:0:
445,238,60483,5,2,3:2:0:0:
403,307,60655,1,2,0:0:0:0:
418,354,60826,1,10,0:0:0:0:
448,367,60998,1,0,0:0:0:0:
466,361,61169,6,0,L|510:345,1,40,2|0,3:2|0:0,0:0:0:0:
403,307,61340,2,0,L|359:291,1,40,2|0,0:0|0:0,0:0:0:0:
475,250,61512,2,0,L|519:234,1,40,10|0,0:0|0:0,0:0:0:0:
380,208,61683,1,2,0:0:0:0:
301,252,61855,6,0,P|289:303|305:340,2,80,2|2|8,3:2|0:0|0:0,0:0:0:0:
310,241,62369,1,2,0:0:0:0:
308,342,62540,1,2,3:2:0:0:
243,376,62712,1,2,0:0:0:0:
178,338,62883,1,10,0:0:0:0:
112,372,63055,1,2,0:0:0:0:
243,287,63226,5,2,3:2:0:0:
178,253,63398,1,2,0:0:0:0:
113,291,63569,1,10,0:0:0:0:
47,257,63741,1,2,0:0:0:0:
7,351,63912,6,0,B|5:383|37:371|0:305|19:261,1,120,2|0,3:2|0:0,0:0:0:0:
0,194,64255,1,10,0:0:0:0:
0,194,64340,1,2,0:0:0:0:
0,194,64426,1,2,0:0:0:0:
17,265,64598,2,0,P|62:234|46:137,1,160,2|10,3:2|0:0,0:0:0:0:
14,113,65112,6,0,B|26:87|26:87|31:97,1,40,2|0,0:0|0:0,0:0:0:0:
0,194,65283,1,2,3:2:0:0:
108,181,65455,2,0,P|132:176|165:183,1,40,2|0,0:0|0:0,0:0:0:0:
177,207,65626,1,10,0:0:0:0:
89,171,65798,1,2,3:2:0:0:
187,96,65969,6,0,L|244:114,1,55.9999982910157,6|0,3:2|0:0,0:0:0:0:
268,157,66140,2,0,L|214:139,1,55.9999982910157,2|0,0:0|0:0,0:0:0:0:
167,24,66312,1,10,0:0:0:0:
165,12,66398,1,0,0:0:0:0:
163,0,66483,1,2,0:0:0:0:
271,48,66655,6,2,B|326:21|326:21|275:-8|275:-8|271:46,1,167.999994873047,2|0,3:2|0:0,2:1:0:0:
399,11,66998,2,0,P|400:38|388:64,1,55.9999982910157,10|0,0:0|0:0,0:0:0:0:
402,68,67169,2,0,P|414:43|415:16,1,55.9999982910157,2|0,0:0|0:0,0:0:0:0:
483,85,67340,5,2,3:2:0:0:
506,80,67426,1,2,0:0:0:0:
483,85,67511,1,2,0:0:0:0:
506,80,67597,1,2,0:0:0:0:
488,101,67683,5,10,0:0:0:0:
511,96,67769,1,2,0:0:0:0:
488,101,67854,1,2,0:0:0:0:
511,96,67940,1,2,0:0:0:0:
505,112,68026,5,2,3:2:0:0:
498,189,68198,1,2,0:0:0:0:
421,257,68369,1,10,0:0:0:0:
290,247,68540,1,2,0:0:0:0:
424,175,68712,5,2,3:2:0:0:
418,179,68883,2,0,L|399:108,1,55.9999982910157,2|0,0:0|0:0,0:0:0:0:
319,115,69055,2,0,B|328:72|328:72|336:39|378:59|310:89,1,111.999996582031,10|0,0:0|0:0,0:0:0:0:
290,247,69398,6,0,P|288:283|308:299,1,55.9999982910157,2|0,3:2|0:0,0:0:0:0:
224,343,69569,2,0,P|206:332|227:332,1,55.9999982910157,2|0,0:0|0:0,0:0:0:0:
310,378,69740,6,0,P|334:374|370:330,1,55.9999982910157,10|0,0:0|0:0,0:0:0:0:
372,279,69912,2,0,P|393:261|420:256,1,55.9999982910157,2|0,0:0|0:0,0:0:0:0:
512,284,70083,6,2,L|497:345,1,55.9999982910157,2|0,3:2|0:0,0:1:0:0:
505,285,70255,2,2,P|499:313|500:344,1,55.9999982910157,2|0,0:0|0:0,0:1:0:0:
505,345,70426,2,2,B|487:320|483:292|517:252|496:177,1,167.999994873047,10|0,0:0|0:0,0:1:0:0:
398,122,70769,6,0,P|360:118|333:129,1,55.9999982910157,2|0,3:2|0:0,0:0:0:0:
471,85,70940,2,0,P|446:55|420:43,1,55.9999982910157,2|0,0:0|0:0,0:0:0:0:
368,200,71112,6,0,P|338:224|326:250,1,55.9999982910157,10|0,0:0|0:0,0:0:0:0:
405,273,71284,2,0,P|401:311|412:338,1,55.9999982910157,2|0,0:0|0:0,0:0:0:0:
505,285,71455,5,2,3:2:0:0:
497,180,71626,1,2,0:0:0:0:
471,85,71798,2,0,B|381:95|414:-2|336:5,1,167.999994873047,10|0,0:0|0:0,0:0:0:0:
237,25,72140,6,0,L|232:81,1,55.9999982910157,2|0,3:2|0:0,0:0:0:0:
162,31,72312,2,0,L|157:87,1,55.9999982910157,2|0,0:0|0:0,0:0:0:0:
87,37,72483,2,0,L|82:93,1,55.9999982910157,10|0,0:0|0:0,0:0:0:0:
5,98,72655,2,0,L|11:43,1,55.9999982910157,2|0,0:0|0:0,0:0:0:0:
82,93,72826,5,2,3:2:0:0:
48,166,72998,1,2,0:0:0:0:
148,177,73169,5,10,0:0:0:0:
61,210,73340,1,2,0:0:0:0:
174,277,73512,5,2,3:2:0:0:
58,251,73683,1,2,0:0:0:0:
128,346,73855,5,10,0:0:0:0:
249,324,74026,1,2,0:0:0:0:
314,368,74198,6,0,L|247:352,1,55.9999982910157,2|0,3:2|0:0,0:0:0:0:
346,297,74369,2,0,L|523:269,1,167.999994873047,2|0,0:0|0:0,0:0:0:0:
485,353,74712,2,0,P|454:331|441:311,1,55.9999982910157,2|0,0:0|0:0,0:0:0:0:
403,209,74883,6,0,L|414:135,1,55.9999982910157,2|0,3:2|0:0,0:0:0:0:
411,209,75055,2,0,L|400:135,1,55.9999982910157,2|0,0:0|0:0,0:0:0:0:
482,130,75226,5,10,0:0:0:0:
505,125,75312,1,2,0:0:0:0:
483,111,75398,1,2,0:0:0:0:
506,106,75484,1,2,0:0:0:0:
481,70,75569,6,0,P|451:-1|398:52,1,167.999994873047,2|0,3:2|0:0,0:0:0:0:
398,40,75912,2,0,P|427:18|423:-10,1,55.9999982910157,10|0,0:0|0:0,0:0:0:0:
289,18,76083,1,2,0:0:0:0:
230,101,76255,2,0,B|269:87|317:92|317:92|357:66,2,111.999996582031,2|2|10,3:2|0:0|0:0,0:0:0:0:
216,115,76683,5,2,0:0:0:0:
216,115,76769,2,0,L|227:185,1,55.9999982910157,2|0,3:2|0:0,0:0:0:0:
200,15,76940,1,6,0:0:0:0:
194,346,86712,6,0,B|191:321|204:293|204:293|138:204,3,160,2|0|0|2,3:2|3:2|3:2|3:2,0:0:0:0:
86,281,87826,5,2,3:2:0:0:
83,290,87912,5,6,0:0:0:0:
130,196,88083,2,0,L|121:140,1,55.9999982910157,2|0,3:2|0:0,0:0:0:0:
89,63,88255,1,10,0:0:0:0:
103,46,88340,1,0,0:0:0:0:
120,37,88426,1,2,0:3:0:0:
12,151,88598,6,0,L|-9:244,2,55.9999982910157,2|0|8,0:0|0:0|0:3,0:0:0:0:
82,289,88855,2,0,L|70:235,2,55.9999982910157,2|2|0,0:0|0:3|0:0,0:0:0:0:
0,325,89112,1,10,0:0:0:0:
109,363,89283,6,0,P|134:352|147:308,1,55.9999982910157,8|0,0:3|0:0,0:0:0:0:
212,367,89455,2,0,P|228:344|217:300,1,55.9999982910157,2|0,0:0|0:0,0:0:0:0:
196,230,89626,1,10,0:0:0:0:
179,239,89712,1,0,0:0:0:0:
165,256,89797,1,8,0:3:0:0:
290,249,89969,6,0,L|353:227,2,55.9999982910157,2|0|8,0:0|0:0|0:0,0:0:0:0:
405,337,90226,2,0,L|352:318,2,55.9999982910157,2|8|0,0:0|0:3|0:0,0:0:0:0:
447,252,90483,1,2,0:0:0:0:
457,264,90569,1,2,0:0:0:0:
466,281,90655,5,4,0:0:0:0:
420,174,90826,2,0,B|412:142|420:115|443:99,1,55.9999982910157,2|0,3:2|0:0,0:0:0:0:
443,75,90998,2,0,P|401:110|387:164,1,111.999996582031,10|2,0:0|0:3,0:0:0:0:
290,249,91341,6,0,P|286:276|270:298,1,55.9999982910157,2|0,0:0|0:0,0:0:0:0:
217,222,91512,2,0,P|200:244|197:271,1,55.9999982910157,8|2,0:3|0:0,0:0:0:0:
224,141,91683,6,0,P|204:111|214:66,1,55.9999982910157,2|0,0:3|0:0,0:0:0:0:
296,113,91855,2,0,P|292:85|276:63,1,55.9999982910157,2|0,0:0|0:0,0:0:0:0:
214,13,92026,5,8,0:3:0:0:
208,11,92112,1,0,0:0:0:0:
202,9,92198,1,2,0:0:0:0:
121,42,92369,1,10,0:0:0:0:
119,35,92455,1,0,0:0:0:0:
117,28,92540,1,8,0:3:0:0:
42,0,92712,6,0,B|31:27|38:43|31:55,1,55.9999982910157,2|0,0:0|0:0,0:0:0:0:
0,125,92883,2,0,B|11:152|4:168|11:180,1,55.9999982910157,2|2,0:3|0:0,0:0:0:0:
25,250,93055,1,8,0:3:0:0:
7,326,93226,1,2,3:2:0:0:
20,338,93312,1,2,0:0:0:0:
19,354,93398,1,6,3:2:0:0:
107,293,93569,6,0,P|120:294|108:309,1,40,2|0,0:0|0:0,0:0:0:0:
190,360,93740,2,0,P|208:322|194:245,1,120,10|0,0:0|0:0,0:0:0:0:
116,201,94083,1,2,0:0:0:0:
241,176,94255,1,8,3:3:0:0:
177,137,94426,1,8,0:0:0:0:
306,213,94598,1,2,0:0:0:0:
306,228,94683,1,2,0:0:0:0:
300,242,94769,5,4,3:2:0:0:
177,137,94940,1,2,0:0:0:0:
102,210,95112,1,10,0:0:0:0:
99,225,95198,1,0,0:0:0:0:
99,240,95283,1,2,0:3:0:0:
27,165,95455,6,0,L|34:114,1,40,2|0,0:0|0:0,0:0:0:0:
66,46,95626,2,0,P|56:34|56:52,1,40,0|2,3:2|0:0,0:0:0:0:
178,60,95798,2,0,L|229:53,1,40,8|0,0:0|0:0,0:0:0:0:
306,65,95969,1,2,3:2:0:0:
306,33,96055,1,2,0:0:0:0:
291,49,96140,5,4,0:0:0:0:
341,154,96312,1,2,3:2:0:0:
278,202,96483,5,10,0:0:0:0:
236,353,96655,1,2,3:2:0:0:
303,384,96826,5,6,0:0:0:0:
260,280,96998,1,0,3:2:0:0:
189,220,97169,5,8,3:2:0:0:
144,384,97340,2,0,P|158:383|145:371,1,40,2|2,3:2|0:0,0:0:0:0:
75,306,97512,5,4,3:2:0:0:
73,298,97598,1,0,3:2:0:0:
64,297,97683,1,2,3:2:0:0:
53,305,97769,1,0,3:2:0:0:
55,320,97855,1,2,3:2:0:0:
79,320,97940,1,2,3:2:0:0:
90,293,98026,1,0,3:2:0:0:
79,265,98112,1,0,3:2:0:0:
79,265,98198,6,0,B|81:246|81:246|90:204,1,55.9999982910157,6|0,3:2|3:2,0:0:0:0:
189,220,98369,1,0,3:2:0:0:
189,220,98455,2,0,B|187:201|187:201|178:159,1,55.9999982910157,6|0,3:2|3:2,0:0:0:0:
96,77,98626,1,0,3:2:0:0:
88,133,98712,1,6,3:2:0:0:
116,102,98798,1,2,3:2:0:0:
256,192,98883,12,0,100083,0:0:0:0:
317,198,100255,5,2,1:3:0:0:
366,126,100426,2,0,L|405:118,1,40,2|0,0:3|0:0,0:0:0:0:
281,95,100598,2,0,L|242:87,1,40,2|0,0:3|0:0,0:0:0:0:
317,198,100769,1,0,1:2:0:0:
407,207,100940,6,0,L|415:252,7,30.0000011444092,2|0|0|2|0|0|2|0,1:2|0:0|0:0|0:0|0:0|0:0|0:0|0:0,0:0:0:0:
332,278,101626,6,0,P|350:349|435:334,1,143.999995605469,4|0,3:2|0:0,0:0:0:0:
492,249,101969,2,0,B|491:276|475:291|475:291|493:311|497:336,1,95.9999970703126,10|0,0:0|0:0,0:0:0:0:
512,176,102312,5,2,3:2:0:0:
470,98,102483,1,2,0:0:0:0:
504,58,102655,1,8,0:0:0:0:
485,28,102826,1,2,0:0:0:0:
492,22,102998,5,2,3:2:0:0:
456,59,103169,1,2,0:0:0:0:
512,118,103341,1,10,0:0:0:0:
430,177,103512,1,2,0:0:0:0:
349,89,103683,6,0,P|329:92|343:106,1,47.9999985351563,2|0,3:2|0:0,0:0:0:0:
388,19,103855,1,2,0:0:0:0:
270,39,104026,2,0,P|251:108|278:162,1,95.9999970703126,8|2,0:0|0:0,0:0:0:0:
267,155,104283,1,2,0:0:0:0:
267,155,104369,2,0,B|303:166|330:215|285:281,1,143.999995605469,2|0,3:2|0:0,0:0:0:0:
253,268,104712,6,0,P|232:245|235:203,1,47.9999985351563,8|0,0:0|0:0,0:0:0:0:
166,174,104883,1,2,0:0:0:0:
166,174,104969,1,2,0:0:0:0:
166,174,105055,2,0,B|135:155|135:155|126:197|161:203|156:262,1,143.999995605469,2|2,3:2|0:0,0:0:0:0:
137,291,105398,2,0,P|150:314|179:339,1,47.9999985351563,10|0,0:0|0:0,0:0:0:0:
234,360,105569,1,2,0:0:0:0:
115,384,105740,5,2,3:2:0:0:
53,332,105912,1,2,0:0:0:0:
36,255,106083,1,10,0:0:0:0:
67,184,106255,1,2,0:0:0:0:
36,255,106426,5,2,3:2:0:0:
67,184,106598,1,2,0:0:0:0:
130,107,106769,5,10,0:0:0:0:
99,36,106941,1,2,0:0:0:0:
67,184,107112,6,0,P|126:206|142:200,1,47.9999985351563,2|0,3:2|0:0,0:0:0:0:
151,193,107283,2,0,P|210:171|226:177,1,47.9999985351563,2|0,0:0|0:0,0:0:0:0:
211,246,107455,1,10,0:0:0:0:
281,156,107626,2,0,P|273:143|274:162,1,47.9999985351563,2|0,0:0|0:0,0:0:0:0:
330,229,107798,5,2,3:2:0:0:
366,153,107969,1,2,0:0:0:0:
332,75,108140,1,10,0:0:0:0:
253,61,108312,1,2,0:0:0:0:
366,153,108483,5,2,3:2:0:0:
445,130,108655,1,2,0:0:0:0:
512,234,108826,5,10,0:0:0:0:
433,211,108998,1,2,0:0:0:0:
512,99,109169,6,0,B|500:69|479:57|472:66,1,47.9999985351563,2|0,3:2|0:0,0:0:0:0:
426,158,109340,2,0,B|427:250|458:217|445:130,1,143.999995605469,2|0,0:0|0:0,0:0:0:0:
408,31,109683,1,2,0:0:0:0:
407,35,109769,1,2,0:0:0:0:
406,39,109855,5,2,3:2:0:0:
395,65,110026,1,2,0:0:0:0:
358,78,110198,1,10,0:0:0:0:
287,137,110369,5,2,0:0:0:0:
307,175,110540,1,2,3:2:0:0:
343,203,110712,1,2,0:0:0:0:
436,213,110883,5,10,0:0:0:0:
431,249,111055,1,2,0:0:0:0:
505,297,111226,5,2,3:2:0:0:
476,322,111398,1,2,0:0:0:0:
384,346,111569,5,10,0:0:0:0:
411,367,111740,1,2,0:0:0:0:
324,291,111912,6,0,B|296:296|299:284|295:319|270:309,1,47.9999985351563,0|0,3:2|0:0,0:0:0:0:
234,259,112083,2,0,B|206:254|209:266|205:231|180:241,1,47.9999985351563,2|2,0:0|0:0,0:0:0:0:
137,304,112255,2,0,B|109:309|112:297|108:332|83:322,1,47.9999985351563,10|0,3:2|0:0,0:0:0:0:
41,253,112426,2,0,B|13:248|16:260|12:225|-13:235,1,47.9999985351563,2|0,3:2|0:0,0:0:0:0:
85,136,112598,5,6,3:2:0:0:
99,143,112769,2,0,P|120:135|118:113,1,47.9999985351563,2|0,0:0|0:0,0:0:0:0:
113,222,112940,1,10,3:2:0:0:
11,156,113112,2,0,P|8:129|11:101,1,47.9999985351563,2|2,0:0|0:0,0:0:0:0:
15,88,113283,1,2,3:2:0:0:
122,45,113455,2,0,P|125:72|122:100,1,47.9999985351563,2|2,0:0|0:0,0:0:0:0:
118,113,113626,1,8,3:2:0:0:
50,9,113798,1,2,0:0:0:0:
197,97,113969,5,0,3:2:0:0:
235,89,114140,1,2,0:0:0:0:
295,9,114312,1,10,3:2:0:0:
295,9,114398,1,2,0:0:0:0:
295,9,114483,1,0,0:0:0:0:
270,128,114655,6,0,B|274:101|274:101|272:81,1,47.9999985351563,2|0,3:2|0:0,0:0:0:0:
348,143,114826,2,0,B|346:123|346:123|352:79,1,47.9999985351563,2|2,0:0|0:0,0:0:0:0:
420,156,114998,1,8,3:2:0:0:
494,171,115169,1,2,0:0:0:0:
472,43,115340,6,0,B|461:10|414:18|457:64|469:113|398:73|452:135|412:155,1,143.999995605469,2|0,3:2|0:0,0:0:0:0:
367,63,115683,1,10,3:2:0:0:
494,171,115855,1,2,0:0:0:0:
415,226,116026,2,0,B|390:281|448:285|421:350,1,95.9999970703126,2|2,3:2|0:0,0:0:0:0:
355,330,116283,1,2,0:0:0:0:
355,330,116369,2,0,P|331:327|315:309,1,47.9999985351563,8|0,3:2|0:0,0:0:0:0:
289,248,116540,2,0,P|307:262|312:285,1,47.9999985351563,2|0,0:0|0:0,0:0:0:0:
203,339,116712,6,0,B|118:257|244:258|97:323|73:211,1,191.999994140625,0|10,3:2|3:2,0:0:0:0:
102,345,117226,1,2,0:0:0:0:
153,188,117398,2,0,B|149:123|79:83|56:155|13:56|37:18,1,191.999994140625,2|10,3:2|3:2,0:0:0:0:
112,38,117912,1,2,0:0:0:0:
13,164,118083,6,0,B|-3:184|-24:230|1:244|1:266|11:288|4:318|-15:304,1,143.999995605469,2|0,3:2|0:0,0:0:0:0:
80,352,118426,2,0,B|102:344|102:344|80:337,1,47.9999985351563,10|0,3:2|0:0,0:0:0:0:
102,345,118598,6,0,L|207:312,1,95.9999970703126,2|2,0:0|3:2,0:0:0:0:
258,369,118940,2,0,P|281:375|304:380,1,47.9999985351563,2|2,0:0|0:0,0:0:0:0:
298,302,119112,1,10,3:2:0:0:
304,307,119283,1,2,0:0:0:0:
367,216,119455,5,2,3:2:0:0:
330,212,119626,1,2,0:0:0:0:
356,220,119798,1,10,3:2:0:0:
342,219,119969,1,2,0:0:0:0:
412,133,120140,5,2,3:2:0:0:
441,265,120312,1,2,0:0:0:0:
444,168,120483,1,10,3:2:0:0:
453,218,120655,1,2,0:0:0:0:
480,16,120826,6,0,B|447:32|451:17|454:3|451:51|414:69|368:50|391:30,1,111.999996582031,6|2,3:2|0:0,0:0:0:0:
298,7,121169,1,10,3:2:0:0:
322,95,121340,1,2,0:0:0:0:
207,0,121512,2,0,B|191:33|205:28|220:26|172:29|154:66|173:112|193:89,1,111.999996582031,2|2,3:2|0:0,0:0:0:0:
269,102,121855,2,0,P|294:91|322:95,1,55.9999982910157,10|0,3:2|0:0,0:0:0:0:
359,140,122026,2,0,P|384:128|411:132,1,55.9999982910157,2|0,3:2|0:0,0:0:0:0:
444,168,122198,5,6,3:2:0:0:
416,307,122369,1,2,3:2:0:0:
360,355,122540,1,10,3:2:0:0:
332,216,122711,1,2,3:2:0:0:
196,330,122883,6,0,P|174:328|154:288,1,55.9999982910157,6|0,3:2|3:2,0:0:0:0:
65,207,123055,1,2,3:2:0:0:
63,212,123140,1,0,3:2:0:0:
62,217,123226,2,0,P|90:239|120:243,1,55.9999982910157,14|2,3:2|3:2,0:0:0:0:
101,317,123398,2,0,P|136:312|160:294,1,55.9999982910157,2|2,3:2|3:2,0:0:0:0:
188,173,123569,6,0,B|198:126|198:126|209:112|209:112|214:69|214:69|209:54|209:54|219:-11,1,180.000006866455,6|0,3:2|0:0,0:0:0:0:
307,48,123912,1,10,3:2:0:0:
288,31,123998,1,2,0:0:0:0:
295,45,124083,1,2,0:0:0:0:
188,173,124255,6,2,P|102:141|136:81,1,180.000006866455,2|0,3:2|0:0,2:1:0:0:
131,88,124598,6,0,P|90:102|52:90,1,60.0000022888184,10|0,3:2|0:0,0:0:0:0:
33,36,124769,2,0,P|74:22|112:34,1,60.0000022888184,2|0,0:0|0:0,0:0:0:0:
217,0,124940,5,2,3:2:0:0:
220,17,125026,1,2,0:0:0:0:
224,0,125112,1,2,0:0:0:0:
227,17,125198,1,2,0:0:0:0:
236,0,125283,5,10,3:2:0:0:
240,27,125369,1,2,0:0:0:0:
248,0,125455,1,2,0:0:0:0:
252,27,125541,1,2,0:0:0:0:
264,0,125626,5,2,3:2:0:0:
259,66,125798,1,2,0:0:0:0:
315,165,125969,1,10,3:2:0:0:
428,210,126140,1,2,0:0:0:0:
408,61,126312,5,2,3:2:0:0:
413,70,126483,2,0,B|450:77|452:48|478:70,1,60.0000022888184,2|0,0:0|0:0,0:0:0:0:
512,182,126655,2,0,B|515:208|480:226|449:206|455:178|488:95,1,120.000004577637,10|2,3:2|0:0,0:0:0:0:
512,0,126998,1,2,3:2:0:0:
484,70,127169,1,2,0:0:0:0:
456,140,127340,1,10,3:2:0:0:
428,210,127512,1,2,0:0:0:0:
430,215,127598,1,0,0:0:0:0:
431,220,127683,6,2,B|421:250|421:250|429:264|407:292,1,60.0000022888184,2|0,3:2|0:0,0:1:0:0:
334,303,127855,2,2,B|344:274|344:274|336:260|347:247,1,60.0000022888184,2|0,0:0|0:0,0:1:0:0:
512,342,128026,2,2,B|456:367|451:307|456:368|395:351,1,120.000004577637,10|2,0:0|0:0,0:1:0:0:
267,359,128369,6,0,B|249:342|243:318|254:297,1,60.0000022888184,2|0,3:2|0:0,0:0:0:0:
202,228,128540,2,0,B|201:203|214:182|236:174,1,60.0000022888184,2|0,0:0|0:0,0:0:0:0:
98,353,128712,1,10,3:2:0:0:
179,344,128883,1,2,0:0:0:0:
132,281,129055,6,0,P|105:317|99:346,1,60.0000022888184,2|0,3:2|0:0,0:0:0:0:
62,234,129226,2,0,P|98:207|127:201,1,60.0000022888184,2|0,0:0|0:0,0:0:0:0:
24,312,129398,2,0,P|-24:349|30:320,1,180.000006866455,10|0,3:2|0:0,0:0:0:0:
54,229,129740,1,2,3:2:0:0:
62,234,129912,1,2,0:0:0:0:
70,239,130083,1,10,3:2:0:0:
63,169,130255,2,0,L|51:248,1,60.0000022888184,2|2,0:0|0:0,0:0:0:0:
170,165,130426,5,2,3:2:0:0:
81,62,130598,1,2,0:0:0:0:
143,98,130769,1,10,3:2:0:0:
13,81,130940,1,2,0:0:0:0:
232,48,131112,5,2,3:2:0:0:
238,63,131283,1,2,0:0:0:0:
170,165,131455,5,10,3:2:0:0:
162,179,131626,2,0,B|155:208|174:216|190:236|211:222,1,60.0000022888184,2|0,0:0|0:0,0:0:0:0:
367,190,131798,5,2,3:2:0:0:
273,196,131969,1,2,0:0:0:0:
415,187,132140,1,10,3:2:0:0:
320,193,132312,1,2,0:0:0:0:
512,172,132483,2,0,B|511:195|492:210|493:226|493:226|485:167|483:116|514:59,1,180.000006866455,2|0,3:2|0:0,0:0:0:0:
466,28,132826,1,10,3:2:0:0:
489,21,132912,1,2,0:0:0:0:
512,26,132998,1,2,0:0:0:0:
397,78,133169,1,2,3:2:0:0:
400,86,133512,5,10,3:2:0:0:
327,33,133683,2,0,B|314:96|314:96|333:122|340:155,1,120.000004577637,2|2,0:0|3:2,0:0:0:0:
327,158,134026,2,0,P|319:133|297:100,1,60.0000022888184,2|0,0:0|0:0,0:0:0:0:
197,39,134198,1,10,3:2:0:0:
199,59,134283,1,0,0:0:0:0:
212,29,134369,1,2,3:2:0:0:
241,163,134540,6,0,P|244:191|209:230,1,60.0000022888184,6|0,3:2|0:0,0:0:0:0:
154,239,134712,2,0,P|139:264|142:294,1,60.0000022888184,2|0,0:0|0:0,0:0:0:0:
161,157,134883,1,10,3:2:0:0:
158,151,134969,1,2,0:0:0:0:
153,146,135055,1,2,0:0:0:0:
217,291,135226,6,2,B|299:325|299:240|393:278,1,180.000006866455,2|0,3:2|0:0,2:1:0:0:
397,360,135569,6,0,P|362:365|350:326,1,60.0000022888184,10|0,3:2|0:0,0:0:0:0:
463,296,135740,2,0,P|490:288|511:307,1,60.0000022888184,2|0,0:0|0:0,0:0:0:0:
439,210,135912,1,2,3:2:0:0:
435,196,135998,1,2,0:0:0:0:
413,197,136083,1,2,0:0:0:0:
397,187,136169,1,2,0:0:0:0:
384,199,136255,5,10,3:2:0:0:
360,209,136340,1,2,0:0:0:0:
333,193,136426,1,2,0:0:0:0:
304,185,136512,1,2,0:0:0:0:
304,158,136598,5,2,3:2:0:0:
266,222,136769,1,2,0:0:0:0:
166,248,136940,1,10,3:2:0:0:
52,204,137112,1,2,0:0:0:0:
57,57,137283,6,0,P|44:27|11:5,1,60.0000022888184,0|0,3:2|0:0,0:0:0:0:
137,33,137455,2,0,L|129:98,1,60.0000022888184,2|0,0:0|0:0,0:0:0:0:
213,28,137626,6,0,L|202:122,1,90.0000034332277,10|0,3:2|0:0,0:0:0:0:
195,141,137969,6,0,P|190:178|197:215,1,60.0000022888184,2|0,3:2|0:0,0:0:0:0:
290,84,138140,2,0,P|295:47|288:10,1,60.0000022888184,2|0,0:0|0:0,0:0:0:0:
304,158,138312,1,10,3:2:0:0:
370,81,138483,1,2,0:0:0:0:
371,86,138569,1,2,0:0:0:0:
371,92,138655,2,2,P|393:130|392:169,1,60.0000022888184,2|0,3:2|0:0,0:1:0:0:
446,202,138826,2,2,P|462:177|467:148,1,60.0000022888184,2|0,0:0|0:0,0:1:0:0:
453,52,138998,2,2,P|460:10|457:57,1,180.000006866455,10|0,0:0|0:0,0:1:0:0:
407,9,139340,5,2,3:2:0:0:
292,24,139512,1,2,0:0:0:0:
239,96,139683,1,10,3:2:0:0:
243,146,139855,1,2,0:0:0:0:
263,174,140026,6,0,P|291:168|312:115,1,60.0000022888184,2|0,3:2|0:0,0:0:0:0:
332,113,140198,2,0,P|331:131|348:113,1,60.0000022888184,2|0,0:0|0:0,0:0:0:0:
239,96,140369,2,0,P|185:148|215:242,1,180.000006866455,10|0,3:2|0:0,0:0:0:0:
218,257,140712,2,0,P|175:248|147:252,1,60.0000022888184,2|0,3:2|0:0,0:0:0:0:
213,264,140883,2,0,P|174:246|142:259,1,60.0000022888184,2|0,0:0|0:0,0:0:0:0:
108,201,141055,1,10,3:2:0:0:
43,264,141226,1,2,0:0:0:0:
5,234,141398,6,0,P|20:201|21:163,1,60.0000022888184,2|0,3:2|0:0,0:0:0:0:
45,141,141569,2,0,P|32:109|38:69,1,60.0000022888184,2|0,0:0|0:0,0:0:0:0:
23,56,141740,1,10,3:2:0:0:
106,23,141912,1,2,0:0:0:0:
184,59,142083,5,2,3:2:0:0:
190,94,142255,1,2,0:0:0:0:
187,153,142426,1,10,3:2:0:0:
137,229,142598,1,2,0:0:0:0:
30,288,142769,5,2,3:2:0:0:
40,248,142940,1,2,0:0:0:0:
92,196,143112,1,10,3:2:0:0:
185,187,143283,1,2,0:0:0:0:
281,237,143455,2,0,P|287:265|266:250,1,60.0000022888184,2|0,3:2|0:0,0:0:0:0:
292,342,143626,2,0,P|276:366|272:340,1,60.0000022888184,2|0,0:0|0:0,0:0:0:0:
175,331,143798,5,10,3:2:0:0:
171,303,143883,1,0,0:0:0:0:
165,331,143969,1,2,0:0:0:0:
161,303,144054,1,0,0:0:0:0:
143,333,144140,2,0,B|115:354|82:371|48:346|5:362|5:362|7:330|-1:303|35:292|44:322|83:341,1,240.000009155274,2|10,3:2|3:2,0:0:0:0:
292,342,144655,6,0,P|276:366|272:340,1,60.0000022888184,2|0,0:0|0:0,0:0:0:0:
330,275,144826,5,2,3:2:0:0:
172,184,145083,5,0,3:2:0:0:
276,36,145340,5,2,3:2:0:0:
251,239,145512,6,0,B|256:332|112:358|78:216|172:183|172:183|126:256|34:206|76:115|131:118,1,503.999984619141,6|0,3:2|0:0,0:0:0:0:
