osu file format v14

[General]
AudioFilename: audio.mp3
AudioLeadIn: 0
PreviewTime: 54949
Countdown: 1
SampleSet: Soft
StackLeniency: 0.7
Mode: 3
LetterboxInBreaks: 0
SpecialStyle: 0
WidescreenStoryboard: 0

[Editor]
DistanceSpacing: 0.8
BeatDivisor: 4
GridSize: 4
TimelineZoom: 2.799999

[Metadata]
Title:EOS
TitleUnicode:EOS
Artist:ginkiha
ArtistUnicode:ginkiha
Creator:prebert123
Version:Volatus
Source:BMS
Tags:BMS EOS sad
BeatmapID:2129279
BeatmapSetID:1017351

[Difficulty]
HPDrainRate:8
CircleSize:4
OverallDifficulty:7.5
ApproachRate:5
SliderMultiplier:1.4
SliderTickRate:1

[Events]
//Background and Video events
0,0,"295b.png",0,0
//Break Periods
2,77092,86663
//Storyboard Layer 0 (Background)
//Storyboard Layer 1 (Fail)
//Storyboard Layer 2 (Pass)
//Storyboard Layer 3 (Foreground)
//Storyboard Layer 4 (Overlay)
//Storyboard Sound Samples

[TimingPoints]
92,342.857142857143,4,2,0,100,1,0
98777,-10000,4,2,0,100,0,0
98860,-10,4,2,0,100,0,0
99177,-909.090909090909,4,2,0,100,0,0
99520,-476.190476190476,4,2,0,100,0,0
99777,-322.58064516129,4,2,0,100,0,0
99900,-50,4,2,0,100,0,0
99949,-196.078431372549,4,2,0,100,0,0
99992,-163.934426229508,4,2,0,100,0,0
99998,-50,4,2,0,100,0,0
100034,-140.845070422535,4,2,0,100,0,0
100077,-123.456790123457,4,2,0,100,0,0
100120,-109.89010989011,4,2,0,100,0,0
100163,-99.009900990099,4,2,0,100,0,0
100234,-100,4,2,0,100,0,0

[HitObjects]
64,192,92,5,0,0:0:0:0:
448,192,92,1,0,0:0:0:0:
192,192,92,1,0,0:0:0:0:
320,192,263,1,0,0:0:0:0:
192,192,434,1,0,0:0:0:0:
448,192,606,1,0,0:0:0:0:
192,192,949,1,0,0:0:0:0:
448,192,1120,1,0,0:0:0:0:
320,192,1463,128,0,1549:0:0:0:0:
64,192,1634,1,0,0:0:0:0:
64,192,1806,1,0,0:0:0:0:
64,192,2149,1,0,0:0:0:0:
64,192,2320,1,0,0:0:0:0:
64,192,2663,1,0,0:0:0:0:
192,192,2834,1,0,0:0:0:0:
320,192,2834,1,0,0:0:0:0:
448,192,2834,1,0,0:0:0:0:
64,192,3006,1,0,0:0:0:0:
320,192,3177,1,0,0:0:0:0:
448,192,3349,1,0,0:0:0:0:
192,192,3349,1,0,0:0:0:0:
320,192,3692,1,0,0:0:0:0:
448,192,3863,1,0,0:0:0:0:
448,192,4377,1,0,0:0:0:0:
448,192,4720,1,0,0:0:0:0:
448,192,4891,1,0,0:0:0:0:
448,192,5063,1,0,0:0:0:0:
320,192,5234,1,0,0:0:0:0:
64,192,5234,1,0,0:0:0:0:
448,192,5406,1,0,0:0:0:0:
448,192,5577,1,0,0:0:0:0:
320,192,5577,1,0,0:0:0:0:
64,192,5577,1,0,0:0:0:0:
192,192,5749,1,0,0:0:0:0:
64,192,5920,1,0,0:0:0:0:
448,192,6091,1,0,0:0:0:0:
320,192,6091,1,0,0:0:0:0:
192,192,6434,1,0,0:0:0:0:
64,192,6606,1,0,0:0:0:0:
192,192,6606,1,0,0:0:0:0:
192,192,6949,128,0,7034:0:0:0:0:
448,192,7120,1,0,0:0:0:0:
320,192,7120,1,0,0:0:0:0:
448,192,7291,1,0,0:0:0:0:
448,192,7463,1,0,0:0:0:0:
64,192,7634,1,0,0:0:0:0:
320,192,7634,1,0,0:0:0:0:
192,192,7634,1,0,0:0:0:0:
192,192,7806,1,0,0:0:0:0:
320,192,7806,1,0,0:0:0:0:
448,192,7806,1,0,0:0:0:0:
64,192,7977,1,0,0:0:0:0:
320,192,7977,1,0,0:0:0:0:
192,192,8063,1,0,0:0:0:0:
320,192,8149,1,0,0:0:0:0:
64,192,8234,1,0,0:0:0:0:
192,192,8320,1,0,0:0:0:0:
448,192,8320,1,0,0:0:0:0:
320,192,8320,1,0,0:0:0:0:
320,192,8492,1,0,0:0:0:0:
448,192,8492,1,0,0:0:0:0:
320,192,8663,1,0,0:0:0:0:
448,192,8663,1,0,0:0:0:0:
64,192,8663,1,0,0:0:0:0:
320,192,8834,1,0,0:0:0:0:
192,192,8834,1,0,0:0:0:0:
64,192,8834,1,0,0:0:0:0:
64,192,9006,1,0,0:0:0:0:
192,192,9006,1,0,0:0:0:0:
192,192,9177,1,0,0:0:0:0:
320,192,9177,1,0,0:0:0:0:
320,192,9349,1,0,0:0:0:0:
448,192,9349,1,0,0:0:0:0:
64,192,9349,1,0,0:0:0:0:
448,192,9520,128,0,9606:0:0:0:0:
64,192,9692,1,0,0:0:0:0:
320,192,9692,1,0,0:0:0:0:
192,192,9863,1,0,0:0:0:0:
448,192,9863,1,0,0:0:0:0:
320,192,10034,1,0,0:0:0:0:
64,192,10034,1,0,0:0:0:0:
192,192,10206,1,0,0:0:0:0:
448,192,10206,1,0,0:0:0:0:
320,192,10377,1,0,0:0:0:0:
64,192,10377,1,0,0:0:0:0:
192,192,10549,1,0,0:0:0:0:
448,192,10634,1,0,0:0:0:0:
320,192,10720,1,0,0:0:0:0:
64,192,10720,1,0,0:0:0:0:
192,192,10806,1,0,0:0:0:0:
320,192,10892,1,0,0:0:0:0:
64,192,10977,1,0,0:0:0:0:
192,192,11063,1,0,0:0:0:0:
448,192,11063,1,0,0:0:0:0:
320,192,11063,1,0,0:0:0:0:
448,192,11234,1,0,0:0:0:0:
64,192,11406,1,0,0:0:0:0:
192,192,11406,1,0,0:0:0:0:
192,192,11577,1,0,0:0:0:0:
448,192,11749,1,0,0:0:0:0:
64,192,11749,1,0,0:0:0:0:
448,192,11920,1,0,0:0:0:0:
320,192,12092,1,0,0:0:0:0:
192,192,12092,1,0,0:0:0:0:
192,192,12263,1,0,0:0:0:0:
448,192,12434,1,0,0:0:0:0:
64,192,12434,1,0,0:0:0:0:
448,192,12606,1,0,0:0:0:0:
320,192,12777,1,0,0:0:0:0:
64,192,12777,1,0,0:0:0:0:
64,192,12949,1,0,0:0:0:0:
192,192,13120,1,0,0:0:0:0:
64,192,13120,1,0,0:0:0:0:
192,192,13292,1,0,0:0:0:0:
448,192,13463,1,0,0:0:0:0:
320,192,13463,1,0,0:0:0:0:
192,192,13634,1,0,0:0:0:0:
320,192,13634,1,0,0:0:0:0:
64,192,13806,1,0,0:0:0:0:
192,192,13806,1,0,0:0:0:0:
448,192,13806,1,0,0:0:0:0:
448,192,13977,1,0,0:0:0:0:
320,192,14149,1,0,0:0:0:0:
64,192,14149,1,0,0:0:0:0:
320,192,14320,1,0,0:0:0:0:
192,192,14492,1,0,0:0:0:0:
448,192,14492,1,0,0:0:0:0:
192,192,14663,1,0,0:0:0:0:
320,192,14834,1,0,0:0:0:0:
64,192,14834,1,0,0:0:0:0:
320,192,15006,1,0,0:0:0:0:
192,192,15177,1,0,0:0:0:0:
64,192,15177,1,0,0:0:0:0:
192,192,15349,1,0,0:0:0:0:
192,192,15520,1,0,0:0:0:0:
320,192,15520,1,0,0:0:0:0:
320,192,15692,1,0,0:0:0:0:
320,192,15863,1,0,0:0:0:0:
448,192,15863,1,0,0:0:0:0:
448,192,16034,1,0,0:0:0:0:
64,192,16206,1,0,0:0:0:0:
192,192,16206,1,0,0:0:0:0:
192,192,16377,1,0,0:0:0:0:
448,192,16377,1,0,0:0:0:0:
320,192,16549,1,0,0:0:0:0:
192,192,16549,1,0,0:0:0:0:
64,192,16549,1,0,0:0:0:0:
320,192,16720,1,0,0:0:0:0:
64,192,16892,1,0,0:0:0:0:
192,192,16892,1,0,0:0:0:0:
192,192,17063,1,0,0:0:0:0:
448,192,17234,1,0,0:0:0:0:
64,192,17234,1,0,0:0:0:0:
64,192,17406,1,0,0:0:0:0:
192,192,17577,1,0,0:0:0:0:
448,192,17577,1,0,0:0:0:0:
192,192,17749,1,0,0:0:0:0:
448,192,17920,1,0,0:0:0:0:
320,192,17920,1,0,0:0:0:0:
320,192,18092,1,0,0:0:0:0:
448,192,18263,1,0,0:0:0:0:
192,192,18263,1,0,0:0:0:0:
448,192,18434,1,0,0:0:0:0:
320,192,18606,1,0,0:0:0:0:
64,192,18606,1,0,0:0:0:0:
192,192,18777,1,0,0:0:0:0:
320,192,18777,1,0,0:0:0:0:
448,192,18949,1,0,0:0:0:0:
192,192,18949,1,0,0:0:0:0:
320,192,19120,1,0,0:0:0:0:
192,192,19120,1,0,0:0:0:0:
64,192,19292,1,0,0:0:0:0:
192,192,19292,1,0,0:0:0:0:
448,192,19292,1,0,0:0:0:0:
448,192,19463,1,0,0:0:0:0:
320,192,19634,1,0,0:0:0:0:
64,192,19634,1,0,0:0:0:0:
64,192,19806,1,0,0:0:0:0:
192,192,19977,1,0,0:0:0:0:
448,192,19977,1,0,0:0:0:0:
448,192,20149,1,0,0:0:0:0:
320,192,20320,1,0,0:0:0:0:
192,192,20320,1,0,0:0:0:0:
320,192,20492,1,0,0:0:0:0:
192,192,20492,1,0,0:0:0:0:
64,192,20663,1,0,0:0:0:0:
192,192,20663,1,0,0:0:0:0:
448,192,20663,1,0,0:0:0:0:
448,192,20834,1,0,0:0:0:0:
64,192,21006,1,0,0:0:0:0:
320,192,21006,1,0,0:0:0:0:
320,192,21177,1,0,0:0:0:0:
64,192,21349,1,0,0:0:0:0:
192,192,21349,1,0,0:0:0:0:
192,192,21520,1,0,0:0:0:0:
64,192,21520,1,0,0:0:0:0:
448,192,21692,1,0,0:0:0:0:
320,192,21692,1,0,0:0:0:0:
320,192,21863,1,0,0:0:0:0:
448,192,21863,1,0,0:0:0:0:
64,192,22034,1,0,0:0:0:0:
192,192,22034,1,0,0:0:0:0:
320,192,22034,1,0,0:0:0:0:
448,192,22034,1,0,0:0:0:0:
448,192,22206,1,0,0:0:0:0:
320,192,22206,1,0,0:0:0:0:
64,192,22377,1,0,0:0:0:0:
192,192,22377,1,0,0:0:0:0:
448,192,22377,1,0,0:0:0:0:
448,192,22549,1,0,0:0:0:0:
192,192,22549,1,0,0:0:0:0:
320,192,22720,1,0,0:0:0:0:
192,192,22720,1,0,0:0:0:0:
64,192,22720,1,0,0:0:0:0:
320,192,22892,1,0,0:0:0:0:
192,192,22892,1,0,0:0:0:0:
448,192,23063,1,0,0:0:0:0:
192,192,23063,1,0,0:0:0:0:
64,192,23063,1,0,0:0:0:0:
448,192,23234,1,0,0:0:0:0:
64,192,23234,1,0,0:0:0:0:
192,192,23406,1,0,0:0:0:0:
320,192,23406,1,0,0:0:0:0:
448,192,23406,1,0,0:0:0:0:
320,192,23577,1,0,0:0:0:0:
448,192,23577,1,0,0:0:0:0:
64,192,23749,1,0,0:0:0:0:
192,192,23749,1,0,0:0:0:0:
448,192,23749,1,0,0:0:0:0:
448,192,23920,1,0,0:0:0:0:
64,192,23920,1,0,0:0:0:0:
192,192,24092,1,0,0:0:0:0:
320,192,24092,1,0,0:0:0:0:
64,192,24092,1,0,0:0:0:0:
320,192,24263,1,0,0:0:0:0:
192,192,24263,1,0,0:0:0:0:
448,192,24434,1,0,0:0:0:0:
192,192,24434,1,0,0:0:0:0:
64,192,24434,1,0,0:0:0:0:
64,192,24606,1,0,0:0:0:0:
192,192,24606,1,0,0:0:0:0:
448,192,24606,1,0,0:0:0:0:
448,192,24777,1,0,0:0:0:0:
320,192,24777,1,0,0:0:0:0:
192,192,24777,1,0,0:0:0:0:
64,192,24777,1,0,0:0:0:0:
448,192,24949,1,0,0:0:0:0:
320,192,24949,1,0,0:0:0:0:
64,192,25120,1,0,0:0:0:0:
192,192,25120,1,0,0:0:0:0:
448,192,25120,1,0,0:0:0:0:
192,192,25292,1,0,0:0:0:0:
64,192,25292,1,0,0:0:0:0:
448,192,25463,1,0,0:0:0:0:
320,192,25463,1,0,0:0:0:0:
192,192,25463,1,0,0:0:0:0:
192,192,25634,1,0,0:0:0:0:
320,192,25634,1,0,0:0:0:0:
448,192,25806,1,0,0:0:0:0:
320,192,25806,1,0,0:0:0:0:
64,192,25806,1,0,0:0:0:0:
320,192,25977,1,0,0:0:0:0:
448,192,25977,1,0,0:0:0:0:
64,192,26149,1,0,0:0:0:0:
192,192,26149,1,0,0:0:0:0:
320,192,26149,1,0,0:0:0:0:
448,192,26149,1,0,0:0:0:0:
320,192,26320,1,0,0:0:0:0:
448,192,26320,1,0,0:0:0:0:
320,192,26492,1,0,0:0:0:0:
64,192,26492,1,0,0:0:0:0:
448,192,26492,1,0,0:0:0:0:
320,192,26663,1,0,0:0:0:0:
448,192,26663,1,0,0:0:0:0:
64,192,26834,1,0,0:0:0:0:
192,192,26834,1,0,0:0:0:0:
320,192,26834,1,0,0:0:0:0:
448,192,26834,1,0,0:0:0:0:
64,192,27006,1,0,0:0:0:0:
192,192,27006,1,0,0:0:0:0:
64,192,27177,1,0,0:0:0:0:
192,192,27177,1,0,0:0:0:0:
448,192,27177,1,0,0:0:0:0:
192,192,27349,1,0,0:0:0:0:
64,192,27349,1,0,0:0:0:0:
64,192,27520,1,0,0:0:0:0:
192,192,27520,1,0,0:0:0:0:
320,192,27520,1,0,0:0:0:0:
448,192,27520,1,0,0:0:0:0:
448,192,27692,1,0,0:0:0:0:
192,192,27692,1,0,0:0:0:0:
192,192,27863,1,0,0:0:0:0:
320,192,27863,1,0,0:0:0:0:
448,192,28034,1,0,0:0:0:0:
192,192,28034,1,0,0:0:0:0:
320,192,28206,1,0,0:0:0:0:
192,192,28206,1,0,0:0:0:0:
192,192,28377,1,0,0:0:0:0:
448,192,28377,1,0,0:0:0:0:
320,192,28549,1,0,0:0:0:0:
192,192,28549,1,0,0:0:0:0:
192,192,28720,1,0,0:0:0:0:
448,192,28720,1,0,0:0:0:0:
320,192,28720,1,0,0:0:0:0:
64,192,28892,1,0,0:0:0:0:
192,192,28892,1,0,0:0:0:0:
320,192,28892,1,0,0:0:0:0:
448,192,28892,1,0,0:0:0:0:
64,192,29063,1,0,0:0:0:0:
192,192,29063,1,0,0:0:0:0:
64,192,29234,1,0,0:0:0:0:
320,192,29234,1,0,0:0:0:0:
64,192,29406,1,0,0:0:0:0:
192,192,29406,1,0,0:0:0:0:
64,192,29577,1,0,0:0:0:0:
320,192,29577,1,0,0:0:0:0:
64,192,29749,1,0,0:0:0:0:
192,192,29749,1,0,0:0:0:0:
64,192,29920,1,0,0:0:0:0:
320,192,29920,1,0,0:0:0:0:
64,192,30092,1,0,0:0:0:0:
192,192,30092,1,0,0:0:0:0:
64,192,30263,1,0,0:0:0:0:
320,192,30263,1,0,0:0:0:0:
192,192,30263,1,0,0:0:0:0:
448,192,30263,1,0,0:0:0:0:
448,192,30434,1,0,0:0:0:0:
320,192,30434,1,0,0:0:0:0:
192,192,30606,1,0,0:0:0:0:
320,192,30606,1,0,0:0:0:0:
64,192,30777,1,0,0:0:0:0:
192,192,30777,128,0,30820:0:0:0:0:
64,192,30949,1,0,0:0:0:0:
320,192,30949,1,0,0:0:0:0:
448,192,30949,1,0,0:0:0:0:
192,192,30949,128,0,30992:0:0:0:0:
448,192,31120,1,0,0:0:0:0:
320,192,31120,1,0,0:0:0:0:
192,192,31292,128,0,31334:0:0:0:0:
320,192,31292,1,0,0:0:0:0:
64,192,31463,1,0,0:0:0:0:
192,192,31463,1,0,0:0:0:0:
64,192,31634,1,0,0:0:0:0:
192,192,31634,1,0,0:0:0:0:
448,192,31634,1,0,0:0:0:0:
320,192,31634,1,0,0:0:0:0:
192,192,31806,1,0,0:0:0:0:
320,192,31806,1,0,0:0:0:0:
64,192,31977,1,0,0:0:0:0:
192,192,31977,1,0,0:0:0:0:
320,192,31977,1,0,0:0:0:0:
448,192,31977,1,0,0:0:0:0:
192,192,32149,1,0,0:0:0:0:
320,192,32149,1,0,0:0:0:0:
64,192,32320,1,0,0:0:0:0:
192,192,32320,1,0,0:0:0:0:
320,192,32320,1,0,0:0:0:0:
448,192,32320,1,0,0:0:0:0:
448,192,32406,1,0,0:0:0:0:
320,192,32406,1,0,0:0:0:0:
192,192,32492,1,0,0:0:0:0:
64,192,32492,1,0,0:0:0:0:
320,192,32577,1,0,0:0:0:0:
448,192,32577,1,0,0:0:0:0:
64,192,32663,1,0,0:0:0:0:
192,192,32663,1,0,0:0:0:0:
320,192,32749,1,0,0:0:0:0:
448,192,32749,1,0,0:0:0:0:
192,192,32834,1,0,0:0:0:0:
64,192,32834,1,0,0:0:0:0:
320,192,32920,1,0,0:0:0:0:
448,192,32920,1,0,0:0:0:0:
448,192,33006,1,0,0:0:0:0:
320,192,33006,1,0,0:0:0:0:
192,192,33006,1,0,0:0:0:0:
64,192,33006,1,0,0:0:0:0:
320,192,33177,1,0,0:0:0:0:
448,192,33177,1,0,0:0:0:0:
448,192,33349,1,0,0:0:0:0:
64,192,33520,1,0,0:0:0:0:
192,192,33520,1,0,0:0:0:0:
192,192,33692,1,0,0:0:0:0:
448,192,33863,1,0,0:0:0:0:
64,192,33863,1,0,0:0:0:0:
448,192,34034,1,0,0:0:0:0:
320,192,34206,1,0,0:0:0:0:
64,192,34206,1,0,0:0:0:0:
320,192,34377,1,0,0:0:0:0:
192,192,34549,1,0,0:0:0:0:
448,192,34549,1,0,0:0:0:0:
448,192,34720,1,0,0:0:0:0:
320,192,34892,1,0,0:0:0:0:
64,192,34892,1,0,0:0:0:0:
320,192,35063,1,0,0:0:0:0:
192,192,35234,1,0,0:0:0:0:
448,192,35234,1,0,0:0:0:0:
64,192,35406,1,0,0:0:0:0:
448,192,35406,1,0,0:0:0:0:
192,192,35577,1,0,0:0:0:0:
448,192,35577,1,0,0:0:0:0:
64,192,35749,1,0,0:0:0:0:
192,192,35749,1,0,0:0:0:0:
448,192,35749,1,0,0:0:0:0:
64,192,35920,1,0,0:0:0:0:
448,192,35920,1,0,0:0:0:0:
448,192,36092,1,0,0:0:0:0:
320,192,36263,1,0,0:0:0:0:
64,192,36263,1,0,0:0:0:0:
64,192,36434,1,0,0:0:0:0:
192,192,36606,1,0,0:0:0:0:
320,192,36606,1,0,0:0:0:0:
320,192,36777,1,0,0:0:0:0:
448,192,36949,1,0,0:0:0:0:
64,192,36949,1,0,0:0:0:0:
448,192,37120,1,0,0:0:0:0:
64,192,37292,1,0,0:0:0:0:
192,192,37292,1,0,0:0:0:0:
192,192,37463,1,0,0:0:0:0:
320,192,37634,1,0,0:0:0:0:
448,192,37634,1,0,0:0:0:0:
320,192,37806,1,0,0:0:0:0:
64,192,37977,1,0,0:0:0:0:
448,192,37977,1,0,0:0:0:0:
448,192,38149,1,0,0:0:0:0:
192,192,38149,1,0,0:0:0:0:
448,192,38320,1,0,0:0:0:0:
320,192,38320,1,0,0:0:0:0:
448,192,38492,1,0,0:0:0:0:
320,192,38492,1,0,0:0:0:0:
192,192,38492,1,0,0:0:0:0:
64,192,38492,1,0,0:0:0:0:
64,192,38663,1,0,0:0:0:0:
64,192,38834,1,0,0:0:0:0:
448,192,38834,1,0,0:0:0:0:
448,192,39006,1,0,0:0:0:0:
448,192,39177,1,0,0:0:0:0:
64,192,39177,1,0,0:0:0:0:
64,192,39349,1,0,0:0:0:0:
64,192,39520,1,0,0:0:0:0:
448,192,39520,1,0,0:0:0:0:
320,192,39692,1,0,0:0:0:0:
64,192,39863,1,0,0:0:0:0:
192,192,39863,1,0,0:0:0:0:
448,192,39863,1,0,0:0:0:0:
448,192,40034,1,0,0:0:0:0:
320,192,40206,1,0,0:0:0:0:
64,192,40206,1,0,0:0:0:0:
320,192,40377,1,0,0:0:0:0:
64,192,40549,1,0,0:0:0:0:
320,192,40549,1,0,0:0:0:0:
64,192,40720,1,0,0:0:0:0:
64,192,40892,1,0,0:0:0:0:
320,192,40892,1,0,0:0:0:0:
320,192,41063,1,0,0:0:0:0:
64,192,41063,1,0,0:0:0:0:
64,192,41234,1,0,0:0:0:0:
320,192,41234,1,0,0:0:0:0:
448,192,41234,1,0,0:0:0:0:
448,192,41406,1,0,0:0:0:0:
192,192,41406,1,0,0:0:0:0:
192,192,41577,1,0,0:0:0:0:
448,192,41577,1,0,0:0:0:0:
192,192,41749,1,0,0:0:0:0:
448,192,41920,1,0,0:0:0:0:
192,192,41920,1,0,0:0:0:0:
448,192,42092,1,0,0:0:0:0:
320,192,42263,1,0,0:0:0:0:
192,192,42263,1,0,0:0:0:0:
320,192,42434,1,0,0:0:0:0:
448,192,42606,1,0,0:0:0:0:
192,192,42606,1,0,0:0:0:0:
64,192,42606,1,0,0:0:0:0:
448,192,42777,1,0,0:0:0:0:
320,192,42949,1,0,0:0:0:0:
64,192,42949,1,0,0:0:0:0:
320,192,43120,1,0,0:0:0:0:
192,192,43292,1,0,0:0:0:0:
448,192,43292,1,0,0:0:0:0:
448,192,43463,1,0,0:0:0:0:
320,192,43634,1,0,0:0:0:0:
192,192,43634,1,0,0:0:0:0:
64,192,43806,1,0,0:0:0:0:
192,192,43806,1,0,0:0:0:0:
320,192,43977,1,0,0:0:0:0:
192,192,43977,1,0,0:0:0:0:
448,192,43977,1,0,0:0:0:0:
448,192,44149,1,0,0:0:0:0:
320,192,44320,1,0,0:0:0:0:
64,192,44320,1,0,0:0:0:0:
320,192,44492,1,0,0:0:0:0:
192,192,44663,1,0,0:0:0:0:
448,192,44663,1,0,0:0:0:0:
192,192,44834,1,0,0:0:0:0:
320,192,45006,1,0,0:0:0:0:
192,192,45006,1,0,0:0:0:0:
320,192,45177,1,0,0:0:0:0:
448,192,45349,1,0,0:0:0:0:
64,192,45349,1,0,0:0:0:0:
192,192,45349,1,0,0:0:0:0:
448,192,45520,1,0,0:0:0:0:
320,192,45692,1,0,0:0:0:0:
192,192,45692,1,0,0:0:0:0:
192,192,45863,1,0,0:0:0:0:
448,192,46034,1,0,0:0:0:0:
320,192,46034,1,0,0:0:0:0:
320,192,46206,1,0,0:0:0:0:
64,192,46377,1,0,0:0:0:0:
192,192,46377,1,0,0:0:0:0:
192,192,46549,1,0,0:0:0:0:
448,192,46720,1,0,0:0:0:0:
64,192,46720,1,0,0:0:0:0:
320,192,46720,1,0,0:0:0:0:
448,192,46892,1,0,0:0:0:0:
320,192,47063,1,0,0:0:0:0:
64,192,47063,1,0,0:0:0:0:
320,192,47234,1,0,0:0:0:0:
192,192,47406,1,0,0:0:0:0:
448,192,47406,1,0,0:0:0:0:
192,192,47577,1,0,0:0:0:0:
320,192,47749,1,0,0:0:0:0:
64,192,47749,1,0,0:0:0:0:
320,192,47920,1,0,0:0:0:0:
64,192,48092,1,0,0:0:0:0:
448,192,48092,1,0,0:0:0:0:
192,192,48092,1,0,0:0:0:0:
320,192,48263,1,0,0:0:0:0:
192,192,48349,1,0,0:0:0:0:
64,192,48434,1,0,0:0:0:0:
448,192,48434,1,0,0:0:0:0:
448,192,48606,1,0,0:0:0:0:
448,192,48777,1,0,0:0:0:0:
192,192,48777,1,0,0:0:0:0:
320,192,48949,1,0,0:0:0:0:
192,192,49034,1,0,0:0:0:0:
64,192,49120,1,0,0:0:0:0:
448,192,49120,1,0,0:0:0:0:
448,192,49292,1,0,0:0:0:0:
320,192,49292,1,0,0:0:0:0:
64,192,49463,1,0,0:0:0:0:
320,192,49463,1,0,0:0:0:0:
448,192,49463,1,0,0:0:0:0:
192,192,49634,1,0,0:0:0:0:
320,192,49806,1,0,0:0:0:0:
64,192,49806,1,0,0:0:0:0:
320,192,49977,1,0,0:0:0:0:
192,192,50063,1,0,0:0:0:0:
64,192,50149,1,0,0:0:0:0:
448,192,50149,1,0,0:0:0:0:
192,192,50320,1,0,0:0:0:0:
448,192,50406,1,0,0:0:0:0:
320,192,50492,1,0,0:0:0:0:
64,192,50492,1,0,0:0:0:0:
192,192,50663,1,0,0:0:0:0:
448,192,50749,1,0,0:0:0:0:
320,192,50834,1,0,0:0:0:0:
64,192,50834,1,0,0:0:0:0:
192,192,51006,1,0,0:0:0:0:
448,192,51177,1,0,0:0:0:0:
64,192,51177,1,0,0:0:0:0:
192,192,51263,1,0,0:0:0:0:
64,192,51520,1,0,0:0:0:0:
320,192,51520,1,0,0:0:0:0:
448,192,51520,1,0,0:0:0:0:
192,192,51692,1,0,0:0:0:0:
448,192,51777,1,0,0:0:0:0:
64,192,51863,1,0,0:0:0:0:
320,192,51863,1,0,0:0:0:0:
192,192,52034,1,0,0:0:0:0:
448,192,52034,1,0,0:0:0:0:
320,192,52206,1,0,0:0:0:0:
192,192,52206,1,0,0:0:0:0:
64,192,52206,1,0,0:0:0:0:
448,192,52377,1,0,0:0:0:0:
192,192,52377,1,0,0:0:0:0:
320,192,52463,1,0,0:0:0:0:
64,192,52549,1,0,0:0:0:0:
448,192,52549,1,0,0:0:0:0:
192,192,52720,1,0,0:0:0:0:
448,192,52720,1,0,0:0:0:0:
320,192,52892,1,0,0:0:0:0:
192,192,52892,1,0,0:0:0:0:
64,192,52892,1,0,0:0:0:0:
448,192,53063,1,0,0:0:0:0:
320,192,53149,1,0,0:0:0:0:
64,192,53234,1,0,0:0:0:0:
192,192,53234,1,0,0:0:0:0:
320,192,53406,1,0,0:0:0:0:
448,192,53492,1,0,0:0:0:0:
192,192,53577,1,0,0:0:0:0:
320,192,53577,1,0,0:0:0:0:
64,192,53749,1,0,0:0:0:0:
192,192,53749,1,0,0:0:0:0:
64,192,53920,1,0,0:0:0:0:
192,192,53920,1,0,0:0:0:0:
192,192,54092,1,0,0:0:0:0:
320,192,54092,1,0,0:0:0:0:
448,192,54263,1,0,0:0:0:0:
320,192,54263,128,0,54306:0:0:0:0:
64,192,54349,1,0,0:0:0:0:
320,192,54434,1,0,0:0:0:0:
448,192,54434,1,0,0:0:0:0:
192,192,54520,1,0,0:0:0:0:
64,192,54606,1,0,0:0:0:0:
320,192,54606,1,0,0:0:0:0:
192,192,54692,1,0,0:0:0:0:
448,192,54692,1,0,0:0:0:0:
320,192,54777,1,0,0:0:0:0:
64,192,54777,1,0,0:0:0:0:
192,192,54863,1,0,0:0:0:0:
448,192,54863,1,0,0:0:0:0:
320,192,54949,1,0,0:0:0:0:
64,192,54949,1,0,0:0:0:0:
192,192,55034,1,0,0:0:0:0:
448,192,55120,1,0,0:0:0:0:
64,192,55206,1,0,0:0:0:0:
320,192,55292,1,0,0:0:0:0:
448,192,55292,1,0,0:0:0:0:
192,192,55377,1,0,0:0:0:0:
64,192,55463,1,0,0:0:0:0:
320,192,55549,1,0,0:0:0:0:
448,192,55634,1,0,0:0:0:0:
64,192,55634,1,0,0:0:0:0:
192,192,55720,1,0,0:0:0:0:
448,192,55806,1,0,0:0:0:0:
192,192,55892,1,0,0:0:0:0:
448,192,55977,1,0,0:0:0:0:
320,192,56063,1,0,0:0:0:0:
192,192,56149,1,0,0:0:0:0:
64,192,56234,1,0,0:0:0:0:
192,192,56320,1,0,0:0:0:0:
448,192,56320,1,0,0:0:0:0:
448,192,56406,1,0,0:0:0:0:
448,192,56492,1,0,0:0:0:0:
448,192,56577,1,0,0:0:0:0:
448,192,56663,1,0,0:0:0:0:
448,192,56749,1,0,0:0:0:0:
448,192,56834,1,0,0:0:0:0:
448,192,56920,1,0,0:0:0:0:
64,192,57006,1,0,0:0:0:0:
320,192,57006,1,0,0:0:0:0:
192,192,57092,1,0,0:0:0:0:
320,192,57177,1,0,0:0:0:0:
192,192,57263,1,0,0:0:0:0:
64,192,57349,1,0,0:0:0:0:
448,192,57349,1,0,0:0:0:0:
320,192,57434,1,0,0:0:0:0:
192,192,57520,1,0,0:0:0:0:
320,192,57606,1,0,0:0:0:0:
448,192,57692,1,0,0:0:0:0:
192,192,57692,1,0,0:0:0:0:
64,192,57777,1,0,0:0:0:0:
448,192,57863,1,0,0:0:0:0:
320,192,57949,1,0,0:0:0:0:
64,192,58034,1,0,0:0:0:0:
192,192,58034,1,0,0:0:0:0:
448,192,58034,1,0,0:0:0:0:
448,192,58206,1,0,0:0:0:0:
192,192,58206,1,0,0:0:0:0:
64,192,58206,1,0,0:0:0:0:
320,192,58292,1,0,0:0:0:0:
448,192,58377,1,0,0:0:0:0:
192,192,58377,1,0,0:0:0:0:
64,192,58377,1,0,0:0:0:0:
320,192,58463,1,0,0:0:0:0:
64,192,58549,1,0,0:0:0:0:
448,192,58549,1,0,0:0:0:0:
192,192,58634,1,0,0:0:0:0:
320,192,58720,1,0,0:0:0:0:
448,192,58720,1,0,0:0:0:0:
192,192,58806,1,0,0:0:0:0:
64,192,58892,1,0,0:0:0:0:
448,192,58977,1,0,0:0:0:0:
320,192,59063,1,0,0:0:0:0:
64,192,59063,1,0,0:0:0:0:
64,192,59234,1,0,0:0:0:0:
320,192,59234,1,0,0:0:0:0:
192,192,59320,1,0,0:0:0:0:
448,192,59406,1,0,0:0:0:0:
320,192,59406,1,0,0:0:0:0:
64,192,59492,1,0,0:0:0:0:
320,192,59577,1,0,0:0:0:0:
448,192,59663,1,0,0:0:0:0:
192,192,59749,1,0,0:0:0:0:
64,192,59749,1,0,0:0:0:0:
448,192,59834,1,0,0:0:0:0:
64,192,59920,1,0,0:0:0:0:
448,192,60006,1,0,0:0:0:0:
320,192,60092,1,0,0:0:0:0:
192,192,60092,1,0,0:0:0:0:
64,192,60177,1,0,0:0:0:0:
448,192,60263,1,0,0:0:0:0:
64,192,60349,1,0,0:0:0:0:
192,192,60434,1,0,0:0:0:0:
448,192,60434,1,0,0:0:0:0:
320,192,60520,1,0,0:0:0:0:
192,192,60606,1,0,0:0:0:0:
64,192,60606,1,0,0:0:0:0:
320,192,60692,1,0,0:0:0:0:
448,192,60777,1,0,0:0:0:0:
64,192,60777,1,0,0:0:0:0:
192,192,60863,1,0,0:0:0:0:
320,192,60949,1,0,0:0:0:0:
448,192,60949,1,0,0:0:0:0:
64,192,61034,1,0,0:0:0:0:
192,192,61120,1,0,0:0:0:0:
320,192,61120,1,0,0:0:0:0:
448,192,61292,1,0,0:0:0:0:
64,192,61292,1,0,0:0:0:0:
320,192,61377,1,0,0:0:0:0:
448,192,61463,1,0,0:0:0:0:
64,192,61463,1,0,0:0:0:0:
192,192,61549,1,0,0:0:0:0:
320,192,61634,1,0,0:0:0:0:
448,192,61634,1,0,0:0:0:0:
192,192,61720,1,0,0:0:0:0:
448,192,61806,1,0,0:0:0:0:
64,192,61806,1,0,0:0:0:0:
320,192,61806,1,0,0:0:0:0:
448,192,61977,1,0,0:0:0:0:
320,192,61977,1,0,0:0:0:0:
64,192,62063,1,0,0:0:0:0:
448,192,62149,1,0,0:0:0:0:
192,192,62149,1,0,0:0:0:0:
320,192,62234,1,0,0:0:0:0:
448,192,62320,1,0,0:0:0:0:
192,192,62406,1,0,0:0:0:0:
64,192,62492,1,0,0:0:0:0:
320,192,62492,1,0,0:0:0:0:
448,192,62492,1,0,0:0:0:0:
192,192,62663,1,0,0:0:0:0:
448,192,62663,1,0,0:0:0:0:
320,192,62834,1,0,0:0:0:0:
64,192,62834,1,0,0:0:0:0:
192,192,63006,1,0,0:0:0:0:
320,192,63006,1,0,0:0:0:0:
320,192,63177,1,0,0:0:0:0:
64,192,63177,1,0,0:0:0:0:
192,192,63177,1,0,0:0:0:0:
448,192,63263,1,0,0:0:0:0:
448,192,63349,1,0,0:0:0:0:
192,192,63520,1,0,0:0:0:0:
320,192,63520,1,0,0:0:0:0:
448,192,63520,1,0,0:0:0:0:
64,192,63606,1,0,0:0:0:0:
192,192,63692,1,0,0:0:0:0:
320,192,63777,1,0,0:0:0:0:
448,192,63863,1,0,0:0:0:0:
192,192,63863,1,0,0:0:0:0:
64,192,63863,1,0,0:0:0:0:
320,192,63949,1,0,0:0:0:0:
192,192,64034,1,0,0:0:0:0:
192,192,64120,1,0,0:0:0:0:
320,192,64206,1,0,0:0:0:0:
192,192,64292,1,0,0:0:0:0:
192,192,64377,1,0,0:0:0:0:
64,192,64463,1,0,0:0:0:0:
320,192,64549,1,0,0:0:0:0:
448,192,64549,1,0,0:0:0:0:
192,192,64634,1,0,0:0:0:0:
64,192,64720,1,0,0:0:0:0:
448,192,64720,1,0,0:0:0:0:
320,192,64806,1,0,0:0:0:0:
192,192,64892,1,0,0:0:0:0:
64,192,64892,1,0,0:0:0:0:
320,192,64977,1,0,0:0:0:0:
448,192,65063,1,0,0:0:0:0:
64,192,65063,1,0,0:0:0:0:
192,192,65149,1,0,0:0:0:0:
320,192,65234,1,0,0:0:0:0:
448,192,65234,1,0,0:0:0:0:
192,192,65320,1,0,0:0:0:0:
64,192,65406,1,0,0:0:0:0:
192,192,65492,1,0,0:0:0:0:
320,192,65577,1,0,0:0:0:0:
448,192,65577,1,0,0:0:0:0:
64,192,65663,1,0,0:0:0:0:
192,192,65749,1,0,0:0:0:0:
64,192,65834,1,0,0:0:0:0:
320,192,65920,1,0,0:0:0:0:
448,192,65920,1,0,0:0:0:0:
64,192,66006,1,0,0:0:0:0:
448,192,66092,1,0,0:0:0:0:
192,192,66177,1,0,0:0:0:0:
320,192,66263,1,0,0:0:0:0:
64,192,66263,1,0,0:0:0:0:
448,192,66349,1,0,0:0:0:0:
192,192,66434,1,0,0:0:0:0:
64,192,66434,1,0,0:0:0:0:
320,192,66520,1,0,0:0:0:0:
448,192,66606,1,0,0:0:0:0:
64,192,66606,1,0,0:0:0:0:
320,192,66692,1,0,0:0:0:0:
192,192,66777,1,0,0:0:0:0:
64,192,66863,1,0,0:0:0:0:
320,192,66949,1,0,0:0:0:0:
448,192,66949,1,0,0:0:0:0:
192,192,67034,1,0,0:0:0:0:
320,192,67120,1,0,0:0:0:0:
448,192,67206,1,0,0:0:0:0:
64,192,67292,1,0,0:0:0:0:
320,192,67292,1,0,0:0:0:0:
320,192,67377,1,0,0:0:0:0:
320,192,67463,1,0,0:0:0:0:
320,192,67549,1,0,0:0:0:0:
320,192,67634,1,0,0:0:0:0:
320,192,67720,1,0,0:0:0:0:
320,192,67806,1,0,0:0:0:0:
320,192,67892,1,0,0:0:0:0:
448,192,67977,1,0,0:0:0:0:
64,192,67977,1,0,0:0:0:0:
192,192,68063,1,0,0:0:0:0:
320,192,68149,1,0,0:0:0:0:
448,192,68234,1,0,0:0:0:0:
320,192,68320,1,0,0:0:0:0:
64,192,68320,1,0,0:0:0:0:
192,192,68406,1,0,0:0:0:0:
320,192,68492,1,0,0:0:0:0:
448,192,68577,1,0,0:0:0:0:
320,192,68663,1,0,0:0:0:0:
64,192,68663,1,0,0:0:0:0:
448,192,68749,1,0,0:0:0:0:
192,192,68834,1,0,0:0:0:0:
320,192,68920,1,0,0:0:0:0:
448,192,69006,1,0,0:0:0:0:
64,192,69006,1,0,0:0:0:0:
320,192,69092,1,0,0:0:0:0:
448,192,69177,1,0,0:0:0:0:
192,192,69177,1,0,0:0:0:0:
320,192,69263,1,0,0:0:0:0:
448,192,69349,1,0,0:0:0:0:
192,192,69349,1,0,0:0:0:0:
320,192,69434,1,0,0:0:0:0:
64,192,69520,1,0,0:0:0:0:
192,192,69520,1,0,0:0:0:0:
448,192,69606,1,0,0:0:0:0:
192,192,69692,1,0,0:0:0:0:
320,192,69692,1,0,0:0:0:0:
448,192,69777,1,0,0:0:0:0:
64,192,69863,1,0,0:0:0:0:
320,192,69863,1,0,0:0:0:0:
192,192,69949,1,0,0:0:0:0:
448,192,70034,1,0,0:0:0:0:
320,192,70034,1,0,0:0:0:0:
192,192,70120,1,0,0:0:0:0:
448,192,70206,1,0,0:0:0:0:
64,192,70206,1,0,0:0:0:0:
192,192,70292,1,0,0:0:0:0:
64,192,70377,1,0,0:0:0:0:
448,192,70377,1,0,0:0:0:0:
320,192,70463,1,0,0:0:0:0:
448,192,70549,1,0,0:0:0:0:
192,192,70549,1,0,0:0:0:0:
320,192,70634,1,0,0:0:0:0:
64,192,70720,1,0,0:0:0:0:
192,192,70720,1,0,0:0:0:0:
320,192,70806,1,0,0:0:0:0:
192,192,70892,1,0,0:0:0:0:
448,192,70892,1,0,0:0:0:0:
320,192,71063,1,0,0:0:0:0:
192,192,71063,1,0,0:0:0:0:
64,192,71234,1,0,0:0:0:0:
192,192,71234,1,0,0:0:0:0:
320,192,71406,1,0,0:0:0:0:
448,192,71406,1,0,0:0:0:0:
192,192,71406,1,0,0:0:0:0:
64,192,71492,1,0,0:0:0:0:
192,192,71577,1,0,0:0:0:0:
448,192,71663,1,0,0:0:0:0:
320,192,71749,1,0,0:0:0:0:
64,192,71749,1,0,0:0:0:0:
448,192,71834,1,0,0:0:0:0:
192,192,71920,1,0,0:0:0:0:
64,192,72006,1,0,0:0:0:0:
320,192,72092,1,0,0:0:0:0:
448,192,72092,1,0,0:0:0:0:
192,192,72177,1,0,0:0:0:0:
448,192,72263,1,0,0:0:0:0:
64,192,72349,1,0,0:0:0:0:
192,192,72434,1,0,0:0:0:0:
448,192,72434,1,0,0:0:0:0:
320,192,72520,1,0,0:0:0:0:
192,192,72606,1,0,0:0:0:0:
448,192,72692,1,0,0:0:0:0:
320,192,72777,1,0,0:0:0:0:
192,192,72777,1,0,0:0:0:0:
64,192,72863,1,0,0:0:0:0:
448,192,72949,1,0,0:0:0:0:
320,192,73034,1,0,0:0:0:0:
192,192,73120,1,0,0:0:0:0:
64,192,73120,1,0,0:0:0:0:
320,192,73206,1,0,0:0:0:0:
448,192,73292,1,0,0:0:0:0:
192,192,73377,1,0,0:0:0:0:
320,192,73463,1,0,0:0:0:0:
448,192,73463,1,0,0:0:0:0:
64,192,73549,1,0,0:0:0:0:
192,192,73634,1,0,0:0:0:0:
320,192,73634,1,0,0:0:0:0:
448,192,73720,1,0,0:0:0:0:
320,192,73806,1,0,0:0:0:0:
64,192,73806,1,0,0:0:0:0:
192,192,73892,1,0,0:0:0:0:
448,192,73977,1,0,0:0:0:0:
320,192,73977,1,0,0:0:0:0:
192,192,74063,1,0,0:0:0:0:
64,192,74149,1,0,0:0:0:0:
320,192,74149,1,0,0:0:0:0:
448,192,74149,1,0,0:0:0:0:
192,192,74234,1,0,0:0:0:0:
320,192,74320,1,0,0:0:0:0:
192,192,74406,1,0,0:0:0:0:
320,192,74492,1,0,0:0:0:0:
448,192,74492,1,0,0:0:0:0:
192,192,74577,1,0,0:0:0:0:
320,192,74663,1,0,0:0:0:0:
192,192,74749,1,0,0:0:0:0:
64,192,74834,1,0,0:0:0:0:
448,192,74834,1,0,0:0:0:0:
320,192,74920,1,0,0:0:0:0:
192,192,75006,1,0,0:0:0:0:
448,192,75006,1,0,0:0:0:0:
320,192,75092,1,0,0:0:0:0:
64,192,75177,1,0,0:0:0:0:
192,192,75177,1,0,0:0:0:0:
320,192,75263,1,0,0:0:0:0:
448,192,75349,1,0,0:0:0:0:
64,192,75349,1,0,0:0:0:0:
192,192,75434,1,0,0:0:0:0:
320,192,75520,1,0,0:0:0:0:
448,192,75520,1,0,0:0:0:0:
64,192,75606,1,0,0:0:0:0:
192,192,75692,1,0,0:0:0:0:
320,192,75692,1,0,0:0:0:0:
448,192,75777,1,0,0:0:0:0:
64,192,75863,1,0,0:0:0:0:
192,192,75863,1,0,0:0:0:0:
320,192,75949,1,0,0:0:0:0:
448,192,76034,1,0,0:0:0:0:
192,192,76034,1,0,0:0:0:0:
64,192,76120,1,0,0:0:0:0:
448,192,76206,1,0,0:0:0:0:
192,192,76206,1,0,0:0:0:0:
320,192,76292,1,0,0:0:0:0:
192,192,76377,1,0,0:0:0:0:
448,192,76377,1,0,0:0:0:0:
320,192,76463,1,0,0:0:0:0:
192,192,76549,1,0,0:0:0:0:
448,192,76549,1,0,0:0:0:0:
320,192,76634,1,0,0:0:0:0:
192,192,76720,1,0,0:0:0:0:
448,192,76720,1,0,0:0:0:0:
320,192,76806,1,0,0:0:0:0:
448,192,76892,1,0,0:0:0:0:
192,192,76892,1,0,0:0:0:0:
64,192,76892,1,0,0:0:0:0:
448,192,87863,5,0,0:0:0:0:
320,192,87863,1,0,0:0:0:0:
192,192,87863,1,0,0:0:0:0:
64,192,87863,1,0,0:0:0:0:
320,192,88206,1,0,0:0:0:0:
448,192,88720,1,0,0:0:0:0:
320,192,89063,1,0,0:0:0:0:
448,192,89234,1,0,0:0:0:0:
320,192,89577,1,0,0:0:0:0:
448,192,89749,1,0,0:0:0:0:
448,192,90092,1,0,0:0:0:0:
320,192,90263,1,0,0:0:0:0:
192,192,90434,1,0,0:0:0:0:
64,192,90606,1,0,0:0:0:0:
320,192,90606,1,0,0:0:0:0:
448,192,90606,1,0,0:0:0:0:
64,192,90949,1,0,0:0:0:0:
192,192,91463,1,0,0:0:0:0:
64,192,91806,1,0,0:0:0:0:
192,192,91977,1,0,0:0:0:0:
64,192,92320,1,0,0:0:0:0:
192,192,92492,1,0,0:0:0:0:
64,192,92834,1,0,0:0:0:0:
192,192,93006,1,0,0:0:0:0:
64,192,93177,1,0,0:0:0:0:
64,192,93349,1,0,0:0:0:0:
192,192,93349,1,0,0:0:0:0:
448,192,93349,1,0,0:0:0:0:
320,192,93692,1,0,0:0:0:0:
192,192,93692,1,0,0:0:0:0:
320,192,94206,1,0,0:0:0:0:
448,192,94206,1,0,0:0:0:0:
320,192,94377,1,0,0:0:0:0:
192,192,94377,1,0,0:0:0:0:
320,192,94720,1,0,0:0:0:0:
448,192,94720,1,0,0:0:0:0:
320,192,95063,1,0,0:0:0:0:
192,192,95063,1,0,0:0:0:0:
320,192,95577,1,0,0:0:0:0:
448,192,95577,1,0,0:0:0:0:
320,192,95749,1,0,0:0:0:0:
192,192,95749,1,0,0:0:0:0:
320,192,95920,1,0,0:0:0:0:
320,192,96092,1,0,0:0:0:0:
192,192,96092,1,0,0:0:0:0:
320,192,96263,1,0,0:0:0:0:
448,192,96263,1,0,0:0:0:0:
320,192,96434,1,0,0:0:0:0:
448,192,96434,1,0,0:0:0:0:
320,192,96606,1,0,0:0:0:0:
448,192,96606,1,0,0:0:0:0:
192,192,96777,1,0,0:0:0:0:
320,192,96777,1,0,0:0:0:0:
192,192,96949,1,0,0:0:0:0:
320,192,96949,1,0,0:0:0:0:
192,192,97120,1,0,0:0:0:0:
320,192,97120,1,0,0:0:0:0:
192,192,97292,1,0,0:0:0:0:
320,192,97292,1,0,0:0:0:0:
64,192,97463,1,0,0:0:0:0:
192,192,97463,1,0,0:0:0:0:
320,192,97549,1,0,0:0:0:0:
448,192,97549,1,0,0:0:0:0:
192,192,97634,1,0,0:0:0:0:
64,192,97634,1,0,0:0:0:0:
320,192,97720,1,0,0:0:0:0:
448,192,97720,1,0,0:0:0:0:
192,192,97806,1,0,0:0:0:0:
64,192,97806,1,0,0:0:0:0:
320,192,97892,1,0,0:0:0:0:
448,192,97892,1,0,0:0:0:0:
192,192,97977,1,0,0:0:0:0:
64,192,97977,1,0,0:0:0:0:
320,192,98063,1,0,0:0:0:0:
448,192,98063,1,0,0:0:0:0:
64,192,98149,1,0,0:0:0:0:
192,192,98149,1,0,0:0:0:0:
320,192,98234,1,0,0:0:0:0:
448,192,98234,1,0,0:0:0:0:
64,192,98320,1,0,0:0:0:0:
192,192,98320,1,0,0:0:0:0:
320,192,98406,1,0,0:0:0:0:
448,192,98406,1,0,0:0:0:0:
192,192,98492,1,0,0:0:0:0:
64,192,98492,1,0,0:0:0:0:
320,192,98577,1,0,0:0:0:0:
448,192,98577,1,0,0:0:0:0:
192,192,98663,1,0,0:0:0:0:
64,192,98663,1,0,0:0:0:0:
320,192,98749,1,0,0:0:0:0:
448,192,98749,1,0,0:0:0:0:
64,192,98834,1,0,0:0:0:0:
192,192,98834,1,0,0:0:0:0:
64,192,100206,1,0,0:0:0:0:
192,192,100206,1,0,0:0:0:0:
448,192,100206,1,0,0:0:0:0:
448,192,100377,1,0,0:0:0:0:
320,192,100377,1,0,0:0:0:0:
64,192,100463,1,0,0:0:0:0:
192,192,100463,1,0,0:0:0:0:
320,192,100549,1,0,0:0:0:0:
448,192,100549,1,0,0:0:0:0:
320,192,100720,128,0,100892:0:0:0:0:
448,192,100892,128,0,100977:0:0:0:0:
64,192,100892,1,0,0:0:0:0:
192,192,100949,1,0,0:0:0:0:
320,192,101006,1,0,0:0:0:0:
448,192,101063,1,0,0:0:0:0:
64,192,101120,1,0,0:0:0:0:
192,192,101177,1,0,0:0:0:0:
320,192,101234,1,0,0:0:0:0:
448,192,101292,1,0,0:0:0:0:
192,192,101349,1,0,0:0:0:0:
64,192,101406,1,0,0:0:0:0:
320,192,101463,1,0,0:0:0:0:
192,192,101520,1,0,0:0:0:0:
448,192,101577,1,0,0:0:0:0:
320,192,101577,1,0,0:0:0:0:
448,192,101749,1,0,0:0:0:0:
64,192,101920,1,0,0:0:0:0:
320,192,101920,1,0,0:0:0:0:
320,192,102092,1,0,0:0:0:0:
448,192,102263,1,0,0:0:0:0:
192,192,102263,1,0,0:0:0:0:
192,192,102434,1,0,0:0:0:0:
64,192,102606,1,0,0:0:0:0:
192,192,102606,1,0,0:0:0:0:
192,192,102777,1,0,0:0:0:0:
448,192,102949,1,0,0:0:0:0:
64,192,102949,1,0,0:0:0:0:
448,192,103120,1,0,0:0:0:0:
320,192,103292,1,0,0:0:0:0:
64,192,103292,1,0,0:0:0:0:
320,192,103463,1,0,0:0:0:0:
192,192,103634,1,0,0:0:0:0:
448,192,103634,1,0,0:0:0:0:
448,192,103806,1,0,0:0:0:0:
320,192,103977,1,0,0:0:0:0:
64,192,103977,1,0,0:0:0:0:
64,192,104149,1,0,0:0:0:0:
320,192,104149,1,0,0:0:0:0:
448,192,104149,1,0,0:0:0:0:
320,192,104320,1,0,0:0:0:0:
192,192,104320,1,0,0:0:0:0:
64,192,104320,1,0,0:0:0:0:
448,192,104320,1,0,0:0:0:0:
448,192,104492,1,0,0:0:0:0:
320,192,104663,1,0,0:0:0:0:
64,192,104663,1,0,0:0:0:0:
64,192,104834,1,0,0:0:0:0:
192,192,105006,1,0,0:0:0:0:
320,192,105006,1,0,0:0:0:0:
320,192,105177,1,0,0:0:0:0:
448,192,105349,1,0,0:0:0:0:
64,192,105349,1,0,0:0:0:0:
448,192,105520,1,0,0:0:0:0:
320,192,105692,1,0,0:0:0:0:
64,192,105692,1,0,0:0:0:0:
320,192,105863,1,0,0:0:0:0:
448,192,106034,1,0,0:0:0:0:
64,192,106034,1,0,0:0:0:0:
448,192,106206,1,0,0:0:0:0:
320,192,106377,1,0,0:0:0:0:
192,192,106377,1,0,0:0:0:0:
192,192,106549,1,0,0:0:0:0:
448,192,106720,1,0,0:0:0:0:
320,192,106720,1,0,0:0:0:0:
320,192,106892,1,0,0:0:0:0:
192,192,106892,1,0,0:0:0:0:
448,192,106892,1,0,0:0:0:0:
64,192,107063,1,0,0:0:0:0:
192,192,107063,1,0,0:0:0:0:
320,192,107063,1,0,0:0:0:0:
448,192,107063,1,0,0:0:0:0:
448,192,107234,1,0,0:0:0:0:
320,192,107406,1,0,0:0:0:0:
64,192,107406,1,0,0:0:0:0:
64,192,107577,1,0,0:0:0:0:
192,192,107749,1,0,0:0:0:0:
320,192,107749,1,0,0:0:0:0:
192,192,107920,1,0,0:0:0:0:
320,192,108092,1,0,0:0:0:0:
448,192,108092,1,0,0:0:0:0:
320,192,108263,1,0,0:0:0:0:
448,192,108434,1,0,0:0:0:0:
192,192,108434,1,0,0:0:0:0:
448,192,108606,1,0,0:0:0:0:
320,192,108777,1,0,0:0:0:0:
64,192,108777,1,0,0:0:0:0:
64,192,108949,1,0,0:0:0:0:
192,192,109120,1,0,0:0:0:0:
448,192,109120,1,0,0:0:0:0:
448,192,109292,1,0,0:0:0:0:
320,192,109463,1,0,0:0:0:0:
192,192,109463,1,0,0:0:0:0:
320,192,109634,1,0,0:0:0:0:
64,192,109806,1,0,0:0:0:0:
448,192,109806,1,0,0:0:0:0:
64,192,109977,1,0,0:0:0:0:
192,192,110149,1,0,0:0:0:0:
320,192,110149,1,0,0:0:0:0:
320,192,110320,1,0,0:0:0:0:
192,192,110492,1,0,0:0:0:0:
448,192,110492,1,0,0:0:0:0:
192,192,110663,1,0,0:0:0:0:
448,192,110834,1,0,0:0:0:0:
64,192,110834,1,0,0:0:0:0:
448,192,111006,1,0,0:0:0:0:
320,192,111006,1,0,0:0:0:0:
64,192,111177,1,0,0:0:0:0:
192,192,111177,1,0,0:0:0:0:
192,192,111349,1,0,0:0:0:0:
320,192,111520,1,0,0:0:0:0:
448,192,111520,1,0,0:0:0:0:
320,192,111692,1,0,0:0:0:0:
192,192,111863,1,0,0:0:0:0:
64,192,111863,1,0,0:0:0:0:
64,192,112034,1,0,0:0:0:0:
448,192,112206,1,0,0:0:0:0:
192,192,112206,1,0,0:0:0:0:
192,192,112377,1,0,0:0:0:0:
448,192,112377,1,0,0:0:0:0:
64,192,112377,1,0,0:0:0:0:
320,192,112549,1,0,0:0:0:0:
192,192,112549,1,0,0:0:0:0:
64,192,112549,1,0,0:0:0:0:
448,192,112549,1,0,0:0:0:0:
448,192,112720,1,0,0:0:0:0:
320,192,112892,1,0,0:0:0:0:
64,192,112892,1,0,0:0:0:0:
64,192,113063,1,0,0:0:0:0:
192,192,113234,1,0,0:0:0:0:
320,192,113234,1,0,0:0:0:0:
320,192,113406,1,0,0:0:0:0:
192,192,113577,1,0,0:0:0:0:
64,192,113577,1,0,0:0:0:0:
192,192,113749,1,0,0:0:0:0:
448,192,113920,1,0,0:0:0:0:
64,192,113920,1,0,0:0:0:0:
448,192,114092,1,0,0:0:0:0:
320,192,114263,1,0,0:0:0:0:
192,192,114263,1,0,0:0:0:0:
320,192,114434,1,0,0:0:0:0:
64,192,114606,1,0,0:0:0:0:
192,192,114606,1,0,0:0:0:0:
192,192,114777,1,0,0:0:0:0:
448,192,114949,1,0,0:0:0:0:
320,192,114949,1,0,0:0:0:0:
320,192,115120,1,0,0:0:0:0:
448,192,115120,1,0,0:0:0:0:
448,192,115292,1,0,0:0:0:0:
320,192,115292,1,0,0:0:0:0:
192,192,115292,1,0,0:0:0:0:
64,192,115292,1,0,0:0:0:0:
320,192,115463,1,0,0:0:0:0:
448,192,115463,1,0,0:0:0:0:
192,192,115634,1,0,0:0:0:0:
320,192,115634,1,0,0:0:0:0:
320,192,115806,1,0,0:0:0:0:
192,192,115977,1,0,0:0:0:0:
448,192,115977,1,0,0:0:0:0:
192,192,116149,1,0,0:0:0:0:
64,192,116320,1,0,0:0:0:0:
320,192,116320,1,0,0:0:0:0:
64,192,116492,1,0,0:0:0:0:
192,192,116663,1,0,0:0:0:0:
448,192,116663,1,0,0:0:0:0:
448,192,116834,1,0,0:0:0:0:
320,192,117006,1,0,0:0:0:0:
64,192,117006,1,0,0:0:0:0:
64,192,117177,1,0,0:0:0:0:
192,192,117349,1,0,0:0:0:0:
320,192,117349,1,0,0:0:0:0:
320,192,117520,1,0,0:0:0:0:
448,192,117692,1,0,0:0:0:0:
192,192,117692,1,0,0:0:0:0:
192,192,117863,1,0,0:0:0:0:
448,192,117863,1,0,0:0:0:0:
320,192,117863,1,0,0:0:0:0:
192,192,118034,1,0,0:0:0:0:
64,192,118034,1,0,0:0:0:0:
448,192,118034,1,0,0:0:0:0:
320,192,118034,1,0,0:0:0:0:
448,192,118206,1,0,0:0:0:0:
320,192,118377,1,0,0:0:0:0:
192,192,118377,1,0,0:0:0:0:
192,192,118549,1,0,0:0:0:0:
320,192,118720,1,0,0:0:0:0:
448,192,118720,1,0,0:0:0:0:
320,192,118892,1,0,0:0:0:0:
192,192,119063,1,0,0:0:0:0:
64,192,119063,1,0,0:0:0:0:
192,192,119234,1,0,0:0:0:0:
448,192,119406,1,0,0:0:0:0:
64,192,119406,1,0,0:0:0:0:
448,192,119577,1,0,0:0:0:0:
320,192,119749,1,0,0:0:0:0:
192,192,119749,1,0,0:0:0:0:
320,192,119920,1,0,0:0:0:0:
192,192,120092,1,0,0:0:0:0:
64,192,120092,1,0,0:0:0:0:
192,192,120263,1,0,0:0:0:0:
64,192,120434,1,0,0:0:0:0:
320,192,120434,1,0,0:0:0:0:
64,192,120606,1,0,0:0:0:0:
192,192,120777,1,0,0:0:0:0:
320,192,120777,1,0,0:0:0:0:
448,192,120777,1,0,0:0:0:0:
448,192,120949,1,0,0:0:0:0:
320,192,120949,1,0,0:0:0:0:
64,192,121120,1,0,0:0:0:0:
192,192,121120,1,0,0:0:0:0:
320,192,121120,1,0,0:0:0:0:
192,192,121292,1,0,0:0:0:0:
64,192,121292,1,0,0:0:0:0:
448,192,121463,1,0,0:0:0:0:
320,192,121463,1,0,0:0:0:0:
448,192,121634,1,0,0:0:0:0:
320,192,121806,1,0,0:0:0:0:
192,192,121806,1,0,0:0:0:0:
320,192,121977,1,0,0:0:0:0:
192,192,122149,1,0,0:0:0:0:
64,192,122149,1,0,0:0:0:0:
448,192,122149,1,0,0:0:0:0:
192,192,122320,1,0,0:0:0:0:
320,192,122320,1,0,0:0:0:0:
320,192,122492,1,0,0:0:0:0:
448,192,122492,1,0,0:0:0:0:
64,192,122492,1,0,0:0:0:0:
320,192,122663,1,0,0:0:0:0:
448,192,122663,1,0,0:0:0:0:
192,192,122834,1,0,0:0:0:0:
64,192,122834,1,0,0:0:0:0:
448,192,122834,1,0,0:0:0:0:
320,192,122920,1,0,0:0:0:0:
192,192,123006,1,0,0:0:0:0:
64,192,123006,1,0,0:0:0:0:
320,192,123092,1,0,0:0:0:0:
448,192,123092,1,0,0:0:0:0:
192,192,123177,1,0,0:0:0:0:
64,192,123177,1,0,0:0:0:0:
320,192,123263,1,0,0:0:0:0:
448,192,123263,1,0,0:0:0:0:
192,192,123349,1,0,0:0:0:0:
64,192,123349,1,0,0:0:0:0:
320,192,123434,1,0,0:0:0:0:
448,192,123434,1,0,0:0:0:0:
192,192,123520,1,0,0:0:0:0:
64,192,123520,1,0,0:0:0:0:
448,192,123520,1,0,0:0:0:0:
320,192,123606,1,0,0:0:0:0:
192,192,123692,1,0,0:0:0:0:
448,192,123777,1,0,0:0:0:0:
320,192,123863,1,0,0:0:0:0:
64,192,123863,1,0,0:0:0:0:
192,192,123949,1,0,0:0:0:0:
448,192,124034,1,0,0:0:0:0:
320,192,124120,1,0,0:0:0:0:
192,192,124206,1,0,0:0:0:0:
64,192,124206,1,0,0:0:0:0:
320,192,124292,1,0,0:0:0:0:
192,192,124377,1,0,0:0:0:0:
320,192,124463,1,0,0:0:0:0:
192,192,124549,1,0,0:0:0:0:
448,192,124549,1,0,0:0:0:0:
320,192,124634,1,0,0:0:0:0:
192,192,124720,1,0,0:0:0:0:
320,192,124806,1,0,0:0:0:0:
64,192,124892,1,0,0:0:0:0:
448,192,124892,1,0,0:0:0:0:
448,192,124977,1,0,0:0:0:0:
448,192,125063,1,0,0:0:0:0:
448,192,125149,1,0,0:0:0:0:
448,192,125234,1,0,0:0:0:0:
448,192,125320,1,0,0:0:0:0:
448,192,125406,1,0,0:0:0:0:
448,192,125492,1,0,0:0:0:0:
448,192,125577,1,0,0:0:0:0:
192,192,125577,1,0,0:0:0:0:
64,192,125577,1,0,0:0:0:0:
320,192,125663,1,0,0:0:0:0:
192,192,125749,1,0,0:0:0:0:
64,192,125834,1,0,0:0:0:0:
320,192,125920,1,0,0:0:0:0:
448,192,125920,1,0,0:0:0:0:
64,192,126006,1,0,0:0:0:0:
192,192,126092,1,0,0:0:0:0:
320,192,126177,1,0,0:0:0:0:
64,192,126263,1,0,0:0:0:0:
448,192,126263,1,0,0:0:0:0:
192,192,126349,1,0,0:0:0:0:
320,192,126434,1,0,0:0:0:0:
64,192,126520,1,0,0:0:0:0:
192,192,126606,1,0,0:0:0:0:
448,192,126606,1,0,0:0:0:0:
320,192,126692,1,0,0:0:0:0:
448,192,126777,1,0,0:0:0:0:
64,192,126863,1,0,0:0:0:0:
192,192,126949,1,0,0:0:0:0:
320,192,126949,1,0,0:0:0:0:
448,192,127034,1,0,0:0:0:0:
192,192,127120,1,0,0:0:0:0:
64,192,127206,1,0,0:0:0:0:
192,192,127292,1,0,0:0:0:0:
448,192,127292,1,0,0:0:0:0:
320,192,127377,1,0,0:0:0:0:
192,192,127463,1,0,0:0:0:0:
320,192,127549,1,0,0:0:0:0:
448,192,127634,1,0,0:0:0:0:
192,192,127634,1,0,0:0:0:0:
64,192,127720,1,0,0:0:0:0:
320,192,127806,1,0,0:0:0:0:
192,192,127892,1,0,0:0:0:0:
320,192,127977,1,0,0:0:0:0:
448,192,127977,1,0,0:0:0:0:
192,192,128063,1,0,0:0:0:0:
64,192,128149,1,0,0:0:0:0:
320,192,128234,1,0,0:0:0:0:
192,192,128320,1,0,0:0:0:0:
448,192,128320,1,0,0:0:0:0:
320,192,128406,1,0,0:0:0:0:
192,192,128492,1,0,0:0:0:0:
64,192,128492,1,0,0:0:0:0:
320,192,128577,1,0,0:0:0:0:
448,192,128663,1,0,0:0:0:0:
64,192,128663,1,0,0:0:0:0:
192,192,128749,1,0,0:0:0:0:
320,192,128834,1,0,0:0:0:0:
448,192,128834,1,0,0:0:0:0:
64,192,128920,1,0,0:0:0:0:
192,192,129006,1,0,0:0:0:0:
320,192,129006,1,0,0:0:0:0:
448,192,129092,1,0,0:0:0:0:
320,192,129177,1,0,0:0:0:0:
64,192,129263,1,0,0:0:0:0:
320,192,129349,1,0,0:0:0:0:
192,192,129349,1,0,0:0:0:0:
448,192,129434,1,0,0:0:0:0:
192,192,129520,1,0,0:0:0:0:
448,192,129606,1,0,0:0:0:0:
192,192,129692,1,0,0:0:0:0:
64,192,129692,1,0,0:0:0:0:
320,192,129777,1,0,0:0:0:0:
448,192,129863,1,0,0:0:0:0:
64,192,129949,1,0,0:0:0:0:
192,192,130034,1,0,0:0:0:0:
448,192,130034,1,0,0:0:0:0:
320,192,130120,1,0,0:0:0:0:
192,192,130206,1,0,0:0:0:0:
64,192,130206,1,0,0:0:0:0:
320,192,130292,1,0,0:0:0:0:
448,192,130377,1,0,0:0:0:0:
64,192,130377,1,0,0:0:0:0:
192,192,130463,1,0,0:0:0:0:
448,192,130549,1,0,0:0:0:0:
64,192,130634,1,0,0:0:0:0:
192,192,130720,1,0,0:0:0:0:
448,192,130720,1,0,0:0:0:0:
320,192,130806,1,0,0:0:0:0:
192,192,130892,1,0,0:0:0:0:
320,192,130977,1,0,0:0:0:0:
448,192,131063,1,0,0:0:0:0:
64,192,131063,1,0,0:0:0:0:
192,192,131149,1,0,0:0:0:0:
320,192,131234,1,0,0:0:0:0:
448,192,131234,1,0,0:0:0:0:
192,192,131320,1,0,0:0:0:0:
64,192,131406,1,0,0:0:0:0:
448,192,131406,1,0,0:0:0:0:
320,192,131492,1,0,0:0:0:0:
192,192,131577,1,0,0:0:0:0:
64,192,131577,1,0,0:0:0:0:
320,192,131663,1,0,0:0:0:0:
448,192,131749,1,0,0:0:0:0:
192,192,131749,1,0,0:0:0:0:
64,192,131749,1,0,0:0:0:0:
320,192,131834,1,0,0:0:0:0:
64,192,131920,1,0,0:0:0:0:
448,192,132006,1,0,0:0:0:0:
320,192,132092,1,0,0:0:0:0:
64,192,132092,1,0,0:0:0:0:
192,192,132177,1,0,0:0:0:0:
448,192,132263,1,0,0:0:0:0:
320,192,132349,1,0,0:0:0:0:
192,192,132434,1,0,0:0:0:0:
64,192,132434,1,0,0:0:0:0:
320,192,132520,1,0,0:0:0:0:
448,192,132606,1,0,0:0:0:0:
192,192,132692,1,0,0:0:0:0:
64,192,132777,1,0,0:0:0:0:
448,192,132777,1,0,0:0:0:0:
320,192,132863,1,0,0:0:0:0:
192,192,132949,1,0,0:0:0:0:
64,192,133034,1,0,0:0:0:0:
320,192,133120,1,0,0:0:0:0:
448,192,133120,1,0,0:0:0:0:
192,192,133206,1,0,0:0:0:0:
320,192,133292,1,0,0:0:0:0:
448,192,133377,1,0,0:0:0:0:
192,192,133463,1,0,0:0:0:0:
64,192,133463,1,0,0:0:0:0:
320,192,133549,1,0,0:0:0:0:
448,192,133634,1,0,0:0:0:0:
64,192,133720,1,0,0:0:0:0:
192,192,133806,1,0,0:0:0:0:
320,192,133806,1,0,0:0:0:0:
448,192,133892,1,0,0:0:0:0:
320,192,133977,1,0,0:0:0:0:
448,192,134063,1,0,0:0:0:0:
192,192,134149,1,0,0:0:0:0:
320,192,134149,1,0,0:0:0:0:
64,192,134234,1,0,0:0:0:0:
192,192,134320,1,0,0:0:0:0:
64,192,134406,1,0,0:0:0:0:
320,192,134492,1,0,0:0:0:0:
448,192,134492,1,0,0:0:0:0:
64,192,134577,1,0,0:0:0:0:
192,192,134663,1,0,0:0:0:0:
320,192,134749,1,0,0:0:0:0:
448,192,134834,1,0,0:0:0:0:
64,192,134834,1,0,0:0:0:0:
192,192,134920,1,0,0:0:0:0:
320,192,135006,1,0,0:0:0:0:
448,192,135092,1,0,0:0:0:0:
192,192,135177,1,0,0:0:0:0:
64,192,135177,1,0,0:0:0:0:
320,192,135263,1,0,0:0:0:0:
192,192,135349,1,0,0:0:0:0:
64,192,135434,1,0,0:0:0:0:
448,192,135520,1,0,0:0:0:0:
320,192,135520,1,0,0:0:0:0:
192,192,135606,1,0,0:0:0:0:
64,192,135692,1,0,0:0:0:0:
320,192,135777,1,0,0:0:0:0:
448,192,135863,1,0,0:0:0:0:
64,192,135863,1,0,0:0:0:0:
448,192,135949,1,0,0:0:0:0:
448,192,136034,1,0,0:0:0:0:
448,192,136120,1,0,0:0:0:0:
448,192,136206,1,0,0:0:0:0:
448,192,136292,1,0,0:0:0:0:
448,192,136377,1,0,0:0:0:0:
448,192,136463,1,0,0:0:0:0:
448,192,136549,1,0,0:0:0:0:
192,192,136549,1,0,0:0:0:0:
64,192,136549,1,0,0:0:0:0:
320,192,136634,1,0,0:0:0:0:
448,192,136720,1,0,0:0:0:0:
192,192,136806,1,0,0:0:0:0:
64,192,136892,1,0,0:0:0:0:
448,192,136892,1,0,0:0:0:0:
320,192,136977,1,0,0:0:0:0:
192,192,137063,1,0,0:0:0:0:
64,192,137149,1,0,0:0:0:0:
192,192,137234,1,0,0:0:0:0:
320,192,137234,1,0,0:0:0:0:
448,192,137320,1,0,0:0:0:0:
192,192,137406,1,0,0:0:0:0:
448,192,137492,1,0,0:0:0:0:
320,192,137577,1,0,0:0:0:0:
64,192,137577,1,0,0:0:0:0:
192,192,137663,1,0,0:0:0:0:
448,192,137749,1,0,0:0:0:0:
192,192,137834,1,0,0:0:0:0:
320,192,137920,1,0,0:0:0:0:
64,192,137920,1,0,0:0:0:0:
192,192,138006,1,0,0:0:0:0:
320,192,138092,1,0,0:0:0:0:
448,192,138177,1,0,0:0:0:0:
320,192,138263,1,0,0:0:0:0:
192,192,138263,1,0,0:0:0:0:
64,192,138349,1,0,0:0:0:0:
320,192,138434,1,0,0:0:0:0:
448,192,138520,1,0,0:0:0:0:
192,192,138606,1,0,0:0:0:0:
64,192,138606,1,0,0:0:0:0:
320,192,138692,1,0,0:0:0:0:
448,192,138777,1,0,0:0:0:0:
64,192,138863,1,0,0:0:0:0:
192,192,138949,1,0,0:0:0:0:
320,192,138949,1,0,0:0:0:0:
448,192,139034,1,0,0:0:0:0:
64,192,139120,1,0,0:0:0:0:
320,192,139206,1,0,0:0:0:0:
192,192,139292,1,0,0:0:0:0:
64,192,139292,1,0,0:0:0:0:
448,192,139377,1,0,0:0:0:0:
192,192,139463,1,0,0:0:0:0:
64,192,139549,1,0,0:0:0:0:
320,192,139634,1,0,0:0:0:0:
448,192,139634,1,0,0:0:0:0:
192,192,139720,1,0,0:0:0:0:
448,192,139806,1,0,0:0:0:0:
320,192,139892,1,0,0:0:0:0:
192,192,139977,1,0,0:0:0:0:
64,192,139977,1,0,0:0:0:0:
320,192,140063,1,0,0:0:0:0:
448,192,140149,1,0,0:0:0:0:
64,192,140234,1,0,0:0:0:0:
192,192,140320,1,0,0:0:0:0:
448,192,140320,1,0,0:0:0:0:
320,192,140406,1,0,0:0:0:0:
192,192,140492,1,0,0:0:0:0:
64,192,140577,1,0,0:0:0:0:
192,192,140663,1,0,0:0:0:0:
320,192,140663,1,0,0:0:0:0:
448,192,140749,1,0,0:0:0:0:
64,192,140834,1,0,0:0:0:0:
192,192,140834,1,0,0:0:0:0:
320,192,140920,1,0,0:0:0:0:
192,192,141006,1,0,0:0:0:0:
64,192,141006,1,0,0:0:0:0:
448,192,141092,1,0,0:0:0:0:
320,192,141177,1,0,0:0:0:0:
64,192,141177,1,0,0:0:0:0:
192,192,141263,1,0,0:0:0:0:
320,192,141349,1,0,0:0:0:0:
448,192,141349,1,0,0:0:0:0:
192,192,141434,1,0,0:0:0:0:
64,192,141520,1,0,0:0:0:0:
448,192,141606,1,0,0:0:0:0:
320,192,141692,1,0,0:0:0:0:
192,192,141692,1,0,0:0:0:0:
64,192,141777,1,0,0:0:0:0:
448,192,141863,1,0,0:0:0:0:
320,192,141949,1,0,0:0:0:0:
192,192,142034,1,0,0:0:0:0:
64,192,142034,1,0,0:0:0:0:
448,192,142120,1,0,0:0:0:0:
320,192,142206,1,0,0:0:0:0:
192,192,142292,1,0,0:0:0:0:
320,192,142377,1,0,0:0:0:0:
448,192,142377,1,0,0:0:0:0:
192,192,142463,1,0,0:0:0:0:
320,192,142549,1,0,0:0:0:0:
448,192,142634,1,0,0:0:0:0:
192,192,142720,1,0,0:0:0:0:
64,192,142720,1,0,0:0:0:0:
320,192,142806,1,0,0:0:0:0:
192,192,142892,1,0,0:0:0:0:
64,192,142977,1,0,0:0:0:0:
320,192,143063,1,0,0:0:0:0:
448,192,143063,1,0,0:0:0:0:
192,192,143149,1,0,0:0:0:0:
448,192,143234,1,0,0:0:0:0:
192,192,143320,1,0,0:0:0:0:
320,192,143406,1,0,0:0:0:0:
448,192,143406,1,0,0:0:0:0:
192,192,143492,1,0,0:0:0:0:
448,192,143577,1,0,0:0:0:0:
192,192,143663,1,0,0:0:0:0:
320,192,143749,1,0,0:0:0:0:
448,192,143749,1,0,0:0:0:0:
192,192,143834,1,0,0:0:0:0:
64,192,143920,1,0,0:0:0:0:
320,192,144006,1,0,0:0:0:0:
192,192,144092,1,0,0:0:0:0:
448,192,144092,1,0,0:0:0:0:
64,192,144177,1,0,0:0:0:0:
320,192,144263,1,0,0:0:0:0:
448,192,144349,1,0,0:0:0:0:
320,192,144434,1,0,0:0:0:0:
192,192,144434,1,0,0:0:0:0:
64,192,144520,1,0,0:0:0:0:
192,192,144606,1,0,0:0:0:0:
448,192,144606,1,0,0:0:0:0:
320,192,144692,1,0,0:0:0:0:
192,192,144777,1,0,0:0:0:0:
64,192,144777,1,0,0:0:0:0:
320,192,144863,1,0,0:0:0:0:
448,192,144949,1,0,0:0:0:0:
64,192,144949,1,0,0:0:0:0:
192,192,145034,1,0,0:0:0:0:
320,192,145120,1,0,0:0:0:0:
448,192,145120,1,0,0:0:0:0:
192,192,145206,1,0,0:0:0:0:
64,192,145292,1,0,0:0:0:0:
448,192,145292,1,0,0:0:0:0:
320,192,145377,1,0,0:0:0:0:
192,192,145463,1,0,0:0:0:0:
64,192,145463,1,0,0:0:0:0:
