osu file format v14

[General]
AudioFilename: audio.mp3
AudioLeadIn: 0
PreviewTime: 54912
Countdown: 0
SampleSet: Normal
StackLeniency: 0.2
Mode: 1
LetterboxInBreaks: 0
WidescreenStoryboard: 1

[Editor]
Bookmarks: 141,11112,33055,48141,54998,76941,87912,100255,101626,123569,145512
DistanceSpacing: 0.4
BeatDivisor: 8
GridSize: 32
TimelineZoom: 2.3

[Metadata]
Title:EOS
TitleUnicode:EOS
Artist:ginkiha
ArtistUnicode:ginkiha
Creator:iceOC
Version:Oni
Source:osu!
Tags:shade of mythology bms fighters 2012 bof foe f.o.e. mappers guild featured artist fa uk hardcore english electronic video game chromoxx
BeatmapID:2510331
BeatmapSetID:725836

[Difficulty]
HPDrainRate:5
CircleSize:2
OverallDifficulty:6
ApproachRate:10
SliderMultiplier:1.4
SliderTickRate:1

[Events]
//Background and Video events
0,0,"BG.jpg",0,0
//Break Periods
//Storyboard Layer 0 (Background)
//Storyboard Layer 1 (Fail)
//Storyboard Layer 2 (Pass)
//Storyboard Layer 3 (Foreground)
//Storyboard Layer 4 (Overlay)
//Storyboard Sound Samples

[TimingPoints]
141,342.857142857143,4,1,0,100,1,0
54998,-100,4,1,0,100,0,1
76941,-100,4,1,0,100,0,0
77069,-105.263157894737,4,1,0,100,0,0
77241,-111.111111111111,4,1,0,100,0,0
77583,-117.647058823529,4,1,0,100,0,0
77755,-121.951219512195,4,1,0,100,0,0
78098,-133.333333333333,4,1,0,100,0,0
87869,-100,4,1,0,100,0,0
98841,-100,4,1,0,20,0,0
99055,-100,4,1,0,40,0,0
99398,-100,4,1,0,60,0,0
99741,-100,4,1,0,80,0,0
100212,-100,4,1,0,100,0,0
100255,342.857142857143,4,1,0,100,1,8
100283,342.857142857143,4,1,0,100,1,0
101626,342.857142857143,4,1,0,100,1,0
123568,-100,4,1,0,100,0,1
145511,-100,4,1,0,100,0,0

[HitObjects]
256,192,141,5,4,0:0:0:0:
256,192,1683,1,8,0:0:0:0:
256,192,1855,1,8,0:0:0:0:
256,192,2198,1,8,0:0:0:0:
256,192,2369,1,8,0:0:0:0:
256,192,2541,1,0,0:0:0:0:
256,192,2883,1,0,0:0:0:0:
256,192,3398,1,0,0:0:0:0:
256,192,4426,1,8,0:0:0:0:
256,192,4769,1,8,0:0:0:0:
256,192,4941,1,8,0:0:0:0:
256,192,5112,1,8,0:0:0:0:
256,192,5283,1,0,0:0:0:0:
256,192,5626,1,0,0:0:0:0:
256,192,6141,1,0,0:0:0:0:
256,192,6655,1,0,0:0:0:0:
256,192,7169,1,8,0:0:0:0:
256,192,7341,1,8,0:0:0:0:
256,192,7683,1,8,0:0:0:0:
256,192,7855,1,8,0:0:0:0:
256,192,8026,1,0,0:0:0:0:
256,192,8112,1,0,0:0:0:0:
256,192,8198,1,0,0:0:0:0:
256,192,8369,1,12,0:0:0:0:
256,192,8712,1,0,0:0:0:0:
256,192,8883,1,12,0:0:0:0:
256,192,9226,1,0,0:0:0:0:
256,192,9398,1,12,0:0:0:0:
256,192,9741,1,8,0:0:0:0:
256,192,9912,1,8,0:0:0:0:
256,192,10255,1,8,0:0:0:0:
256,192,10426,1,4,0:0:0:0:
256,192,10598,1,0,0:0:0:0:
256,192,10683,1,0,0:0:0:0:
256,192,10769,1,8,0:0:0:0:
256,192,10855,1,0,0:0:0:0:
256,192,10941,1,8,0:0:0:0:
256,192,11112,1,0,0:0:0:0:
256,192,11455,1,12,0:0:0:0:
256,192,11798,1,0,0:0:0:0:
256,192,11969,1,0,0:0:0:0:
256,192,12141,1,8,0:0:0:0:
256,192,12483,1,0,0:0:0:0:
256,192,12826,1,8,0:0:0:0:
256,192,13169,1,0,0:0:0:0:
256,192,13341,1,0,0:0:0:0:
256,192,13512,1,8,0:0:0:0:
256,192,13683,1,0,0:0:0:0:
256,192,13769,1,0,0:0:0:0:
256,192,13855,1,0,0:0:0:0:
256,192,14198,1,8,0:0:0:0:
256,192,14541,1,0,0:0:0:0:
256,192,14712,1,0,0:0:0:0:
256,192,14883,1,8,0:0:0:0:
256,192,15226,1,0,0:0:0:0:
256,192,15569,1,8,0:0:0:0:
256,192,15912,1,0,0:0:0:0:
256,192,16255,1,8,0:0:0:0:
256,192,16426,1,8,0:0:0:0:
256,192,16598,1,0,0:0:0:0:
256,192,16941,1,8,0:0:0:0:
256,192,17283,1,0,0:0:0:0:
256,192,17455,1,0,0:0:0:0:
256,192,17626,1,8,0:0:0:0:
256,192,17969,1,0,0:0:0:0:
256,192,18141,1,0,0:0:0:0:
256,192,18312,1,8,0:0:0:0:
256,192,18483,1,0,0:0:0:0:
256,192,18569,1,0,0:0:0:0:
256,192,18655,1,8,0:0:0:0:
256,192,18826,1,8,0:0:0:0:
256,192,18998,1,0,0:0:0:0:
256,192,19169,1,0,0:0:0:0:
256,192,19341,1,8,0:0:0:0:
256,192,19512,1,8,0:0:0:0:
256,192,19683,1,0,0:0:0:0:
256,192,19855,1,8,0:0:0:0:
256,192,20026,1,0,0:0:0:0:
256,192,20198,1,0,0:0:0:0:
256,192,20369,1,8,0:0:0:0:
256,192,20712,1,0,0:0:0:0:
256,192,20883,1,8,0:0:0:0:
256,192,20969,1,8,0:0:0:0:
256,192,21055,1,8,0:0:0:0:
256,192,21226,1,0,0:0:0:0:
256,192,21398,1,8,0:0:0:0:
256,192,21569,1,8,0:0:0:0:
256,192,21741,1,0,0:0:0:0:
256,192,21912,1,0,0:0:0:0:
256,192,22083,1,12,0:0:0:0:
256,192,22426,1,8,0:0:0:0:
256,192,22769,1,0,0:0:0:0:
256,192,22941,1,0,0:0:0:0:
256,192,23112,1,8,0:0:0:0:
256,192,23455,1,0,0:0:0:0:
256,192,23798,1,8,0:0:0:0:
256,192,23969,1,0,0:0:0:0:
256,192,24055,1,0,0:0:0:0:
256,192,24141,1,8,0:0:0:0:
256,192,24312,1,0,0:0:0:0:
256,192,24483,1,8,0:0:0:0:
256,192,24826,1,0,0:0:0:0:
256,192,25169,1,8,0:0:0:0:
256,192,25512,1,0,0:0:0:0:
256,192,25683,1,0,0:0:0:0:
256,192,25855,1,8,0:0:0:0:
256,192,26198,1,8,0:0:0:0:
256,192,26369,1,0,0:0:0:0:
256,192,26541,1,8,0:0:0:0:
256,192,26712,1,0,0:0:0:0:
256,192,26798,1,0,0:0:0:0:
256,192,26883,1,8,0:0:0:0:
256,192,27055,1,0,0:0:0:0:
256,192,27226,1,8,0:0:0:0:
256,192,27398,1,8,0:0:0:0:
256,192,27569,1,4,0:0:0:0:
256,192,27912,1,8,0:0:0:0:
256,192,28255,1,0,0:0:0:0:
256,192,28598,1,8,0:0:0:0:
256,192,28769,1,4,0:0:0:0:
256,192,28941,1,4,0:0:0:0:
256,192,29283,1,8,0:0:0:0:
256,192,29626,1,8,0:0:0:0:
256,192,29798,1,0,0:0:0:0:
256,192,29969,1,8,0:0:0:0:
256,192,30141,1,4,0:0:0:0:
256,192,30312,1,4,0:0:0:0:
256,192,30655,1,8,0:0:0:0:
256,192,30826,1,8,0:0:0:0:
256,192,30998,1,4,0:0:0:0:
256,192,31341,1,0,0:0:0:0:
256,192,31512,1,8,0:0:0:0:
256,192,31683,1,4,0:0:0:0:
256,192,31855,1,8,0:0:0:0:
256,192,32026,1,4,0:0:0:0:
256,192,32198,1,8,0:0:0:0:
256,192,32369,1,0,0:0:0:0:
256,192,32541,1,8,0:0:0:0:
256,192,32626,1,0,0:0:0:0:
256,192,32798,1,8,0:0:0:0:
256,192,32883,1,0,0:0:0:0:
256,192,33055,1,4,0:0:0:0:
256,192,33398,1,8,0:0:0:0:
256,192,33741,1,0,0:0:0:0:
256,192,33912,1,0,0:0:0:0:
256,192,34083,1,8,0:0:0:0:
256,192,34426,1,0,0:0:0:0:
256,192,34769,1,8,0:0:0:0:
256,192,35112,1,0,0:0:0:0:
256,192,35455,1,8,0:0:0:0:
256,192,35626,1,8,0:0:0:0:
256,192,35798,1,0,0:0:0:0:
256,192,36141,1,8,0:0:0:0:
256,192,36312,1,0,0:0:0:0:
256,192,36655,1,0,0:0:0:0:
256,192,36826,1,8,0:0:0:0:
256,192,37169,1,0,0:0:0:0:
256,192,37512,1,8,0:0:0:0:
256,192,37855,1,0,0:0:0:0:
256,192,38198,1,8,0:0:0:0:
256,192,38369,1,8,0:0:0:0:
256,192,38541,1,0,0:0:0:0:
256,192,38883,1,8,0:0:0:0:
256,192,39226,1,0,0:0:0:0:
256,192,39569,1,8,0:0:0:0:
256,192,39741,1,0,0:0:0:0:
256,192,39912,1,0,0:0:0:0:
256,192,40255,1,8,0:0:0:0:
256,192,40598,1,0,0:0:0:0:
256,192,40941,1,8,0:0:0:0:
256,192,41112,1,8,0:0:0:0:
256,192,41283,1,0,0:0:0:0:
256,192,41455,1,8,0:0:0:0:
256,192,41626,1,0,0:0:0:0:
256,192,41969,1,8,0:0:0:0:
256,192,42312,1,8,0:0:0:0:
256,192,42483,1,8,0:0:0:0:
256,192,42655,1,0,0:0:0:0:
256,192,42998,1,0,0:0:0:0:
256,192,43169,1,8,0:0:0:0:
256,192,43341,1,0,0:0:0:0:
256,192,43598,1,0,0:0:0:0:
256,192,43855,1,8,0:0:0:0:
256,192,44026,1,4,0:0:0:0:
256,192,44369,1,8,0:0:0:0:
256,192,44541,1,0,0:0:0:0:
256,192,44626,1,0,0:0:0:0:
256,192,44712,1,0,0:0:0:0:
256,192,44883,1,0,0:0:0:0:
256,192,45055,1,8,0:0:0:0:
256,192,45398,1,0,0:0:0:0:
256,192,45741,1,8,0:0:0:0:
256,192,46083,1,0,0:0:0:0:
256,192,46426,1,8,0:0:0:0:
256,192,46598,1,8,0:0:0:0:
256,192,46769,1,0,0:0:0:0:
256,192,47112,1,8,0:0:0:0:
256,192,47283,1,0,0:0:0:0:
256,192,47369,1,0,0:0:0:0:
256,192,47455,1,0,0:0:0:0:
256,192,47626,1,0,0:0:0:0:
256,192,47798,1,8,0:0:0:0:
256,192,47969,1,8,0:0:0:0:
256,192,48141,1,0,0:0:0:0:
256,192,48483,1,8,0:0:0:0:
256,192,48569,1,8,0:0:0:0:
256,192,48826,1,0,0:0:0:0:
256,192,48998,1,8,0:0:0:0:
256,192,49169,1,0,0:0:0:0:
256,192,49341,1,0,0:0:0:0:
256,192,49426,1,8,0:0:0:0:
256,192,49683,1,0,0:0:0:0:
256,192,49855,1,8,0:0:0:0:
256,192,49941,1,8,0:0:0:0:
256,192,50198,1,0,0:0:0:0:
256,192,50369,1,8,0:0:0:0:
256,192,50455,1,0,0:0:0:0:
256,192,50712,1,0,0:0:0:0:
256,192,50798,1,8,0:0:0:0:
256,192,51055,1,0,0:0:0:0:
256,192,51226,1,8,0:0:0:0:
256,192,51312,1,8,0:0:0:0:
256,192,51569,1,0,0:0:0:0:
256,192,51741,1,8,0:0:0:0:
256,192,51826,1,0,0:0:0:0:
256,192,51998,1,0,0:0:0:0:
256,192,52083,1,8,0:0:0:0:
256,192,52255,1,4,0:0:0:0:
256,192,52598,1,8,0:0:0:0:
256,192,52683,1,8,0:0:0:0:
256,192,52941,1,0,0:0:0:0:
256,192,53112,1,0,0:0:0:0:
256,192,53198,1,8,0:0:0:0:
256,192,53369,1,8,0:0:0:0:
256,192,53455,1,0,0:0:0:0:
256,192,53626,1,4,0:0:0:0:
256,192,53798,1,8,0:0:0:0:
256,192,53969,1,8,0:0:0:0:
256,192,54141,1,8,0:0:0:0:
256,192,54312,1,4,0:0:0:0:
256,192,54483,1,8,0:0:0:0:
256,192,54569,1,8,0:0:0:0:
256,192,54655,1,8,0:0:0:0:
256,192,54826,1,8,0:0:0:0:
256,192,54998,1,4,0:0:0:0:
256,192,55255,1,0,0:0:0:0:
256,192,55341,1,8,0:0:0:0:
256,192,55512,1,0,0:0:0:0:
256,192,55683,1,8,0:0:0:0:
256,192,55769,1,8,0:0:0:0:
256,192,55855,1,8,0:0:0:0:
256,192,56026,1,0,0:0:0:0:
256,192,56369,1,8,0:0:0:0:
256,192,56455,1,8,0:0:0:0:
256,192,56541,1,8,0:0:0:0:
256,192,56626,1,8,0:0:0:0:
256,192,56712,1,8,0:0:0:0:
256,192,56798,1,8,0:0:0:0:
256,192,56883,1,8,0:0:0:0:
256,192,57055,1,0,0:0:0:0:
256,192,57398,1,0,0:0:0:0:
256,192,57569,1,8,0:0:0:0:
256,192,57741,1,0,0:0:0:0:
256,192,57912,1,8,0:0:0:0:
256,192,57998,1,8,0:0:0:0:
256,192,58083,1,0,0:0:0:0:
256,192,58255,1,8,0:0:0:0:
256,192,58426,1,0,0:0:0:0:
256,192,58769,1,0,0:0:0:0:
256,192,58941,1,8,0:0:0:0:
256,192,59112,1,0,0:0:0:0:
256,192,59283,1,8,0:0:0:0:
256,192,59369,1,0,0:0:0:0:
256,192,59455,1,8,0:0:0:0:
256,192,59798,1,0,0:0:0:0:
256,192,59969,1,8,0:0:0:0:
256,192,60055,1,8,0:0:0:0:
256,192,60141,1,0,0:0:0:0:
256,192,60312,1,8,0:0:0:0:
256,192,60483,1,0,0:0:0:0:
256,192,60826,1,12,0:0:0:0:
256,192,61169,1,0,0:0:0:0:
256,192,61341,1,0,0:0:0:0:
256,192,61512,1,8,0:0:0:0:
256,192,61855,1,0,0:0:0:0:
256,192,62026,1,8,0:0:0:0:
256,192,62112,1,8,0:0:0:0:
256,192,62198,1,8,0:0:0:0:
256,192,62369,1,0,0:0:0:0:
256,192,62712,1,8,0:0:0:0:
256,192,62883,1,0,0:0:0:0:
256,192,63226,1,8,0:0:0:0:
256,192,63398,1,8,0:0:0:0:
256,192,63569,1,0,0:0:0:0:
256,192,63741,1,0,0:0:0:0:
256,192,63912,1,8,0:0:0:0:
256,192,64255,1,8,0:0:0:0:
256,192,64341,1,8,0:0:0:0:
256,192,64426,1,8,0:0:0:0:
256,192,64598,1,0,0:0:0:0:
256,192,64769,1,8,0:0:0:0:
256,192,64855,1,8,0:0:0:0:
256,192,64941,1,0,0:0:0:0:
256,192,65112,1,8,0:0:0:0:
256,192,65283,1,0,0:0:0:0:
256,192,65541,1,8,0:0:0:0:
256,192,65626,1,8,0:0:0:0:
256,192,65712,1,8,0:0:0:0:
256,192,65798,1,0,0:0:0:0:
256,192,65969,1,4,0:0:0:0:
256,192,66226,1,0,0:0:0:0:
256,192,66312,1,8,0:0:0:0:
256,192,66483,1,0,0:0:0:0:
256,192,66655,1,8,0:0:0:0:
256,192,66741,1,8,0:0:0:0:
256,192,66826,1,8,0:0:0:0:
256,192,66998,1,0,0:0:0:0:
256,192,67341,1,8,0:0:0:0:
256,192,67426,1,8,0:0:0:0:
256,192,67512,1,8,0:0:0:0:
256,192,67598,1,8,0:0:0:0:
256,192,67683,1,8,0:0:0:0:
256,192,67769,1,8,0:0:0:0:
256,192,67855,1,8,0:0:0:0:
256,192,68026,1,0,0:0:0:0:
256,192,68369,1,0,0:0:0:0:
256,192,68541,1,8,0:0:0:0:
256,192,68712,1,0,0:0:0:0:
256,192,68883,1,0,0:0:0:0:
256,192,68969,1,0,0:0:0:0:
256,192,69055,1,8,0:0:0:0:
256,192,69226,1,8,0:0:0:0:
256,192,69398,1,0,0:0:0:0:
256,192,69741,1,0,0:0:0:0:
256,192,69912,1,8,0:0:0:0:
256,192,69998,1,8,0:0:0:0:
256,192,70083,1,0,0:0:0:0:
256,192,70255,1,8,0:0:0:0:
256,192,70426,1,8,0:0:0:0:
256,192,70769,1,0,0:0:0:0:
256,192,70941,1,8,0:0:0:0:
256,192,71026,1,8,0:0:0:0:
256,192,71112,1,0,0:0:0:0:
256,192,71283,1,8,0:0:0:0:
256,192,71455,1,0,0:0:0:0:
256,192,71798,1,12,0:0:0:0:
256,192,72141,1,0,0:0:0:0:
256,192,72312,1,0,0:0:0:0:
256,192,72483,1,8,0:0:0:0:
256,192,72826,1,0,0:0:0:0:
256,192,72998,1,8,0:0:0:0:
256,192,73083,1,8,0:0:0:0:
256,192,73169,1,0,0:0:0:0:
256,192,73341,1,8,0:0:0:0:
256,192,73512,1,0,0:0:0:0:
256,192,73683,1,8,0:0:0:0:
256,192,74026,1,8,0:0:0:0:
256,192,74198,1,0,0:0:0:0:
256,192,74369,1,8,0:0:0:0:
256,192,74712,1,8,0:0:0:0:
256,192,74883,1,0,0:0:0:0:
256,192,75055,1,8,0:0:0:0:
256,192,75226,1,8,0:0:0:0:
256,192,75312,1,8,0:0:0:0:
256,192,75398,1,8,0:0:0:0:
256,192,75569,1,0,0:0:0:0:
256,192,75741,1,8,0:0:0:0:
256,192,75826,1,8,0:0:0:0:
256,192,75912,1,0,0:0:0:0:
256,192,76083,1,8,0:0:0:0:
256,192,76255,1,0,0:0:0:0:
256,192,76512,1,8,0:0:0:0:
256,192,76598,1,8,0:0:0:0:
256,192,76683,1,8,0:0:0:0:
256,192,76769,1,0,0:0:0:0:
256,192,76941,1,4,0:0:0:0:
256,192,77283,5,8,0:0:0:0:
256,192,77626,1,8,0:0:0:0:
256,192,77798,1,8,0:0:0:0:
256,192,78141,1,8,0:0:0:0:
256,192,79855,1,8,0:0:0:0:
256,192,80198,1,8,0:0:0:0:
256,192,80369,1,8,0:0:0:0:
256,192,80541,1,8,0:0:0:0:
256,192,80883,1,8,0:0:0:0:
256,192,82598,1,8,0:0:0:0:
256,192,82769,1,8,0:0:0:0:
256,192,83112,1,8,0:0:0:0:
256,192,83283,1,8,0:0:0:0:
256,192,83626,1,8,0:0:0:0:
256,192,85341,1,8,0:0:0:0:
256,192,85683,1,8,0:0:0:0:
256,192,85855,1,8,0:0:0:0:
256,192,86026,1,8,0:0:0:0:
256,192,86369,1,8,0:0:0:0:
256,192,87912,1,4,0:0:0:0:
256,192,88083,1,0,0:0:0:0:
256,192,88255,1,8,0:0:0:0:
256,192,88426,1,0,0:0:0:0:
256,192,88769,1,0,0:0:0:0:
256,192,89112,1,8,0:0:0:0:
256,192,89283,1,0,0:0:0:0:
256,192,89541,1,0,0:0:0:0:
256,192,89626,1,8,0:0:0:0:
256,192,89798,1,0,0:0:0:0:
256,192,90055,1,0,0:0:0:0:
256,192,90141,1,8,0:0:0:0:
256,192,90312,1,0,0:0:0:0:
256,192,90655,1,0,0:0:0:0:
256,192,90826,1,0,0:0:0:0:
256,192,90998,1,8,0:0:0:0:
256,192,91169,1,0,0:0:0:0:
256,192,91512,1,0,0:0:0:0:
256,192,91855,1,8,0:0:0:0:
256,192,92026,1,0,0:0:0:0:
256,192,92283,1,0,0:0:0:0:
256,192,92369,1,8,0:0:0:0:
256,192,92541,1,0,0:0:0:0:
256,192,92798,1,0,0:0:0:0:
256,192,92883,1,8,0:0:0:0:
256,192,93055,1,0,0:0:0:0:
256,192,93226,1,8,0:0:0:0:
256,192,93398,1,4,0:0:0:0:
256,192,93569,1,0,0:0:0:0:
256,192,93741,1,8,0:0:0:0:
256,192,94083,1,0,0:0:0:0:
256,192,94255,1,8,0:0:0:0:
256,192,94341,1,0,0:0:0:0:
256,192,94512,1,0,0:0:0:0:
256,192,94598,1,8,0:0:0:0:
256,192,94769,1,0,0:0:0:0:
256,192,94941,1,0,0:0:0:0:
256,192,95112,1,8,0:0:0:0:
256,192,95455,1,0,0:0:0:0:
256,192,95626,1,8,0:0:0:0:
256,192,95712,1,0,0:0:0:0:
256,192,95883,1,0,0:0:0:0:
256,192,95969,1,8,0:0:0:0:
256,192,96141,1,0,0:0:0:0:
256,192,96312,1,0,0:0:0:0:
256,192,96483,1,0,0:0:0:0:
256,192,96655,1,0,0:0:0:0:
256,192,96826,1,8,0:0:0:0:
256,192,96998,1,0,0:0:0:0:
256,192,97169,1,0,0:0:0:0:
256,192,97341,1,0,0:0:0:0:
256,192,97512,1,8,0:0:0:0:
256,192,97598,1,8,0:0:0:0:
256,192,97683,1,8,0:0:0:0:
256,192,97769,1,8,0:0:0:0:
256,192,97855,1,8,0:0:0:0:
256,192,97941,1,8,0:0:0:0:
256,192,98026,1,8,0:0:0:0:
256,192,98198,1,0,0:0:0:0:
256,192,98369,1,8,0:0:0:0:
256,192,98455,1,0,0:0:0:0:
256,192,98626,1,8,0:0:0:0:
256,192,98712,1,0,0:0:0:0:
256,192,98883,12,0,99912,0:0:0:0:
256,192,100283,5,8,0:0:0:0:
256,192,100625,1,0,0:0:0:0:
256,192,100797,1,8,0:0:0:0:
256,192,100940,2,0,L|320:192,6,35
256,192,101625,1,0,0:0:0:0:
256,192,101968,1,12,0:0:0:0:
256,192,102140,1,0,0:0:0:0:
256,192,102226,1,0,0:0:0:0:
256,192,102311,1,0,0:0:0:0:
256,192,102483,1,0,0:0:0:0:
256,192,102654,1,8,0:0:0:0:
256,192,102826,1,0,0:0:0:0:
256,192,102911,1,8,0:0:0:0:
256,192,102997,1,0,0:0:0:0:
256,192,103168,1,0,0:0:0:0:
256,192,103340,1,8,0:0:0:0:
256,192,103683,1,0,0:0:0:0:
256,192,103854,1,8,0:0:0:0:
256,192,103940,1,0,0:0:0:0:
256,192,104111,1,0,0:0:0:0:
256,192,104197,1,8,0:0:0:0:
256,192,104368,1,0,0:0:0:0:
256,192,104711,1,8,0:0:0:0:
256,192,104883,1,0,0:0:0:0:
256,192,104968,1,0,0:0:0:0:
256,192,105054,1,0,0:0:0:0:
256,192,105226,1,0,0:0:0:0:
256,192,105397,1,8,0:0:0:0:
256,192,105568,1,0,0:0:0:0:
256,192,105654,1,8,0:0:0:0:
256,192,105740,1,0,0:0:0:0:
256,192,105911,1,0,0:0:0:0:
256,192,106083,1,8,0:0:0:0:
256,192,106426,1,0,0:0:0:0:
256,192,106597,1,8,0:0:0:0:
256,192,106683,1,0,0:0:0:0:
256,192,106854,1,0,0:0:0:0:
256,192,106940,1,8,0:0:0:0:
256,192,107026,1,8,0:0:0:0:
256,192,107111,1,0,0:0:0:0:
256,192,107454,1,8,0:0:0:0:
256,192,107626,1,0,0:0:0:0:
256,192,107711,1,0,0:0:0:0:
256,192,107797,1,0,0:0:0:0:
256,192,107968,1,0,0:0:0:0:
256,192,108140,1,8,0:0:0:0:
256,192,108311,1,0,0:0:0:0:
256,192,108397,1,8,0:0:0:0:
256,192,108483,1,0,0:0:0:0:
256,192,108654,1,0,0:0:0:0:
256,192,108826,1,8,0:0:0:0:
256,192,108997,1,0,0:0:0:0:
256,192,109168,1,8,0:0:0:0:
256,192,109340,1,8,0:0:0:0:
256,192,109511,1,0,0:0:0:0:
256,192,109683,1,0,0:0:0:0:
256,192,109768,1,0,0:0:0:0:
256,192,109854,1,8,0:0:0:0:
256,192,110026,1,8,0:0:0:0:
256,192,110197,1,0,0:0:0:0:
256,192,110368,1,8,0:0:0:0:
256,192,110540,1,0,0:0:0:0:
256,192,110711,1,0,0:0:0:0:
256,192,110883,1,8,0:0:0:0:
256,192,111054,1,8,0:0:0:0:
256,192,111226,1,0,0:0:0:0:
256,192,111397,1,8,0:0:0:0:
256,192,111483,1,8,0:0:0:0:
256,192,111568,1,8,0:0:0:0:
256,192,111740,1,8,0:0:0:0:
256,192,111911,1,0,0:0:0:0:
256,192,112254,1,8,0:0:0:0:
256,192,112426,1,8,0:0:0:0:
256,192,112597,1,4,0:0:0:0:
256,192,112940,1,8,0:0:0:0:
256,192,113111,1,0,0:0:0:0:
256,192,113197,1,0,0:0:0:0:
256,192,113283,1,0,0:0:0:0:
256,192,113454,1,0,0:0:0:0:
256,192,113626,1,8,0:0:0:0:
256,192,113797,1,0,0:0:0:0:
256,192,113883,1,8,0:0:0:0:
256,192,113968,1,0,0:0:0:0:
256,192,114140,1,0,0:0:0:0:
256,192,114311,1,8,0:0:0:0:
256,192,114654,1,8,0:0:0:0:
256,192,114826,1,0,0:0:0:0:
256,192,114997,1,8,0:0:0:0:
256,192,115168,1,0,0:0:0:0:
256,192,115254,1,0,0:0:0:0:
256,192,115340,1,8,0:0:0:0:
256,192,115683,1,8,0:0:0:0:
256,192,115854,1,8,0:0:0:0:
256,192,115940,1,0,0:0:0:0:
256,192,116026,1,8,0:0:0:0:
256,192,116197,1,0,0:0:0:0:
256,192,116368,1,8,0:0:0:0:
256,192,116540,1,0,0:0:0:0:
256,192,116626,1,0,0:0:0:0:
256,192,116711,1,8,0:0:0:0:
256,192,116883,1,0,0:0:0:0:
256,192,117054,1,8,0:0:0:0:
256,192,117397,1,0,0:0:0:0:
256,192,117568,1,0,0:0:0:0:
256,192,117654,1,0,0:0:0:0:
256,192,117740,1,8,0:0:0:0:
256,192,117911,1,8,0:0:0:0:
256,192,118083,1,0,0:0:0:0:
256,192,118426,1,8,0:0:0:0:
256,192,118597,1,0,0:0:0:0:
256,192,118683,1,0,0:0:0:0:
256,192,118768,1,0,0:0:0:0:
256,192,118940,1,0,0:0:0:0:
256,192,119111,1,8,0:0:0:0:
256,192,119283,1,0,0:0:0:0:
256,192,119368,1,8,0:0:0:0:
256,192,119454,1,0,0:0:0:0:
256,192,119626,1,0,0:0:0:0:
256,192,119797,1,8,0:0:0:0:
256,192,119968,1,0,0:0:0:0:
256,192,120140,1,8,0:0:0:0:
256,192,120311,1,8,0:0:0:0:
256,192,120483,1,0,0:0:0:0:
256,192,120654,1,0,0:0:0:0:
256,192,120826,1,12,0:0:0:0:
256,192,120997,1,8,0:0:0:0:
256,192,121168,1,0,0:0:0:0:
256,192,121340,1,8,0:0:0:0:
256,192,121511,1,0,0:0:0:0:
256,192,121683,1,0,0:0:0:0:
256,192,121854,1,8,0:0:0:0:
256,192,122026,1,0,0:0:0:0:
256,192,122197,1,4,0:0:0:0:
256,192,122368,1,8,0:0:0:0:
256,192,122540,1,8,0:0:0:0:
256,192,122711,1,8,0:0:0:0:
256,192,122883,1,4,0:0:0:0:
256,192,123054,1,8,0:0:0:0:
256,192,123140,1,8,0:0:0:0:
256,192,123226,1,8,0:0:0:0:
256,192,123311,1,8,0:0:0:0:
256,192,123397,1,8,0:0:0:0:
256,192,123568,1,4,0:0:0:0:
256,192,123826,1,0,0:0:0:0:
256,192,123911,1,8,0:0:0:0:
256,192,124083,1,0,0:0:0:0:
256,192,124254,1,8,0:0:0:0:
256,192,124340,1,8,0:0:0:0:
256,192,124426,1,8,0:0:0:0:
256,192,124597,1,0,0:0:0:0:
256,192,124940,1,8,0:0:0:0:
256,192,125026,1,8,0:0:0:0:
256,192,125111,1,8,0:0:0:0:
256,192,125197,1,8,0:0:0:0:
256,192,125283,1,8,0:0:0:0:
256,192,125368,1,8,0:0:0:0:
256,192,125454,1,8,0:0:0:0:
256,192,125540,1,8,0:0:0:0:
256,192,125626,1,0,0:0:0:0:
256,192,125968,1,0,0:0:0:0:
256,192,126140,1,8,0:0:0:0:
256,192,126311,1,0,0:0:0:0:
256,192,126483,1,8,0:0:0:0:
256,192,126568,1,8,0:0:0:0:
256,192,126654,1,0,0:0:0:0:
256,192,126826,1,8,0:0:0:0:
256,192,126997,1,0,0:0:0:0:
256,192,127168,1,0,0:0:0:0:
256,192,127340,1,8,0:0:0:0:
256,192,127683,1,0,0:0:0:0:
256,192,127768,1,0,0:0:0:0:
256,192,127854,1,8,0:0:0:0:
256,192,128026,1,8,0:0:0:0:
256,192,128368,1,8,0:0:0:0:
256,192,128540,1,8,0:0:0:0:
256,192,128626,1,8,0:0:0:0:
256,192,128711,1,0,0:0:0:0:
256,192,128883,1,8,0:0:0:0:
256,192,129054,1,0,0:0:0:0:
256,192,129397,1,12,0:0:0:0:
256,192,129568,1,0,0:0:0:0:
256,192,129654,1,0,0:0:0:0:
256,192,129740,1,8,0:0:0:0:
256,192,129911,1,8,0:0:0:0:
256,192,130083,1,0,0:0:0:0:
256,192,130426,1,0,0:0:0:0:
256,192,130597,1,8,0:0:0:0:
256,192,130683,1,8,0:0:0:0:
256,192,130768,1,8,0:0:0:0:
256,192,130940,1,0,0:0:0:0:
256,192,131283,1,8,0:0:0:0:
256,192,131368,1,8,0:0:0:0:
256,192,131454,1,0,0:0:0:0:
256,192,131626,1,0,0:0:0:0:
256,192,131797,1,8,0:0:0:0:
256,192,131968,1,8,0:0:0:0:
256,192,132140,1,0,0:0:0:0:
256,192,132311,1,0,0:0:0:0:
256,192,132483,1,8,0:0:0:0:
256,192,132826,1,8,0:0:0:0:
256,192,132911,1,8,0:0:0:0:
256,192,132997,1,8,0:0:0:0:
256,192,133083,1,8,0:0:0:0:
256,192,133168,1,0,0:0:0:0:
256,192,133340,1,8,0:0:0:0:
256,192,133426,1,8,0:0:0:0:
256,192,133511,1,0,0:0:0:0:
256,192,133683,1,8,0:0:0:0:
256,192,133854,1,0,0:0:0:0:
256,192,134111,1,8,0:0:0:0:
256,192,134197,1,8,0:0:0:0:
256,192,134283,1,8,0:0:0:0:
256,192,134368,1,0,0:0:0:0:
256,192,134540,1,4,0:0:0:0:
256,192,134797,1,0,0:0:0:0:
256,192,134883,1,8,0:0:0:0:
256,192,135054,1,0,0:0:0:0:
256,192,135226,1,8,0:0:0:0:
256,192,135311,1,8,0:0:0:0:
256,192,135397,1,8,0:0:0:0:
256,192,135483,1,8,0:0:0:0:
256,192,135568,1,0,0:0:0:0:
256,192,135911,1,8,0:0:0:0:
256,192,135997,1,8,0:0:0:0:
256,192,136083,1,8,0:0:0:0:
256,192,136168,1,8,0:0:0:0:
256,192,136254,1,8,0:0:0:0:
256,192,136340,1,8,0:0:0:0:
256,192,136426,1,8,0:0:0:0:
256,192,136511,1,8,0:0:0:0:
256,192,136597,1,0,0:0:0:0:
256,192,136768,1,0,0:0:0:0:
256,192,136940,1,8,0:0:0:0:
256,192,137111,1,8,0:0:0:0:
256,192,137283,1,0,0:0:0:0:
256,192,137626,1,0,0:0:0:0:
256,192,137797,1,8,0:0:0:0:
256,192,137968,1,0,0:0:0:0:
256,192,138054,1,0,0:0:0:0:
256,192,138140,1,0,0:0:0:0:
256,192,138311,1,8,0:0:0:0:
256,192,138483,1,0,0:0:0:0:
256,192,138654,1,0,0:0:0:0:
256,192,138740,1,0,0:0:0:0:
256,192,138826,1,8,0:0:0:0:
256,192,138997,1,8,0:0:0:0:
256,192,139340,1,0,0:0:0:0:
256,192,139511,1,8,0:0:0:0:
256,192,139597,1,8,0:0:0:0:
256,192,139683,1,0,0:0:0:0:
256,192,139854,1,8,0:0:0:0:
256,192,140026,1,0,0:0:0:0:
256,192,140368,1,12,0:0:0:0:
256,192,140540,1,0,0:0:0:0:
256,192,140626,1,0,0:0:0:0:
256,192,140711,1,8,0:0:0:0:
256,192,140883,1,8,0:0:0:0:
256,192,141054,1,0,0:0:0:0:
256,192,141397,1,0,0:0:0:0:
256,192,141568,1,8,0:0:0:0:
256,192,141654,1,8,0:0:0:0:
256,192,141740,1,8,0:0:0:0:
256,192,141911,1,0,0:0:0:0:
256,192,142083,1,0,0:0:0:0:
256,192,142254,1,8,0:0:0:0:
256,192,142340,1,8,0:0:0:0:
256,192,142426,1,0,0:0:0:0:
256,192,142597,1,8,0:0:0:0:
256,192,142940,1,8,0:0:0:0:
256,192,143026,1,8,0:0:0:0:
256,192,143111,1,0,0:0:0:0:
256,192,143283,1,8,0:0:0:0:
256,192,143454,1,0,0:0:0:0:
256,192,143626,1,0,0:0:0:0:
256,192,143797,1,8,0:0:0:0:
256,192,143883,1,8,0:0:0:0:
256,192,143968,1,8,0:0:0:0:
256,192,144054,1,8,0:0:0:0:
256,192,144140,1,0,0:0:0:0:
256,192,144311,1,8,0:0:0:0:
256,192,144397,1,8,0:0:0:0:
256,192,144483,1,0,0:0:0:0:
256,192,144654,1,8,0:0:0:0:
256,192,144826,1,0,0:0:0:0:
256,192,145083,1,8,0:0:0:0:
256,192,145168,1,8,0:0:0:0:
256,192,145254,1,8,0:0:0:0:
256,192,145340,1,0,0:0:0:0:
256,192,145511,1,4,0:0:0:0:
