osu file format v14

[General]
AudioFilename: audio.mp3
AudioLeadIn: 0
PreviewTime: 54912
Countdown: 0
SampleSet: Normal
StackLeniency: 0.2
Mode: 1
LetterboxInBreaks: 0
WidescreenStoryboard: 1

[Editor]
DistanceSpacing: 0.4
BeatDivisor: 4
GridSize: 32
TimelineZoom: 1.5

[Metadata]
Title:EOS
TitleUnicode:EOS
Artist:ginkiha
ArtistUnicode:ginkiha
Creator:iceOC
Version:Chromoxx' Muzukashii
Source:osu!
Tags:shade of mythology bms fighters 2012 bof foe f.o.e. mappers guild featured artist fa uk hardcore english electronic video game chromoxx
BeatmapID:2413459
BeatmapSetID:725836

[Difficulty]
HPDrainRate:6
CircleSize:2
OverallDifficulty:5
ApproachRate:10
SliderMultiplier:1.4
SliderTickRate:1

[Events]
//Background and Video events
0,0,"BG.jpg",0,0
//Break Periods
2,77141,87462
//Storyboard Layer 0 (Background)
//Storyboard Layer 1 (Fail)
//Storyboard Layer 2 (Pass)
//Storyboard Layer 3 (Foreground)
//Storyboard Layer 4 (Overlay)
//Storyboard Sound Samples

[TimingPoints]
141,342.857142857143,4,1,0,100,1,0
54998,-100,4,1,0,100,0,1
76941,-100,4,1,0,100,0,0
77069,-105.263157894737,4,1,0,100,0,0
77241,-111.111111111111,4,1,0,100,0,0
77583,-117.647058823529,4,1,0,100,0,0
77841,-125,4,1,0,100,0,0
78098,-133.333333333333,4,1,0,100,0,0
87869,-100,4,1,0,100,0,0
100255,342.857142857143,4,1,0,100,1,8
100283,342.857142857143,4,1,0,100,1,0
101626,342.857142857143,4,1,0,100,1,0
123568,-100,4,1,0,100,0,1
145511,-100,4,1,0,100,0,0

[HitObjects]
307,196,141,5,0,0:0:0:0:
230,152,655,1,8,0:0:0:0:
230,152,1169,1,8,0:0:0:0:
219,97,1683,1,0,0:0:0:0:
219,97,1855,1,0,0:0:0:0:
219,97,2198,1,8,0:0:0:0:
303,159,2541,1,8,0:0:0:0:
303,159,2883,1,0,0:0:0:0:
251,178,3398,1,0,0:0:0:0:
251,178,3912,1,8,0:0:0:0:
304,167,4426,1,0,0:0:0:0:
304,167,4769,1,8,0:0:0:0:
304,167,4941,1,8,0:0:0:0:
304,167,5283,1,8,0:0:0:0:
210,133,5626,1,0,0:0:0:0:
210,133,6141,1,0,0:0:0:0:
210,133,6655,1,0,0:0:0:0:
210,133,7169,1,0,0:0:0:0:
186,178,7512,1,0,0:0:0:0:
186,178,7683,1,0,0:0:0:0:
273,192,7855,1,0,0:0:0:0:
349,230,8026,1,0,0:0:0:0:
387,196,8112,1,0,0:0:0:0:
298,292,8198,1,0,0:0:0:0:
266,211,8369,1,12,0:0:0:0:
226,154,8883,1,12,0:0:0:0:
218,142,9398,1,4,0:0:0:0:
367,219,9741,1,8,0:0:0:0:
367,219,9912,1,8,0:0:0:0:
367,219,10083,1,8,0:0:0:0:
255,146,10426,1,0,0:0:0:0:
255,146,10598,1,0,0:0:0:0:
121,110,10683,1,0,0:0:0:0:
255,146,10769,1,0,0:0:0:0:
228,191,10941,1,8,0:0:0:0:
144,181,11026,1,8,0:0:0:0:
228,191,11112,1,8,0:0:0:0:
350,230,11798,1,0,0:0:0:0:
138,207,11969,1,0,0:0:0:0:
366,135,12141,1,8,0:0:0:0:
366,135,12483,1,0,0:0:0:0:
366,135,12826,1,0,0:0:0:0:
345,137,13169,1,8,0:0:0:0:
42,163,13341,1,0,0:0:0:0:
255,141,13512,1,8,0:0:0:0:
208,226,13855,1,0,0:0:0:0:
409,260,14198,1,8,0:0:0:0:
343,250,14541,1,0,0:0:0:0:
338,258,14883,1,8,0:0:0:0:
409,202,15055,1,8,0:0:0:0:
182,215,15226,1,0,0:0:0:0:
162,187,15569,1,8,0:0:0:0:
162,187,15912,1,0,0:0:0:0:
162,187,16255,1,8,0:0:0:0:
297,282,16426,1,0,0:0:0:0:
162,187,16598,1,0,0:0:0:0:
287,139,17283,1,0,0:0:0:0:
287,139,17455,1,0,0:0:0:0:
287,139,17626,1,8,0:0:0:0:
189,154,17969,1,0,0:0:0:0:
189,154,18312,1,0,0:0:0:0:
189,154,18655,1,8,0:0:0:0:
189,154,18826,1,0,0:0:0:0:
189,154,18998,1,8,0:0:0:0:
189,154,19341,1,0,0:0:0:0:
332,232,19683,1,8,0:0:0:0:
316,258,20026,1,0,0:0:0:0:
316,258,20369,1,8,0:0:0:0:
316,258,20541,1,8,0:0:0:0:
316,258,20712,1,0,0:0:0:0:
231,170,21055,1,8,0:0:0:0:
231,170,21398,1,0,0:0:0:0:
231,170,21569,1,0,0:0:0:0:
352,184,21741,1,8,0:0:0:0:
352,184,21912,1,0,0:0:0:0:
352,184,22083,1,4,0:0:0:0:
335,100,22769,1,0,0:0:0:0:
216,181,22941,1,0,0:0:0:0:
216,181,23112,1,8,0:0:0:0:
216,181,23455,1,0,0:0:0:0:
295,219,23798,1,0,0:0:0:0:
295,219,24141,1,8,0:0:0:0:
295,219,24312,1,0,0:0:0:0:
295,219,24483,1,8,0:0:0:0:
295,219,24826,1,0,0:0:0:0:
204,214,25169,1,8,0:0:0:0:
220,171,25512,1,0,0:0:0:0:
220,171,25855,1,8,0:0:0:0:
284,155,26026,1,8,0:0:0:0:
284,155,26198,1,0,0:0:0:0:
284,155,26541,1,8,0:0:0:0:
284,155,26883,1,0,0:0:0:0:
272,209,27226,1,8,0:0:0:0:
272,209,27398,1,0,0:0:0:0:
272,209,27569,1,4,0:0:0:0:
272,209,27912,1,8,0:0:0:0:
387,207,28255,1,0,0:0:0:0:
387,207,28598,1,8,0:0:0:0:
387,207,28769,1,0,0:0:0:0:
387,207,28941,1,4,0:0:0:0:
387,207,29283,1,8,0:0:0:0:
387,207,29626,1,0,0:0:0:0:
387,207,29969,1,8,0:0:0:0:
290,141,30141,1,0,0:0:0:0:
290,141,30312,1,4,0:0:0:0:
248,200,30998,1,4,0:0:0:0:
308,196,31683,1,0,0:0:0:0:
307,197,32026,1,0,0:0:0:0:
307,197,32198,1,0,0:0:0:0:
237,246,32369,1,8,0:0:0:0:
237,246,32455,1,8,0:0:0:0:
139,166,32541,1,8,0:0:0:0:
139,166,32712,1,8,0:0:0:0:
141,143,32798,1,8,0:0:0:0:
139,166,32883,1,8,0:0:0:0:
141,143,33055,1,0,0:0:0:0:
353,294,33398,1,0,0:0:0:0:
267,146,33569,1,8,0:0:0:0:
267,146,33912,1,0,0:0:0:0:
267,146,34255,1,8,0:0:0:0:
143,165,34426,1,0,0:0:0:0:
267,146,35112,1,8,0:0:0:0:
255,291,35283,1,8,0:0:0:0:
182,233,35455,1,0,0:0:0:0:
181,232,35798,1,8,0:0:0:0:
199,203,36141,1,8,0:0:0:0:
199,203,36312,1,0,0:0:0:0:
356,226,36655,1,0,0:0:0:0:
267,228,36826,1,8,0:0:0:0:
257,260,36998,1,8,0:0:0:0:
228,171,37169,1,0,0:0:0:0:
240,266,37512,1,8,0:0:0:0:
296,233,37855,1,0,0:0:0:0:
296,233,38026,1,0,0:0:0:0:
139,120,38198,1,8,0:0:0:0:
373,151,38541,1,0,0:0:0:0:
221,283,38883,1,0,0:0:0:0:
221,283,39055,1,8,0:0:0:0:
320,134,39398,1,0,0:0:0:0:
205,270,39741,1,8,0:0:0:0:
205,270,39912,1,0,0:0:0:0:
290,152,40598,1,8,0:0:0:0:
335,254,40769,1,8,0:0:0:0:
145,133,40941,1,0,0:0:0:0:
335,254,41283,1,8,0:0:0:0:
181,186,41626,1,8,0:0:0:0:
181,186,41798,1,0,0:0:0:0:
239,259,42141,1,0,0:0:0:0:
239,259,42312,1,8,0:0:0:0:
196,257,42483,1,8,0:0:0:0:
274,229,42655,1,0,0:0:0:0:
324,156,42998,1,8,0:0:0:0:
324,156,43341,1,0,0:0:0:0:
165,152,43683,1,8,0:0:0:0:
165,152,43855,1,0,0:0:0:0:
165,152,44026,1,0,0:0:0:0:
210,216,44369,1,0,0:0:0:0:
210,216,44541,1,8,0:0:0:0:
210,216,44883,1,0,0:0:0:0:
210,216,45226,1,8,0:0:0:0:
210,216,45398,1,0,0:0:0:0:
251,213,46083,1,8,0:0:0:0:
269,230,46255,1,8,0:0:0:0:
154,202,46426,1,0,0:0:0:0:
154,202,46769,1,8,0:0:0:0:
202,150,47112,1,0,0:0:0:0:
202,150,47283,1,8,0:0:0:0:
330,223,47626,1,0,0:0:0:0:
312,114,47798,1,8,0:0:0:0:
312,114,47969,1,8,0:0:0:0:
312,114,48141,1,0,0:0:0:0:
274,201,48483,1,8,0:0:0:0:
212,170,48826,1,0,0:0:0:0:
287,251,49083,1,8,0:0:0:0:
287,251,49341,1,8,0:0:0:0:
287,251,49512,1,0,0:0:0:0:
383,200,49855,1,0,0:0:0:0:
383,200,50026,1,8,0:0:0:0:
169,150,50369,1,0,0:0:0:0:
169,150,50712,1,8,0:0:0:0:
151,117,50883,1,0,0:0:0:0:
151,117,51569,1,8,0:0:0:0:
315,208,51826,1,0,0:0:0:0:
315,208,52083,1,0,0:0:0:0:
183,123,52255,1,12,0:0:0:0:
335,183,52598,1,0,0:0:0:0:
335,183,52941,1,8,0:0:0:0:
335,183,53283,1,0,0:0:0:0:
203,174,53455,1,0,0:0:0:0:
203,174,53626,1,12,0:0:0:0:
199,131,53969,1,0,0:0:0:0:
199,131,54141,1,0,0:0:0:0:
295,208,54312,1,8,0:0:0:0:
175,167,54398,1,8,0:0:0:0:
295,208,54483,1,8,0:0:0:0:
299,226,54655,1,8,0:0:0:0:
299,226,54741,1,8,0:0:0:0:
158,188,54826,1,8,0:0:0:0:
168,180,54998,1,4,0:0:0:0:
310,211,55683,1,8,0:0:0:0:
96,165,56026,1,0,0:0:0:0:
197,187,56198,1,0,0:0:0:0:
444,163,56369,1,8,0:0:0:0:
406,170,56541,1,8,0:0:0:0:
305,157,56626,1,8,0:0:0:0:
305,157,56712,1,8,0:0:0:0:
269,159,56883,1,8,0:0:0:0:
269,159,56969,1,8,0:0:0:0:
269,159,57055,1,8,0:0:0:0:
269,159,57226,1,0,0:0:0:0:
269,159,57398,1,0,0:0:0:0:
287,237,57741,1,8,0:0:0:0:
224,248,57912,1,8,0:0:0:0:
147,168,58083,1,0,0:0:0:0:
147,168,58426,1,8,0:0:0:0:
203,190,59112,1,0,0:0:0:0:
203,190,59283,1,0,0:0:0:0:
203,190,59455,1,0,0:0:0:0:
225,201,59798,1,8,0:0:0:0:
344,157,59969,1,0,0:0:0:0:
344,157,60141,1,8,0:0:0:0:
344,157,60312,1,8,0:0:0:0:
344,157,60483,1,0,0:0:0:0:
326,168,60826,1,8,0:0:0:0:
224,145,61169,1,0,0:0:0:0:
231,226,61341,1,0,0:0:0:0:
231,226,61512,1,8,0:0:0:0:
270,213,61855,1,0,0:0:0:0:
368,257,62026,1,0,0:0:0:0:
308,232,62198,1,8,0:0:0:0:
308,232,62369,1,0,0:0:0:0:
162,120,62712,1,8,0:0:0:0:
308,232,63055,1,0,0:0:0:0:
176,172,63226,1,8,0:0:0:0:
271,152,63398,1,8,0:0:0:0:
271,152,63569,1,0,0:0:0:0:
353,264,63741,1,0,0:0:0:0:
271,152,63912,1,8,0:0:0:0:
92,101,64255,1,0,0:0:0:0:
256,174,64341,1,0,0:0:0:0:
255,163,64426,1,0,0:0:0:0:
92,101,64598,1,8,0:0:0:0:
140,134,65112,1,8,0:0:0:0:
140,134,65455,1,8,0:0:0:0:
207,172,65626,1,0,0:0:0:0:
207,172,65712,1,0,0:0:0:0:
136,177,65798,1,0,0:0:0:0:
278,257,65969,1,8,0:0:0:0:
313,192,66655,1,0,0:0:0:0:
263,245,66998,1,8,0:0:0:0:
263,245,67169,1,8,0:0:0:0:
235,134,67341,1,0,0:0:0:0:
171,119,67512,1,0,0:0:0:0:
91,119,67598,1,0,0:0:0:0:
171,119,67683,1,0,0:0:0:0:
91,119,67855,1,0,0:0:0:0:
91,119,67941,1,0,0:0:0:0:
107,91,68026,1,0,0:0:0:0:
107,92,68198,1,8,0:0:0:0:
107,92,68369,1,8,0:0:0:0:
290,236,68712,1,0,0:0:0:0:
259,242,68883,1,0,0:0:0:0:
290,236,69055,1,8,0:0:0:0:
290,236,69398,1,0,0:0:0:0:
290,236,70083,1,8,0:0:0:0:
290,236,70255,1,8,0:0:0:0:
290,236,70426,1,8,0:0:0:0:
253,227,70769,1,0,0:0:0:0:
253,227,70941,1,8,0:0:0:0:
253,227,71112,1,0,0:0:0:0:
253,227,71283,1,0,0:0:0:0:
253,227,71455,1,8,0:0:0:0:
249,269,71798,1,0,0:0:0:0:
249,269,72141,1,8,0:0:0:0:
163,190,72312,1,8,0:0:0:0:
163,190,72483,1,0,0:0:0:0:
189,156,72826,1,8,0:0:0:0:
323,312,72998,1,8,0:0:0:0:
189,156,73169,1,0,0:0:0:0:
189,156,73341,1,8,0:0:0:0:
189,156,73683,1,0,0:0:0:0:
267,162,74026,1,8,0:0:0:0:
267,162,74198,1,0,0:0:0:0:
267,162,74369,1,8,0:0:0:0:
183,161,74712,1,8,0:0:0:0:
183,161,74883,1,0,0:0:0:0:
170,181,75055,1,8,0:0:0:0:
197,224,75226,1,8,0:0:0:0:
205,230,75398,1,0,0:0:0:0:
205,230,75483,1,0,0:0:0:0:
118,192,75569,1,0,0:0:0:0:
118,192,76083,1,8,0:0:0:0:
335,159,76426,1,8,0:0:0:0:
245,138,76512,1,8,0:0:0:0:
335,159,76598,1,8,0:0:0:0:
224,146,76769,1,0,0:0:0:0:
224,146,76941,1,0,0:0:0:0:
201,123,87912,5,0,0:0:0:0:
278,122,88255,1,8,0:0:0:0:
278,122,88769,1,0,0:0:0:0:
278,122,89112,1,8,0:0:0:0:
278,122,89283,1,0,0:0:0:0:
238,170,89626,1,8,0:0:0:0:
238,170,89798,1,0,0:0:0:0:
185,211,90141,1,8,0:0:0:0:
258,244,90312,1,0,0:0:0:0:
364,235,90655,1,0,0:0:0:0:
364,235,90826,1,0,0:0:0:0:
364,235,90998,1,8,0:0:0:0:
281,138,91512,1,0,0:0:0:0:
281,138,91855,1,8,0:0:0:0:
281,138,92026,1,0,0:0:0:0:
281,138,92369,1,8,0:0:0:0:
281,138,92541,1,0,0:0:0:0:
199,179,92883,1,8,0:0:0:0:
199,179,93055,1,0,0:0:0:0:
199,179,93398,1,0,0:0:0:0:
199,179,93569,1,0,0:0:0:0:
119,192,93741,1,8,0:0:0:0:
350,162,94255,1,0,0:0:0:0:
350,162,94426,1,8,0:0:0:0:
291,230,94769,1,0,0:0:0:0:
291,230,94941,1,0,0:0:0:0:
291,230,95112,1,8,0:0:0:0:
291,230,95626,1,0,0:0:0:0:
291,230,95798,1,8,0:0:0:0:
257,139,96141,1,0,0:0:0:0:
257,139,96312,1,0,0:0:0:0:
257,139,96483,1,8,0:0:0:0:
257,139,96655,1,0,0:0:0:0:
257,139,96826,1,0,0:0:0:0:
233,206,96998,1,8,0:0:0:0:
233,206,97169,1,0,0:0:0:0:
123,162,97341,1,8,0:0:0:0:
353,154,97512,2,12,L|395:163,16,35
320,248,100283,1,8,0:0:0:0:
246,139,100454,1,0,0:0:0:0:
246,139,100540,1,0,0:0:0:0:
246,139,100625,1,0,0:0:0:0:
246,139,100797,1,8,0:0:0:0:
134,200,100940,1,8,0:0:0:0:
141,143,101625,1,0,0:0:0:0:
353,294,101968,1,0,0:0:0:0:
267,146,102140,1,8,0:0:0:0:
267,146,102483,1,0,0:0:0:0:
267,146,102826,1,8,0:0:0:0:
143,165,102997,1,0,0:0:0:0:
267,146,103683,1,8,0:0:0:0:
255,291,103854,1,8,0:0:0:0:
182,233,104026,1,0,0:0:0:0:
181,232,104368,1,8,0:0:0:0:
199,203,104711,1,8,0:0:0:0:
199,203,104883,1,0,0:0:0:0:
356,226,105226,1,0,0:0:0:0:
267,228,105397,1,8,0:0:0:0:
257,260,105568,1,8,0:0:0:0:
228,171,105740,1,0,0:0:0:0:
240,266,106083,1,8,0:0:0:0:
296,233,106426,1,0,0:0:0:0:
296,233,106597,1,0,0:0:0:0:
139,120,106768,1,8,0:0:0:0:
373,151,107111,1,0,0:0:0:0:
221,283,107454,1,0,0:0:0:0:
221,283,107626,1,8,0:0:0:0:
320,134,107968,1,0,0:0:0:0:
205,270,108311,1,8,0:0:0:0:
205,270,108483,1,0,0:0:0:0:
290,152,109168,1,8,0:0:0:0:
335,254,109340,1,8,0:0:0:0:
145,133,109511,1,0,0:0:0:0:
335,254,109854,1,8,0:0:0:0:
181,186,110197,1,8,0:0:0:0:
181,186,110368,1,0,0:0:0:0:
239,259,110711,1,0,0:0:0:0:
239,259,110883,1,8,0:0:0:0:
196,257,111054,1,8,0:0:0:0:
274,229,111226,1,0,0:0:0:0:
324,156,111568,1,8,0:0:0:0:
324,156,111911,1,0,0:0:0:0:
165,152,112254,1,8,0:0:0:0:
165,152,112426,1,0,0:0:0:0:
165,152,112597,1,0,0:0:0:0:
210,216,112940,1,0,0:0:0:0:
210,216,113111,1,8,0:0:0:0:
210,216,113454,1,0,0:0:0:0:
210,216,113797,1,8,0:0:0:0:
210,216,113968,1,0,0:0:0:0:
251,213,114654,1,8,0:0:0:0:
269,230,114826,1,8,0:0:0:0:
154,202,114997,1,0,0:0:0:0:
154,202,115340,1,8,0:0:0:0:
202,150,115683,1,0,0:0:0:0:
202,150,115854,1,8,0:0:0:0:
330,223,116197,1,0,0:0:0:0:
312,114,116368,1,8,0:0:0:0:
312,114,116540,1,8,0:0:0:0:
312,114,116711,1,0,0:0:0:0:
274,201,117054,1,8,0:0:0:0:
159,227,117397,1,0,0:0:0:0:
159,227,117568,1,0,0:0:0:0:
159,227,117740,1,8,0:0:0:0:
159,227,118083,1,0,0:0:0:0:
256,255,118426,1,0,0:0:0:0:
256,255,118597,1,8,0:0:0:0:
256,255,118940,1,0,0:0:0:0:
256,255,119283,1,8,0:0:0:0:
256,255,119454,1,0,0:0:0:0:
238,176,120140,1,8,0:0:0:0:
238,176,120311,1,0,0:0:0:0:
238,176,120483,1,8,0:0:0:0:
192,183,120826,1,4,0:0:0:0:
226,226,121168,1,8,0:0:0:0:
226,226,121340,1,0,0:0:0:0:
226,226,121511,1,0,0:0:0:0:
317,204,121854,1,8,0:0:0:0:
317,204,122026,1,8,0:0:0:0:
317,204,122197,1,4,0:0:0:0:
285,250,122540,1,0,0:0:0:0:
317,204,122711,1,0,0:0:0:0:
189,155,122883,1,8,0:0:0:0:
251,196,122968,1,8,0:0:0:0:
241,109,123054,1,8,0:0:0:0:
241,109,123226,1,8,0:0:0:0:
317,204,123311,1,8,0:0:0:0:
251,196,123397,1,8,0:0:0:0:
251,196,123568,1,4,0:0:0:0:
310,210,124254,1,8,0:0:0:0:
96,164,124597,1,0,0:0:0:0:
197,186,124768,1,0,0:0:0:0:
444,162,124940,1,8,0:0:0:0:
406,169,125111,1,8,0:0:0:0:
305,156,125197,1,8,0:0:0:0:
305,156,125283,1,8,0:0:0:0:
269,158,125454,1,8,0:0:0:0:
269,158,125540,1,8,0:0:0:0:
269,158,125626,1,8,0:0:0:0:
269,158,125797,1,0,0:0:0:0:
269,158,125968,1,0,0:0:0:0:
287,236,126311,1,8,0:0:0:0:
331,279,126483,1,8,0:0:0:0:
147,167,126654,1,0,0:0:0:0:
147,167,126997,1,8,0:0:0:0:
203,189,127683,1,0,0:0:0:0:
203,189,127854,1,0,0:0:0:0:
203,189,128026,1,0,0:0:0:0:
225,200,128368,1,8,0:0:0:0:
344,156,128540,1,0,0:0:0:0:
344,156,128711,1,8,0:0:0:0:
344,156,128883,1,8,0:0:0:0:
344,156,129054,1,0,0:0:0:0:
326,167,129397,1,8,0:0:0:0:
224,144,129740,1,0,0:0:0:0:
231,225,129911,1,0,0:0:0:0:
231,225,130083,1,8,0:0:0:0:
270,212,130426,1,0,0:0:0:0:
331,279,130597,1,0,0:0:0:0:
308,231,130768,1,8,0:0:0:0:
308,231,130940,1,0,0:0:0:0:
162,119,131283,1,8,0:0:0:0:
308,231,131626,1,0,0:0:0:0:
176,171,131797,1,8,0:0:0:0:
271,151,131968,1,8,0:0:0:0:
271,151,132140,1,0,0:0:0:0:
255,232,132311,1,0,0:0:0:0:
271,151,132483,1,8,0:0:0:0:
92,100,132826,1,0,0:0:0:0:
256,173,132911,1,0,0:0:0:0:
255,162,132997,1,0,0:0:0:0:
92,100,133168,1,8,0:0:0:0:
140,133,133683,1,8,0:0:0:0:
140,133,134026,1,8,0:0:0:0:
207,171,134197,1,0,0:0:0:0:
207,171,134283,1,0,0:0:0:0:
136,176,134368,1,0,0:0:0:0:
278,256,134540,1,8,0:0:0:0:
313,191,135226,1,0,0:0:0:0:
263,244,135568,1,8,0:0:0:0:
263,244,135740,1,8,0:0:0:0:
235,133,135911,1,0,0:0:0:0:
171,118,136083,1,0,0:0:0:0:
91,118,136168,1,0,0:0:0:0:
171,118,136254,1,0,0:0:0:0:
91,118,136426,1,0,0:0:0:0:
91,118,136511,1,0,0:0:0:0:
107,90,136597,1,0,0:0:0:0:
107,91,136768,1,8,0:0:0:0:
107,91,136940,1,8,0:0:0:0:
290,235,137283,1,0,0:0:0:0:
243,258,137454,1,0,0:0:0:0:
290,235,137626,1,8,0:0:0:0:
290,235,137968,1,0,0:0:0:0:
290,235,138654,1,8,0:0:0:0:
290,235,138826,1,8,0:0:0:0:
290,235,138997,1,8,0:0:0:0:
253,226,139340,1,0,0:0:0:0:
253,226,139511,1,8,0:0:0:0:
253,226,139683,1,0,0:0:0:0:
253,226,139854,1,0,0:0:0:0:
253,226,140026,1,8,0:0:0:0:
249,268,140368,1,0,0:0:0:0:
249,268,140711,1,8,0:0:0:0:
163,189,140883,1,8,0:0:0:0:
163,189,141054,1,0,0:0:0:0:
189,155,141397,1,8,0:0:0:0:
287,230,141568,1,8,0:0:0:0:
189,155,141740,1,0,0:0:0:0:
189,155,141911,1,8,0:0:0:0:
189,155,142254,1,0,0:0:0:0:
267,161,142597,1,8,0:0:0:0:
267,161,142768,1,0,0:0:0:0:
267,161,142940,1,8,0:0:0:0:
183,160,143283,1,8,0:0:0:0:
183,160,143454,1,0,0:0:0:0:
170,180,143626,1,8,0:0:0:0:
197,223,143797,1,8,0:0:0:0:
205,229,143968,1,0,0:0:0:0:
205,229,144054,1,0,0:0:0:0:
118,191,144140,1,0,0:0:0:0:
118,191,144654,1,8,0:0:0:0:
335,158,144997,1,8,0:0:0:0:
245,137,145083,1,8,0:0:0:0:
335,158,145168,1,8,0:0:0:0:
224,145,145340,1,0,0:0:0:0:
224,145,145511,1,4,0:0:0:0:
